<?xml version="1.0" standalone="no"?>
<!DOCTYPE svg PUBLIC "-//W3C//DTD SVG 1.1//EN" "http://www.w3.org/Graphics/SVG/1.1/DTD/svg11.dtd" >
<svg xmlns="http://www.w3.org/2000/svg" xmlns:xlink="http://www.w3.org/1999/xlink" version="1.1">
<metadata>
Created by FontForge 20170731 at Fri Sep 17 22:21:35 2021
 By Aleksey,,,
Copyright (c) 2004-9 by Kris Sowersby. All rights reserved.
</metadata>
<defs>
<font id="National-ThinItalic" horiz-adv-x="940" >
  <font-face 
    font-family="National Thin Italic"
    font-weight="450"
    font-style="italic"
    font-stretch="normal"
    units-per-em="2048"
    panose-1="0 0 0 0 0 0 0 0 0 0"
    ascent="1638"
    descent="-410"
    x-height="946"
    cap-height="1206"
    bbox="-270 -526 2435 1825"
    underline-thickness="116"
    underline-position="-173"
    unicode-range="U+0020-F778"
  />
<missing-glyph horiz-adv-x="1546" 
d="M170 0v1206h1206v-1206h-1206zM772 541l-453 -453h908zM319 1118l453 -454l455 454h-908zM834 602l454 -452v907zM711 602l-453 455v-907z" />
    <glyph glyph-name="f_b" unicode="fb" horiz-adv-x="1507" 
d="M575 0l218 1247q-28 44 -83 70t-120 26q-101 0 -168.5 -57t-93.5 -196l-27 -144h240l-6 -37h-240l-195 -1122q-17 -103 -58.5 -161t-127.5 -58q-93 0 -139 61l20 33q51 -57 119 -57q65 0 97.5 46.5t47.5 135.5l195 1122h-143l8 37h141l29 152q51 284 301 284
q134 0 211 -90l30 76h23l-121 -692q32 116 133 199t232 83q150 0 234.5 -96t84.5 -282q0 -167 -55.5 -301.5t-160 -212.5t-238.5 -78q-126 0 -209.5 74.5t-94.5 187.5l-51 -250h-33zM709 530l-23 -129q-18 -100 7 -184t95 -137t175 -53q124 0 219 74.5t144.5 199.5t49.5 279
q0 162 -73 251t-205 89q-142 0 -251 -110t-138 -280z" />
    <glyph glyph-name="f_f_b" unicode="ffb" horiz-adv-x="1986" 
d="M1055 0l217 1247q-28 44 -83 70t-120 26q-101 0 -168.5 -57t-93.5 -196l-27 -144h240l-6 -37h-240l-190 -1095q-17 -103 -59 -161.5t-128 -58.5q-92 0 -139 62l21 33q52 -58 118 -58q65 0 98 47t48 136l190 1095h-438l-195 -1122q-17 -103 -58.5 -161t-127.5 -58
q-93 0 -139 61l20 33q51 -57 119 -57q65 0 97.5 46.5t47.5 135.5l195 1122h-143l8 37h141l27 139q29 153 91.5 213t160.5 60q59 0 103.5 -22.5t66.5 -61.5l-31 -25q-42 70 -139 70q-37 0 -66 -9t-58 -33t-51.5 -72t-35.5 -120l-27 -139h438l29 152q51 284 301 284
q134 0 211 -90l31 76h22l-121 -692q32 116 133 199t232 83q150 0 234.5 -96t84.5 -282q0 -167 -55.5 -301.5t-160 -212.5t-238.5 -78q-126 0 -209 74.5t-94 187.5l-52 -250h-32zM1188 530l-23 -129q-18 -100 7 -184t95 -137t175 -53q124 0 219 74.5t144.5 199.5t49.5 279
q0 162 -73 251t-205 89q-142 0 -251 -110t-138 -280z" />
    <glyph glyph-name="f_f_h" unicode="ffh" horiz-adv-x="1939" 
d="M1055 0l217 1247q-28 44 -83 70t-120 26q-101 0 -168.5 -57t-93.5 -196l-27 -144h240l-6 -37h-240l-190 -1095q-17 -103 -59 -161.5t-128 -58.5q-92 0 -139 62l21 33q52 -58 118 -58q65 0 98 47t48 136l190 1095h-438l-195 -1122q-17 -103 -58.5 -161t-127.5 -58
q-93 0 -139 61l20 33q51 -57 119 -57q65 0 97.5 46.5t47.5 135.5l195 1122h-143l8 37h141l27 139q29 153 91.5 213t160.5 60q59 0 103.5 -22.5t66.5 -61.5l-31 -25q-42 70 -139 70q-37 0 -66 -9t-58 -33t-51.5 -72t-35.5 -120l-27 -139h438l29 152q51 284 301 284
q134 0 211 -90l31 76h22l-119 -680q40 114 135.5 192t223.5 78q110 0 173.5 -57.5t63.5 -165.5q0 -51 -16 -141l-76 -438q-8 -54 -8 -70q0 -61 57 -61q33 0 68 22l-8 -41q-29 -18 -64 -18q-48 0 -71 26.5t-23 71.5q0 19 6 57l78 451q16 94 16 141q0 85 -50.5 135t-145.5 50
q-139 0 -248 -110t-139 -288l-90 -522h-41z" />
    <glyph glyph-name="f_f_j" unicode="ffj" horiz-adv-x="1376" 
d="M1212 909h-438l-190 -1095q-17 -103 -59 -161.5t-128 -58.5q-92 0 -139 62l21 33q52 -58 118 -58q65 0 98 47t48 136l190 1095h-438l-195 -1122q-17 -103 -58.5 -161t-127.5 -58q-93 0 -139 61l20 33q51 -57 119 -57q65 0 97.5 46.5t47.5 135.5l195 1122h-143l8 37h141
l27 139q29 153 91.5 213t160.5 60q59 0 103.5 -22.5t66.5 -61.5l-31 -25q-42 70 -139 70q-37 0 -66 -9t-58 -33t-51.5 -72t-35.5 -120l-27 -139h438l29 152q51 284 279 284q144 0 192 -114l-31 -25q-48 100 -161 100q-93 0 -153.5 -56.5t-86.5 -196.5l-27 -144h480
l-203 -1134q-17 -103 -59 -161.5t-128 -58.5q-92 0 -139 62l21 35q52 -58 118 -58q65 0 98 46t48 135z" />
    <glyph glyph-name="f_f_k" unicode="ffk" horiz-adv-x="1826" 
d="M1055 0l217 1247q-28 44 -83 70t-120 26q-101 0 -168.5 -57t-93.5 -196l-27 -144h240l-6 -37h-240l-190 -1095q-17 -103 -59 -161.5t-128 -58.5q-92 0 -139 62l21 33q52 -58 118 -58q65 0 98 47t48 136l190 1095h-438l-195 -1122q-17 -103 -58.5 -161t-127.5 -58
q-93 0 -139 61l20 33q51 -57 119 -57q65 0 97.5 46.5t47.5 135.5l195 1122h-143l8 37h141l27 139q29 153 91.5 213t160.5 60q59 0 103.5 -22.5t66.5 -61.5l-31 -25q-42 70 -139 70q-37 0 -66 -9t-58 -33t-51.5 -72t-35.5 -120l-27 -139h438l29 152q51 284 301 284
q134 0 211 -90l31 76h22l-147 -852h127l430 430h53l-457 -454l217 -357q20 -31 29 -44t25 -31.5t30.5 -25.5t32.5 -7q33 0 68 22l-8 -43q-29 -18 -64 -18q-25 0 -44 8t-38.5 30t-31 39t-35.5 56l-217 356h-125l-82 -477h-41z" />
    <glyph glyph-name="f_h" unicode="fh" horiz-adv-x="1460" 
d="M575 0l218 1247q-28 44 -83 70t-120 26q-101 0 -168.5 -57t-93.5 -196l-27 -144h240l-6 -37h-240l-195 -1122q-17 -103 -58.5 -161t-127.5 -58q-93 0 -139 61l20 33q51 -57 119 -57q65 0 97.5 46.5t47.5 135.5l195 1122h-143l8 37h141l29 152q51 284 301 284
q134 0 211 -90l30 76h23l-119 -680q40 114 135.5 192t223.5 78q110 0 173.5 -57.5t63.5 -165.5q0 -51 -16 -141l-76 -438q-8 -54 -8 -70q0 -61 57 -61q33 0 68 22l-8 -41q-29 -18 -64 -18q-48 0 -71 26.5t-23 71.5q0 19 6 57l78 451q16 94 16 141q0 85 -50.5 135t-145.5 50
q-139 0 -248 -110t-139 -288l-91 -522h-41z" />
    <glyph glyph-name="f_j" unicode="fj" horiz-adv-x="897" 
d="M733 909h-438l-195 -1122q-17 -103 -58.5 -161t-127.5 -58q-93 0 -139 61l20 33q51 -57 119 -57q65 0 97.5 46.5t47.5 135.5l195 1122h-143l8 37h141l29 152q51 284 278 284q145 0 193 -114l-31 -25q-48 100 -162 100q-93 0 -153 -56.5t-86 -196.5l-27 -144h479
l-202 -1134q-17 -103 -59 -161.5t-128 -58.5q-92 0 -139 62l20 35q52 -58 119 -58q65 0 98 46t48 135z" />
    <glyph glyph-name="f_k" unicode="fk" horiz-adv-x="1347" 
d="M575 0l218 1247q-28 44 -83 70t-120 26q-101 0 -168.5 -57t-93.5 -196l-27 -144h240l-6 -37h-240l-195 -1122q-17 -103 -58.5 -161t-127.5 -58q-93 0 -139 61l20 33q51 -57 119 -57q65 0 97.5 46.5t47.5 135.5l195 1122h-143l8 37h141l29 152q51 284 301 284
q134 0 211 -90l30 76h23l-147 -852h127l430 430h53l-457 -454l217 -357q20 -31 29 -44t25 -31.5t30.5 -25.5t32.5 -7q33 0 68 22l-9 -43q-29 -18 -63 -18q-25 0 -44.5 8t-38.5 29.5t-31.5 39.5t-35.5 56l-217 356h-125l-82 -477h-41z" />
    <glyph glyph-name="ff" unicode="ff" horiz-adv-x="966" 
d="M543 -186l190 1095h-438l-195 -1122q-17 -103 -58.5 -161t-127.5 -58q-93 0 -139 61l20 33q51 -57 119 -57q65 0 97.5 46.5t47.5 135.5l195 1122h-143l8 37h141l27 139q29 153 91.5 213t160.5 60q59 0 103.5 -22.5t66.5 -61.5l-31 -25q-42 70 -139 70q-37 0 -66 -9
t-58 -33t-51.5 -72t-35.5 -120l-27 -139h438l31 164q29 153 91.5 212.5t160.5 59.5q59 0 103.5 -22.5t66.5 -61.5l-31 -24q-41 69 -139 69q-37 0 -65.5 -9t-58 -32.5t-52 -71.5t-35.5 -120l-31 -164h240l-6 -37h-240l-190 -1095q-17 -103 -59 -161.5t-128 -58.5
q-92 0 -139 62l21 33q52 -58 118 -58q65 0 98 47t48 136z" />
    <glyph glyph-name="ffi" unicode="ffi" horiz-adv-x="1355" 
d="M774 909l-190 -1095q-17 -103 -59 -161.5t-128 -58.5q-92 0 -139 62l21 33q52 -58 118 -58q65 0 98 47t48 136l190 1095h-438l-195 -1122q-17 -103 -58.5 -161t-127.5 -58q-93 0 -139 61l20 33q51 -57 119 -57q65 0 97.5 46.5t47.5 135.5l195 1122h-143l8 37h141l27 139
q29 153 91.5 213t160.5 60q59 0 103.5 -22.5t66.5 -61.5l-31 -25q-42 70 -139 70q-37 0 -66 -9t-58 -33t-51.5 -72t-35.5 -120l-27 -139h438l29 152q51 284 279 284q144 0 192 -114l-31 -25q-48 100 -161 100q-93 0 -153.5 -56.5t-86.5 -196.5l-27 -144h480l-138 -790
q-8 -54 -8 -70q0 -61 57 -61q33 0 68 22l-8 -41q-29 -18 -64 -18q-48 0 -71 26.5t-23 71.5q0 19 6 57l133 766h-438z" />
    <glyph glyph-name="ffl" unicode="ffl" horiz-adv-x="1355" 
d="M739 946l29 152q51 284 301 284q134 0 211 -90l31 76h22l-211 -1212q-8 -54 -8 -70q0 -61 57 -61q33 0 68 22l-8 -41q-29 -18 -64 -18q-48 0 -71 26.5t-23 71.5q0 19 6 57l193 1104q-28 44 -83 70t-120 26q-101 0 -168.5 -57t-93.5 -196l-27 -144h240l-6 -37h-240
l-190 -1095q-17 -103 -59 -161.5t-128 -58.5q-92 0 -139 62l21 33q52 -58 118 -58q65 0 98 47t48 136l190 1095h-438l-195 -1122q-17 -103 -58.5 -161t-127.5 -58q-93 0 -139 61l20 33q51 -57 119 -57q65 0 97.5 46.5t47.5 135.5l195 1122h-143l8 37h141l27 139
q29 153 91.5 213t160.5 60q59 0 103.5 -22.5t66.5 -61.5l-31 -25q-42 70 -139 70q-37 0 -66 -9t-58 -33t-51.5 -72t-35.5 -120l-27 -139h438z" />
    <glyph glyph-name="fi" unicode="fi" horiz-adv-x="876" 
d="M780 946l-137 -790q-8 -54 -8 -70q0 -61 57 -61q33 0 68 22l-8 -41q-29 -18 -64 -18q-48 0 -71 26.5t-23 71.5q0 19 6 57l133 766h-438l-195 -1122q-17 -103 -58.5 -161t-127.5 -58q-93 0 -139 61l20 33q51 -57 119 -57q65 0 97.5 46.5t47.5 135.5l195 1122h-143l8 37
h141l29 152q51 284 278 284q145 0 193 -114l-31 -25q-48 100 -162 100q-93 0 -153 -56.5t-86 -196.5l-27 -144h479z" />
    <glyph glyph-name="fl" unicode="fl" horiz-adv-x="876" 
d="M854 1368l-211 -1212q-8 -54 -8 -70q0 -61 57 -61q33 0 68 22l-8 -41q-29 -18 -64 -18q-48 0 -71 26.5t-23 71.5q0 19 6 57l193 1104q-28 44 -83 70t-120 26q-101 0 -168.5 -57t-93.5 -196l-27 -144h240l-6 -37h-240l-195 -1122q-17 -103 -58.5 -161t-127.5 -58
q-93 0 -139 61l20 33q51 -57 119 -57q65 0 97.5 46.5t47.5 135.5l195 1122h-143l8 37h141l29 152q51 284 301 284q134 0 211 -90l30 76h23z" />
    <glyph glyph-name=".notdef" horiz-adv-x="1546" 
d="M170 0v1206h1206v-1206h-1206zM772 541l-453 -453h908zM319 1118l453 -454l455 454h-908zM834 602l454 -452v907zM711 602l-453 455v-907z" />
    <glyph glyph-name=".null" horiz-adv-x="0" 
 />
    <glyph glyph-name="nonmarkingreturn" horiz-adv-x="682" 
 />
    <glyph glyph-name="space" unicode=" " horiz-adv-x="389" 
 />
    <glyph glyph-name="exclam" unicode="!" horiz-adv-x="462" 
d="M336 1206h49l-160 -866h-32zM119 37q0 37 37 37t37 -37t-37 -37t-37 37z" />
    <glyph glyph-name="quotedbl" unicode="&#x22;" horiz-adv-x="499" 
d="M209 844l92 524h49l-110 -524h-31zM373 844l92 524h49l-111 -524h-30z" />
    <glyph glyph-name="numbersign" unicode="#" horiz-adv-x="1267" 
d="M1102 344h-346l-162 -344h-45l162 344h-301l-162 -344h-45l162 344h-293l6 39h305l127 268h-342l6 39h354l142 295h45l-142 -295h301l142 295h45l-141 -295h284l-6 -39h-297l-127 -268h334zM555 651l-127 -268h301l127 268h-301z" />
    <glyph glyph-name="dollar" unicode="$" horiz-adv-x="911" 
d="M90 274l39 9q1 -117 65.5 -180t167.5 -76l80 462q-128 46 -183.5 100.5t-55.5 155.5q0 116 81.5 184t219.5 68q4 0 12 -1t12 -1l33 181h41l-33 -183q113 -15 170.5 -81t57.5 -175l-37 -4q-3 197 -197 221l-76 -438q124 -47 185 -108.5t61 -159.5q0 -126 -82.5 -193
t-230.5 -67q-4 0 -12.5 1t-12.5 1l-35 -207h-41l37 209q-123 14 -194.5 86.5t-71.5 195.5zM692 248q0 79 -54.5 133.5t-156.5 93.5l-80 -450h19q129 0 200.5 55.5t71.5 167.5zM244 745q0 -83 47.5 -129.5t157.5 -85.5l73 428h-18q-117 0 -188.5 -56t-71.5 -157z" />
    <glyph glyph-name="percent" unicode="%" horiz-adv-x="1591" 
d="M334 510q70 0 126 39t89.5 101t51 132t17.5 138q0 114 -48.5 187t-147.5 73q-56 0 -104 -26t-80.5 -68t-56 -96.5t-34 -110t-10.5 -109.5q0 -114 49 -187t148 -73zM424 1217q117 0 176 -83t59 -214q0 -78 -20.5 -155t-59 -143.5t-103 -107.5t-144.5 -41q-117 0 -176.5 83
t-59.5 214q0 78 20.5 155t59.5 143.5t103.5 107.5t144.5 41zM1264 696q-70 0 -126.5 -39t-90 -100.5t-51 -131.5t-17.5 -138q0 -114 49 -187t148 -73q70 0 126 39t89.5 101t51 131.5t17.5 137.5q0 114 -48.5 187t-147.5 73zM1174 -10q-117 0 -176.5 83t-59.5 214
q0 78 20.5 155t59.5 143t103.5 107t144.5 41q117 0 176 -83t59 -214q0 -78 -20.5 -155t-59 -143t-103 -107t-144.5 -41zM1241 1206l-840 -1206h-45l840 1206h45z" />
    <glyph glyph-name="ampersand" unicode="&#x26;" horiz-adv-x="1130" 
d="M846 985q0 -58 -18 -105t-44.5 -80t-77 -66t-94 -54.5t-116.5 -52.5l317 -391q122 142 176 352l39 -8q-58 -225 -190 -375l157 -193l-30 -24l-154 186q-176 -186 -420 -186q-151 0 -235 76t-84 202q0 63 20 115.5t49.5 89t80 70t96 55t112.5 47.5l-51 64q-94 116 -94 231
q0 132 83 206.5t214 74.5q118 0 191 -65t73 -169zM391 29q227 0 395 176l-329 407q-50 -21 -81.5 -35t-71.5 -35t-64 -39t-50.5 -43.5t-40.5 -53t-23 -63.5t-9 -77q0 -106 72.5 -171.5t201.5 -65.5zM328 938q0 -47 15 -89t30.5 -64.5t50.5 -67.5l47 -60q67 27 109.5 47
t89.5 50t73 60.5t43 74t17 96.5q0 89 -63.5 141t-157.5 52q-114 0 -184 -63t-70 -177z" />
    <glyph glyph-name="quotesingle" unicode="'" horiz-adv-x="335" 
d="M209 844l92 524h49l-110 -524h-31z" />
    <glyph glyph-name="parenleft" unicode="(" horiz-adv-x="643" 
d="M141 238q0 174 36.5 330.5t108 295.5t163 259t215.5 245h51q-130 -134 -222 -254.5t-165.5 -259t-109.5 -292t-36 -324.5q0 -180 54.5 -331t166.5 -321h-47q-101 151 -158 308.5t-57 343.5z" />
    <glyph glyph-name="parenright" unicode=")" horiz-adv-x="643" 
d="M494 717q0 -174 -36.5 -331t-108 -295.5t-163 -259t-215.5 -245.5h-51q130 134 222 255t165.5 259.5t109.5 292t36 324.5q0 180 -54.5 330t-167.5 321h48q102 -151 158.5 -308t56.5 -343z" />
    <glyph glyph-name="asterisk" unicode="*" horiz-adv-x="663" 
d="M385 938l-182 -139l-27 37l193 131l-195 131l27 37l184 -142l68 224l43 -15l-78 -219l231 6v-45l-233 6l80 -219l-43 -14z" />
    <glyph glyph-name="plus" unicode="+" horiz-adv-x="1015" 
d="M102 528h394l67 383h41l-67 -383h401l-8 -41h-402l-71 -411h-41l71 411h-393z" />
    <glyph glyph-name="comma" unicode="," horiz-adv-x="409" 
d="M184 -6q0 -69 -56 -109.5t-138 -40.5v31q65 0 112.5 30t47.5 85q0 13 -7 24q-11 -14 -28 -14t-27 10t-10 25q0 18 11.5 28.5t31.5 10.5q28 0 45.5 -21t17.5 -59z" />
    <glyph glyph-name="hyphen" unicode="-" horiz-adv-x="784" 
d="M154 549l6 41h458l-6 -41h-458z" />
    <glyph glyph-name="period" unicode="." horiz-adv-x="409" 
d="M90 37q0 37 37 37t37 -37t-37 -37t-37 37z" />
    <glyph glyph-name="slash" unicode="/" horiz-adv-x="759" 
d="M-113 -416l873 1786h47l-875 -1786h-45z" />
    <glyph glyph-name="zero" unicode="0" horiz-adv-x="1099" 
d="M504 29q141 0 247 70t160 189t54 269q0 114 -39.5 202.5t-124.5 142.5t-205 54q-141 0 -247 -70t-160 -189t-54 -269q0 -114 39.5 -202.5t124.5 -142.5t205 -54zM504 -12q-196 0 -304 122.5t-108 317.5q0 162 61.5 291t177 203.5t265.5 74.5q196 0 304 -122.5t108 -317.5
q0 -162 -61.5 -291t-177 -203.5t-265.5 -74.5z" />
    <glyph glyph-name="one" unicode="1" horiz-adv-x="598" 
d="M274 0h-43l164 940l-303 -80l8 41l349 96z" />
    <glyph glyph-name="two" unicode="2" horiz-adv-x="882" 
d="M711 41l-6 -41h-740l6 41q119 41 225.5 91t203.5 113.5t167.5 132t112 150.5t41.5 166q0 129 -72 195.5t-196 66.5q-261 0 -289 -313l-39 10q12 169 100.5 256.5t227.5 87.5q143 0 227 -77t84 -226q0 -88 -44 -175.5t-116 -159t-164.5 -134.5t-188 -107.5t-188.5 -72.5
v-4h648z" />
    <glyph glyph-name="three" unicode="3" horiz-adv-x="882" 
d="M408 377v-4q129 -8 218 -88.5t89 -208.5q0 -167 -109 -263t-280 -96q-71 0 -132 15t-115 47t-87 90t-37 137l39 8q22 -256 332 -256q155 0 250.5 82.5t95.5 235.5q0 127 -105 203.5t-301 76.5l6 41q77 0 142.5 8.5t128 30t106 56t70 89.5t26.5 126q0 107 -69 178t-199 71
q-128 0 -202 -63.5t-95 -202.5l-37 10q41 297 334 297q146 0 228.5 -81t82.5 -209q0 -79 -31 -141.5t-84.5 -102t-120.5 -61.5t-144 -25z" />
    <glyph glyph-name="four" unicode="4" horiz-adv-x="989" 
d="M565 -268l68 379h-653l6 39l802 835h39l-143 -833h201l-8 -41h-201l-68 -379h-43zM168 152h473l111 645q6 36 13.5 69.5t12.5 48.5l4 15h-4q-41 -54 -129 -146l-469 -489q-43 -44 -79 -80t-51 -49l-15 -14v-5q70 5 133 5z" />
    <glyph glyph-name="five" unicode="5" horiz-adv-x="886" 
d="M117 317l147 668h572l-7 -41h-530l-129 -575q84 118 252 118q153 0 244.5 -97.5t91.5 -256.5q0 -135 -56.5 -231t-147.5 -140.5t-206 -44.5q-159 0 -257 75t-107 214l39 8q13 -131 98.5 -193.5t226.5 -62.5q163 0 265 96t102 279q0 137 -79 225t-214 88
q-92 0 -153.5 -32.5t-116.5 -96.5h-35z" />
    <glyph glyph-name="six" unicode="6" horiz-adv-x="968" 
d="M942 961l-39 -13q-36 230 -270 230q-190 0 -318.5 -183t-171.5 -518h4q27 140 125.5 218.5t239.5 78.5q166 0 266.5 -98t100.5 -256q0 -117 -46 -213.5t-141 -157.5t-223 -61q-170 0 -268.5 102.5t-98.5 294.5q0 78 12.5 165t37 182.5t68 181t100 154.5t137.5 110t176 41
q137 0 215.5 -67t93.5 -191zM467 29q163 0 266 109t103 282q0 133 -87.5 223t-236.5 90q-160 0 -261 -109.5t-101 -273.5q0 -139 84 -230t233 -91z" />
    <glyph glyph-name="seven" unicode="7" horiz-adv-x="862" 
d="M799 944h-674l-37 -207h-41l43 248h760l-6 -41l-678 -1212h-47z" />
    <glyph glyph-name="eight" unicode="8" horiz-adv-x="958" 
d="M543 1219q144 0 243 -84.5t99 -225.5q0 -71 -24 -128.5t-65.5 -94.5t-92 -59t-107.5 -27v-4q106 -26 168.5 -104.5t62.5 -184.5q0 -151 -106 -235t-275 -84q-172 0 -282.5 86.5t-110.5 238.5q0 143 94 223t236 85v4q-83 27 -139 97t-56 173q0 154 97.5 239t257.5 85z
M446 27q151 0 244.5 73.5t93.5 204.5q0 134 -101.5 210.5t-248.5 76.5q-151 0 -244.5 -74t-93.5 -205q0 -134 101 -210t249 -76zM231 895q0 -115 82.5 -190.5t212.5 -75.5q147 0 231.5 73.5t84.5 206.5q0 120 -84 195.5t-215 75.5q-143 0 -227.5 -75.5t-84.5 -209.5z" />
    <glyph glyph-name="nine" unicode="9" horiz-adv-x="968" 
d="M10 -23l39 13q38 -232 285 -232q108 0 195.5 58t146.5 161t96.5 236.5t52.5 294.5h-4q-27 -140 -125 -218.5t-239 -78.5q-165 0 -266 100.5t-101 259.5q0 117 46 212t141 154.5t223 59.5q170 0 268 -102t98 -295q0 -94 -12.5 -191.5t-37.5 -198t-68 -188t-100 -156.5
t-138 -109t-176 -40q-138 0 -223.5 68.5t-100.5 191.5zM502 956q-164 0 -266.5 -106.5t-102.5 -278.5q0 -139 87 -229t237 -90q160 0 261 109.5t101 273.5q0 139 -84 230t-233 91z" />
    <glyph glyph-name="colon" unicode=":" horiz-adv-x="409" 
d="M90 37q0 37 37 37t37 -37t-37 -37t-37 37zM219 782q0 37 37 37t37 -37t-37 -37t-37 37z" />
    <glyph glyph-name="semicolon" unicode=";" horiz-adv-x="409" 
d="M184 -6q0 -69 -56 -109.5t-138 -40.5v31q65 0 112.5 30t47.5 85q0 13 -7 24q-11 -14 -28 -14t-27 10t-10 25q0 18 11.5 28.5t31.5 10.5q28 0 45.5 -21t17.5 -59zM227 782q0 37 37 37t37 -37t-37 -37t-37 37z" />
    <glyph glyph-name="less" unicode="&#x3c;" horiz-adv-x="841" 
d="M119 506l594 434l20 -35l-551 -403l408 -404l-29 -26z" />
    <glyph glyph-name="equal" unicode="=" horiz-adv-x="1060" 
d="M84 385h836l-9 -41h-835zM131 651h836l-9 -41h-835z" />
    <glyph glyph-name="greater" unicode="&#x3e;" horiz-adv-x="841" 
d="M698 506l-594 -434l-20 34l551 404l-408 403l29 27z" />
    <glyph glyph-name="question" unicode="?" horiz-adv-x="811" 
d="M178 934l-39 12q35 128 122 200.5t226 72.5q149 0 236.5 -90.5t87.5 -223.5q0 -102 -38.5 -178t-105 -118t-143 -61.5t-164.5 -19.5l-36 -206h-43l43 245h47q59 0 113 9.5t107 33.5t91.5 61.5t62 97.5t23.5 136q0 118 -78 196.5t-203 78.5q-237 0 -309 -246zM219 37
q0 37 37 37t37 -37t-37 -37t-37 37z" />
    <glyph glyph-name="at" unicode="@" horiz-adv-x="1728" 
d="M1262 25q139 0 231 131t92 362q0 139 -42.5 258t-124 209.5t-212 142.5t-295.5 52q-238 0 -413.5 -106t-265 -290t-89.5 -424q0 -153 40.5 -276.5t111 -207.5t169.5 -140t213 -81.5t245 -25.5q198 0 415 82l13 -37q-209 -84 -428 -84q-141 0 -262 27t-224.5 87
t-177 148.5t-115 218t-41.5 289.5q0 187 54 344.5t155 272t255 178.5t345 64q175 0 313.5 -55.5t225 -152.5t131.5 -223t45 -272q0 -242 -102.5 -385t-261.5 -143q-88 0 -129 42.5t-41 114.5q0 45 6 82q-29 -98 -119 -168.5t-203 -70.5q-131 0 -207.5 85t-76.5 246
q0 222 112.5 369.5t290.5 147.5q110 0 183.5 -65.5t82.5 -164.5l49 219h31l-96 -553q-17 -99 -17 -127q0 -58 35 -89t99 -31zM1118 360l21 111q24 135 -42 230.5t-202 95.5q-159 0 -261 -136.5t-102 -338.5q0 -140 64.5 -217.5t179.5 -77.5q125 0 220 94.5t122 238.5z" />
    <glyph glyph-name="A" unicode="A" horiz-adv-x="1048" 
d="M901 0l-94 418h-584l-237 -418h-47l690 1206h47l268 -1206h-43zM487 877l-239 -418h551l-92 415q-19 84 -34 156.5t-21 102.5l-5 30h-4q-39 -85 -156 -286z" />
    <glyph glyph-name="B" unicode="B" horiz-adv-x="1013" 
d="M653 629v-6q103 -6 172.5 -73t69.5 -188q0 -177 -113 -269.5t-342 -92.5h-338l209 1206h295q332 0 332 -270q0 -134 -80 -213.5t-205 -93.5zM258 647h270q77 0 141.5 16.5t116 50t80.5 90.5t29 132q0 229 -295 229h-252zM250 606l-98 -565h290q410 0 410 321
q0 244 -324 244h-278z" />
    <glyph glyph-name="C" unicode="C" horiz-adv-x="1122" 
d="M551 -12q-203 0 -321.5 131.5t-118.5 355.5q0 171 47 312.5t128.5 235t190 145t232.5 51.5q154 0 251 -80.5t121 -220.5l-37 -15q-24 131 -110 203t-225 72q-118 0 -219.5 -49t-176 -138.5t-117 -222.5t-42.5 -293q0 -202 106.5 -324t290.5 -122q144 0 244.5 63.5
t160.5 202.5l37 -21q-119 -286 -442 -286z" />
    <glyph glyph-name="D" unicode="D" horiz-adv-x="1193" 
d="M152 41h272q304 0 476.5 177.5t172.5 510.5q0 210 -120.5 323t-329.5 113h-275zM422 0h-320l209 1206h314q227 0 359 -123t132 -354q0 -350 -183.5 -539.5t-510.5 -189.5z" />
    <glyph glyph-name="E" unicode="E" 
d="M752 41l-7 -41h-643l209 1206h643l-6 -41h-600l-94 -538h537l-7 -41h-536l-96 -545h600z" />
    <glyph glyph-name="F" unicode="F" horiz-adv-x="858" 
d="M145 0h-43l209 1206h623l-6 -41h-580l-94 -538h516l-6 -41h-516z" />
    <glyph glyph-name="G" unicode="G" horiz-adv-x="1153" 
d="M653 559h396l-103 -559h-35l39 262q-40 -120 -147 -197t-252 -77q-203 0 -321.5 131.5t-118.5 355.5q0 171 47 312.5t128.5 235t190 145t232.5 51.5q154 0 251 -80.5t121 -220.5l-37 -15q-24 131 -110 203t-225 72q-118 0 -219.5 -49t-176 -138.5t-117 -222.5t-42.5 -293
q0 -202 106.5 -324t290.5 -122q158 0 280.5 111.5t153.5 303.5l12 74h-352z" />
    <glyph glyph-name="H" unicode="H" horiz-adv-x="1255" 
d="M1157 1206h43l-209 -1206h-43l101 586h-803l-101 -586h-43l209 1206h43l-100 -579h803z" />
    <glyph glyph-name="I" unicode="I" horiz-adv-x="409" 
d="M311 1206h43l-209 -1206h-43z" />
    <glyph glyph-name="J" unicode="J" horiz-adv-x="858" 
d="M793 1206h43l-148 -850q-35 -201 -126 -284.5t-243 -83.5q-142 0 -221.5 68.5t-97.5 181.5l39 16q19 -109 90.5 -168t189.5 -59q137 0 217 78.5t111 259.5z" />
    <glyph glyph-name="K" unicode="K" horiz-adv-x="970" 
d="M862 0h-51l-455 586h-110l-101 -586h-43l209 1206h43l-100 -579h104l629 579h57l-651 -600z" />
    <glyph glyph-name="L" unicode="L" horiz-adv-x="839" 
d="M311 1206h43l-202 -1165h561l-6 -41h-605z" />
    <glyph glyph-name="M" unicode="M" horiz-adv-x="1415" 
d="M694 301h-32l-252 666q-23 61 -39 107.5t-21 62.5l-4 16h-4q-6 -50 -31 -195l-166 -958h-43l209 1206h51l285 -747q13 -33 21.5 -60.5t11.5 -38.5l2 -12h4q21 35 74 109l545 749h55l-209 -1206h-43l166 958l37 195h-4q-33 -57 -127 -186z" />
    <glyph glyph-name="N" unicode="N" horiz-adv-x="1253" 
d="M362 1206l504 -977l88 -178h4q11 82 31 197l166 958h43l-209 -1206h-51l-504 977l-88 178h-4q-11 -82 -31 -197l-166 -958h-43l209 1206h51z" />
    <glyph glyph-name="O" unicode="O" horiz-adv-x="1232" 
d="M555 29q112 0 212 48.5t175 137t118.5 221t43.5 291.5q0 211 -108 331t-294 120q-112 0 -211.5 -49t-174.5 -137t-118.5 -221t-43.5 -292q0 -211 107.5 -330.5t293.5 -119.5zM555 -12q-201 0 -322.5 130.5t-121.5 360.5q0 166 47 306t127 234.5t188 147t229 52.5
q201 0 323 -131t122 -361q0 -166 -47 -306t-127.5 -234t-188.5 -146.5t-229 -52.5z" />
    <glyph glyph-name="P" unicode="P" horiz-adv-x="937" 
d="M348 1165l-110 -633h260q194 0 302.5 92.5t108.5 272.5q0 140 -79 204t-238 64h-244zM145 0h-43l209 1206h285q356 0 356 -307q0 -196 -121 -301.5t-329 -105.5h-273z" />
    <glyph glyph-name="Q" unicode="Q" horiz-adv-x="1232" 
d="M893 -258q-156 -12 -257.5 55t-123.5 193q-184 12 -292.5 141.5t-108.5 347.5q0 166 47 306t127 234.5t188 147t229 52.5q201 0 323 -131t122 -361q0 -166 -47 -305.5t-127.5 -233.5t-188.5 -146.5t-229 -53.5q20 -108 117.5 -163t234.5 -44zM555 29q112 0 212 48.5
t175 137t118.5 221t43.5 291.5q0 211 -108 331t-294 120q-112 0 -211.5 -49t-174.5 -137t-118.5 -221t-43.5 -292q0 -211 107.5 -330.5t293.5 -119.5z" />
    <glyph glyph-name="R" unicode="R" horiz-adv-x="1054" 
d="M909 0h-47q-36 48 -43 137l-20 205q-11 108 -72.5 160.5t-189.5 52.5h-295l-97 -555h-43l209 1206h318q170 0 262 -69.5t92 -212.5q0 -155 -95 -247.5t-243 -101.5v-4q89 -12 137 -66t58 -161l20 -201q8 -87 49 -143zM348 1165l-98 -569h287q189 0 296 85t107 243
q0 241 -311 241h-281z" />
    <glyph glyph-name="S" unicode="S" horiz-adv-x="950" 
d="M49 328l41 8q1 -148 89.5 -227.5t244.5 -79.5q149 0 238.5 71.5t89.5 218.5q0 106 -69 173t-206 114q-74 25 -123.5 49.5t-90.5 59.5t-60 82.5t-19 111.5q0 154 96 232t246 78q163 0 256 -77.5t97 -236.5l-39 -8q-14 281 -314 281q-135 0 -217 -67.5t-82 -201.5
q0 -104 59 -158.5t201 -103.5q156 -56 232 -129t76 -199q0 -162 -101 -246.5t-270 -84.5q-172 0 -273.5 91t-101.5 249z" />
    <glyph glyph-name="T" unicode="T" horiz-adv-x="983" 
d="M424 0h-43l203 1167h-445l6 39h912l-6 -39h-424z" />
    <glyph glyph-name="U" unicode="U" horiz-adv-x="1155" 
d="M1085 1206h43l-139 -805q-73 -413 -461 -413q-184 0 -292.5 99.5t-108.5 274.5q0 54 12 121l125 723h43l-125 -721q-12 -68 -12 -123q0 -160 100.5 -247.5t257.5 -87.5q353 0 418 376z" />
    <glyph glyph-name="V" unicode="V" horiz-adv-x="1050" 
d="M203 1206l188 -975q12 -60 20.5 -108.5t10.5 -66.5l2 -19h4q23 58 107 205l546 964h47l-682 -1206h-55l-231 1206h43z" />
    <glyph glyph-name="W" unicode="W" horiz-adv-x="1564" 
d="M905 1206l94 -880l27 -293h4q43 109 135 297l432 876h45l-591 -1206h-60l-92 868q-8 78 -13.5 148.5t-7.5 101.5l-1 31h-5q-41 -97 -129 -281l-415 -868h-60l-108 1206h43l80 -876q7 -84 11.5 -158t5.5 -106l1 -33h4q45 106 137 299l418 874h45z" />
    <glyph glyph-name="X" unicode="X" horiz-adv-x="999" 
d="M823 0l-243 467l-62 121h-4q-20 -31 -100 -121l-408 -467h-53l543 625l-306 581h48l225 -430l59 -119h4q21 29 101 119l374 430h54l-510 -585l325 -621h-47z" />
    <glyph glyph-name="Y" unicode="Y" horiz-adv-x="972" 
d="M205 1206l201 -477l77 -190h4q38 51 144 190l368 477h52l-549 -710l-86 -496h-43l86 496l-299 710h45z" />
    <glyph glyph-name="Z" unicode="Z" horiz-adv-x="929" 
d="M985 1169l-817 -974l-129 -152v-6q33 4 162 4h608l-6 -41h-826l7 37l821 977l125 151v4q-35 -4 -164 -4h-565l6 41h784z" />
    <glyph glyph-name="bracketleft" unicode="[" horiz-adv-x="643" 
d="M408 1329l-302 -1704h357l-6 -41h-398l314 1786h397l-6 -41h-356z" />
    <glyph glyph-name="backslash" unicode="\" horiz-adv-x="716" 
d="M285 1370l247 -1786h-38l-248 1786h39z" />
    <glyph glyph-name="bracketright" unicode="]" horiz-adv-x="643" 
d="M236 -375l301 1704h-357l6 41h398l-314 -1786h-395l6 41h355z" />
    <glyph glyph-name="asciicircum" unicode="^" horiz-adv-x="933" 
d="M827 698l-147 422l-64 199h-4q-61 -99 -133 -199l-295 -422h-47l465 670h33l231 -670h-39z" />
    <glyph glyph-name="underscore" unicode="_" horiz-adv-x="862" 
d="M4 -188l8 41h617l-8 -41h-617z" />
    <glyph glyph-name="grave" unicode="`" horiz-adv-x="352" 
d="M250 1098h-31l-117 260h54z" />
    <glyph glyph-name="a" unicode="a" horiz-adv-x="1028" 
d="M799 412l22 129q18 102 -6.5 187t-94.5 138.5t-175 53.5q-124 0 -219 -74.5t-145 -199.5t-50 -279q0 -162 73.5 -251t205.5 -89q142 0 251 108t138 277zM911 47l-8 -41q-29 -18 -63 -18q-48 0 -71.5 26.5t-23.5 71.5q0 28 29 184q-32 -116 -132.5 -199t-231.5 -83
q-150 0 -235 96.5t-85 282.5q0 167 56 301.5t160.5 212t238.5 77.5q126 0 209 -74.5t94 -187.5l51 250h33l-137 -790q-9 -61 -9 -70q0 -61 58 -61q32 0 67 22z" />
    <glyph glyph-name="b" unicode="b" horiz-adv-x="1026" 
d="M373 1368l-121 -692q32 116 132.5 199t231.5 83q150 0 235 -96t85 -282q0 -167 -56 -301.5t-160.5 -212.5t-238.5 -78q-126 0 -209 74.5t-94 187.5l-51 -250h-33l238 1368h41zM227 530l-22 -129q-18 -100 6.5 -184t94.5 -137t175 -53q124 0 219 74.5t145 199.5t50 279
q0 162 -73.5 251t-205.5 89q-142 0 -251 -110t-138 -280z" />
    <glyph glyph-name="c" unicode="c" horiz-adv-x="905" 
d="M131 375q0 -175 78.5 -261.5t226.5 -86.5q251 0 314 227l36 -12q-30 -110 -115.5 -182t-234.5 -72q-165 0 -255.5 98t-90.5 289q0 88 16.5 171.5t52.5 158.5t87 131t124.5 89t161.5 33q150 0 223.5 -85.5t73.5 -229.5l-38 -4q0 125 -63 203t-196 78q-97 0 -175 -46
t-126.5 -123.5t-74 -173.5t-25.5 -202z" />
    <glyph glyph-name="d" unicode="d" horiz-adv-x="1028" 
d="M799 412l22 129q18 102 -6.5 187t-94.5 138.5t-175 53.5q-124 0 -219 -74.5t-145 -199.5t-50 -279q0 -162 73.5 -251t205.5 -89q142 0 251 108t138 277zM774 270q-32 -116 -132.5 -199t-231.5 -83q-150 0 -235 96.5t-85 282.5q0 167 56 301.5t160.5 212t238.5 77.5
q126 0 209 -74.5t94 -187.5l117 672h41l-211 -1212q-9 -61 -9 -70q0 -61 58 -61q32 0 67 22l-8 -41q-29 -18 -63 -18q-48 0 -71.5 26.5t-23.5 71.5q0 21 29 184z" />
    <glyph glyph-name="e" unicode="e" horiz-adv-x="903" 
d="M741 252l37 -12q-34 -119 -119 -185.5t-225 -66.5q-167 0 -255.5 97.5t-88.5 289.5q0 113 28.5 216.5t82 186t139.5 131.5t192 49q146 0 217.5 -82.5t71.5 -220.5q0 -100 -37 -153h-645q-8 -55 -8 -127q0 -348 303 -348q126 0 199 57t108 168zM532 920
q-152 0 -251.5 -106.5t-133.5 -274.5h611q20 39 20 116q0 122 -59.5 193.5t-186.5 71.5z" />
    <glyph glyph-name="f" unicode="f" horiz-adv-x="487" 
d="M59 -213l195 1122h-143l8 37h141l31 164q29 153 91.5 212.5t160.5 59.5q59 0 103.5 -22.5t66.5 -61.5l-31 -24q-41 69 -139 69q-37 0 -65.5 -9t-58 -32.5t-52 -71.5t-35.5 -120l-31 -164h240l-6 -37h-240l-195 -1122q-17 -103 -58.5 -161t-127.5 -58q-93 0 -139 61l20 33
q51 -57 119 -57q65 0 97.5 46.5t47.5 135.5z" />
    <glyph glyph-name="g" unicode="g" horiz-adv-x="978" 
d="M725 -31l53 301q-32 -116 -132.5 -199t-231.5 -83q-150 0 -235 96.5t-85 282.5q0 167 56 301.5t160.5 212t238.5 77.5q126 0 209 -74.5t94 -187.5l51 250h33l-170 -977q-34 -197 -141 -299t-283 -102q-149 0 -237.5 64.5t-98.5 191.5l37 14q22 -231 299 -231
q317 0 383 362zM803 412l22 129q18 102 -6.5 187t-94.5 138.5t-175 53.5q-124 0 -219 -74.5t-145 -199.5t-50 -279q0 -162 73.5 -251t205.5 -89q142 0 251 108t138 277z" />
    <glyph glyph-name="h" unicode="h" horiz-adv-x="978" 
d="M715 143l78 451q16 94 16 141q0 85 -51 135t-146 50q-139 0 -248 -110t-139 -288l-90 -522h-41l238 1368h41l-119 -680q40 114 135 192t223 78q110 0 174 -57.5t64 -165.5q0 -51 -16 -141l-76 -438q-8 -54 -8 -70q0 -61 57 -61q32 0 67 22l-8 -41q-29 -18 -63 -18
q-48 0 -71 26.5t-23 71.5q0 19 6 57z" />
    <glyph glyph-name="i" unicode="i" horiz-adv-x="382" 
d="M287 946l-137 -790q-9 -61 -9 -70q0 -61 58 -61q32 0 67 22l-8 -41q-29 -18 -63 -18q-48 0 -71.5 26.5t-23.5 71.5q0 19 6 57l140 803h41zM268 1219q0 36 37 36t37 -36q0 -37 -37 -37t-37 37z" />
    <glyph glyph-name="j" unicode="j" horiz-adv-x="380" 
d="M53 -213l207 1159h41l-207 -1159q-17 -103 -58.5 -161t-127.5 -58q-93 0 -139 61l20 35q51 -57 119 -57q65 0 97.5 45.5t47.5 134.5zM287 1219q0 36 37 36q36 0 36 -36q0 -37 -36 -37q-37 0 -37 37z" />
    <glyph glyph-name="k" unicode="k" horiz-adv-x="866" 
d="M713 27q32 0 67 22l-8 -43q-29 -18 -63 -18q-25 0 -44.5 8t-38.5 29.5t-31.5 39.5t-35.5 56l-217 356h-125l-82 -477h-41l238 1368h41l-148 -852h127l430 430h54l-457 -454l217 -357q20 -31 29 -44t25 -31.5t30.5 -25.5t32.5 -7z" />
    <glyph glyph-name="l" unicode="l" horiz-adv-x="382" 
d="M360 1368l-210 -1212q-9 -61 -9 -70q0 -61 58 -61q32 0 67 22l-8 -41q-29 -18 -63 -18q-48 0 -71.5 26.5t-23.5 71.5q0 19 6 57l213 1225h41z" />
    <glyph glyph-name="m" unicode="m" horiz-adv-x="1501" 
d="M813 688q40 116 127.5 193t212.5 77q219 0 219 -223q0 -51 -16 -141l-76 -438q-8 -54 -8 -70q0 -61 57 -61q33 0 68 22l-8 -41q-29 -18 -64 -18q-48 0 -71 26.5t-23 71.5q0 19 6 57l78 451q16 94 16 141q0 185 -178 185q-136 0 -236 -111t-131 -287l-90 -522h-41l103 594
q16 94 16 141q0 185 -178 185q-136 0 -236 -111t-131 -287l-90 -522h-41l164 946h33l-37 -258q41 117 127 193.5t211 76.5q107 0 163 -56t56 -167q0 -29 -2 -47z" />
    <glyph glyph-name="n" unicode="n" horiz-adv-x="983" 
d="M719 143l78 451q16 94 16 141q0 85 -51 135t-146 50q-139 0 -248 -110t-139 -288l-90 -522h-41l164 946h33l-37 -258q40 114 135 192t223 78q110 0 174 -57.5t64 -165.5q0 -51 -16 -141l-76 -438q-8 -54 -8 -70q0 -61 57 -61q33 0 68 22l-9 -41q-29 -18 -63 -18
q-48 0 -71 26.5t-23 71.5q0 19 6 57z" />
    <glyph glyph-name="o" unicode="o" horiz-adv-x="956" 
d="M426 27q127 0 219.5 78.5t136 199.5t43.5 266q0 176 -76 262.5t-219 86.5q-96 0 -173.5 -45.5t-125.5 -122t-74 -173.5t-26 -204q0 -176 76 -262t219 -86zM426 -12q-162 0 -249 98t-87 289q0 113 28 216.5t81.5 186t139 131.5t191.5 49q162 0 249 -98t87 -289
q0 -113 -28 -216.5t-81.5 -186t-139 -131.5t-191.5 -49z" />
    <glyph glyph-name="p" unicode="p" horiz-adv-x="1026" 
d="M291 946l-39 -270q32 116 132.5 199t231.5 83q150 0 235 -96t85 -282q0 -167 -56 -301.5t-160.5 -212.5t-238.5 -78q-126 0 -209 74.5t-94 187.5l-115 -666h-40l235 1362h33zM227 530l-22 -129q-18 -100 6.5 -184t94.5 -137t175 -53q124 0 219 74.5t145 199.5t50 279
q0 162 -73.5 251t-205.5 89q-142 0 -251 -110t-138 -280z" />
    <glyph glyph-name="q" unicode="q" horiz-adv-x="974" 
d="M799 412l22 129q18 102 -6.5 187t-94.5 138.5t-175 53.5q-124 0 -219 -74.5t-145 -199.5t-50 -279q0 -162 73.5 -251t205.5 -89q142 0 251 108t138 277zM696 -416h-41l119 686q-32 -116 -132.5 -199t-231.5 -83q-150 0 -235 96.5t-85 282.5q0 167 56 301.5t160.5 212
t238.5 77.5q126 0 209 -74.5t94 -187.5l51 250h33z" />
    <glyph glyph-name="r" unicode="r" horiz-adv-x="595" 
d="M633 936l-15 -39q-30 23 -88 23q-114 0 -198.5 -111.5t-114.5 -286.5l-90 -522h-41l164 946h33l-37 -254q85 266 289 266q70 0 98 -22z" />
    <glyph glyph-name="s" unicode="s" horiz-adv-x="802" 
d="M45 264l39 6q1 -66 24.5 -114.5t64 -75.5t88.5 -40t104 -13q124 0 192 52t68 159q0 83 -61.5 137t-178.5 96q-124 44 -176.5 96t-52.5 150q0 110 78 175.5t210 65.5q140 0 212.5 -64.5t72.5 -184.5l-39 -4q-3 215 -246 215q-111 0 -179 -53.5t-68 -149.5q0 -82 43.5 -125
t158.5 -84q135 -48 201 -109t66 -161q0 -121 -79.5 -185.5t-221.5 -64.5q-145 0 -232.5 71.5t-87.5 204.5z" />
    <glyph glyph-name="t" unicode="t" horiz-adv-x="587" 
d="M475 98l19 -32q-75 -78 -191 -78q-86 0 -130 43.5t-44 122.5q0 36 10 94l115 661h-133l8 37h133l37 199l41 10l-37 -209h248l-8 -37h-248l-115 -661q-10 -58 -10 -94q0 -129 133 -129q102 0 172 73z" />
    <glyph glyph-name="u" unicode="u" 
d="M844 946l-137 -790q-9 -61 -9 -70q0 -61 58 -61q32 0 67 22l-8 -41q-29 -18 -63 -18q-48 0 -71.5 26.5t-23.5 71.5q0 27 27 174q-40 -116 -131.5 -194t-218.5 -78q-110 0 -175 57.5t-65 165.5q0 57 12 119l107 616h41l-107 -618q-12 -70 -12 -117q0 -85 52 -134.5
t147 -49.5q140 0 244 108.5t135 288.5l90 522h41z" />
    <glyph glyph-name="v" unicode="v" horiz-adv-x="849" 
d="M270 0l-133 946h39l96 -667q12 -83 18.5 -143.5t6.5 -79.5v-19h4q16 47 131 235l414 674h45l-580 -946h-41z" />
    <glyph glyph-name="w" unicode="w" horiz-adv-x="1277" 
d="M907 270l369 676h43l-514 -946h-57l-48 698q-4 50 -6 102.5t-2 79.5v27h-4q-31 -88 -92 -217l-326 -690h-57l-76 946h39l57 -684l15 -223h4q51 116 104 229l318 678h49l47 -686l12 -223h4q51 106 121 233z" />
    <glyph glyph-name="x" unicode="x" horiz-adv-x="860" 
d="M666 0l-166 336l-54 115h-4q-22 -25 -104 -117l-299 -334h-49l436 487l-225 459h43l149 -305l58 -123h4q22 29 102 119l274 309h50l-410 -463l238 -483h-43z" />
    <glyph glyph-name="y" unicode="y" horiz-adv-x="849" 
d="M279 0l-142 946h39l103 -674q11 -71 18.5 -128.5t9.5 -79.5l2 -21h4q35 69 127 223l406 680h45l-711 -1190q-63 -105 -113 -148.5t-128 -43.5q-90 0 -144 61l23 35q55 -59 121 -59q63 0 108 39.5t100 134.5z" />
    <glyph glyph-name="z" unicode="z" horiz-adv-x="833" 
d="M840 918l-635 -728l-133 -151v-4q47 2 176 2h450l-8 -37h-680l6 29l633 727q38 44 72.5 82.5t49.5 54.5l15 16v4q-49 -4 -178 -4h-407l6 37h637z" />
    <glyph glyph-name="braceleft" unicode="{" horiz-adv-x="827" 
d="M96 461l8 41h95q150 0 184 192l74 412q24 132 91.5 203t188.5 71q95 0 178 -39l-22 -38q-68 38 -156 38q-196 0 -237 -235l-74 -418q-35 -196 -182 -205v-4q57 -5 85.5 -38t28.5 -103q0 -24 -6 -64l-73 -417q-9 -56 -9 -76q0 -160 162 -160q87 0 170 39l10 -39
q-95 -39 -180 -39q-107 0 -156 50.5t-49 148.5q0 30 9 76l73 411q6 35 6 70q0 123 -125 123h-94z" />
    <glyph glyph-name="bar" unicode="|" horiz-adv-x="491" 
d="M111 -416h-41l313 1786h41z" />
    <glyph glyph-name="braceright" unicode="}" horiz-adv-x="827" 
d="M727 502l-8 -41h-94q-151 0 -185 -193l-73 -411q-51 -275 -281 -275q-95 0 -178 39l22 39q70 -39 156 -39q196 0 238 236l73 417q35 196 183 205v4q-115 9 -115 142q0 23 6 63l74 418q8 50 8 76q0 159 -162 159q-89 0 -170 -38l-10 38q95 39 180 39q107 0 156 -50
t49 -148q0 -35 -8 -76l-74 -412q-6 -34 -6 -69q0 -123 125 -123h94z" />
    <glyph glyph-name="asciitilde" unicode="~" horiz-adv-x="819" 
d="M430 504l-65 47q-21 16 -32.5 23.5t-30.5 14.5t-38 7q-46 0 -65 -33t-19 -102l-26 12q-7 31 -7 49q0 56 35.5 86.5t81.5 30.5q38 0 64 -12t69 -43l66 -47q22 -16 33 -23.5t29.5 -14.5t37.5 -7q46 0 65 33t19 102l27 -13q6 -27 6 -49q0 -56 -35.5 -86t-81.5 -30
q-38 0 -64 12t-69 43z" />
    <glyph glyph-name="nbspace" unicode="&#xa0;" horiz-adv-x="313" 
 />
    <glyph glyph-name="exclamdown" unicode="&#xa1;" horiz-adv-x="462" 
d="M131 -248h-49l160 866h32zM348 922q0 -37 -37 -37t-37 37q0 36 37 36t37 -36z" />
    <glyph glyph-name="cent" unicode="&#xa2;" horiz-adv-x="978" 
d="M471 -12h-22l-35 -205h-41l35 209q-139 20 -220.5 125.5t-81.5 269.5q0 137 37.5 251.5t102.5 191t152 120t186 47.5l30 179h41l-32 -181q117 -6 191 -70.5t93 -174.5l-35 -11q-19 101 -86 157.5t-170 61.5l-159 -931h14q247 0 342 219l33 -21q-50 -118 -147.5 -177.5
t-227.5 -59.5zM150 387q0 -148 71 -242.5t195 -113.5l159 925q-188 -11 -306.5 -164.5t-118.5 -404.5z" />
    <glyph glyph-name="sterling" unicode="&#xa3;" horiz-adv-x="1017" 
d="M682 444h-336q31 -103 31 -159q0 -93 -47.5 -158.5t-114.5 -87.5h414q94 0 148.5 27.5t86.5 99.5l39 -16q-34 -82 -99.5 -116t-172.5 -34h-574l6 39h54q83 0 150 69.5t67 176.5q0 52 -31 159h-168l6 39h150q-27 98 -27 170q0 87 27.5 154t75 108t109 61.5t132.5 20.5
q142 0 220.5 -70.5t78.5 -207.5l-43 -8q0 125 -67.5 186t-188.5 61q-137 0 -219 -78.5t-82 -226.5q0 -72 27 -170h354z" />
    <glyph glyph-name="currency" unicode="&#xa4;" horiz-adv-x="964" 
d="M461 272q-138 0 -193 101l-188 -160l-25 29l197 166q-19 55 -19 122q0 158 78 271l-127 153l31 25l121 -148q84 87 196 87q138 0 193 -105l193 164l22 -29l-199 -168q19 -55 19 -121q0 -152 -72 -262l127 -153l-29 -25l-122 148q-82 -95 -203 -95zM463 311q81 0 140.5 50
t87.5 127t28 169q0 222 -189 222q-81 0 -140.5 -50.5t-87.5 -127.5t-28 -169q0 -221 189 -221z" />
    <glyph glyph-name="yen" unicode="&#xa5;" horiz-adv-x="911" 
d="M791 518h-244l-90 -115l-11 -51h316l-8 -39h-314l-53 -313h-41l53 313h-313l8 39h312l10 51l-51 115h-242l6 39h219l-188 428h43l170 -385l67 -158h4q27 41 119 158l305 385h50l-340 -428h219z" />
    <glyph glyph-name="brokenbar" unicode="&#xa6;" horiz-adv-x="491" 
d="M285 569h-41l139 801h41zM111 -416h-41l141 801h41z" />
    <glyph glyph-name="section" unicode="&#xa7;" horiz-adv-x="808" 
d="M729 465q0 -101 -64.5 -162.5t-179.5 -73.5q59 -39 87 -84t28 -112q0 -110 -78.5 -176t-210.5 -66q-139 0 -211.5 65t-72.5 185l39 4q3 -215 245 -215q112 0 180 53.5t68 149.5q0 42 -11 72t-41 57.5t-60 46.5t-91 53q-140 77 -182 112q-78 63 -83 153q-1 9 -1 18
q0 100 63.5 160.5t178.5 72.5q-59 40 -86 85t-27 114q0 110 78.5 176t210.5 66q140 0 212.5 -65t72.5 -185l-39 -4q-3 215 -246 215q-112 0 -180 -53.5t-68 -149.5q0 -42 11 -72t41 -57.5t60 -46.5t91 -53q140 -77 182 -112q78 -63 83 -153q1 -9 1 -18zM688 465q0 27 -5 49
t-20 42.5t-25.5 33.5t-39 32t-42 27.5t-53 31t-54.5 30.5l-72 41q-116 -3 -181 -56.5t-65 -150.5q0 -27 5 -49t20 -42.5t26 -33.5t39 -32t42 -27.5t53.5 -30.5t54.5 -31l71 -41q116 3 181 56.5t65 150.5z" />
    <glyph glyph-name="dieresis" unicode="&#xa8;" horiz-adv-x="585" 
d="M102 1219q0 36 37 36t37 -36q0 -37 -37 -37t-37 37zM410 1219q0 36 36 36q37 0 37 -36q0 -37 -37 -37q-36 0 -36 37z" />
    <glyph glyph-name="copyright" unicode="&#xa9;" horiz-adv-x="1454" 
d="M1362 602q0 -175 -82.5 -316.5t-222.5 -219.5t-309 -78t-309.5 78t-223 219.5t-82.5 316.5q0 132 48.5 247t131 196t196 127.5t239.5 46.5q169 0 309 -79t222.5 -221t82.5 -317zM1323 602q0 164 -77.5 298t-209 208t-288.5 74q-118 0 -223.5 -44t-183.5 -120
t-123.5 -184.5t-45.5 -231.5q0 -164 77.5 -297t209.5 -206.5t289 -73.5t288.5 73.5t209 206.5t77.5 297zM711 207q-133 0 -211 84.5t-78 230.5q0 222 111 353t280 131q100 0 164 -53t78 -144l-35 -12q-15 82 -69 126t-140 44q-153 0 -250.5 -121t-97.5 -324
q0 -127 67 -201.5t183 -74.5q189 0 262 170l33 -21q-40 -94 -117 -141t-180 -47z" />
    <glyph glyph-name="ordfeminine" unicode="&#xaa;" horiz-adv-x="696" 
d="M428 1190q-121 0 -195.5 -101t-74.5 -253q0 -103 47 -159t133 -56q90 0 159 67.5t89 175.5l16 86q20 99 -27.5 169.5t-146.5 70.5zM596 700q-4 -28 -4 -41q0 -38 37 -38q20 0 47 14l-8 -37q-24 -12 -47 -12q-33 0 -51.5 16.5t-18.5 46.5q0 27 16 109
q-25 -73 -88.5 -123.5t-144.5 -50.5q-101 0 -159 64.5t-58 187.5q0 167 86 279t223 112q80 0 133.5 -46.5t61.5 -117.5l34 156h33z" />
    <glyph glyph-name="guillemotleft" unicode="&#xab;" horiz-adv-x="829" 
d="M375 475v-4q10 -12 67 -96l189 -279l-33 -22l-270 403l411 404l29 -29l-287 -279q-38 -37 -64.5 -61.5t-34.5 -30.5zM170 475v-4q11 -12 68 -96l188 -279l-33 -22l-270 403l412 404l28 -29l-287 -279q-38 -37 -64.5 -61.5t-33.5 -30.5z" />
    <glyph glyph-name="logicalnot" unicode="&#xac;" horiz-adv-x="1015" 
d="M870 604h-753l6 41h795l-68 -385h-41z" />
    <glyph glyph-name="uni00AD" unicode="&#xad;" horiz-adv-x="786" 
d="M158 551l6 39h459l-7 -39h-458z" />
    <glyph glyph-name="registered" unicode="&#xae;" horiz-adv-x="1454" 
d="M985 246h-43q-24 27 -27 84l-8 127q-5 66 -37 94.5t-118 28.5h-203l-57 -334h-41l129 739h245q215 0 215 -174q0 -94 -63 -150.5t-152 -62.5q57 -6 85.5 -37t33.5 -90l10 -137q2 -47 31 -88zM614 948l-57 -332h201q110 0 175.5 52t65.5 143q0 73 -45 105t-139 32h-201z
M1362 602q0 -175 -82.5 -316.5t-222.5 -219.5t-309 -78t-309.5 78t-223 219.5t-82.5 316.5q0 132 48.5 247t131 196t196 127.5t239.5 46.5q169 0 309 -79t222.5 -221t82.5 -317zM1321 602q0 165 -77 298.5t-208 207.5t-288 74q-118 0 -223.5 -44t-182.5 -120t-122.5 -184.5
t-45.5 -231.5q0 -164 77 -297t208.5 -206.5t288.5 -73.5t288 73.5t208 206.5t77 297z" />
    <glyph glyph-name="macron" unicode="&#xaf;" horiz-adv-x="591" 
d="M483 1157h-381l7 39h380z" />
    <glyph glyph-name="degree" unicode="&#xb0;" horiz-adv-x="485" 
d="M264 897q73 0 116.5 45.5t43.5 116.5q0 62 -32.5 98.5t-98.5 36.5q-73 0 -116.5 -45.5t-43.5 -116.5q0 -62 32.5 -98.5t98.5 -36.5zM262 860q-82 0 -126 48.5t-44 123.5q0 85 55.5 142t147.5 57q82 0 126 -48.5t44 -123.5q0 -85 -55.5 -142t-147.5 -57z" />
    <glyph glyph-name="plusminus" unicode="&#xb1;" horiz-adv-x="1101" 
d="M135 653h393l56 312h41l-56 -312h402l-8 -41h-402l-59 -336h-41l59 336h-393zM49 170h836l-6 -41h-836z" />
    <glyph glyph-name="twosuperior" unicode="&#xb2;" horiz-adv-x="567" 
d="M174 997l-37 17q9 87 73 145t165 58q95 0 155 -56.5t60 -150.5q0 -76 -48.5 -154.5t-124.5 -142t-147.5 -110t-140.5 -79.5v-2h401l-6 -39h-471l6 35q490 268 490 488q0 77 -49.5 125.5t-126.5 48.5q-88 0 -140 -54t-59 -129z" />
    <glyph glyph-name="threesuperior" unicode="&#xb3;" horiz-adv-x="548" 
d="M289 473q-100 0 -159.5 47.5t-63.5 132.5l38 9q7 -77 56.5 -114.5t128.5 -37.5q88 0 142 44.5t54 127.5q0 71 -59 113.5t-176 42.5l6 36q56 0 102 8t85.5 26.5t62 53t22.5 82.5q0 58 -39 97t-112 39q-144 0 -168 -148l-37 12q29 173 207 173q89 0 139.5 -46.5
t50.5 -123.5q0 -87 -61.5 -136.5t-157.5 -54.5v-4q77 -6 127.5 -52t50.5 -118q0 -97 -68 -153t-171 -56z" />
    <glyph glyph-name="acute" unicode="&#xb4;" horiz-adv-x="442" 
d="M137 1098h-35l177 260h61z" />
    <glyph glyph-name="mu" unicode="&#xb5;" 
d="M844 946l-137 -790q-9 -61 -9 -70q0 -61 58 -61q32 0 67 22l-8 -41q-29 -18 -63 -18q-48 0 -71.5 26.5t-23.5 71.5q0 13 7 57l20 117q-40 -116 -131.5 -194t-218.5 -78q-83 0 -141.5 35.5t-79.5 101.5l-93 -541h-40l233 1362h41l-107 -618q-12 -70 -12 -117
q0 -85 52 -134.5t147 -49.5q140 0 244 108.5t135 288.5l90 522h41z" />
    <glyph glyph-name="mu" unicode="&#x3bc;" 
d="M844 946l-137 -790q-9 -61 -9 -70q0 -61 58 -61q32 0 67 22l-8 -41q-29 -18 -63 -18q-48 0 -71.5 26.5t-23.5 71.5q0 13 7 57l20 117q-40 -116 -131.5 -194t-218.5 -78q-83 0 -141.5 35.5t-79.5 101.5l-93 -541h-40l233 1362h41l-107 -618q-12 -70 -12 -117
q0 -85 52 -134.5t147 -49.5q140 0 244 108.5t135 288.5l90 522h41z" />
    <glyph glyph-name="paragraph" unicode="&#xb6;" horiz-adv-x="833" 
d="M584 616h-64q-171 0 -263.5 74t-92.5 189q0 159 121 243t338 84h268l-6 -41h-162l-227 -1282q-19 -104 -74.5 -160.5t-140.5 -56.5q-112 0 -172 70l26 33q61 -64 146 -64q68 0 112.5 45.5t59.5 132.5z" />
    <glyph glyph-name="periodcentered" unicode="&#xb7;" horiz-adv-x="409" 
d="M170 467q0 37 37 37t37 -37t-37 -37t-37 37z" />
    <glyph glyph-name="cedilla" unicode="&#xb8;" horiz-adv-x="573" 
d="M469 -248q0 -70 -52 -114t-132 -44q-65 0 -109.5 25t-66.5 64l28 26q47 -80 148 -80q65 0 104 33t39 90q0 102 -170 115l57 143h33l-45 -114q72 -5 119 -41.5t47 -102.5z" />
    <glyph glyph-name="onesuperior" unicode="&#xb9;" horiz-adv-x="618" 
d="M573 483h-489l6 35h236l112 643l-254 -61l6 41l299 71l-120 -694h213z" />
    <glyph glyph-name="ordmasculine" unicode="&#xba;" horiz-adv-x="645" 
d="M344 623q81 0 140.5 50t87.5 127t28 169q0 221 -188 221q-81 0 -140.5 -50t-87.5 -127t-28 -169q0 -221 188 -221zM342 584q-107 0 -167 66t-60 192q0 102 32.5 188t102.5 142.5t164 56.5q107 0 167 -66t60 -192q0 -102 -32.5 -188t-102.5 -142.5t-164 -56.5z" />
    <glyph glyph-name="guillemotright" unicode="&#xbb;" horiz-adv-x="829" 
d="M469 479v4q-11 13 -68 97l-188 278l33 23l270 -404l-412 -403l-28 28l286 279q38 37 65 61.5t35 30.5zM674 479v4q-11 13 -68 97l-188 278l33 23l270 -404l-412 -403l-28 28l286 279q38 37 65 61.5t34 30.5z" />
    <glyph glyph-name="onequarter" unicode="&#xbc;" horiz-adv-x="1449" 
d="M618 483h-489l6 35h236l112 643l-254 -61l7 41l299 71l-121 -694h213zM410 0l839 1206h45l-839 -1206h-45zM1196 0l35 197h-391l6 39l473 487h43l-86 -490h123l-8 -36h-121l-35 -197h-39zM975 233h262l59 353q4 24 9 46.5t9 33.5l3 10h-4q-25 -35 -80 -92l-250 -262
q-25 -27 -47.5 -48.5t-32.5 -29.5l-10 -8v-5q37 2 82 2z" />
    <glyph glyph-name="onehalf" unicode="&#xbd;" horiz-adv-x="1511" 
d="M618 483h-489l6 35h236l112 643l-254 -61l7 41l299 71l-121 -694h213zM410 0l839 1206h45l-839 -1206h-45zM1057 514l-37 16q9 87 72.5 145t164.5 58q95 0 155.5 -56.5t60.5 -150.5q0 -61 -33.5 -125.5t-83 -116.5t-114.5 -101.5t-121 -82.5t-109 -59v-2h401l-6 -39h-471
l6 35q71 39 130 74.5t129 87.5t118 100.5t80.5 108t32.5 116.5q0 77 -50 125.5t-127 48.5q-88 0 -139.5 -53.5t-58.5 -128.5z" />
    <glyph glyph-name="threequarters" unicode="&#xbe;" horiz-adv-x="1318" 
d="M289 473q-100 0 -159.5 47.5t-63.5 132.5l38 9q7 -77 56.5 -114.5t128.5 -37.5q88 0 142 44.5t54 127.5q0 71 -59 113.5t-176 42.5l6 36q56 0 102 8t85.5 26.5t62 53t22.5 82.5q0 58 -39 97t-112 39q-144 0 -168 -148l-37 12q29 173 207 173q89 0 139.5 -46.5
t50.5 -123.5q0 -87 -61.5 -136.5t-157.5 -54.5v-4q77 -6 127.5 -52t50.5 -118q0 -97 -68 -153t-171 -56zM279 0l839 1206h45l-839 -1206h-45zM1065 0l35 197h-391l6 39l473 487h43l-86 -490h123l-8 -36h-121l-35 -197h-39zM844 233h262l59 353q4 24 9 46.5t8 33.5l4 10h-4
q-25 -35 -80 -92l-250 -262q-25 -27 -47.5 -48.5t-32.5 -29.5l-10 -8v-5q37 2 82 2z" />
    <glyph glyph-name="questiondown" unicode="&#xbf;" horiz-adv-x="811" 
d="M664 25l38 -13q-35 -127 -122 -199.5t-226 -72.5q-149 0 -236 90t-87 223q0 102 38.5 178t104.5 118t142.5 61.5t164.5 19.5l37 207h43l-43 -246h-47q-59 0 -113 -9.5t-107 -33.5t-91.5 -61.5t-62 -97.5t-23.5 -136q0 -118 77.5 -196t202.5 -78q238 0 310 246zM623 922
q0 -37 -37 -37t-37 37q0 36 37 36t37 -36z" />
    <glyph glyph-name="Agrave" unicode="&#xc0;" horiz-adv-x="1048" 
d="M901 0l-94 418h-584l-237 -418h-47l690 1206h47l268 -1206h-43zM487 877l-239 -418h551l-92 415q-19 84 -34 156.5t-21 102.5l-5 30h-4q-39 -85 -156 -286zM690 1282h-31l-116 260h53z" />
    <glyph glyph-name="Aacute" unicode="&#xc1;" horiz-adv-x="1048" 
d="M901 0l-94 418h-584l-237 -418h-47l690 1206h47l268 -1206h-43zM487 877l-239 -418h551l-92 415q-19 84 -34 156.5t-21 102.5l-5 30h-4q-39 -85 -156 -286zM680 1282h-35l176 260h62z" />
    <glyph glyph-name="Acircumflex" unicode="&#xc2;" horiz-adv-x="1048" 
d="M901 0l-94 418h-584l-237 -418h-47l690 1206h47l268 -1206h-43zM487 877l-239 -418h551l-92 415q-19 84 -34 156.5t-21 102.5l-5 30h-4q-39 -85 -156 -286zM698 1542h25l174 -260h-45l-90 135l-53 86h-4q-34 -39 -87 -90l-135 -131h-49z" />
    <glyph glyph-name="Atilde" unicode="&#xc3;" horiz-adv-x="1048" 
d="M901 0l-94 418h-584l-237 -418h-47l690 1206h47l268 -1206h-43zM487 877l-239 -418h551l-92 415q-19 84 -34 156.5t-21 102.5l-5 30h-4q-39 -85 -156 -286zM461 1321l-25 8q-6 24 -6 47q0 54 33 85.5t80 31.5q59 0 129 -57l63 -54q49 -43 96 -43q44 0 63 33.5t19 100.5
l25 -9q6 -24 6 -47q0 -54 -33 -85.5t-80 -31.5q-58 0 -129 58l-63 53q-49 43 -96 43q-44 0 -63 -33t-19 -100z" />
    <glyph glyph-name="Adieresis" unicode="&#xc4;" horiz-adv-x="1048" 
d="M901 0l-94 418h-584l-237 -418h-47l690 1206h47l268 -1206h-43zM487 877l-239 -418h551l-92 415q-19 84 -34 156.5t-21 102.5l-5 30h-4q-39 -85 -156 -286zM498 1362q0 37 37 37q36 0 36 -37t-36 -37q-37 0 -37 37zM805 1362q0 37 37 37t37 -37t-37 -37t-37 37z" />
    <glyph glyph-name="Aring" unicode="&#xc5;" horiz-adv-x="1048" 
d="M901 0l-94 418h-584l-237 -418h-47l690 1206h47l268 -1206h-43zM487 877l-239 -418h551l-92 415q-19 84 -34 156.5t-21 102.5l-5 30h-4q-39 -85 -156 -286zM680 1305q58 0 93.5 37.5t35.5 93.5q0 45 -26 73.5t-78 28.5q-59 0 -94.5 -37.5t-35.5 -93.5q0 -45 26.5 -73.5
t78.5 -28.5zM680 1270q-68 0 -105.5 38t-37.5 99q0 69 47.5 117.5t120.5 48.5q68 0 105.5 -38t37.5 -99q0 -69 -47.5 -117.5t-120.5 -48.5z" />
    <glyph glyph-name="AE" unicode="&#xc6;" horiz-adv-x="1595" 
d="M1401 0h-643l73 424h-485l-354 -424h-53l1009 1206h662l-6 -41h-598l-97 -538h537l-6 -41h-537l-96 -545h600zM971 1171l-592 -706h459l69 389q16 90 33 169.5t26 113.5l9 34h-4z" />
    <glyph glyph-name="Ccedilla" unicode="&#xc7;" horiz-adv-x="1122" 
d="M672 -248q0 -70 -52.5 -114t-132.5 -44q-65 0 -109.5 25t-66.5 64l29 26q47 -80 147 -80q65 0 104.5 33t39.5 90q0 102 -170 115l49 123q-186 12 -292.5 141.5t-106.5 343.5q0 171 47 312.5t128.5 235t190 145t232.5 51.5q154 0 251 -80.5t121 -220.5l-37 -15
q-24 131 -110 203t-225 72q-118 0 -219.5 -49t-176 -138.5t-117 -222.5t-42.5 -293q0 -202 106.5 -324t290.5 -122q144 0 244.5 63.5t160.5 202.5l37 -21q-119 -286 -442 -286h-10l-35 -92q72 -5 119 -41.5t47 -102.5z" />
    <glyph glyph-name="Egrave" unicode="&#xc8;" 
d="M752 41l-7 -41h-643l209 1206h643l-6 -41h-600l-94 -538h537l-7 -41h-536l-96 -545h600zM672 1282h-31l-117 260h54z" />
    <glyph glyph-name="Eacute" unicode="&#xc9;" 
d="M752 41l-7 -41h-643l209 1206h643l-6 -41h-600l-94 -538h537l-7 -41h-536l-96 -545h600zM662 1282h-35l176 260h61z" />
    <glyph glyph-name="Ecircumflex" unicode="&#xca;" 
d="M752 41l-7 -41h-643l209 1206h643l-6 -41h-600l-94 -538h537l-7 -41h-536l-96 -545h600zM680 1542h25l174 -260h-45l-91 135l-53 86h-4q-33 -39 -86 -90l-135 -131h-49z" />
    <glyph glyph-name="Edieresis" unicode="&#xcb;" 
d="M752 41l-7 -41h-643l209 1206h643l-6 -41h-600l-94 -538h537l-7 -41h-536l-96 -545h600zM479 1362q0 37 37 37t37 -37t-37 -37t-37 37zM786 1362q0 37 37 37t37 -37t-37 -37t-37 37z" />
    <glyph glyph-name="Igrave" unicode="&#xcc;" horiz-adv-x="409" 
d="M311 1206h43l-209 -1206h-43zM371 1282h-31l-117 260h53z" />
    <glyph glyph-name="Iacute" unicode="&#xcd;" horiz-adv-x="409" 
d="M311 1206h43l-209 -1206h-43zM360 1282h-34l176 260h61z" />
    <glyph glyph-name="Icircumflex" unicode="&#xce;" horiz-adv-x="409" 
d="M311 1206h43l-209 -1206h-43zM379 1542h24l175 -260h-46l-90 135l-53 86h-4q-33 -39 -86 -90l-135 -131h-49z" />
    <glyph glyph-name="Idieresis" unicode="&#xcf;" horiz-adv-x="409" 
d="M311 1206h43l-209 -1206h-43zM178 1362q0 37 37 37t37 -37t-37 -37t-37 37zM485 1362q0 37 37 37t37 -37t-37 -37t-37 37z" />
    <glyph glyph-name="Eth" unicode="&#xd0;" horiz-adv-x="1193" 
d="M422 0h-320l101 586h-121l6 41h123l100 579h314q227 0 359 -123t132 -354q0 -350 -183.5 -539.5t-510.5 -189.5zM152 41h272q304 0 476.5 177.5t172.5 510.5q0 210 -120.5 323t-329.5 113h-275l-94 -538h348l-6 -41h-350z" />
    <glyph glyph-name="Ntilde" unicode="&#xd1;" horiz-adv-x="1253" 
d="M362 1206l504 -977l88 -178h4q11 82 31 197l166 958h43l-209 -1206h-51l-504 977l-88 178h-4q-11 -82 -31 -197l-166 -958h-43l209 1206h51zM563 1321l-24 8q-7 28 -7 47q0 54 33 85.5t80 31.5q59 0 129 -57l64 -54q49 -43 96 -43q44 0 63 33.5t19 100.5l24 -9
q7 -28 7 -47q0 -54 -33 -85.5t-80 -31.5q-58 0 -129 58l-64 53q-49 43 -96 43q-44 0 -63 -33t-19 -100z" />
    <glyph glyph-name="Ograve" unicode="&#xd2;" horiz-adv-x="1232" 
d="M555 29q112 0 212 48.5t175 137t118.5 221t43.5 291.5q0 211 -108 331t-294 120q-112 0 -211.5 -49t-174.5 -137t-118.5 -221t-43.5 -292q0 -211 107.5 -330.5t293.5 -119.5zM555 -12q-201 0 -322.5 130.5t-121.5 360.5q0 166 47 306t127 234.5t188 147t229 52.5
q201 0 323 -131t122 -361q0 -166 -47 -306t-127.5 -234t-188.5 -146.5t-229 -52.5zM772 1282h-31l-116 260h53z" />
    <glyph glyph-name="Oacute" unicode="&#xd3;" horiz-adv-x="1232" 
d="M555 29q112 0 212 48.5t175 137t118.5 221t43.5 291.5q0 211 -108 331t-294 120q-112 0 -211.5 -49t-174.5 -137t-118.5 -221t-43.5 -292q0 -211 107.5 -330.5t293.5 -119.5zM555 -12q-201 0 -322.5 130.5t-121.5 360.5q0 166 47 306t127 234.5t188 147t229 52.5
q201 0 323 -131t122 -361q0 -166 -47 -306t-127.5 -234t-188.5 -146.5t-229 -52.5zM762 1282h-35l176 260h62z" />
    <glyph glyph-name="Ocircumflex" unicode="&#xd4;" horiz-adv-x="1232" 
d="M555 29q112 0 212 48.5t175 137t118.5 221t43.5 291.5q0 211 -108 331t-294 120q-112 0 -211.5 -49t-174.5 -137t-118.5 -221t-43.5 -292q0 -211 107.5 -330.5t293.5 -119.5zM555 -12q-201 0 -322.5 130.5t-121.5 360.5q0 166 47 306t127 234.5t188 147t229 52.5
q201 0 323 -131t122 -361q0 -166 -47 -306t-127.5 -234t-188.5 -146.5t-229 -52.5zM780 1542h25l174 -260h-45l-90 135l-53 86h-5q-33 -39 -86 -90l-135 -131h-49z" />
    <glyph glyph-name="Otilde" unicode="&#xd5;" horiz-adv-x="1232" 
d="M555 29q112 0 212 48.5t175 137t118.5 221t43.5 291.5q0 211 -108 331t-294 120q-112 0 -211.5 -49t-174.5 -137t-118.5 -221t-43.5 -292q0 -211 107.5 -330.5t293.5 -119.5zM555 -12q-201 0 -322.5 130.5t-121.5 360.5q0 166 47 306t127 234.5t188 147t229 52.5
q201 0 323 -131t122 -361q0 -166 -47 -306t-127.5 -234t-188.5 -146.5t-229 -52.5zM543 1321l-25 8q-6 24 -6 47q0 54 33 85.5t80 31.5q59 0 129 -57l63 -54q49 -43 96 -43q44 0 63 33.5t19 100.5l25 -9q6 -24 6 -47q0 -54 -33 -85.5t-80 -31.5q-58 0 -129 58l-63 53
q-49 43 -96 43q-44 0 -63 -33t-19 -100z" />
    <glyph glyph-name="Odieresis" unicode="&#xd6;" horiz-adv-x="1232" 
d="M555 29q112 0 212 48.5t175 137t118.5 221t43.5 291.5q0 211 -108 331t-294 120q-112 0 -211.5 -49t-174.5 -137t-118.5 -221t-43.5 -292q0 -211 107.5 -330.5t293.5 -119.5zM555 -12q-201 0 -322.5 130.5t-121.5 360.5q0 166 47 306t127 234.5t188 147t229 52.5
q201 0 323 -131t122 -361q0 -166 -47 -306t-127.5 -234t-188.5 -146.5t-229 -52.5zM580 1362q0 37 36 37q37 0 37 -37t-37 -37q-36 0 -36 37zM887 1362q0 37 37 37t37 -37t-37 -37t-37 37z" />
    <glyph glyph-name="multiply" unicode="&#xd7;" horiz-adv-x="972" 
d="M236 836l245 -297l353 301l24 -33l-352 -299l248 -297l-33 -27l-246 297l-354 -299l-23 33l351 297l-244 297z" />
    <glyph glyph-name="Oslash" unicode="&#xd8;" horiz-adv-x="1232" 
d="M555 -12q-218 0 -340 149l-141 -149l-29 28l145 154q-79 124 -79 309q0 166 47 306t127 234.5t188 147t229 52.5q219 0 340 -152l144 150l28 -29l-147 -156q80 -122 80 -305q0 -166 -47 -306t-127.5 -234t-188.5 -146.5t-229 -52.5zM154 479q0 -163 67 -278l793 833
q-110 144 -312 144q-112 0 -211.5 -49t-174.5 -137t-118.5 -221t-43.5 -292zM555 29q112 0 212 48.5t175 137t118.5 221t43.5 291.5q0 160 -68 274l-790 -833q108 -139 309 -139z" />
    <glyph glyph-name="Ugrave" unicode="&#xd9;" horiz-adv-x="1155" 
d="M1085 1206h43l-139 -805q-73 -413 -461 -413q-184 0 -292.5 99.5t-108.5 274.5q0 54 12 121l125 723h43l-125 -721q-12 -68 -12 -123q0 -160 100.5 -247.5t257.5 -87.5q353 0 418 376zM729 1282h-31l-116 260h53z" />
    <glyph glyph-name="Uacute" unicode="&#xda;" horiz-adv-x="1155" 
d="M1085 1206h43l-139 -805q-73 -413 -461 -413q-184 0 -292.5 99.5t-108.5 274.5q0 54 12 121l125 723h43l-125 -721q-12 -68 -12 -123q0 -160 100.5 -247.5t257.5 -87.5q353 0 418 376zM719 1282h-35l176 260h62z" />
    <glyph glyph-name="Ucircumflex" unicode="&#xdb;" horiz-adv-x="1155" 
d="M1085 1206h43l-139 -805q-73 -413 -461 -413q-184 0 -292.5 99.5t-108.5 274.5q0 54 12 121l125 723h43l-125 -721q-12 -68 -12 -123q0 -160 100.5 -247.5t257.5 -87.5q353 0 418 376zM737 1542h25l174 -260h-45l-90 135l-53 86h-5q-33 -39 -86 -90l-135 -131h-49z" />
    <glyph glyph-name="Udieresis" unicode="&#xdc;" horiz-adv-x="1155" 
d="M1085 1206h43l-139 -805q-73 -413 -461 -413q-184 0 -292.5 99.5t-108.5 274.5q0 54 12 121l125 723h43l-125 -721q-12 -68 -12 -123q0 -160 100.5 -247.5t257.5 -87.5q353 0 418 376zM537 1362q0 37 36 37q37 0 37 -37t-37 -37q-36 0 -36 37zM844 1362q0 37 37 37
t37 -37t-37 -37t-37 37z" />
    <glyph glyph-name="Yacute" unicode="&#xdd;" horiz-adv-x="972" 
d="M205 1206l201 -477l77 -190h4q38 51 144 190l368 477h52l-549 -710l-86 -496h-43l86 496l-299 710h45zM635 1282h-35l176 260h62z" />
    <glyph glyph-name="Thorn" unicode="&#xde;" horiz-adv-x="937" 
d="M307 940l-108 -633h260q194 0 302.5 92.5t108.5 272.5q0 140 -79 204t-238 64h-246zM145 0h-43l209 1206h43l-39 -225h242q356 0 356 -307q0 -196 -121 -302t-329 -106h-273z" />
    <glyph glyph-name="germandbls" unicode="&#xdf;" horiz-adv-x="1030" 
d="M655 1343q-60 0 -113.5 -17.5t-105.5 -57t-91.5 -115t-57.5 -180.5l-207 -1186q-17 -103 -58.5 -161t-127.5 -58q-94 0 -140 61l21 33q51 -57 119 -57q65 0 97.5 46.5t47.5 135.5l207 1184q17 96 49 169.5t71.5 118t89.5 73.5t98 39.5t101 10.5q148 0 231 -72.5
t83 -207.5q0 -78 -31.5 -142t-82.5 -105t-110 -65.5t-120 -31.5v-4q137 -5 227 -91t90 -225q0 -202 -109 -326t-288 -124q-101 0 -168 46.5t-86 131.5l33 18q22 -81 77.5 -119t151.5 -38q146 0 247 109.5t101 301.5q0 138 -103 218.5t-270 80.5h-73l6 37h74q68 0 136 21
t126 60t94.5 103.5t36.5 143.5q0 118 -71.5 179.5t-201.5 61.5z" />
    <glyph glyph-name="agrave" unicode="&#xe0;" horiz-adv-x="1028" 
d="M799 412l22 129q18 102 -6.5 187t-94.5 138.5t-175 53.5q-124 0 -219 -74.5t-145 -199.5t-50 -279q0 -162 73.5 -251t205.5 -89q142 0 251 108t138 277zM911 47l-8 -41q-29 -18 -63 -18q-48 0 -71.5 26.5t-23.5 71.5q0 28 29 184q-32 -116 -132.5 -199t-231.5 -83
q-150 0 -235 96.5t-85 282.5q0 167 56 301.5t160.5 212t238.5 77.5q126 0 209 -74.5t94 -187.5l51 250h33l-137 -790q-9 -61 -9 -70q0 -61 58 -61q32 0 67 22zM621 1098h-31l-117 260h53z" />
    <glyph glyph-name="aacute" unicode="&#xe1;" horiz-adv-x="1028" 
d="M799 412l22 129q18 102 -6.5 187t-94.5 138.5t-175 53.5q-124 0 -219 -74.5t-145 -199.5t-50 -279q0 -162 73.5 -251t205.5 -89q142 0 251 108t138 277zM911 47l-8 -41q-29 -18 -63 -18q-48 0 -71.5 26.5t-23.5 71.5q0 28 29 184q-32 -116 -132.5 -199t-231.5 -83
q-150 0 -235 96.5t-85 282.5q0 167 56 301.5t160.5 212t238.5 77.5q126 0 209 -74.5t94 -187.5l51 250h33l-137 -790q-9 -61 -9 -70q0 -61 58 -61q32 0 67 22zM614 1098h-34l176 260h61z" />
    <glyph glyph-name="acircumflex" unicode="&#xe2;" horiz-adv-x="1028" 
d="M799 412l22 129q18 102 -6.5 187t-94.5 138.5t-175 53.5q-124 0 -219 -74.5t-145 -199.5t-50 -279q0 -162 73.5 -251t205.5 -89q142 0 251 108t138 277zM911 47l-8 -41q-29 -18 -63 -18q-48 0 -71.5 26.5t-23.5 71.5q0 28 29 184q-32 -116 -132.5 -199t-231.5 -83
q-150 0 -235 96.5t-85 282.5q0 167 56 301.5t160.5 212t238.5 77.5q126 0 209 -74.5t94 -187.5l51 250h33l-137 -790q-9 -61 -9 -70q0 -61 58 -61q32 0 67 22zM635 1358h24l175 -260h-46l-90 135l-53 86h-4q-33 -39 -86 -90l-135 -131h-49z" />
    <glyph glyph-name="atilde" unicode="&#xe3;" horiz-adv-x="1028" 
d="M799 412l22 129q18 102 -6.5 187t-94.5 138.5t-175 53.5q-124 0 -219 -74.5t-145 -199.5t-50 -279q0 -162 73.5 -251t205.5 -89q142 0 251 108t138 277zM911 47l-8 -41q-29 -18 -63 -18q-48 0 -71.5 26.5t-23.5 71.5q0 28 29 184q-32 -116 -132.5 -199t-231.5 -83
q-150 0 -235 96.5t-85 282.5q0 167 56 301.5t160.5 212t238.5 77.5q126 0 209 -74.5t94 -187.5l51 250h33l-137 -790q-9 -61 -9 -70q0 -61 58 -61q32 0 67 22zM399 1137l-24 8q-6 24 -6 47q0 55 32.5 86t79.5 31q58 0 129 -58l64 -53q49 -43 96 -43q44 0 63 33t19 100l25 -8
q6 -24 6 -47q0 -54 -33 -85.5t-80 -31.5q-58 0 -129 58l-63 53q-49 43 -97 43q-44 0 -63 -33t-19 -100z" />
    <glyph glyph-name="adieresis" unicode="&#xe4;" horiz-adv-x="1028" 
d="M799 412l22 129q18 102 -6.5 187t-94.5 138.5t-175 53.5q-124 0 -219 -74.5t-145 -199.5t-50 -279q0 -162 73.5 -251t205.5 -89q142 0 251 108t138 277zM911 47l-8 -41q-29 -18 -63 -18q-48 0 -71.5 26.5t-23.5 71.5q0 28 29 184q-32 -116 -132.5 -199t-231.5 -83
q-150 0 -235 96.5t-85 282.5q0 167 56 301.5t160.5 212t238.5 77.5q126 0 209 -74.5t94 -187.5l51 250h33l-137 -790q-9 -61 -9 -70q0 -61 58 -61q32 0 67 22zM436 1219q0 36 37 36t37 -36q0 -37 -37 -37t-37 37zM743 1219q0 36 37 36t37 -36q0 -37 -37 -37t-37 37z" />
    <glyph glyph-name="aring" unicode="&#xe5;" horiz-adv-x="1028" 
d="M799 412l22 129q18 102 -6.5 187t-94.5 138.5t-175 53.5q-124 0 -219 -74.5t-145 -199.5t-50 -279q0 -162 73.5 -251t205.5 -89q142 0 251 108t138 277zM911 47l-8 -41q-29 -18 -63 -18q-48 0 -71.5 26.5t-23.5 71.5q0 28 29 184q-32 -116 -132.5 -199t-231.5 -83
q-150 0 -235 96.5t-85 282.5q0 167 56 301.5t160.5 212t238.5 77.5q126 0 209 -74.5t94 -187.5l51 250h33l-137 -790q-9 -61 -9 -70q0 -61 58 -61q32 0 67 22zM616 1120q58 0 93.5 37.5t35.5 93.5q0 45 -26 74t-78 29q-58 0 -93.5 -37.5t-35.5 -93.5q0 -45 26 -74t78 -29z
M616 1085q-68 0 -105.5 38.5t-37.5 99.5q0 69 47.5 117.5t120.5 48.5q68 0 105.5 -38.5t37.5 -99.5q0 -69 -47.5 -117.5t-120.5 -48.5z" />
    <glyph glyph-name="ae" unicode="&#xe6;" horiz-adv-x="1484" 
d="M1366 502h-643q-10 -54 -10 -127q0 -348 303 -348q126 0 199 57t108 168l37 -12q-34 -119 -119 -185.5t-225 -66.5q-254 0 -322 221q-42 -94 -132 -157.5t-212 -63.5q-132 0 -200 66.5t-68 176.5q0 150 120.5 229t317.5 79h170q23 104 66 180q-3 95 -66.5 149t-169.5 54
q-235 0 -287 -213l-34 10q59 239 321 239q113 0 181 -48t83 -140q58 88 142 138t188 50q146 0 217.5 -82.5t71.5 -220.5q0 -100 -37 -153zM350 25q112 0 204.5 68t125.5 181q-6 47 -6 101q0 73 10 127h-166q-180 0 -287.5 -68.5t-107.5 -202.5q0 -98 59 -152t168 -54z
M1114 920q-147 0 -248 -108.5t-137 -272.5h610q21 41 21 116q0 122 -59.5 193.5t-186.5 71.5z" />
    <glyph glyph-name="ccedilla" unicode="&#xe7;" horiz-adv-x="905" 
d="M520 -248q0 -70 -52 -114t-132 -44q-65 0 -109.5 25t-66.5 64l28 26q47 -80 148 -80q65 0 104 33t39 90q0 102 -170 115l51 127q-131 21 -200.5 117t-69.5 264q0 88 16.5 171.5t52.5 158.5t87 131t124.5 89t161.5 33q150 0 223.5 -85.5t73.5 -229.5l-38 -4q0 125 -63 203
t-196 78q-97 0 -175 -46t-126.5 -123.5t-74 -173.5t-25.5 -202q0 -175 78.5 -261.5t226.5 -86.5q251 0 314 227l36 -12q-30 -110 -115.5 -182t-234.5 -72q-8 0 -23 1t-22 1l-37 -94q72 -5 119 -41.5t47 -102.5z" />
    <glyph glyph-name="egrave" unicode="&#xe8;" horiz-adv-x="903" 
d="M741 252l37 -12q-34 -119 -119 -185.5t-225 -66.5q-167 0 -255.5 97.5t-88.5 289.5q0 113 28.5 216.5t82 186t139.5 131.5t192 49q146 0 217.5 -82.5t71.5 -220.5q0 -100 -37 -153h-645q-8 -55 -8 -127q0 -348 303 -348q126 0 199 57t108 168zM532 920
q-152 0 -251.5 -106.5t-133.5 -274.5h611q20 39 20 116q0 122 -59.5 193.5t-186.5 71.5zM580 1098h-31l-117 260h53z" />
    <glyph glyph-name="eacute" unicode="&#xe9;" horiz-adv-x="903" 
d="M741 252l37 -12q-34 -119 -119 -185.5t-225 -66.5q-167 0 -255.5 97.5t-88.5 289.5q0 113 28.5 216.5t82 186t139.5 131.5t192 49q146 0 217.5 -82.5t71.5 -220.5q0 -100 -37 -153h-645q-8 -55 -8 -127q0 -348 303 -348q126 0 199 57t108 168zM532 920
q-152 0 -251.5 -106.5t-133.5 -274.5h611q20 39 20 116q0 122 -59.5 193.5t-186.5 71.5zM573 1098h-34l176 260h61z" />
    <glyph glyph-name="ecircumflex" unicode="&#xea;" horiz-adv-x="903" 
d="M741 252l37 -12q-34 -119 -119 -185.5t-225 -66.5q-167 0 -255.5 97.5t-88.5 289.5q0 113 28.5 216.5t82 186t139.5 131.5t192 49q146 0 217.5 -82.5t71.5 -220.5q0 -100 -37 -153h-645q-8 -55 -8 -127q0 -348 303 -348q126 0 199 57t108 168zM532 920
q-152 0 -251.5 -106.5t-133.5 -274.5h611q20 39 20 116q0 122 -59.5 193.5t-186.5 71.5zM596 1358h25l174 -260h-45l-91 135l-53 86h-4q-33 -39 -86 -90l-135 -131h-49z" />
    <glyph glyph-name="edieresis" unicode="&#xeb;" horiz-adv-x="903" 
d="M741 252l37 -12q-34 -119 -119 -185.5t-225 -66.5q-167 0 -255.5 97.5t-88.5 289.5q0 113 28.5 216.5t82 186t139.5 131.5t192 49q146 0 217.5 -82.5t71.5 -220.5q0 -100 -37 -153h-645q-8 -55 -8 -127q0 -348 303 -348q126 0 199 57t108 168zM532 920
q-152 0 -251.5 -106.5t-133.5 -274.5h611q20 39 20 116q0 122 -59.5 193.5t-186.5 71.5zM395 1219q0 36 37 36t37 -36q0 -37 -37 -37t-37 37zM702 1219q0 36 37 36t37 -36q0 -37 -37 -37t-37 37z" />
    <glyph glyph-name="igrave" unicode="&#xec;" horiz-adv-x="382" 
d="M287 946l-137 -790q-9 -61 -9 -70q0 -61 58 -61q32 0 67 22l-8 -41q-29 -18 -63 -18q-48 0 -71.5 26.5t-23.5 71.5q0 19 6 57l140 803h41zM313 1098h-30l-117 260h53z" />
    <glyph glyph-name="iacute" unicode="&#xed;" horiz-adv-x="382" 
d="M287 946l-137 -790q-9 -61 -9 -70q0 -61 58 -61q32 0 67 22l-8 -41q-29 -18 -63 -18q-48 0 -71.5 26.5t-23.5 71.5q0 19 6 57l140 803h41zM305 1098h-35l176 260h62z" />
    <glyph glyph-name="icircumflex" unicode="&#xee;" horiz-adv-x="382" 
d="M287 946l-137 -790q-9 -61 -9 -70q0 -61 58 -61q32 0 67 22l-8 -41q-29 -18 -63 -18q-48 0 -71.5 26.5t-23.5 71.5q0 19 6 57l140 803h41zM328 1358h24l174 -260h-45l-90 135l-53 86h-4q-33 -39 -86 -90l-135 -131h-50z" />
    <glyph glyph-name="idieresis" unicode="&#xef;" horiz-adv-x="382" 
d="M287 946l-137 -790q-9 -61 -9 -70q0 -61 58 -61q32 0 67 22l-8 -41q-29 -18 -63 -18q-48 0 -71.5 26.5t-23.5 71.5q0 19 6 57l140 803h41zM127 1219q0 36 37 36t37 -36q0 -37 -37 -37t-37 37zM434 1219q0 36 37 36t37 -36q0 -37 -37 -37t-37 37z" />
    <glyph glyph-name="eth" unicode="&#xf0;" horiz-adv-x="956" 
d="M315 1061l-10 33l309 77q-135 116 -356 179l31 26q235 -70 368 -194l197 49l10 -33l-178 -45q180 -197 180 -582q0 -113 -28 -216.5t-81.5 -186t-139 -131.5t-191.5 -49q-162 0 -249 98t-87 289q0 113 28 216.5t81.5 186t139 131.5t191.5 49q98 0 172 -44t105 -109h4
q-42 209 -168 338zM426 27q127 0 219.5 78.5t136 199.5t43.5 266q0 176 -76 262.5t-219 86.5q-96 0 -173.5 -45.5t-125.5 -122t-74 -173.5t-26 -204q0 -176 76 -262t219 -86z" />
    <glyph glyph-name="ntilde" unicode="&#xf1;" horiz-adv-x="983" 
d="M719 143l78 451q16 94 16 141q0 85 -51 135t-146 50q-139 0 -248 -110t-139 -288l-90 -522h-41l164 946h33l-37 -258q40 114 135 192t223 78q110 0 174 -57.5t64 -165.5q0 -51 -16 -141l-76 -438q-8 -54 -8 -70q0 -61 57 -61q33 0 68 22l-9 -41q-29 -18 -63 -18
q-48 0 -71 26.5t-23 71.5q0 19 6 57zM401 1137l-24 8q-6 24 -6 47q0 55 32.5 86t79.5 31q58 0 129 -58l64 -53q49 -43 96 -43q44 0 63 33t19 100l25 -8q6 -24 6 -47q0 -54 -33 -85.5t-80 -31.5q-58 0 -129 58l-63 53q-49 43 -97 43q-44 0 -63 -33t-19 -100z" />
    <glyph glyph-name="ograve" unicode="&#xf2;" horiz-adv-x="956" 
d="M426 27q127 0 219.5 78.5t136 199.5t43.5 266q0 176 -76 262.5t-219 86.5q-96 0 -173.5 -45.5t-125.5 -122t-74 -173.5t-26 -204q0 -176 76 -262t219 -86zM426 -12q-162 0 -249 98t-87 289q0 113 28 216.5t81.5 186t139 131.5t191.5 49q162 0 249 -98t87 -289
q0 -113 -28 -216.5t-81.5 -186t-139 -131.5t-191.5 -49zM602 1098h-31l-116 260h53z" />
    <glyph glyph-name="oacute" unicode="&#xf3;" horiz-adv-x="956" 
d="M426 27q127 0 219.5 78.5t136 199.5t43.5 266q0 176 -76 262.5t-219 86.5q-96 0 -173.5 -45.5t-125.5 -122t-74 -173.5t-26 -204q0 -176 76 -262t219 -86zM426 -12q-162 0 -249 98t-87 289q0 113 28 216.5t81.5 186t139 131.5t191.5 49q162 0 249 -98t87 -289
q0 -113 -28 -216.5t-81.5 -186t-139 -131.5t-191.5 -49zM596 1098h-35l176 260h62z" />
    <glyph glyph-name="ocircumflex" unicode="&#xf4;" horiz-adv-x="956" 
d="M426 27q127 0 219.5 78.5t136 199.5t43.5 266q0 176 -76 262.5t-219 86.5q-96 0 -173.5 -45.5t-125.5 -122t-74 -173.5t-26 -204q0 -176 76 -262t219 -86zM426 -12q-162 0 -249 98t-87 289q0 113 28 216.5t81.5 186t139 131.5t191.5 49q162 0 249 -98t87 -289
q0 -113 -28 -216.5t-81.5 -186t-139 -131.5t-191.5 -49zM618 1358h25l174 -260h-45l-90 135l-53 86h-4q-33 -39 -86 -90l-136 -131h-49z" />
    <glyph glyph-name="otilde" unicode="&#xf5;" horiz-adv-x="956" 
d="M426 27q127 0 219.5 78.5t136 199.5t43.5 266q0 176 -76 262.5t-219 86.5q-96 0 -173.5 -45.5t-125.5 -122t-74 -173.5t-26 -204q0 -176 76 -262t219 -86zM426 -12q-162 0 -249 98t-87 289q0 113 28 216.5t81.5 186t139 131.5t191.5 49q162 0 249 -98t87 -289
q0 -113 -28 -216.5t-81.5 -186t-139 -131.5t-191.5 -49zM383 1137l-25 8q-6 24 -6 47q0 54 33 85.5t80 31.5q58 0 129 -58l63 -53q49 -43 97 -43q44 0 63 33t19 100l24 -8q6 -24 6 -47q0 -55 -32.5 -86t-79.5 -31q-58 0 -129 58l-64 53q-49 43 -96 43q-44 0 -63 -33
t-19 -100z" />
    <glyph glyph-name="odieresis" unicode="&#xf6;" horiz-adv-x="956" 
d="M426 27q127 0 219.5 78.5t136 199.5t43.5 266q0 176 -76 262.5t-219 86.5q-96 0 -173.5 -45.5t-125.5 -122t-74 -173.5t-26 -204q0 -176 76 -262t219 -86zM426 -12q-162 0 -249 98t-87 289q0 113 28 216.5t81.5 186t139 131.5t191.5 49q162 0 249 -98t87 -289
q0 -113 -28 -216.5t-81.5 -186t-139 -131.5t-191.5 -49zM418 1219q0 36 37 36t37 -36q0 -37 -37 -37t-37 37zM725 1219q0 36 37 36t37 -36q0 -37 -37 -37t-37 37z" />
    <glyph glyph-name="divide" unicode="&#xf7;" horiz-adv-x="1015" 
d="M102 528h836l-8 -41h-836zM516 842q0 22 13.5 36.5t35.5 14.5t36.5 -14.5t14.5 -36.5t-14.5 -35.5t-36.5 -13.5t-35.5 13.5t-13.5 35.5zM393 160q0 22 13.5 36.5t35.5 14.5t37 -14.5t15 -36.5q0 -21 -15 -35t-37 -14t-35.5 13.5t-13.5 35.5z" />
    <glyph glyph-name="oslash" unicode="&#xf8;" horiz-adv-x="956" 
d="M426 -12q-192 0 -274 131l-127 -131l-25 26l133 140q-43 85 -43 221q0 113 28 216.5t81.5 186t139 131.5t191.5 49q180 0 265 -116l112 116l25 -26l-119 -123q53 -89 53 -238q0 -113 -28 -216.5t-81.5 -186t-139 -131.5t-191.5 -49zM426 27q127 0 219.5 78.5t136 199.5
t43.5 266q0 127 -41 207l-604 -628q72 -123 246 -123zM131 375q0 -107 33 -191l602 627q-75 109 -236 109q-96 0 -173.5 -45.5t-125.5 -122t-74 -173.5t-26 -204z" />
    <glyph glyph-name="ugrave" unicode="&#xf9;" 
d="M844 946l-137 -790q-9 -61 -9 -70q0 -61 58 -61q32 0 67 22l-8 -41q-29 -18 -63 -18q-48 0 -71.5 26.5t-23.5 71.5q0 27 27 174q-40 -116 -131.5 -194t-218.5 -78q-110 0 -175 57.5t-65 165.5q0 57 12 119l107 616h41l-107 -618q-12 -70 -12 -117q0 -85 52 -134.5
t147 -49.5q140 0 244 108.5t135 288.5l90 522h41zM567 1098h-30l-117 260h53z" />
    <glyph glyph-name="uacute" unicode="&#xfa;" 
d="M844 946l-137 -790q-9 -61 -9 -70q0 -61 58 -61q32 0 67 22l-8 -41q-29 -18 -63 -18q-48 0 -71.5 26.5t-23.5 71.5q0 27 27 174q-40 -116 -131.5 -194t-218.5 -78q-110 0 -175 57.5t-65 165.5q0 57 12 119l107 616h41l-107 -618q-12 -70 -12 -117q0 -85 52 -134.5
t147 -49.5q140 0 244 108.5t135 288.5l90 522h41zM561 1098h-35l176 260h62z" />
    <glyph glyph-name="ucircumflex" unicode="&#xfb;" 
d="M844 946l-137 -790q-9 -61 -9 -70q0 -61 58 -61q32 0 67 22l-8 -41q-29 -18 -63 -18q-48 0 -71.5 26.5t-23.5 71.5q0 27 27 174q-40 -116 -131.5 -194t-218.5 -78q-110 0 -175 57.5t-65 165.5q0 57 12 119l107 616h41l-107 -618q-12 -70 -12 -117q0 -85 52 -134.5
t147 -49.5q140 0 244 108.5t135 288.5l90 522h41zM582 1358h24l174 -260h-45l-90 135l-53 86h-4q-33 -39 -86 -90l-135 -131h-50z" />
    <glyph glyph-name="udieresis" unicode="&#xfc;" 
d="M844 946l-137 -790q-9 -61 -9 -70q0 -61 58 -61q32 0 67 22l-8 -41q-29 -18 -63 -18q-48 0 -71.5 26.5t-23.5 71.5q0 27 27 174q-40 -116 -131.5 -194t-218.5 -78q-110 0 -175 57.5t-65 165.5q0 57 12 119l107 616h41l-107 -618q-12 -70 -12 -117q0 -85 52 -134.5
t147 -49.5q140 0 244 108.5t135 288.5l90 522h41zM383 1219q0 36 37 36t37 -36q0 -37 -37 -37t-37 37zM690 1219q0 36 37 36t37 -36q0 -37 -37 -37t-37 37z" />
    <glyph glyph-name="yacute" unicode="&#xfd;" horiz-adv-x="849" 
d="M279 0l-142 946h39l103 -674q11 -71 18.5 -128.5t9.5 -79.5l2 -21h4q35 69 127 223l406 680h45l-711 -1190q-63 -105 -113 -148.5t-128 -43.5q-90 0 -144 61l23 35q55 -59 121 -59q63 0 108 39.5t100 134.5zM537 1098h-35l176 260h61z" />
    <glyph glyph-name="thorn" unicode="&#xfe;" horiz-adv-x="1026" 
d="M373 1368l-121 -692q32 116 132.5 199t231.5 83q150 0 235 -96t85 -282q0 -167 -56 -301.5t-160.5 -212.5t-238.5 -78q-126 0 -209 74.5t-94 187.5l-115 -666h-38l309 1784h39zM227 530l-22 -129q-18 -100 6.5 -184t94.5 -137t175 -53q124 0 219 74.5t145 199.5t50 279
q0 162 -73.5 251t-205.5 89q-142 0 -251 -110t-138 -280z" />
    <glyph glyph-name="ydieresis" unicode="&#xff;" horiz-adv-x="849" 
d="M279 0l-142 946h39l103 -674q11 -71 18.5 -128.5t9.5 -79.5l2 -21h4q35 69 127 223l406 680h45l-711 -1190q-63 -105 -113 -148.5t-128 -43.5q-90 0 -144 61l23 35q55 -59 121 -59q63 0 108 39.5t100 134.5zM358 1219q0 36 37 36t37 -36q0 -37 -37 -37t-37 37zM666 1219
q0 36 36 36q37 0 37 -36q0 -37 -37 -37q-36 0 -36 37z" />
    <glyph glyph-name="Amacron" unicode="&#x100;" horiz-adv-x="1048" 
d="M901 0l-94 418h-584l-237 -418h-47l690 1206h47l268 -1206h-43zM487 877l-239 -418h551l-92 415q-19 84 -34 156.5t-21 102.5l-5 30h-4q-39 -85 -156 -286zM868 1341h-381l7 39h380z" />
    <glyph glyph-name="amacron" unicode="&#x101;" horiz-adv-x="1028" 
d="M799 412l22 129q18 102 -6.5 187t-94.5 138.5t-175 53.5q-124 0 -219 -74.5t-145 -199.5t-50 -279q0 -162 73.5 -251t205.5 -89q142 0 251 108t138 277zM911 47l-8 -41q-29 -18 -63 -18q-48 0 -71.5 26.5t-23.5 71.5q0 28 29 184q-32 -116 -132.5 -199t-231.5 -83
q-150 0 -235 96.5t-85 282.5q0 167 56 301.5t160.5 212t238.5 77.5q126 0 209 -74.5t94 -187.5l51 250h33l-137 -790q-9 -61 -9 -70q0 -61 58 -61q32 0 67 22zM807 1157h-381l6 39h381z" />
    <glyph glyph-name="Abreve" unicode="&#x102;" horiz-adv-x="1048" 
d="M901 0l-94 418h-584l-237 -418h-47l690 1206h47l268 -1206h-43zM487 877l-239 -418h551l-92 415q-19 84 -34 156.5t-21 102.5l-5 30h-4q-39 -85 -156 -286zM672 1272q-89 0 -136 45t-47 131q0 21 7 68h36q-4 -27 -4 -68q0 -67 38 -103t106 -36q178 0 227 207h35
q-43 -244 -262 -244z" />
    <glyph glyph-name="abreve" unicode="&#x103;" horiz-adv-x="1028" 
d="M799 412l22 129q18 102 -6.5 187t-94.5 138.5t-175 53.5q-124 0 -219 -74.5t-145 -199.5t-50 -279q0 -162 73.5 -251t205.5 -89q142 0 251 108t138 277zM911 47l-8 -41q-29 -18 -63 -18q-48 0 -71.5 26.5t-23.5 71.5q0 28 29 184q-32 -116 -132.5 -199t-231.5 -83
q-150 0 -235 96.5t-85 282.5q0 167 56 301.5t160.5 212t238.5 77.5q126 0 209 -74.5t94 -187.5l51 250h33l-137 -790q-9 -61 -9 -70q0 -61 58 -61q32 0 67 22zM610 1087q-89 0 -135.5 45.5t-46.5 131.5q0 26 6 67h37q-4 -27 -4 -67q0 -67 37.5 -103.5t105.5 -36.5
q179 0 228 207h34q-43 -244 -262 -244z" />
    <glyph glyph-name="Aogonek" unicode="&#x104;" horiz-adv-x="1048" 
d="M913 -293l21 -24q-63 -70 -146 -70q-110 0 -110 108q0 78 61.5 154t159.5 133l-92 410h-584l-237 -418h-47l690 1206h47l268 -1206q-99 -58 -161 -129.5t-62 -149.5q0 -71 74 -71q64 0 118 57zM487 877l-239 -418h551l-92 415q-19 84 -34 156.5t-21 102.5l-5 30h-4
q-39 -85 -156 -286z" />
    <glyph glyph-name="aogonek" unicode="&#x105;" horiz-adv-x="1028" 
d="M856 -293l21 -24q-63 -70 -146 -70q-110 0 -110 108q0 72 52 143t138 128q-66 12 -66 94q0 21 29 184q-32 -116 -132.5 -199t-231.5 -83q-150 0 -235 96.5t-85 282.5q0 167 56 301.5t160.5 212t238.5 77.5q126 0 209 -74.5t94 -187.5l51 250h33l-137 -790q-9 -61 -9 -70
q0 -61 58 -61q32 0 67 22l-8 -41q-41 -20 -77.5 -44t-75.5 -60t-62.5 -83t-23.5 -98q0 -71 73 -71q65 0 119 57zM799 412l22 129q18 102 -6.5 187t-94.5 138.5t-175 53.5q-124 0 -219 -74.5t-145 -199.5t-50 -279q0 -162 73.5 -251t205.5 -89q142 0 251 108t138 277z" />
    <glyph glyph-name="Cacute" unicode="&#x106;" horiz-adv-x="1122" 
d="M551 -12q-203 0 -321.5 131.5t-118.5 355.5q0 171 47 312.5t128.5 235t190 145t232.5 51.5q154 0 251 -80.5t121 -220.5l-37 -15q-24 131 -110 203t-225 72q-118 0 -219.5 -49t-176 -138.5t-117 -222.5t-42.5 -293q0 -202 106.5 -324t290.5 -122q144 0 244.5 63.5
t160.5 202.5l37 -21q-119 -286 -442 -286zM766 1282h-35l176 260h62z" />
    <glyph glyph-name="cacute" unicode="&#x107;" horiz-adv-x="905" 
d="M131 375q0 -175 78.5 -261.5t226.5 -86.5q251 0 314 227l36 -12q-30 -110 -115.5 -182t-234.5 -72q-165 0 -255.5 98t-90.5 289q0 88 16.5 171.5t52.5 158.5t87 131t124.5 89t161.5 33q150 0 223.5 -85.5t73.5 -229.5l-38 -4q0 125 -63 203t-196 78q-97 0 -175 -46
t-126.5 -123.5t-74 -173.5t-25.5 -202zM578 1098h-35l176 260h61z" />
    <glyph glyph-name="Ccircumflex" unicode="&#x108;" horiz-adv-x="1122" 
d="M551 -12q-203 0 -321.5 131.5t-118.5 355.5q0 171 47 312.5t128.5 235t190 145t232.5 51.5q154 0 251 -80.5t121 -220.5l-37 -15q-24 131 -110 203t-225 72q-118 0 -219.5 -49t-176 -138.5t-117 -222.5t-42.5 -293q0 -202 106.5 -324t290.5 -122q144 0 244.5 63.5
t160.5 202.5l37 -21q-119 -286 -442 -286zM784 1542h25l174 -260h-45l-90 135l-53 86h-4q-33 -39 -86 -90l-136 -131h-49z" />
    <glyph glyph-name="ccircumflex" unicode="&#x109;" horiz-adv-x="905" 
d="M131 375q0 -175 78.5 -261.5t226.5 -86.5q251 0 314 227l36 -12q-30 -110 -115.5 -182t-234.5 -72q-165 0 -255.5 98t-90.5 289q0 88 16.5 171.5t52.5 158.5t87 131t124.5 89t161.5 33q150 0 223.5 -85.5t73.5 -229.5l-38 -4q0 125 -63 203t-196 78q-97 0 -175 -46
t-126.5 -123.5t-74 -173.5t-25.5 -202zM600 1358h25l174 -260h-45l-90 135l-54 86h-4q-33 -39 -86 -90l-135 -131h-49z" />
    <glyph glyph-name="Cdotaccent" unicode="&#x10a;" horiz-adv-x="1122" 
d="M551 -12q-203 0 -321.5 131.5t-118.5 355.5q0 171 47 312.5t128.5 235t190 145t232.5 51.5q154 0 251 -80.5t121 -220.5l-37 -15q-24 131 -110 203t-225 72q-118 0 -219.5 -49t-176 -138.5t-117 -222.5t-42.5 -293q0 -202 106.5 -324t290.5 -122q144 0 244.5 63.5
t160.5 202.5l37 -21q-119 -286 -442 -286zM737 1362q0 37 37 37t37 -37t-37 -37t-37 37z" />
    <glyph glyph-name="cdotaccent" unicode="&#x10b;" horiz-adv-x="905" 
d="M131 375q0 -175 78.5 -261.5t226.5 -86.5q251 0 314 227l36 -12q-30 -110 -115.5 -182t-234.5 -72q-165 0 -255.5 98t-90.5 289q0 88 16.5 171.5t52.5 158.5t87 131t124.5 89t161.5 33q150 0 223.5 -85.5t73.5 -229.5l-38 -4q0 125 -63 203t-196 78q-97 0 -175 -46
t-126.5 -123.5t-74 -173.5t-25.5 -202zM553 1219q0 36 37 36t37 -36q0 -37 -37 -37t-37 37z" />
    <glyph glyph-name="Ccaron" unicode="&#x10c;" horiz-adv-x="1122" 
d="M551 -12q-203 0 -321.5 131.5t-118.5 355.5q0 171 47 312.5t128.5 235t190 145t232.5 51.5q154 0 251 -80.5t121 -220.5l-37 -15q-24 131 -110 203t-225 72q-118 0 -219.5 -49t-176 -138.5t-117 -222.5t-42.5 -293q0 -202 106.5 -324t290.5 -122q144 0 244.5 63.5
t160.5 202.5l37 -21q-119 -286 -442 -286zM764 1282h-25l-174 260h45l90 -135l54 -86h4q33 39 86 90l135 131h49z" />
    <glyph glyph-name="ccaron" unicode="&#x10d;" horiz-adv-x="905" 
d="M131 375q0 -175 78.5 -261.5t226.5 -86.5q251 0 314 227l36 -12q-30 -110 -115.5 -182t-234.5 -72q-165 0 -255.5 98t-90.5 289q0 88 16.5 171.5t52.5 158.5t87 131t124.5 89t161.5 33q150 0 223.5 -85.5t73.5 -229.5l-38 -4q0 125 -63 203t-196 78q-97 0 -175 -46
t-126.5 -123.5t-74 -173.5t-25.5 -202zM584 1098h-25l-174 260h45l90 -135l53 -86h5q33 39 86 90l135 131h49z" />
    <glyph glyph-name="Dcaron" unicode="&#x10e;" horiz-adv-x="1193" 
d="M152 41h272q304 0 476.5 177.5t172.5 510.5q0 210 -120.5 323t-329.5 113h-275zM422 0h-320l209 1206h314q227 0 359 -123t132 -354q0 -350 -183.5 -539.5t-510.5 -189.5zM694 1282h-24l-174 260h45l90 -135l53 -86h4q33 39 86 90l135 131h49z" />
    <glyph glyph-name="dcaron" unicode="&#x10f;" horiz-adv-x="1028" 
d="M799 412l22 129q18 102 -6.5 187t-94.5 138.5t-175 53.5q-124 0 -219 -74.5t-145 -199.5t-50 -279q0 -162 73.5 -251t205.5 -89q142 0 251 108t138 277zM774 270q-32 -116 -132.5 -199t-231.5 -83q-150 0 -235 96.5t-85 282.5q0 167 56 301.5t160.5 212t238.5 77.5
q126 0 209 -74.5t94 -187.5l117 672h41l-211 -1212q-9 -61 -9 -70q0 -61 58 -61q32 0 67 22l-8 -41q-29 -18 -63 -18q-48 0 -71.5 26.5t-23.5 71.5q0 21 29 184zM1202 1368l-110 -358h-33l96 358h47z" />
    <glyph glyph-name="Dcroat" unicode="&#x110;" horiz-adv-x="1193" 
d="M422 0h-320l101 586h-121l6 41h123l100 579h314q227 0 359 -123t132 -354q0 -350 -183.5 -539.5t-510.5 -189.5zM152 41h272q304 0 476.5 177.5t172.5 510.5q0 210 -120.5 323t-329.5 113h-275l-94 -538h348l-6 -41h-350z" />
    <glyph glyph-name="dcroat" unicode="&#x111;" horiz-adv-x="1028" 
d="M561 1128l6 37h361l37 203h41l-37 -203h149l-6 -37h-149l-168 -972q-9 -61 -9 -70q0 -61 58 -61q32 0 67 22l-8 -41q-29 -18 -63 -18q-48 0 -71.5 26.5t-23.5 71.5q0 21 29 184q-32 -116 -132.5 -199t-231.5 -83q-150 0 -235 96.5t-85 282.5q0 167 56 301.5t160.5 212
t238.5 77.5q126 0 209 -74.5t94 -187.5l74 432h-361zM799 412l22 129q18 102 -6.5 187t-94.5 138.5t-175 53.5q-124 0 -219 -74.5t-145 -199.5t-50 -279q0 -162 73.5 -251t205.5 -89q142 0 251 108t138 277z" />
    <glyph glyph-name="Emacron" unicode="&#x112;" 
d="M752 41l-7 -41h-643l209 1206h643l-6 -41h-600l-94 -538h537l-7 -41h-536l-96 -545h600zM850 1341h-381l6 39h381z" />
    <glyph glyph-name="emacron" unicode="&#x113;" horiz-adv-x="903" 
d="M741 252l37 -12q-34 -119 -119 -185.5t-225 -66.5q-167 0 -255.5 97.5t-88.5 289.5q0 113 28.5 216.5t82 186t139.5 131.5t192 49q146 0 217.5 -82.5t71.5 -220.5q0 -100 -37 -153h-645q-8 -55 -8 -127q0 -348 303 -348q126 0 199 57t108 168zM532 920
q-152 0 -251.5 -106.5t-133.5 -274.5h611q20 39 20 116q0 122 -59.5 193.5t-186.5 71.5zM766 1157h-381l6 39h381z" />
    <glyph glyph-name="Ebreve" unicode="&#x114;" 
d="M752 41l-7 -41h-643l209 1206h643l-6 -41h-600l-94 -538h537l-7 -41h-536l-96 -545h600zM653 1272q-89 0 -135.5 45t-46.5 131q0 28 6 68h37q-4 -27 -4 -68q0 -67 37.5 -103t105.5 -36q179 0 228 207h34q-43 -244 -262 -244z" />
    <glyph glyph-name="ebreve" unicode="&#x115;" horiz-adv-x="903" 
d="M741 252l37 -12q-34 -119 -119 -185.5t-225 -66.5q-167 0 -255.5 97.5t-88.5 289.5q0 113 28.5 216.5t82 186t139.5 131.5t192 49q146 0 217.5 -82.5t71.5 -220.5q0 -100 -37 -153h-645q-8 -55 -8 -127q0 -348 303 -348q126 0 199 57t108 168zM532 920
q-152 0 -251.5 -106.5t-133.5 -274.5h611q20 39 20 116q0 122 -59.5 193.5t-186.5 71.5zM571 1087q-89 0 -135.5 45.5t-46.5 131.5q0 26 6 67h37q-4 -27 -4 -67q0 -67 37.5 -103.5t105.5 -36.5q179 0 228 207h35q-22 -122 -89 -183t-174 -61z" />
    <glyph glyph-name="Edotaccent" unicode="&#x116;" 
d="M752 41l-7 -41h-643l209 1206h643l-6 -41h-600l-94 -538h537l-7 -41h-536l-96 -545h600zM633 1362q0 37 37 37t37 -37t-37 -37t-37 37z" />
    <glyph glyph-name="edotaccent" unicode="&#x117;" horiz-adv-x="903" 
d="M741 252l37 -12q-34 -119 -119 -185.5t-225 -66.5q-167 0 -255.5 97.5t-88.5 289.5q0 113 28.5 216.5t82 186t139.5 131.5t192 49q146 0 217.5 -82.5t71.5 -220.5q0 -100 -37 -153h-645q-8 -55 -8 -127q0 -348 303 -348q126 0 199 57t108 168zM532 920
q-152 0 -251.5 -106.5t-133.5 -274.5h611q20 39 20 116q0 122 -59.5 193.5t-186.5 71.5zM549 1219q0 36 37 36t37 -36q0 -37 -37 -37t-37 37z" />
    <glyph glyph-name="Eogonek" unicode="&#x118;" 
d="M715 -293l20 -24q-63 -70 -145 -70q-53 0 -82 27.5t-29 80.5q0 75 57 148.5t148 130.5h-582l209 1206h643l-6 -41h-600l-94 -538h537l-7 -41h-536l-96 -545h600l-7 -41q-99 -58 -161 -129.5t-62 -149.5q0 -71 74 -71q65 0 119 57z" />
    <glyph glyph-name="eogonek" unicode="&#x119;" horiz-adv-x="903" 
d="M549 -281l20 -24q-63 -70 -145 -70q-53 0 -82 28t-29 81q0 70 45 138t123 118q-8 0 -23.5 -1t-23.5 -1q-167 0 -255.5 97.5t-88.5 289.5q0 113 28.5 216.5t82 186t139.5 131.5t192 49q146 0 217.5 -82.5t71.5 -220.5q0 -100 -37 -153h-645q-8 -55 -8 -127
q0 -348 303 -348q126 0 199 57t108 168l37 -12q-25 -86 -77 -143.5t-138 -92.5q-93 -38 -150 -113t-57 -157q0 -72 74 -72q65 0 119 57zM532 920q-152 0 -251.5 -106.5t-133.5 -274.5h611q20 39 20 116q0 122 -59.5 193.5t-186.5 71.5z" />
    <glyph glyph-name="Ecaron" unicode="&#x11a;" 
d="M752 41l-7 -41h-643l209 1206h643l-6 -41h-600l-94 -538h537l-7 -41h-536l-96 -545h600zM659 1282h-24l-174 260h45l90 -135l53 -86h4q33 39 86 90l135 131h50z" />
    <glyph glyph-name="ecaron" unicode="&#x11b;" horiz-adv-x="903" 
d="M741 252l37 -12q-34 -119 -119 -185.5t-225 -66.5q-167 0 -255.5 97.5t-88.5 289.5q0 113 28.5 216.5t82 186t139.5 131.5t192 49q146 0 217.5 -82.5t71.5 -220.5q0 -100 -37 -153h-645q-8 -55 -8 -127q0 -348 303 -348q126 0 199 57t108 168zM532 920
q-152 0 -251.5 -106.5t-133.5 -274.5h611q20 39 20 116q0 122 -59.5 193.5t-186.5 71.5zM580 1098h-25l-174 260h45l90 -135l53 -86h4q33 39 86 90l136 131h49z" />
    <glyph glyph-name="Gcircumflex" unicode="&#x11c;" horiz-adv-x="1153" 
d="M653 559h396l-103 -559h-35l39 262q-40 -120 -147 -197t-252 -77q-203 0 -321.5 131.5t-118.5 355.5q0 171 47 312.5t128.5 235t190 145t232.5 51.5q154 0 251 -80.5t121 -220.5l-37 -15q-24 131 -110 203t-225 72q-118 0 -219.5 -49t-176 -138.5t-117 -222.5t-42.5 -293
q0 -202 106.5 -324t290.5 -122q158 0 280.5 111.5t153.5 303.5l12 74h-352zM768 1542h25l174 -260h-45l-91 135l-53 86h-4q-33 -39 -86 -90l-135 -131h-49z" />
    <glyph glyph-name="gcircumflex" unicode="&#x11d;" horiz-adv-x="978" 
d="M725 -31l53 301q-32 -116 -132.5 -199t-231.5 -83q-150 0 -235 96.5t-85 282.5q0 167 56 301.5t160.5 212t238.5 77.5q126 0 209 -74.5t94 -187.5l51 250h33l-170 -977q-34 -197 -141 -299t-283 -102q-149 0 -237.5 64.5t-98.5 191.5l37 14q22 -231 299 -231
q317 0 383 362zM803 412l22 129q18 102 -6.5 187t-94.5 138.5t-175 53.5q-124 0 -219 -74.5t-145 -199.5t-50 -279q0 -162 73.5 -251t205.5 -89q142 0 251 108t138 277zM641 1358h25l174 -260h-45l-90 135l-54 86h-4q-33 -39 -86 -90l-135 -131h-49z" />
    <glyph glyph-name="Gbreve" unicode="&#x11e;" horiz-adv-x="1153" 
d="M653 559h396l-103 -559h-35l39 262q-40 -120 -147 -197t-252 -77q-203 0 -321.5 131.5t-118.5 355.5q0 171 47 312.5t128.5 235t190 145t232.5 51.5q154 0 251 -80.5t121 -220.5l-37 -15q-24 131 -110 203t-225 72q-118 0 -219.5 -49t-176 -138.5t-117 -222.5t-42.5 -293
q0 -202 106.5 -324t290.5 -122q158 0 280.5 111.5t153.5 303.5l12 74h-352zM741 1272q-89 0 -135.5 45t-46.5 131q0 28 6 68h37q-4 -27 -4 -68q0 -67 37.5 -103t105.5 -36q179 0 228 207h35q-22 -122 -89 -183t-174 -61z" />
    <glyph glyph-name="gbreve" unicode="&#x11f;" horiz-adv-x="978" 
d="M725 -31l53 301q-32 -116 -132.5 -199t-231.5 -83q-150 0 -235 96.5t-85 282.5q0 167 56 301.5t160.5 212t238.5 77.5q126 0 209 -74.5t94 -187.5l51 250h33l-170 -977q-34 -197 -141 -299t-283 -102q-149 0 -237.5 64.5t-98.5 191.5l37 14q22 -231 299 -231
q317 0 383 362zM803 412l22 129q18 102 -6.5 187t-94.5 138.5t-175 53.5q-124 0 -219 -74.5t-145 -199.5t-50 -279q0 -162 73.5 -251t205.5 -89q142 0 251 108t138 277zM616 1087q-89 0 -135.5 45.5t-46.5 131.5q0 26 6 67h37q-4 -27 -4 -67q0 -67 37.5 -103.5t105.5 -36.5
q179 0 228 207h35q-22 -122 -89 -183t-174 -61z" />
    <glyph glyph-name="Gdotaccent" unicode="&#x120;" horiz-adv-x="1153" 
d="M653 559h396l-103 -559h-35l39 262q-40 -120 -147 -197t-252 -77q-203 0 -321.5 131.5t-118.5 355.5q0 171 47 312.5t128.5 235t190 145t232.5 51.5q154 0 251 -80.5t121 -220.5l-37 -15q-24 131 -110 203t-225 72q-118 0 -219.5 -49t-176 -138.5t-117 -222.5t-42.5 -293
q0 -202 106.5 -324t290.5 -122q158 0 280.5 111.5t153.5 303.5l12 74h-352zM721 1362q0 37 37 37t37 -37t-37 -37t-37 37z" />
    <glyph glyph-name="gdotaccent" unicode="&#x121;" horiz-adv-x="978" 
d="M725 -31l53 301q-32 -116 -132.5 -199t-231.5 -83q-150 0 -235 96.5t-85 282.5q0 167 56 301.5t160.5 212t238.5 77.5q126 0 209 -74.5t94 -187.5l51 250h33l-170 -977q-34 -197 -141 -299t-283 -102q-149 0 -237.5 64.5t-98.5 191.5l37 14q22 -231 299 -231
q317 0 383 362zM803 412l22 129q18 102 -6.5 187t-94.5 138.5t-175 53.5q-124 0 -219 -74.5t-145 -199.5t-50 -279q0 -162 73.5 -251t205.5 -89q142 0 251 108t138 277zM594 1219q0 36 37 36t37 -36q0 -37 -37 -37t-37 37z" />
    <glyph glyph-name="Gcommaaccent" unicode="&#x122;" horiz-adv-x="1153" 
d="M653 559h396l-103 -559h-35l39 262q-40 -120 -147 -197t-252 -77q-203 0 -321.5 131.5t-118.5 355.5q0 171 47 312.5t128.5 235t190 145t232.5 51.5q154 0 251 -80.5t121 -220.5l-37 -15q-24 131 -110 203t-225 72q-118 0 -219.5 -49t-176 -138.5t-117 -222.5t-42.5 -293
q0 -202 106.5 -324t290.5 -122q158 0 280.5 111.5t153.5 303.5l12 74h-352zM551 -293q0 -69 -56.5 -109t-138.5 -40v30q65 0 112.5 30t47.5 85q0 16 -6 25q-11 -15 -29 -15q-17 0 -27 10t-10 25q0 18 11.5 28.5t31.5 10.5q28 0 46 -21.5t18 -58.5z" />
    <glyph glyph-name="gcommaaccent" unicode="&#x123;" horiz-adv-x="978" 
d="M725 -31l53 301q-32 -116 -132.5 -199t-231.5 -83q-150 0 -235 96.5t-85 282.5q0 167 56 301.5t160.5 212t238.5 77.5q126 0 209 -74.5t94 -187.5l51 250h33l-170 -977q-34 -197 -141 -299t-283 -102q-149 0 -237.5 64.5t-98.5 191.5l37 14q22 -231 299 -231
q317 0 383 362zM803 412l22 129q18 102 -6.5 187t-94.5 138.5t-175 53.5q-124 0 -219 -74.5t-145 -199.5t-50 -279q0 -162 73.5 -251t205.5 -89q142 0 251 108t138 277zM549 1223q0 69 56 109t138 40v-31q-65 0 -112 -29.5t-47 -84.5q0 -16 6 -25q11 15 28 15t27 -10t10 -25
q0 -18 -11.5 -28.5t-31.5 -10.5q-28 0 -45.5 21t-17.5 59z" />
    <glyph glyph-name="Hcircumflex" unicode="&#x124;" horiz-adv-x="1255" 
d="M1157 1206h43l-209 -1206h-43l101 586h-803l-101 -586h-43l209 1206h43l-100 -579h803zM803 1542h24l174 -260h-45l-90 135l-53 86h-4q-33 -39 -86 -90l-135 -131h-49z" />
    <glyph glyph-name="hcircumflex" unicode="&#x125;" horiz-adv-x="978" 
d="M715 143l78 451q16 94 16 141q0 85 -51 135t-146 50q-139 0 -248 -110t-139 -288l-90 -522h-41l238 1368h41l-119 -680q40 114 135 192t223 78q110 0 174 -57.5t64 -165.5q0 -51 -16 -141l-76 -438q-8 -54 -8 -70q0 -61 57 -61q32 0 67 22l-8 -41q-29 -18 -63 -18
q-48 0 -71 26.5t-23 71.5q0 19 6 57zM391 1694h25l174 -260h-45l-90 135l-54 86h-4q-33 -39 -86 -90l-135 -131h-49z" />
    <glyph glyph-name="Hbar" unicode="&#x126;" horiz-adv-x="1255" 
d="M1157 1206h43l-49 -282h127l-8 -41h-127l-152 -883h-43l101 586h-803l-101 -586h-43l152 883h-119l8 41h119l49 282h43l-49 -282h803zM254 627h803l43 256h-803z" />
    <glyph glyph-name="hbar" unicode="&#x127;" horiz-adv-x="978" 
d="M139 1128l6 37h150l37 203h41l-37 -203h360l-6 -37h-360l-76 -440q40 114 135 192t223 78q110 0 174 -57.5t64 -165.5q0 -51 -16 -141l-76 -438q-8 -54 -8 -70q0 -61 57 -61q32 0 67 22l-8 -41q-29 -18 -63 -18q-48 0 -71 26.5t-23 71.5q0 19 6 57l78 451q16 94 16 141
q0 85 -51 135t-146 50q-139 0 -248 -110t-139 -288l-90 -522h-41l195 1128h-150z" />
    <glyph glyph-name="Itilde" unicode="&#x128;" horiz-adv-x="409" 
d="M311 1206h43l-209 -1206h-43zM141 1321l-24 8q-6 24 -6 47q0 55 32.5 86t79.5 31q59 0 129 -57l64 -54q49 -43 96 -43q44 0 63 33.5t19 100.5l24 -9q7 -28 7 -47q0 -54 -33 -85.5t-80 -31.5q-58 0 -129 58l-64 53q-49 43 -96 43q-44 0 -63 -33t-19 -100z" />
    <glyph glyph-name="itilde" unicode="&#x129;" horiz-adv-x="382" 
d="M287 946l-137 -790q-9 -61 -9 -70q0 -61 58 -61q32 0 67 22l-8 -41q-29 -18 -63 -18q-48 0 -71.5 26.5t-23.5 71.5q0 19 6 57l140 803h41zM98 1137l-26 8q-6 24 -6 47q0 55 31.5 86t76.5 31q32 0 57.5 -13.5t61.5 -44.5l61 -53q29 -25 45.5 -34t42.5 -9q42 0 59 32.5
t17 100.5l27 -8q6 -24 6 -47q0 -54 -32 -85.5t-77 -31.5q-32 0 -57 13.5t-61 44.5l-62 53q-28 25 -45 34t-43 9q-42 0 -59 -32.5t-17 -100.5z" />
    <glyph glyph-name="Imacron" unicode="&#x12a;" horiz-adv-x="409" 
d="M311 1206h43l-209 -1206h-43zM549 1341h-381l6 39h381z" />
    <glyph glyph-name="imacron" unicode="&#x12b;" horiz-adv-x="382" 
d="M287 946l-137 -790q-9 -61 -9 -70q0 -61 58 -61q32 0 67 22l-8 -41q-29 -18 -63 -18q-48 0 -71.5 26.5t-23.5 71.5q0 19 6 57l140 803h41zM467 1157h-320l7 39h319z" />
    <glyph glyph-name="Ibreve" unicode="&#x12c;" horiz-adv-x="409" 
d="M311 1206h43l-209 -1206h-43zM352 1272q-89 0 -135.5 45t-46.5 131q0 28 6 68h37q-4 -27 -4 -68q0 -67 37.5 -103t105.5 -36q179 0 228 207h34q-43 -244 -262 -244z" />
    <glyph glyph-name="ibreve" unicode="&#x12d;" horiz-adv-x="382" 
d="M287 946l-137 -790q-9 -61 -9 -70q0 -61 58 -61q32 0 67 22l-8 -41q-29 -18 -63 -18q-48 0 -71.5 26.5t-23.5 71.5q0 19 6 57l140 803h41zM303 1087q-89 0 -135.5 45.5t-46.5 131.5q0 26 6 67h37q-4 -27 -4 -67q0 -67 37.5 -103.5t105.5 -36.5q178 0 227 207h35
q-43 -244 -262 -244z" />
    <glyph glyph-name="Iogonek" unicode="&#x12e;" horiz-adv-x="409" 
d="M115 -293l20 -24q-63 -70 -145 -70q-53 0 -82 27.5t-29 80.5q0 79 62.5 155.5t162.5 135.5l207 1194h43l-209 -1206q-99 -58 -161 -129.5t-62 -149.5q0 -71 74 -71q65 0 119 57z" />
    <glyph glyph-name="iogonek" unicode="&#x12f;" horiz-adv-x="382" 
d="M268 1219q0 36 37 36t37 -36q0 -37 -37 -37t-37 37zM100 86q0 19 6 57l140 803h41l-137 -790q-9 -61 -9 -70q0 -61 58 -61q32 0 67 22l-8 -41q-41 -20 -77.5 -44t-76 -60t-63 -83t-23.5 -98q0 -71 74 -71q65 0 119 57l20 -24q-63 -70 -145 -70q-53 0 -82 27.5t-29 80.5
q0 72 52.5 143t138.5 128q-66 12 -66 94z" />
    <glyph glyph-name="Idotaccent" unicode="&#x130;" horiz-adv-x="409" 
d="M311 1206h43l-209 -1206h-43zM332 1362q0 37 37 37t37 -37t-37 -37t-37 37z" />
    <glyph glyph-name="dotlessi" unicode="&#x131;" horiz-adv-x="382" 
d="M287 946l-137 -790q-9 -61 -9 -70q0 -61 58 -61q32 0 67 22l-8 -41q-29 -18 -63 -18q-48 0 -71.5 26.5t-23.5 71.5q0 19 6 57l140 803h41z" />
    <glyph glyph-name="IJ" unicode="&#x132;" horiz-adv-x="1202" 
d="M311 1206h43l-209 -1206h-43zM1137 1206h43l-148 -850q-35 -201 -125.5 -284.5t-242.5 -83.5q-142 0 -222 68.5t-98 181.5l39 16q19 -109 90.5 -168t190.5 -59q137 0 216.5 78t110.5 260z" />
    <glyph glyph-name="ij" unicode="&#x133;" horiz-adv-x="770" 
d="M287 946l-137 -790q-9 -61 -9 -70q0 -61 58 -61q32 0 67 22l-8 -41q-29 -18 -63 -18q-48 0 -71.5 26.5t-23.5 71.5q0 19 6 57l140 803h41zM268 1219q0 36 37 36t37 -36q0 -37 -37 -37t-37 37zM442 -213l207 1159h41l-207 -1159q-17 -103 -58.5 -161t-127.5 -58
q-93 0 -139 61l20 35q51 -57 119 -57q65 0 97.5 45.5t47.5 134.5zM676 1219q0 36 37 36t37 -36q0 -37 -37 -37t-37 37z" />
    <glyph glyph-name="Jcircumflex" unicode="&#x134;" horiz-adv-x="858" 
d="M793 1206h43l-148 -850q-35 -201 -126 -284.5t-243 -83.5q-142 0 -221.5 68.5t-97.5 181.5l39 16q19 -109 90.5 -168t189.5 -59q137 0 217 78.5t111 259.5zM860 1542h25l174 -260h-45l-90 135l-54 86h-4q-33 -39 -86 -90l-135 -131h-49z" />
    <glyph glyph-name="jcircumflex" unicode="&#x135;" horiz-adv-x="380" 
d="M53 -213l207 1159h41l-207 -1159q-17 -103 -58.5 -161t-127.5 -58q-93 0 -139 61l20 35q51 -57 119 -57q65 0 97.5 45.5t47.5 134.5zM340 1358h25l174 -260h-45l-91 135l-53 86h-4q-33 -39 -86 -90l-135 -131h-49z" />
    <glyph glyph-name="Kcommaaccent" unicode="&#x136;" horiz-adv-x="970" 
d="M862 0h-51l-455 586h-110l-101 -586h-43l209 1206h43l-100 -579h104l629 579h57l-651 -600zM475 -293q0 -69 -56 -109t-138 -40v30q65 0 112 30t47 85q0 16 -6 25q-11 -15 -28 -15t-27 10t-10 25q0 18 11.5 28.5t31.5 10.5q28 0 45.5 -21t17.5 -59z" />
    <glyph glyph-name="kcommaaccent" unicode="&#x137;" horiz-adv-x="866" 
d="M713 27q32 0 67 22l-8 -43q-29 -18 -63 -18q-25 0 -44.5 8t-38.5 29.5t-31.5 39.5t-35.5 56l-217 356h-125l-82 -477h-41l238 1368h41l-148 -852h127l430 430h54l-457 -454l217 -357q20 -31 29 -44t25 -31.5t30.5 -25.5t32.5 -7zM385 -293q0 -69 -56.5 -109t-138.5 -40
v30q65 0 112.5 30t47.5 85q0 16 -6 25q-11 -15 -29 -15q-17 0 -26.5 10t-9.5 25q0 18 11.5 28.5t31.5 10.5q28 0 45.5 -21t17.5 -59z" />
    <glyph glyph-name="kgreenlandic" unicode="&#x138;" horiz-adv-x="866" 
d="M713 27q32 0 67 22l-8 -43q-29 -18 -63 -18q-25 0 -44.5 8t-38.5 29.5t-31.5 39.5t-35.5 56l-217 356h-125l-82 -477h-41l164 946h41l-74 -430h127l430 430h54l-457 -454l217 -357q20 -31 29 -44t25 -31.5t30.5 -25.5t32.5 -7z" />
    <glyph glyph-name="Lacute" unicode="&#x139;" horiz-adv-x="839" 
d="M311 1206h43l-202 -1165h561l-6 -41h-605zM360 1282h-34l176 260h61z" />
    <glyph glyph-name="lacute" unicode="&#x13a;" horiz-adv-x="382" 
d="M360 1368l-210 -1212q-9 -61 -9 -70q0 -61 58 -61q32 0 67 22l-8 -41q-29 -18 -63 -18q-48 0 -71.5 26.5t-23.5 71.5q0 19 6 57l213 1225h41zM369 1421h-35l176 260h61z" />
    <glyph glyph-name="Lcommaaccent" unicode="&#x13b;" horiz-adv-x="839" 
d="M311 1206h43l-202 -1165h561l-6 -41h-605zM412 -293q0 -69 -56.5 -109t-138.5 -40v30q65 0 112.5 30t47.5 85q0 16 -6 25q-11 -15 -29 -15q-17 0 -27 10t-10 25q0 18 11.5 28.5t31.5 10.5q28 0 46 -21.5t18 -58.5z" />
    <glyph glyph-name="lcommaaccent" unicode="&#x13c;" horiz-adv-x="382" 
d="M360 1368l-210 -1212q-9 -61 -9 -70q0 -61 58 -61q32 0 67 22l-8 -41q-29 -18 -63 -18q-48 0 -71.5 26.5t-23.5 71.5q0 19 6 57l213 1225h41zM174 -293q0 -69 -56 -109t-138 -40v30q65 0 112 30t47 85q0 16 -6 25q-11 -15 -29 -15q-17 0 -26.5 10t-9.5 25q0 18 11.5 28.5
t31.5 10.5q28 0 45.5 -21t17.5 -59z" />
    <glyph glyph-name="Lcaron" unicode="&#x13d;" horiz-adv-x="839" 
d="M311 1206h43l-202 -1165h561l-6 -41h-605zM737 1204l-110 -358h-33l96 358h47z" />
    <glyph glyph-name="lcaron" unicode="&#x13e;" horiz-adv-x="382" 
d="M360 1368l-210 -1212q-9 -61 -9 -70q0 -61 58 -61q32 0 67 22l-8 -41q-29 -18 -63 -18q-48 0 -71.5 26.5t-23.5 71.5q0 19 6 57l213 1225h41zM557 1368l-111 -358h-32l96 358h47z" />
    <glyph glyph-name="Ldot" unicode="&#x13f;" horiz-adv-x="839" 
d="M311 1206h43l-202 -1165h561l-6 -41h-605zM555 606q0 37 37 37t37 -37t-37 -37t-37 37z" />
    <glyph glyph-name="ldot" unicode="&#x140;" horiz-adv-x="407" 
d="M360 1368l-210 -1212q-9 -61 -9 -70q0 -61 58 -61q32 0 67 22l-8 -41q-29 -18 -63 -18q-48 0 -71.5 26.5t-23.5 71.5q0 19 6 57l213 1225h41zM375 678q0 37 37 37t37 -37t-37 -37t-37 37z" />
    <glyph glyph-name="Lslash" unicode="&#x141;" horiz-adv-x="839" 
d="M311 1206h43l-108 -626l366 180l-8 -47l-366 -181l-86 -491h561l-6 -41h-605l88 510l-153 -76l8 47l154 74z" />
    <glyph glyph-name="lslash" unicode="&#x142;" horiz-adv-x="382" 
d="M360 1368l-102 -586l176 86l-8 -45l-174 -84l-102 -583q-9 -61 -9 -70q0 -61 58 -61q32 0 67 22l-8 -41q-29 -18 -63 -18q-48 0 -71.5 26.5t-23.5 71.5q0 19 6 57l99 574l-123 -60l8 45l123 60l106 606h41z" />
    <glyph glyph-name="Nacute" unicode="&#x143;" horiz-adv-x="1253" 
d="M362 1206l504 -977l88 -178h4q11 82 31 197l166 958h43l-209 -1206h-51l-504 977l-88 178h-4q-11 -82 -31 -197l-166 -958h-43l209 1206h51zM782 1282h-34l176 260h61z" />
    <glyph glyph-name="nacute" unicode="&#x144;" horiz-adv-x="983" 
d="M719 143l78 451q16 94 16 141q0 85 -51 135t-146 50q-139 0 -248 -110t-139 -288l-90 -522h-41l164 946h33l-37 -258q40 114 135 192t223 78q110 0 174 -57.5t64 -165.5q0 -51 -16 -141l-76 -438q-8 -54 -8 -70q0 -61 57 -61q33 0 68 22l-9 -41q-29 -18 -63 -18
q-48 0 -71 26.5t-23 71.5q0 19 6 57zM614 1098h-34l176 260h61z" />
    <glyph glyph-name="Ncommaaccent" unicode="&#x145;" horiz-adv-x="1253" 
d="M362 1206l504 -977l88 -178h4q11 82 31 197l166 958h43l-209 -1206h-51l-504 977l-88 178h-4q-11 -82 -31 -197l-166 -958h-43l209 1206h51zM584 -293q0 -69 -56.5 -109t-138.5 -40v30q65 0 112.5 30t47.5 85q0 16 -6 25q-11 -15 -29 -15q-17 0 -27 10t-10 25
q0 18 11.5 28.5t31.5 10.5q28 0 46 -21.5t18 -58.5z" />
    <glyph glyph-name="ncommaaccent" unicode="&#x146;" horiz-adv-x="983" 
d="M719 143l78 451q16 94 16 141q0 85 -51 135t-146 50q-139 0 -248 -110t-139 -288l-90 -522h-41l164 946h33l-37 -258q40 114 135 192t223 78q110 0 174 -57.5t64 -165.5q0 -51 -16 -141l-76 -438q-8 -54 -8 -70q0 -61 57 -61q33 0 68 22l-9 -41q-29 -18 -63 -18
q-48 0 -71 26.5t-23 71.5q0 19 6 57zM453 -293q0 -69 -56.5 -109t-138.5 -40v30q65 0 112.5 30t47.5 85q0 16 -6 25q-11 -15 -29 -15q-17 0 -27 10t-10 25q0 18 11.5 28.5t31.5 10.5q28 0 46 -21.5t18 -58.5z" />
    <glyph glyph-name="Ncaron" unicode="&#x147;" horiz-adv-x="1253" 
d="M362 1206l504 -977l88 -178h4q11 82 31 197l166 958h43l-209 -1206h-51l-504 977l-88 178h-4q-11 -82 -31 -197l-166 -958h-43l209 1206h51zM780 1282h-24l-174 260h45l90 -135l53 -86h4q33 39 86 90l135 131h49z" />
    <glyph glyph-name="ncaron" unicode="&#x148;" horiz-adv-x="983" 
d="M719 143l78 451q16 94 16 141q0 85 -51 135t-146 50q-139 0 -248 -110t-139 -288l-90 -522h-41l164 946h33l-37 -258q40 114 135 192t223 78q110 0 174 -57.5t64 -165.5q0 -51 -16 -141l-76 -438q-8 -54 -8 -70q0 -61 57 -61q33 0 68 22l-9 -41q-29 -18 -63 -18
q-48 0 -71 26.5t-23 71.5q0 19 6 57zM621 1098h-25l-174 260h45l90 -135l53 -86h4q33 39 86 90l136 131h49z" />
    <glyph glyph-name="Eng" unicode="&#x14a;" horiz-adv-x="1253" 
d="M340 -266l31 24q67 -147 256 -147q134 0 205 76.5t106 261.5l8 43l-512 985l-88 178h-4q-11 -82 -31 -197l-166 -958h-43l209 1206h51l504 -977l88 -178h4q11 82 31 197l166 958h43l-219 -1265q-35 -198 -119.5 -283.5t-232.5 -85.5q-216 0 -287 162z" />
    <glyph glyph-name="eng" unicode="&#x14b;" horiz-adv-x="983" 
d="M659 -213l138 807q16 94 16 141q0 85 -51 135t-146 50q-139 0 -248 -110t-139 -288l-90 -522h-41l164 946h33l-37 -258q40 114 135 192t223 78q110 0 174 -57.5t64 -165.5q0 -51 -16 -141l-138 -807q-17 -103 -58.5 -161t-127.5 -58q-93 0 -139 61l20 35q51 -57 119 -57
q65 0 97.5 45.5t47.5 134.5z" />
    <glyph glyph-name="Omacron" unicode="&#x14c;" horiz-adv-x="1232" 
d="M555 29q112 0 212 48.5t175 137t118.5 221t43.5 291.5q0 211 -108 331t-294 120q-112 0 -211.5 -49t-174.5 -137t-118.5 -221t-43.5 -292q0 -211 107.5 -330.5t293.5 -119.5zM555 -12q-201 0 -322.5 130.5t-121.5 360.5q0 166 47 306t127 234.5t188 147t229 52.5
q201 0 323 -131t122 -361q0 -166 -47 -306t-127.5 -234t-188.5 -146.5t-229 -52.5zM950 1341h-381l6 39h381z" />
    <glyph glyph-name="omacron" unicode="&#x14d;" horiz-adv-x="956" 
d="M426 27q127 0 219.5 78.5t136 199.5t43.5 266q0 176 -76 262.5t-219 86.5q-96 0 -173.5 -45.5t-125.5 -122t-74 -173.5t-26 -204q0 -176 76 -262t219 -86zM426 -12q-162 0 -249 98t-87 289q0 113 28 216.5t81.5 186t139 131.5t191.5 49q162 0 249 -98t87 -289
q0 -113 -28 -216.5t-81.5 -186t-139 -131.5t-191.5 -49zM788 1157h-380l6 39h381z" />
    <glyph glyph-name="Obreve" unicode="&#x14e;" horiz-adv-x="1232" 
d="M555 29q112 0 212 48.5t175 137t118.5 221t43.5 291.5q0 211 -108 331t-294 120q-112 0 -211.5 -49t-174.5 -137t-118.5 -221t-43.5 -292q0 -211 107.5 -330.5t293.5 -119.5zM555 -12q-201 0 -322.5 130.5t-121.5 360.5q0 166 47 306t127 234.5t188 147t229 52.5
q201 0 323 -131t122 -361q0 -166 -47 -306t-127.5 -234t-188.5 -146.5t-229 -52.5zM754 1272q-89 0 -136 45t-47 131q0 21 7 68h36q-4 -27 -4 -68q0 -67 38 -103t106 -36q178 0 227 207h35q-43 -244 -262 -244z" />
    <glyph glyph-name="obreve" unicode="&#x14f;" horiz-adv-x="956" 
d="M426 27q127 0 219.5 78.5t136 199.5t43.5 266q0 176 -76 262.5t-219 86.5q-96 0 -173.5 -45.5t-125.5 -122t-74 -173.5t-26 -204q0 -176 76 -262t219 -86zM426 -12q-162 0 -249 98t-87 289q0 113 28 216.5t81.5 186t139 131.5t191.5 49q162 0 249 -98t87 -289
q0 -113 -28 -216.5t-81.5 -186t-139 -131.5t-191.5 -49zM584 1087q-89 0 -136 45.5t-47 131.5q0 20 7 67h36q-4 -27 -4 -67q0 -67 38 -103.5t106 -36.5q178 0 227 207h35q-43 -244 -262 -244z" />
    <glyph glyph-name="Ohungarumlaut" unicode="&#x150;" horiz-adv-x="1232" 
d="M555 29q112 0 212 48.5t175 137t118.5 221t43.5 291.5q0 211 -108 331t-294 120q-112 0 -211.5 -49t-174.5 -137t-118.5 -221t-43.5 -292q0 -211 107.5 -330.5t293.5 -119.5zM555 -12q-201 0 -322.5 130.5t-121.5 360.5q0 166 47 306t127 234.5t188 147t229 52.5
q201 0 323 -131t122 -361q0 -166 -47 -306t-127.5 -234t-188.5 -146.5t-229 -52.5zM635 1282h-35l176 260h62zM840 1282h-35l176 260h61z" />
    <glyph glyph-name="ohungarumlaut" unicode="&#x151;" horiz-adv-x="956" 
d="M426 27q127 0 219.5 78.5t136 199.5t43.5 266q0 176 -76 262.5t-219 86.5q-96 0 -173.5 -45.5t-125.5 -122t-74 -173.5t-26 -204q0 -176 76 -262t219 -86zM426 -12q-162 0 -249 98t-87 289q0 113 28 216.5t81.5 186t139 131.5t191.5 49q162 0 249 -98t87 -289
q0 -113 -28 -216.5t-81.5 -186t-139 -131.5t-191.5 -49zM494 1098h-35l176 260h61zM698 1098h-34l176 260h61z" />
    <glyph glyph-name="OE" unicode="&#x152;" horiz-adv-x="1693" 
d="M555 -12q-201 0 -322.5 130.5t-121.5 360.5q0 166 47 306t127 234.5t188 147t229 52.5q53 0 113 -13h893l-6 -41h-776q105 -58 163 -170.5t58 -267.5q0 -34 -4 -100h399l-6 -41h-399q-26 -195 -119 -336t-232 -209h717l-6 -41h-829q-56 -12 -113 -12zM555 29
q112 0 212 48.5t175 137t118.5 221t43.5 291.5q0 211 -108 331t-294 120q-112 0 -211.5 -49t-174.5 -137t-118.5 -221t-43.5 -292q0 -211 107.5 -330.5t293.5 -119.5z" />
    <glyph glyph-name="oe" unicode="&#x153;" horiz-adv-x="1624" 
d="M426 -12q-162 0 -249 98t-87 289q0 113 28 216.5t81.5 186t139 131.5t191.5 49q144 0 228.5 -79t99.5 -234q50 142 150.5 227.5t244.5 85.5q146 0 217.5 -82.5t71.5 -220.5q0 -100 -37 -153h-645q-8 -55 -8 -127q0 -348 303 -348q126 0 199 57t108 168l37 -12
q-34 -119 -119 -185.5t-225 -66.5q-150 0 -235.5 78.5t-100.5 234.5q-50 -142 -150 -227.5t-243 -85.5zM426 27q127 0 219.5 78.5t136 199.5t43.5 266q0 176 -76 262.5t-219 86.5q-96 0 -173.5 -45.5t-125.5 -122t-74 -173.5t-26 -204q0 -176 76 -262t219 -86zM1253 920
q-152 0 -251.5 -106.5t-133.5 -274.5h611q20 39 20 116q0 122 -59.5 193.5t-186.5 71.5z" />
    <glyph glyph-name="Racute" unicode="&#x154;" horiz-adv-x="1054" 
d="M909 0h-47q-36 48 -43 137l-20 205q-11 108 -72.5 160.5t-189.5 52.5h-295l-97 -555h-43l209 1206h318q170 0 262 -69.5t92 -212.5q0 -155 -95 -247.5t-243 -101.5v-4q89 -12 137 -66t58 -161l20 -201q8 -87 49 -143zM348 1165l-98 -569h287q189 0 296 85t107 243
q0 241 -311 241h-281zM659 1282h-34l176 260h61z" />
    <glyph glyph-name="racute" unicode="&#x155;" horiz-adv-x="595" 
d="M633 936l-15 -39q-30 23 -88 23q-114 0 -198.5 -111.5t-114.5 -286.5l-90 -522h-41l164 946h33l-37 -254q85 266 289 266q70 0 98 -22zM467 1098h-35l176 260h62z" />
    <glyph glyph-name="Rcommaaccent" unicode="&#x156;" horiz-adv-x="1054" 
d="M909 0h-47q-36 48 -43 137l-20 205q-11 108 -72.5 160.5t-189.5 52.5h-295l-97 -555h-43l209 1206h318q170 0 262 -69.5t92 -212.5q0 -155 -95 -247.5t-243 -101.5v-4q89 -12 137 -66t58 -161l20 -201q8 -87 49 -143zM348 1165l-98 -569h287q189 0 296 85t107 243
q0 241 -311 241h-281zM461 -293q0 -69 -56.5 -109t-138.5 -40v30q65 0 112.5 30t47.5 85q0 16 -6 25q-11 -15 -29 -15q-17 0 -27 10t-10 25q0 18 11.5 28.5t31.5 10.5q28 0 46 -21.5t18 -58.5z" />
    <glyph glyph-name="rcommaaccent" unicode="&#x157;" horiz-adv-x="595" 
d="M633 936l-15 -39q-30 23 -88 23q-114 0 -198.5 -111.5t-114.5 -286.5l-90 -522h-41l164 946h33l-37 -254q85 266 289 266q70 0 98 -22zM145 -293q0 -69 -56 -109t-138 -40v30q65 0 112.5 30t47.5 85q0 15 -7 25q-11 -15 -28 -15t-27 10t-10 25q0 18 11.5 28.5t31.5 10.5
q28 0 45.5 -21t17.5 -59z" />
    <glyph glyph-name="Rcaron" unicode="&#x158;" horiz-adv-x="1054" 
d="M909 0h-47q-36 48 -43 137l-20 205q-11 108 -72.5 160.5t-189.5 52.5h-295l-97 -555h-43l209 1206h318q170 0 262 -69.5t92 -212.5q0 -155 -95 -247.5t-243 -101.5v-4q89 -12 137 -66t58 -161l20 -201q8 -87 49 -143zM348 1165l-98 -569h287q189 0 296 85t107 243
q0 241 -311 241h-281zM657 1282h-24l-174 260h45l90 -135l53 -86h4q33 39 86 90l135 131h50z" />
    <glyph glyph-name="rcaron" unicode="&#x159;" horiz-adv-x="595" 
d="M633 936l-15 -39q-30 23 -88 23q-114 0 -198.5 -111.5t-114.5 -286.5l-90 -522h-41l164 946h33l-37 -254q85 266 289 266q70 0 98 -22zM461 1098h-25l-174 260h45l90 -135l54 -86h4q33 39 86 90l135 131h49z" />
    <glyph glyph-name="Sacute" unicode="&#x15a;" horiz-adv-x="950" 
d="M49 328l41 8q1 -148 89.5 -227.5t244.5 -79.5q149 0 238.5 71.5t89.5 218.5q0 106 -69 173t-206 114q-74 25 -123.5 49.5t-90.5 59.5t-60 82.5t-19 111.5q0 154 96 232t246 78q163 0 256 -77.5t97 -236.5l-39 -8q-14 281 -314 281q-135 0 -217 -67.5t-82 -201.5
q0 -104 59 -158.5t201 -103.5q156 -56 232 -129t76 -199q0 -162 -101 -246.5t-270 -84.5q-172 0 -273.5 91t-101.5 249zM596 1282h-35l176 260h62z" />
    <glyph glyph-name="sacute" unicode="&#x15b;" horiz-adv-x="802" 
d="M45 264l39 6q1 -66 24.5 -114.5t64 -75.5t88.5 -40t104 -13q124 0 192 52t68 159q0 83 -61.5 137t-178.5 96q-124 44 -176.5 96t-52.5 150q0 110 78 175.5t210 65.5q140 0 212.5 -64.5t72.5 -184.5l-39 -4q-3 215 -246 215q-111 0 -179 -53.5t-68 -149.5q0 -82 43.5 -125
t158.5 -84q135 -48 201 -109t66 -161q0 -121 -79.5 -185.5t-221.5 -64.5q-145 0 -232.5 71.5t-87.5 204.5zM506 1098h-35l176 260h62z" />
    <glyph glyph-name="Scircumflex" unicode="&#x15c;" horiz-adv-x="950" 
d="M49 328l41 8q1 -148 89.5 -227.5t244.5 -79.5q149 0 238.5 71.5t89.5 218.5q0 106 -69 173t-206 114q-74 25 -123.5 49.5t-90.5 59.5t-60 82.5t-19 111.5q0 154 96 232t246 78q163 0 256 -77.5t97 -236.5l-39 -8q-14 281 -314 281q-135 0 -217 -67.5t-82 -201.5
q0 -104 59 -158.5t201 -103.5q156 -56 232 -129t76 -199q0 -162 -101 -246.5t-270 -84.5q-172 0 -273.5 91t-101.5 249zM614 1542h25l174 -260h-45l-90 135l-53 86h-4q-33 -39 -86 -90l-136 -131h-49z" />
    <glyph glyph-name="scircumflex" unicode="&#x15d;" horiz-adv-x="802" 
d="M45 264l39 6q1 -66 24.5 -114.5t64 -75.5t88.5 -40t104 -13q124 0 192 52t68 159q0 83 -61.5 137t-178.5 96q-124 44 -176.5 96t-52.5 150q0 110 78 175.5t210 65.5q140 0 212.5 -64.5t72.5 -184.5l-39 -4q-3 215 -246 215q-111 0 -179 -53.5t-68 -149.5q0 -82 43.5 -125
t158.5 -84q135 -48 201 -109t66 -161q0 -121 -79.5 -185.5t-221.5 -64.5q-145 0 -232.5 71.5t-87.5 204.5zM528 1358h25l174 -260h-45l-90 135l-53 86h-4q-33 -39 -86 -90l-136 -131h-49z" />
    <glyph glyph-name="Scedilla" unicode="&#x15e;" horiz-adv-x="950" 
d="M502 -248q0 -70 -52.5 -114t-132.5 -44q-65 0 -109.5 25t-66.5 64l29 26q47 -80 147 -80q65 0 104.5 33t39.5 90q0 102 -170 115l51 127q-137 20 -215 108.5t-78 225.5l41 8q1 -148 89.5 -227.5t244.5 -79.5q149 0 238.5 71.5t89.5 218.5q0 106 -69 173t-206 114
q-74 25 -123.5 49.5t-90.5 59.5t-60 82.5t-19 111.5q0 154 96 232t246 78q163 0 256 -77.5t97 -236.5l-39 -8q-14 281 -314 281q-135 0 -217 -67.5t-82 -201.5q0 -104 59 -158.5t201 -103.5q156 -56 232 -129t76 -199q0 -162 -101 -246.5t-270 -84.5q-9 0 -26 1t-25 1
l-37 -94q72 -5 119 -41.5t47 -102.5z" />
    <glyph glyph-name="scedilla" unicode="&#x15f;" horiz-adv-x="802" 
d="M449 -248q0 -70 -52.5 -114t-132.5 -44q-65 0 -109.5 25t-66.5 64l29 26q47 -80 147 -80q65 0 104.5 33t39.5 90q0 102 -170 115l49 127q-112 15 -177 84.5t-65 185.5l39 6q1 -66 24.5 -114.5t64 -75.5t88.5 -40t104 -13q124 0 192 52t68 159q0 83 -61.5 137t-178.5 96
q-124 44 -176.5 96t-52.5 150q0 110 78 175.5t210 65.5q140 0 212.5 -64.5t72.5 -184.5l-39 -4q-3 215 -246 215q-111 0 -179 -53.5t-68 -149.5q0 -82 43.5 -125t158.5 -84q135 -48 201 -109t66 -161q0 -121 -79.5 -185.5t-221.5 -64.5q-8 0 -23.5 1t-22.5 1l-36 -94
q72 -5 119 -41.5t47 -102.5z" />
    <glyph glyph-name="Scaron" unicode="&#x160;" horiz-adv-x="950" 
d="M49 328l41 8q1 -148 89.5 -227.5t244.5 -79.5q149 0 238.5 71.5t89.5 218.5q0 106 -69 173t-206 114q-74 25 -123.5 49.5t-90.5 59.5t-60 82.5t-19 111.5q0 154 96 232t246 78q163 0 256 -77.5t97 -236.5l-39 -8q-14 281 -314 281q-135 0 -217 -67.5t-82 -201.5
q0 -104 59 -158.5t201 -103.5q156 -56 232 -129t76 -199q0 -162 -101 -246.5t-270 -84.5q-172 0 -273.5 91t-101.5 249zM594 1282h-25l-174 260h45l90 -135l54 -86h4q33 39 86 90l135 131h49z" />
    <glyph glyph-name="scaron" unicode="&#x161;" horiz-adv-x="802" 
d="M45 264l39 6q1 -66 24.5 -114.5t64 -75.5t88.5 -40t104 -13q124 0 192 52t68 159q0 83 -61.5 137t-178.5 96q-124 44 -176.5 96t-52.5 150q0 110 78 175.5t210 65.5q140 0 212.5 -64.5t72.5 -184.5l-39 -4q-3 215 -246 215q-111 0 -179 -53.5t-68 -149.5q0 -82 43.5 -125
t158.5 -84q135 -48 201 -109t66 -161q0 -121 -79.5 -185.5t-221.5 -64.5q-145 0 -232.5 71.5t-87.5 204.5zM512 1098h-25l-174 260h45l91 -135l53 -86h4q33 39 86 90l135 131h49z" />
    <glyph glyph-name="Tcommaaccent" unicode="&#x162;" horiz-adv-x="983" 
d="M424 0h-43l203 1167h-445l6 39h912l-6 -39h-424zM446 -293q0 -69 -56 -109t-138 -40v30q65 0 112.5 30t47.5 85q0 16 -6 25q-11 -15 -29 -15q-17 0 -27 10t-10 25q0 18 11.5 28.5t31.5 10.5q28 0 45.5 -21t17.5 -59z" />
    <glyph glyph-name="tcommaaccent" unicode="&#x163;" horiz-adv-x="587" 
d="M475 98l19 -32q-75 -78 -191 -78q-86 0 -130 43.5t-44 122.5q0 36 10 94l115 661h-133l8 37h133l37 199l41 10l-37 -209h248l-8 -37h-248l-115 -661q-10 -58 -10 -94q0 -129 133 -129q102 0 172 73zM276 -293q0 -69 -56 -109t-138 -40v30q65 0 112.5 30t47.5 85
q0 16 -6 25q-11 -15 -29 -15q-17 0 -27 10t-10 25q0 18 11.5 28.5t31.5 10.5q28 0 45.5 -21t17.5 -59z" />
    <glyph glyph-name="Tcaron" unicode="&#x164;" horiz-adv-x="983" 
d="M424 0h-43l203 1167h-445l6 39h912l-6 -39h-424zM643 1282h-25l-174 260h45l91 -135l53 -86h4q33 39 86 90l135 131h49z" />
    <glyph glyph-name="tcaron" unicode="&#x165;" horiz-adv-x="587" 
d="M475 98l19 -32q-75 -78 -191 -78q-86 0 -130 43.5t-44 122.5q0 36 10 94l115 661h-133l8 37h133l37 199l41 10l-37 -209h248l-8 -37h-248l-115 -661q-10 -58 -10 -94q0 -129 133 -129q102 0 172 73zM567 1368l-110 -358h-33l96 358h47z" />
    <glyph glyph-name="Tbar" unicode="&#x166;" horiz-adv-x="983" 
d="M424 0h-43l108 627h-256l9 41h254l88 499h-445l6 39h912l-6 -39h-424l-88 -499h278l-8 -41h-277z" />
    <glyph glyph-name="tbar" unicode="&#x167;" horiz-adv-x="587" 
d="M74 592l8 37h123l49 280h-133l8 37h133l37 199l41 10l-37 -209h248l-8 -37h-248l-49 -280h254l-8 -37h-252l-60 -344q-10 -58 -10 -94q0 -129 133 -129q102 0 172 73l19 -32q-75 -78 -191 -78q-86 0 -130 43.5t-44 122.5q0 36 10 94l60 344h-125z" />
    <glyph glyph-name="Utilde" unicode="&#x168;" horiz-adv-x="1155" 
d="M1085 1206h43l-139 -805q-73 -413 -461 -413q-184 0 -292.5 99.5t-108.5 274.5q0 54 12 121l125 723h43l-125 -721q-12 -68 -12 -123q0 -160 100.5 -247.5t257.5 -87.5q353 0 418 376zM502 1321l-25 8q-6 24 -6 47q0 54 33 85.5t80 31.5q59 0 129 -57l63 -54
q49 -43 96 -43q44 0 63 33.5t19 100.5l25 -9q6 -24 6 -47q0 -54 -33 -85.5t-80 -31.5q-58 0 -129 58l-63 53q-49 43 -96 43q-44 0 -63 -33t-19 -100z" />
    <glyph glyph-name="utilde" unicode="&#x169;" 
d="M844 946l-137 -790q-9 -61 -9 -70q0 -61 58 -61q32 0 67 22l-8 -41q-29 -18 -63 -18q-48 0 -71.5 26.5t-23.5 71.5q0 27 27 174q-40 -116 -131.5 -194t-218.5 -78q-110 0 -175 57.5t-65 165.5q0 57 12 119l107 616h41l-107 -618q-12 -70 -12 -117q0 -85 52 -134.5
t147 -49.5q140 0 244 108.5t135 288.5l90 522h41zM346 1137l-24 8q-7 28 -7 47q0 54 33 85.5t80 31.5q58 0 129 -58l64 -53q49 -43 96 -43q44 0 63 33t19 100l24 -8q6 -24 6 -47q0 -55 -32.5 -86t-79.5 -31q-58 0 -129 58l-64 53q-49 43 -96 43q-44 0 -63 -33t-19 -100z" />
    <glyph glyph-name="Umacron" unicode="&#x16a;" horiz-adv-x="1155" 
d="M1085 1206h43l-139 -805q-73 -413 -461 -413q-184 0 -292.5 99.5t-108.5 274.5q0 54 12 121l125 723h43l-125 -721q-12 -68 -12 -123q0 -160 100.5 -247.5t257.5 -87.5q353 0 418 376zM909 1341h-381l7 39h380z" />
    <glyph glyph-name="umacron" unicode="&#x16b;" 
d="M844 946l-137 -790q-9 -61 -9 -70q0 -61 58 -61q32 0 67 22l-8 -41q-29 -18 -63 -18q-48 0 -71.5 26.5t-23.5 71.5q0 27 27 174q-40 -116 -131.5 -194t-218.5 -78q-110 0 -175 57.5t-65 165.5q0 57 12 119l107 616h41l-107 -618q-12 -70 -12 -117q0 -85 52 -134.5
t147 -49.5q140 0 244 108.5t135 288.5l90 522h41zM754 1157h-381l6 39h381z" />
    <glyph glyph-name="Ubreve" unicode="&#x16c;" horiz-adv-x="1155" 
d="M1085 1206h43l-139 -805q-73 -413 -461 -413q-184 0 -292.5 99.5t-108.5 274.5q0 54 12 121l125 723h43l-125 -721q-12 -68 -12 -123q0 -160 100.5 -247.5t257.5 -87.5q353 0 418 376zM713 1272q-89 0 -136 45t-47 131q0 21 7 68h36q-4 -27 -4 -68q0 -67 38 -103t106 -36
q178 0 227 207h35q-43 -244 -262 -244z" />
    <glyph glyph-name="ubreve" unicode="&#x16d;" 
d="M844 946l-137 -790q-9 -61 -9 -70q0 -61 58 -61q32 0 67 22l-8 -41q-29 -18 -63 -18q-48 0 -71.5 26.5t-23.5 71.5q0 27 27 174q-40 -116 -131.5 -194t-218.5 -78q-110 0 -175 57.5t-65 165.5q0 57 12 119l107 616h41l-107 -618q-12 -70 -12 -117q0 -85 52 -134.5
t147 -49.5q140 0 244 108.5t135 288.5l90 522h41zM557 1087q-89 0 -135.5 45.5t-46.5 131.5q0 26 6 67h37q-4 -27 -4 -67q0 -67 37.5 -103.5t105.5 -36.5q178 0 227 207h35q-43 -244 -262 -244z" />
    <glyph glyph-name="Uring" unicode="&#x16e;" horiz-adv-x="1155" 
d="M1085 1206h43l-139 -805q-73 -413 -461 -413q-184 0 -292.5 99.5t-108.5 274.5q0 54 12 121l125 723h43l-125 -721q-12 -68 -12 -123q0 -160 100.5 -247.5t257.5 -87.5q353 0 418 376zM719 1305q58 0 93.5 37.5t35.5 93.5q0 45 -26.5 73.5t-78.5 28.5q-58 0 -93.5 -37.5
t-35.5 -93.5q0 -45 26.5 -73.5t78.5 -28.5zM719 1270q-68 0 -106 38t-38 99q0 69 47.5 117.5t120.5 48.5q68 0 106 -38t38 -99q0 -69 -47.5 -117.5t-120.5 -48.5z" />
    <glyph glyph-name="uring" unicode="&#x16f;" 
d="M844 946l-137 -790q-9 -61 -9 -70q0 -61 58 -61q32 0 67 22l-8 -41q-29 -18 -63 -18q-48 0 -71.5 26.5t-23.5 71.5q0 27 27 174q-40 -116 -131.5 -194t-218.5 -78q-110 0 -175 57.5t-65 165.5q0 57 12 119l107 616h41l-107 -618q-12 -70 -12 -117q0 -85 52 -134.5
t147 -49.5q140 0 244 108.5t135 288.5l90 522h41zM563 1120q58 0 93.5 37.5t35.5 93.5q0 45 -26 74t-78 29q-58 0 -93.5 -37.5t-35.5 -93.5q0 -45 26 -74t78 -29zM563 1085q-68 0 -105.5 38.5t-37.5 99.5q0 69 47.5 117.5t120.5 48.5q68 0 105.5 -38.5t37.5 -99.5
q0 -69 -47.5 -117.5t-120.5 -48.5z" />
    <glyph glyph-name="Uhungarumlaut" unicode="&#x170;" horiz-adv-x="1155" 
d="M1085 1206h43l-139 -805q-73 -413 -461 -413q-184 0 -292.5 99.5t-108.5 274.5q0 54 12 121l125 723h43l-125 -721q-12 -68 -12 -123q0 -160 100.5 -247.5t257.5 -87.5q353 0 418 376zM592 1282h-35l176 260h62zM797 1282h-35l176 260h61z" />
    <glyph glyph-name="uhungarumlaut" unicode="&#x171;" 
d="M844 946l-137 -790q-9 -61 -9 -70q0 -61 58 -61q32 0 67 22l-8 -41q-29 -18 -63 -18q-48 0 -71.5 26.5t-23.5 71.5q0 27 27 174q-40 -116 -131.5 -194t-218.5 -78q-110 0 -175 57.5t-65 165.5q0 57 12 119l107 616h41l-107 -618q-12 -70 -12 -117q0 -85 52 -134.5
t147 -49.5q140 0 244 108.5t135 288.5l90 522h41zM457 1098h-35l176 260h61zM662 1098h-35l176 260h61z" />
    <glyph glyph-name="Uogonek" unicode="&#x172;" horiz-adv-x="1155" 
d="M621 -293l20 -24q-63 -70 -145 -70q-53 0 -82 27.5t-29 80.5q0 71 51.5 141t136.5 128q-7 0 -22.5 -1t-22.5 -1q-184 0 -292.5 99.5t-108.5 274.5q0 54 12 121l125 723h43l-125 -721q-12 -68 -12 -123q0 -160 100.5 -247.5t257.5 -87.5q353 0 418 376l139 803h43
l-139 -805q-61 -342 -338 -401q-99 -58 -161 -129.5t-62 -149.5q0 -71 74 -71q65 0 119 57z" />
    <glyph glyph-name="uogonek" unicode="&#x173;" 
d="M657 86q0 13 7 57l20 117q-40 -116 -131.5 -194t-218.5 -78q-110 0 -175 57.5t-65 165.5q0 57 12 119l107 616h41l-107 -618q-12 -70 -12 -117q0 -85 52 -134.5t147 -49.5q140 0 244 108.5t135 288.5l90 522h41l-137 -790q-9 -61 -9 -70q0 -61 58 -61q32 0 67 22l-8 -41
q-41 -20 -77.5 -44t-76 -60t-63 -83t-23.5 -98q0 -71 74 -71q65 0 119 57l20 -24q-63 -70 -145 -70q-53 0 -82 27.5t-29 80.5q0 72 52.5 143t138.5 128q-66 12 -66 94z" />
    <glyph glyph-name="Wcircumflex" unicode="&#x174;" horiz-adv-x="1564" 
d="M905 1206l94 -880l27 -293h4q43 109 135 297l432 876h45l-591 -1206h-60l-92 868q-8 78 -13.5 148.5t-7.5 101.5l-1 31h-5q-41 -97 -129 -281l-415 -868h-60l-108 1206h43l80 -876q7 -84 11.5 -158t5.5 -106l1 -33h4q45 106 137 299l418 874h45zM930 1542h24l174 -260
h-45l-90 135l-53 86h-4q-33 -39 -86 -90l-135 -131h-49z" />
    <glyph glyph-name="wcircumflex" unicode="&#x175;" horiz-adv-x="1277" 
d="M907 270l369 676h43l-514 -946h-57l-48 698q-4 50 -6 102.5t-2 79.5v27h-4q-31 -88 -92 -217l-326 -690h-57l-76 946h39l57 -684l15 -223h4q51 116 104 229l318 678h49l47 -686l12 -223h4q51 106 121 233zM758 1358h24l174 -260h-45l-90 135l-53 86h-4q-33 -39 -86 -90
l-135 -131h-49z" />
    <glyph glyph-name="Ycircumflex" unicode="&#x176;" horiz-adv-x="972" 
d="M205 1206l201 -477l77 -190h4q38 51 144 190l368 477h52l-549 -710l-86 -496h-43l86 496l-299 710h45zM653 1542h25l174 -260h-45l-90 135l-53 86h-5q-33 -39 -86 -90l-135 -131h-49z" />
    <glyph glyph-name="ycircumflex" unicode="&#x177;" horiz-adv-x="849" 
d="M279 0l-142 946h39l103 -674q11 -71 18.5 -128.5t9.5 -79.5l2 -21h4q35 69 127 223l406 680h45l-711 -1190q-63 -105 -113 -148.5t-128 -43.5q-90 0 -144 61l23 35q55 -59 121 -59q63 0 108 39.5t100 134.5zM557 1358h25l174 -260h-45l-90 135l-54 86h-4q-33 -39 -86 -90
l-135 -131h-49z" />
    <glyph glyph-name="Ydieresis" unicode="&#x178;" horiz-adv-x="972" 
d="M205 1206l201 -477l77 -190h4q38 51 144 190l368 477h52l-549 -710l-86 -496h-43l86 496l-299 710h45zM453 1362q0 37 36 37q37 0 37 -37t-37 -37q-36 0 -36 37zM760 1362q0 37 37 37t37 -37t-37 -37t-37 37z" />
    <glyph glyph-name="Zacute" unicode="&#x179;" horiz-adv-x="929" 
d="M985 1169l-817 -974l-129 -152v-6q33 4 162 4h608l-6 -41h-826l7 37l821 977l125 151v4q-35 -4 -164 -4h-565l6 41h784zM653 1282h-35l177 260h61z" />
    <glyph glyph-name="zacute" unicode="&#x17a;" horiz-adv-x="833" 
d="M840 918l-635 -728l-133 -151v-4q47 2 176 2h450l-8 -37h-680l6 29l633 727q38 44 72.5 82.5t49.5 54.5l15 16v4q-49 -4 -178 -4h-407l6 37h637zM573 1098h-34l176 260h61z" />
    <glyph glyph-name="Zdotaccent" unicode="&#x17b;" horiz-adv-x="929" 
d="M985 1169l-817 -974l-129 -152v-6q33 4 162 4h608l-6 -41h-826l7 37l821 977l125 151v4q-35 -4 -164 -4h-565l6 41h784zM625 1362q0 37 37 37q36 0 36 -37t-36 -37q-37 0 -37 37z" />
    <glyph glyph-name="zdotaccent" unicode="&#x17c;" horiz-adv-x="833" 
d="M840 918l-635 -728l-133 -151v-4q47 2 176 2h450l-8 -37h-680l6 29l633 727q38 44 72.5 82.5t49.5 54.5l15 16v4q-49 -4 -178 -4h-407l6 37h637zM549 1219q0 36 37 36t37 -36q0 -37 -37 -37t-37 37z" />
    <glyph glyph-name="Zcaron" unicode="&#x17d;" horiz-adv-x="929" 
d="M985 1169l-817 -974l-129 -152v-6q33 4 162 4h608l-6 -41h-826l7 37l821 977l125 151v4q-35 -4 -164 -4h-565l6 41h784zM651 1282h-24l-174 260h45l90 -135l53 -86h4q33 39 86 90l135 131h49z" />
    <glyph glyph-name="zcaron" unicode="&#x17e;" horiz-adv-x="833" 
d="M840 918l-635 -728l-133 -151v-4q47 2 176 2h450l-8 -37h-680l6 29l633 727q38 44 72.5 82.5t49.5 54.5l15 16v4q-49 -4 -178 -4h-407l6 37h637zM580 1098h-25l-174 260h45l90 -135l53 -86h4q33 39 86 90l136 131h49z" />
    <glyph glyph-name="Schwa" unicode="&#x18f;" horiz-adv-x="1103" 
d="M203 883l-37 12q41 147 152 235.5t274 88.5q211 0 318.5 -124t107.5 -368q0 -114 -22.5 -221t-68.5 -201t-110.5 -164.5t-155 -111.5t-196.5 -41q-96 0 -170 34.5t-117.5 94t-65.5 131.5t-22 153q0 137 47 207h832q8 57 8 119q0 224 -97.5 337.5t-287.5 113.5
q-143 0 -245 -78.5t-144 -216.5zM465 29q105 0 192 42t148.5 116t101.5 170t58 210h-801q-31 -60 -31 -166q0 -56 11 -108.5t37 -101t63.5 -84t94 -57t126.5 -21.5z" />
    <glyph glyph-name="florin" unicode="&#x192;" horiz-adv-x="804" 
d="M106 424l13 39h182l76 282q35 134 90.5 193t146.5 59q61 0 104.5 -26.5t61.5 -69.5l-28 -31q-22 46 -54 67t-84 21q-76 0 -119 -47t-75 -166l-76 -282h260l-12 -39h-258l-178 -670h-43l178 670h-185z" />
    <glyph glyph-name="Khook" unicode="&#x198;" horiz-adv-x="970" 
d="M358 627l351 417q82 98 130.5 136.5t110.5 38.5q53 0 82.5 -23.5t30.5 -67.5l-39 -16q-9 66 -74 66q-23 0 -45 -8.5t-37 -18t-40.5 -35.5t-37.5 -40t-45 -54l-352 -416l469 -606h-51l-455 586h-110l-101 -586h-43l209 1206h43l-100 -579h104z" />
    <glyph glyph-name="khook" unicode="&#x199;" horiz-adv-x="866" 
d="M328 1110l-103 -594h127l430 430h54l-457 -454l217 -357q20 -31 29 -44t25 -31.5t30.5 -25.5t32.5 -7q32 0 67 22l-8 -43q-29 -18 -63 -18q-25 0 -44.5 8t-38.5 29.5t-31.5 39.5t-35.5 56l-217 356h-125l-82 -477h-41l193 1110q26 152 89.5 212t162.5 60
q59 0 103.5 -22.5t66.5 -61.5l-31 -24q-41 69 -139 69q-37 0 -66 -9t-58.5 -32.5t-51.5 -71.5t-35 -120z" />
    <glyph glyph-name="Ezh" unicode="&#x1b7;" horiz-adv-x="950" 
d="M985 1169l-637 -618v-4q81 0 150.5 -13.5t131.5 -45.5t105.5 -80.5t68.5 -122.5t25 -168q0 -111 -39 -204.5t-104.5 -154.5t-151.5 -95t-182 -34q-195 0 -305 95.5t-110 281.5l38 12q0 -176 99 -262t278 -86q183 0 308.5 122t125.5 325q0 112 -35 190.5t-103 122.5
t-156 63t-207 19l6 37l481 471q39 39 78 75.5t58 52.5l20 17v4q-35 -4 -164 -4h-543l6 41h764z" />
    <glyph glyph-name="Acaron" unicode="&#x1cd;" horiz-adv-x="1048" 
d="M901 0l-94 418h-584l-237 -418h-47l690 1206h47l268 -1206h-43zM487 877l-239 -418h551l-92 415q-19 84 -34 156.5t-21 102.5l-5 30h-4q-39 -85 -156 -286zM678 1282h-25l-174 260h45l90 -135l54 -86h4q33 39 86 90l135 131h49z" />
    <glyph glyph-name="acaron" unicode="&#x1ce;" horiz-adv-x="1028" 
d="M799 412l22 129q18 102 -6.5 187t-94.5 138.5t-175 53.5q-124 0 -219 -74.5t-145 -199.5t-50 -279q0 -162 73.5 -251t205.5 -89q142 0 251 108t138 277zM911 47l-8 -41q-29 -18 -63 -18q-48 0 -71.5 26.5t-23.5 71.5q0 28 29 184q-32 -116 -132.5 -199t-231.5 -83
q-150 0 -235 96.5t-85 282.5q0 167 56 301.5t160.5 212t238.5 77.5q126 0 209 -74.5t94 -187.5l51 250h33l-137 -790q-9 -61 -9 -70q0 -61 58 -61q32 0 67 22zM618 1098h-24l-174 260h45l90 -135l53 -86h4q33 39 86 90l136 131h49z" />
    <glyph glyph-name="Icaron" unicode="&#x1cf;" horiz-adv-x="409" 
d="M311 1206h43l-209 -1206h-43zM358 1282h-24l-174 260h45l90 -135l53 -86h4q33 39 86 90l135 131h50z" />
    <glyph glyph-name="icaron" unicode="&#x1d0;" horiz-adv-x="382" 
d="M287 946l-137 -790q-9 -61 -9 -70q0 -61 58 -61q32 0 67 22l-8 -41q-29 -18 -63 -18q-48 0 -71.5 26.5t-23.5 71.5q0 19 6 57l140 803h41zM311 1098h-24l-174 260h45l90 -135l53 -86h4q33 39 86 90l135 131h49z" />
    <glyph glyph-name="Ocaron" unicode="&#x1d1;" horiz-adv-x="1232" 
d="M555 29q112 0 212 48.5t175 137t118.5 221t43.5 291.5q0 211 -108 331t-294 120q-112 0 -211.5 -49t-174.5 -137t-118.5 -221t-43.5 -292q0 -211 107.5 -330.5t293.5 -119.5zM555 -12q-201 0 -322.5 130.5t-121.5 360.5q0 166 47 306t127 234.5t188 147t229 52.5
q201 0 323 -131t122 -361q0 -166 -47 -306t-127.5 -234t-188.5 -146.5t-229 -52.5zM760 1282h-25l-174 260h45l90 -135l54 -86h4q33 39 86 90l135 131h49z" />
    <glyph glyph-name="ocaron" unicode="&#x1d2;" horiz-adv-x="956" 
d="M426 27q127 0 219.5 78.5t136 199.5t43.5 266q0 176 -76 262.5t-219 86.5q-96 0 -173.5 -45.5t-125.5 -122t-74 -173.5t-26 -204q0 -176 76 -262t219 -86zM426 -12q-162 0 -249 98t-87 289q0 113 28 216.5t81.5 186t139 131.5t191.5 49q162 0 249 -98t87 -289
q0 -113 -28 -216.5t-81.5 -186t-139 -131.5t-191.5 -49zM602 1098h-24l-175 260h46l90 -135l53 -86h4q33 39 86 90l135 131h49z" />
    <glyph glyph-name="Ucaron" unicode="&#x1d3;" horiz-adv-x="1155" 
d="M1085 1206h43l-139 -805q-73 -413 -461 -413q-184 0 -292.5 99.5t-108.5 274.5q0 54 12 121l125 723h43l-125 -721q-12 -68 -12 -123q0 -160 100.5 -247.5t257.5 -87.5q353 0 418 376zM717 1282h-25l-174 260h45l90 -135l54 -86h4q33 39 86 90l135 131h49z" />
    <glyph glyph-name="ucaron" unicode="&#x1d4;" 
d="M844 946l-137 -790q-9 -61 -9 -70q0 -61 58 -61q32 0 67 22l-8 -41q-29 -18 -63 -18q-48 0 -71.5 26.5t-23.5 71.5q0 27 27 174q-40 -116 -131.5 -194t-218.5 -78q-110 0 -175 57.5t-65 165.5q0 57 12 119l107 616h41l-107 -618q-12 -70 -12 -117q0 -85 52 -134.5
t147 -49.5q140 0 244 108.5t135 288.5l90 522h41zM565 1098h-24l-174 260h45l90 -135l53 -86h4q33 39 86 90l135 131h49z" />
    <glyph glyph-name="uni01D9" unicode="&#x1d9;" horiz-adv-x="1155" 
d="M1085 1206h43l-139 -805q-73 -413 -461 -413q-184 0 -292.5 99.5t-108.5 274.5q0 54 12 121l125 723h43l-125 -721q-12 -68 -12 -123q0 -160 100.5 -247.5t257.5 -87.5q353 0 418 376zM522 1335q0 37 37 37t37 -37t-37 -37t-37 37zM829 1335q0 37 37 37t37 -37t-37 -37
t-37 37zM752 1432h-25l-174 260h45l90 -136l53 -86h4q33 40 86 91l136 131h49z" />
    <glyph glyph-name="uni01DA" unicode="&#x1da;" 
d="M844 946l-137 -790q-9 -61 -9 -70q0 -61 58 -61q32 0 67 22l-8 -41q-29 -18 -63 -18q-48 0 -71.5 26.5t-23.5 71.5q0 27 27 174q-40 -116 -131.5 -194t-218.5 -78q-110 0 -175 57.5t-65 165.5q0 57 12 119l107 616h41l-107 -618q-12 -70 -12 -117q0 -85 52 -134.5
t147 -49.5q140 0 244 108.5t135 288.5l90 522h41zM358 1100q0 37 37 37t37 -37t-37 -37t-37 37zM666 1100q0 37 36 37q37 0 37 -37t-37 -37q-36 0 -36 37zM586 1198h-25l-174 260h45l90 -135l53 -86h5q33 39 86 90l135 131h49z" />
    <glyph glyph-name="uni004100A800AF" unicode="&#x1de;" horiz-adv-x="1048" 
d="M901 0l-94 418h-584l-237 -418h-47l690 1206h47l268 -1206h-43zM487 877l-239 -418h551l-92 415q-19 84 -34 156.5t-21 102.5l-5 30h-4q-39 -85 -156 -286zM477 1284q0 37 37 37t37 -37t-37 -37t-37 37zM784 1284q0 37 37 37t37 -37t-37 -37t-37 37zM889 1448h-381l6 39
h381z" />
    <glyph glyph-name="adieresismacron" unicode="&#x1df;" horiz-adv-x="1028" 
d="M799 412l22 129q18 102 -6.5 187t-94.5 138.5t-175 53.5q-124 0 -219 -74.5t-145 -199.5t-50 -279q0 -162 73.5 -251t205.5 -89q142 0 251 108t138 277zM911 47l-8 -41q-29 -18 -63 -18q-48 0 -71.5 26.5t-23.5 71.5q0 28 29 184q-32 -116 -132.5 -199t-231.5 -83
q-150 0 -235 96.5t-85 282.5q0 167 56 301.5t160.5 212t238.5 77.5q126 0 209 -74.5t94 -187.5l51 250h33l-137 -790q-9 -61 -9 -70q0 -61 58 -61q32 0 67 22zM434 1112q0 37 37 37t37 -37t-37 -37t-37 37zM741 1112q0 37 37 37t37 -37t-37 -37t-37 37zM846 1260h-381l6 38
h381z" />
    <glyph glyph-name="AEmacron" unicode="&#x1e2;" horiz-adv-x="1595" 
d="M1401 0h-643l73 424h-485l-354 -424h-53l1009 1206h662l-6 -41h-598l-97 -538h537l-6 -41h-537l-96 -545h600zM971 1171l-592 -706h459l69 389q16 90 33 169.5t26 113.5l9 34h-4zM1505 1341h-381l6 39h381z" />
    <glyph glyph-name="aemacron" unicode="&#x1e3;" horiz-adv-x="1484" 
d="M1366 502h-643q-10 -54 -10 -127q0 -348 303 -348q126 0 199 57t108 168l37 -12q-34 -119 -119 -185.5t-225 -66.5q-254 0 -322 221q-42 -94 -132 -157.5t-212 -63.5q-132 0 -200 66.5t-68 176.5q0 150 120.5 229t317.5 79h170q23 104 66 180q-3 95 -66.5 149t-169.5 54
q-235 0 -287 -213l-34 10q59 239 321 239q113 0 181 -48t83 -140q58 88 142 138t188 50q146 0 217.5 -82.5t71.5 -220.5q0 -100 -37 -153zM350 25q112 0 204.5 68t125.5 181q-6 47 -6 101q0 73 10 127h-166q-180 0 -287.5 -68.5t-107.5 -202.5q0 -98 59 -152t168 -54z
M1114 920q-147 0 -248 -108.5t-137 -272.5h610q21 41 21 116q0 122 -59.5 193.5t-186.5 71.5zM1053 1157h-381l6 39h381z" />
    <glyph glyph-name="Gstroke" unicode="&#x1e4;" horiz-adv-x="1153" 
d="M1149 442h-123l-80 -442h-35l39 262q-40 -120 -147 -197t-252 -77q-203 0 -321.5 131.5t-118.5 355.5q0 171 47 312.5t128.5 235t190 145t232.5 51.5q154 0 251 -80.5t121 -220.5l-37 -15q-24 131 -110 203t-225 72q-118 0 -219.5 -49t-176 -138.5t-117 -222.5
t-42.5 -293q0 -202 106.5 -324t290.5 -122q157 0 277.5 110t156.5 303h-350l6 41h350l25 133h-352l8 41h395l-33 -174h121z" />
    <glyph glyph-name="gstroke" unicode="&#x1e5;" horiz-adv-x="978" 
d="M725 -31l53 301q-32 -116 -132.5 -199t-231.5 -83q-150 0 -235 96.5t-85 282.5q0 167 56 301.5t160.5 212t238.5 77.5q126 0 209 -74.5t94 -187.5l51 250h33l-170 -977q-3 -17 -23 -94h129l-6 -37h-135q-101 -270 -389 -270q-149 0 -237.5 64.5t-98.5 191.5l37 14
q22 -231 299 -231q253 0 346 231h-373l7 37h378q18 56 25 94zM803 412l22 129q18 102 -6.5 187t-94.5 138.5t-175 53.5q-124 0 -219 -74.5t-145 -199.5t-50 -279q0 -162 73.5 -251t205.5 -89q142 0 251 108t138 277z" />
    <glyph glyph-name="Gcaron" unicode="&#x1e6;" horiz-adv-x="1153" 
d="M653 559h396l-103 -559h-35l39 262q-40 -120 -147 -197t-252 -77q-203 0 -321.5 131.5t-118.5 355.5q0 171 47 312.5t128.5 235t190 145t232.5 51.5q154 0 251 -80.5t121 -220.5l-37 -15q-24 131 -110 203t-225 72q-118 0 -219.5 -49t-176 -138.5t-117 -222.5t-42.5 -293
q0 -202 106.5 -324t290.5 -122q158 0 280.5 111.5t153.5 303.5l12 74h-352zM748 1282h-25l-174 260h45l90 -135l53 -86h4q33 39 86 90l136 131h49z" />
    <glyph glyph-name="gcaron" unicode="&#x1e7;" horiz-adv-x="978" 
d="M725 -31l53 301q-32 -116 -132.5 -199t-231.5 -83q-150 0 -235 96.5t-85 282.5q0 167 56 301.5t160.5 212t238.5 77.5q126 0 209 -74.5t94 -187.5l51 250h33l-170 -977q-34 -197 -141 -299t-283 -102q-149 0 -237.5 64.5t-98.5 191.5l37 14q22 -231 299 -231
q317 0 383 362zM803 412l22 129q18 102 -6.5 187t-94.5 138.5t-175 53.5q-124 0 -219 -74.5t-145 -199.5t-50 -279q0 -162 73.5 -251t205.5 -89q142 0 251 108t138 277zM625 1098h-25l-174 260h45l90 -135l53 -86h4q34 39 87 90l135 131h49z" />
    <glyph glyph-name="Kcaron" unicode="&#x1e8;" horiz-adv-x="970" 
d="M862 0h-51l-455 586h-110l-101 -586h-43l209 1206h43l-100 -579h104l629 579h57l-651 -600zM672 1282h-25l-174 260h45l90 -135l54 -86h4q33 39 86 90l135 131h49z" />
    <glyph glyph-name="kcaron" unicode="&#x1e9;" horiz-adv-x="866" 
d="M713 27q32 0 67 22l-8 -43q-29 -18 -63 -18q-25 0 -44.5 8t-38.5 29.5t-31.5 39.5t-35.5 56l-217 356h-125l-82 -477h-41l238 1368h41l-148 -852h127l430 430h54l-457 -454l217 -357q20 -31 29 -44t25 -31.5t30.5 -25.5t32.5 -7zM375 1421h-25l-174 260h45l90 -135
l54 -86h4q33 39 86 90l135 131h49z" />
    <glyph glyph-name="Oogonek" unicode="&#x1ea;" horiz-adv-x="1232" 
d="M592 -293l20 -24q-63 -70 -145 -70q-53 0 -82 27.5t-29 80.5q0 70 51.5 140t135.5 127q-197 5 -314.5 134.5t-117.5 356.5q0 166 47 306t127 234.5t188 147t229 52.5q201 0 323 -131t122 -361q0 -209 -73.5 -374t-195.5 -257t-274 -106q-92 -55 -148.5 -124.5
t-56.5 -144.5q0 -71 74 -71q65 0 119 57zM555 29q112 0 212 48.5t175 137t118.5 221t43.5 291.5q0 211 -108 331t-294 120q-112 0 -211.5 -49t-174.5 -137t-118.5 -221t-43.5 -292q0 -211 107.5 -330.5t293.5 -119.5z" />
    <glyph glyph-name="oogonek" unicode="&#x1eb;" horiz-adv-x="956" 
d="M465 -293l20 -24q-63 -70 -145 -70q-53 0 -82 27.5t-29 80.5q0 70 51.5 140t135.5 127q-157 3 -241.5 101t-84.5 286q0 113 28 216.5t81.5 186t139 131.5t191.5 49q162 0 249 -98t87 -289q0 -144 -42 -267t-131.5 -209.5t-213.5 -102.5q-93 -55 -150 -125.5t-57 -145.5
q0 -71 74 -71q65 0 119 57zM426 27q127 0 219.5 78.5t136 199.5t43.5 266q0 176 -76 262.5t-219 86.5q-96 0 -173.5 -45.5t-125.5 -122t-74 -173.5t-26 -204q0 -176 76 -262t219 -86z" />
    <glyph glyph-name="uni004F02DB00AF" unicode="&#x1ec;" horiz-adv-x="1232" 
d="M592 -293l20 -24q-63 -70 -145 -70q-53 0 -82 27.5t-29 80.5q0 70 51.5 140t135.5 127q-197 5 -314.5 134.5t-117.5 356.5q0 166 47 306t127 234.5t188 147t229 52.5q201 0 323 -131t122 -361q0 -209 -73.5 -374t-195.5 -257t-274 -106q-92 -55 -148.5 -124.5
t-56.5 -144.5q0 -71 74 -71q65 0 119 57zM555 29q112 0 212 48.5t175 137t118.5 221t43.5 291.5q0 211 -108 331t-294 120q-112 0 -211.5 -49t-174.5 -137t-118.5 -221t-43.5 -292q0 -211 107.5 -330.5t293.5 -119.5zM950 1341h-381l6 39h381z" />
    <glyph glyph-name="oogonekmacron" unicode="&#x1ed;" horiz-adv-x="956" 
d="M465 -293l20 -24q-63 -70 -145 -70q-53 0 -82 27.5t-29 80.5q0 70 51.5 140t135.5 127q-157 3 -241.5 101t-84.5 286q0 113 28 216.5t81.5 186t139 131.5t191.5 49q162 0 249 -98t87 -289q0 -144 -42 -267t-131.5 -209.5t-213.5 -102.5q-93 -55 -150 -125.5t-57 -145.5
q0 -71 74 -71q65 0 119 57zM426 27q127 0 219.5 78.5t136 199.5t43.5 266q0 176 -76 262.5t-219 86.5q-96 0 -173.5 -45.5t-125.5 -122t-74 -173.5t-26 -204q0 -176 76 -262t219 -86zM788 1157h-380l6 39h381z" />
    <glyph glyph-name="Ezhcaron" unicode="&#x1ee;" horiz-adv-x="950" 
d="M985 1169l-637 -618v-4q81 0 150.5 -13.5t131.5 -45.5t105.5 -80.5t68.5 -122.5t25 -168q0 -111 -39 -204.5t-104.5 -154.5t-151.5 -95t-182 -34q-195 0 -305 95.5t-110 281.5l38 12q0 -176 99 -262t278 -86q183 0 308.5 122t125.5 325q0 112 -35 190.5t-103 122.5
t-156 63t-207 19l6 37l481 471q39 39 78 75.5t58 52.5l20 17v4q-35 -4 -164 -4h-543l6 41h764zM627 1282h-25l-174 260h45l90 -135l53 -86h5q33 39 86 90l135 131h49z" />
    <glyph glyph-name="ezhcaron" unicode="&#x1ef;" horiz-adv-x="770" 
d="M246 393l364 385l68 72t45 47.5t12 11.5v4q-49 -4 -178 -4h-401l6 37h637l-6 -31l-506 -532q76 0 143 -18t121 -54t85.5 -96t31.5 -137q0 -179 -117.5 -286t-286.5 -107q-148 0 -230.5 78.5t-82.5 207.5l37 9q2 -118 75.5 -187t200.5 -69q156 0 258.5 95.5t102.5 258.5
q0 134 -102 204t-283 70zM526 1098h-24l-174 260h45l90 -135l53 -86h4q33 39 86 90l135 131h50z" />
    <glyph glyph-name="jcaron" unicode="&#x1f0;" horiz-adv-x="380" 
d="M53 -213l207 1159h41l-207 -1159q-17 -103 -58.5 -161t-127.5 -58q-93 0 -139 61l20 35q51 -57 119 -57q65 0 97.5 45.5t47.5 134.5zM326 1098h-25l-174 260h45l90 -135l53 -86h4q34 39 87 90l135 131h49z" />
    <glyph glyph-name="jcaron" unicode="&#xe10c;" horiz-adv-x="380" 
d="M53 -213l207 1159h41l-207 -1159q-17 -103 -58.5 -161t-127.5 -58q-93 0 -139 61l20 35q51 -57 119 -57q65 0 97.5 45.5t47.5 134.5zM326 1098h-25l-174 260h45l90 -135l53 -86h4q34 39 87 90l135 131h49z" />
    <glyph glyph-name="Gacute" unicode="&#x1f4;" horiz-adv-x="1153" 
d="M653 559h396l-103 -559h-35l39 262q-40 -120 -147 -197t-252 -77q-203 0 -321.5 131.5t-118.5 355.5q0 171 47 312.5t128.5 235t190 145t232.5 51.5q154 0 251 -80.5t121 -220.5l-37 -15q-24 131 -110 203t-225 72q-118 0 -219.5 -49t-176 -138.5t-117 -222.5t-42.5 -293
q0 -202 106.5 -324t290.5 -122q158 0 280.5 111.5t153.5 303.5l12 74h-352zM750 1282h-35l176 260h61z" />
    <glyph glyph-name="gacute" unicode="&#x1f5;" horiz-adv-x="978" 
d="M725 -31l53 301q-32 -116 -132.5 -199t-231.5 -83q-150 0 -235 96.5t-85 282.5q0 167 56 301.5t160.5 212t238.5 77.5q126 0 209 -74.5t94 -187.5l51 250h33l-170 -977q-34 -197 -141 -299t-283 -102q-149 0 -237.5 64.5t-98.5 191.5l37 14q22 -231 299 -231
q317 0 383 362zM803 412l22 129q18 102 -6.5 187t-94.5 138.5t-175 53.5q-124 0 -219 -74.5t-145 -199.5t-50 -279q0 -162 73.5 -251t205.5 -89q142 0 251 108t138 277zM618 1098h-34l176 260h61z" />
    <glyph glyph-name="Ngrave" unicode="&#x1f8;" horiz-adv-x="1253" 
d="M362 1206l504 -977l88 -178h4q11 82 31 197l166 958h43l-209 -1206h-51l-504 977l-88 178h-4q-11 -82 -31 -197l-166 -958h-43l209 1206h51zM793 1282h-31l-117 260h53z" />
    <glyph glyph-name="ngrave" unicode="&#x1f9;" horiz-adv-x="983" 
d="M719 143l78 451q16 94 16 141q0 85 -51 135t-146 50q-139 0 -248 -110t-139 -288l-90 -522h-41l164 946h33l-37 -258q40 114 135 192t223 78q110 0 174 -57.5t64 -165.5q0 -51 -16 -141l-76 -438q-8 -54 -8 -70q0 -61 57 -61q33 0 68 22l-9 -41q-29 -18 -63 -18
q-48 0 -71 26.5t-23 71.5q0 19 6 57zM621 1098h-31l-117 260h53z" />
    <glyph glyph-name="uni004102DA00B4" unicode="&#x1fa;" horiz-adv-x="1048" 
d="M901 0l-94 418h-584l-237 -418h-47l690 1206h47l268 -1206h-43zM487 877l-239 -418h551l-92 415q-19 84 -34 156.5t-21 102.5l-5 30h-4q-39 -85 -156 -286zM674 1274q58 0 93.5 37.5t35.5 93.5q0 45 -26.5 73.5t-78.5 28.5q-58 0 -93.5 -37.5t-35.5 -93.5
q0 -45 26.5 -73.5t78.5 -28.5zM674 1239q-68 0 -106 38t-38 99q0 69 47.5 117.5t120.5 48.5q68 0 106 -38t38 -99q0 -69 -47.5 -117.5t-120.5 -48.5zM735 1565h-35l177 260h61z" />
    <glyph glyph-name="aringacute" unicode="&#x1fb;" horiz-adv-x="1028" 
d="M799 412l22 129q18 102 -6.5 187t-94.5 138.5t-175 53.5q-124 0 -219 -74.5t-145 -199.5t-50 -279q0 -162 73.5 -251t205.5 -89q142 0 251 108t138 277zM911 47l-8 -41q-29 -18 -63 -18q-48 0 -71.5 26.5t-23.5 71.5q0 28 29 184q-32 -116 -132.5 -199t-231.5 -83
q-150 0 -235 96.5t-85 282.5q0 167 56 301.5t160.5 212t238.5 77.5q126 0 209 -74.5t94 -187.5l51 250h33l-137 -790q-9 -61 -9 -70q0 -61 58 -61q32 0 67 22zM618 1071q59 0 94.5 37.5t35.5 93.5q0 45 -26.5 74t-78.5 29q-58 0 -93.5 -37.5t-35.5 -93.5q0 -45 26 -74
t78 -29zM618 1036q-68 0 -105.5 38.5t-37.5 99.5q0 69 47 117t121 48q68 0 105.5 -38t37.5 -99q0 -69 -47.5 -117.5t-120.5 -48.5zM709 1405h-35l176 260h61z" />
    <glyph glyph-name="AEacute" unicode="&#x1fc;" horiz-adv-x="1595" 
d="M1401 0h-643l73 424h-485l-354 -424h-53l1009 1206h662l-6 -41h-598l-97 -538h537l-6 -41h-537l-96 -545h600zM971 1171l-592 -706h459l69 389q16 90 33 169.5t26 113.5l9 34h-4zM1253 1282h-34l176 260h61z" />
    <glyph glyph-name="aeacute" unicode="&#x1fd;" horiz-adv-x="1484" 
d="M1366 502h-643q-10 -54 -10 -127q0 -348 303 -348q126 0 199 57t108 168l37 -12q-34 -119 -119 -185.5t-225 -66.5q-254 0 -322 221q-42 -94 -132 -157.5t-212 -63.5q-132 0 -200 66.5t-68 176.5q0 150 120.5 229t317.5 79h170q23 104 66 180q-3 95 -66.5 149t-169.5 54
q-235 0 -287 -213l-34 10q59 239 321 239q113 0 181 -48t83 -140q58 88 142 138t188 50q146 0 217.5 -82.5t71.5 -220.5q0 -100 -37 -153zM350 25q112 0 204.5 68t125.5 181q-6 47 -6 101q0 73 10 127h-166q-180 0 -287.5 -68.5t-107.5 -202.5q0 -98 59 -152t168 -54z
M1114 920q-147 0 -248 -108.5t-137 -272.5h610q21 41 21 116q0 122 -59.5 193.5t-186.5 71.5zM860 1098h-35l176 260h62z" />
    <glyph glyph-name="Oslashacute" unicode="&#x1fe;" horiz-adv-x="1232" 
d="M555 -12q-218 0 -340 149l-141 -149l-29 28l145 154q-79 124 -79 309q0 166 47 306t127 234.5t188 147t229 52.5q219 0 340 -152l144 150l28 -29l-147 -156q80 -122 80 -305q0 -166 -47 -306t-127.5 -234t-188.5 -146.5t-229 -52.5zM154 479q0 -163 67 -278l793 833
q-110 144 -312 144q-112 0 -211.5 -49t-174.5 -137t-118.5 -221t-43.5 -292zM555 29q112 0 212 48.5t175 137t118.5 221t43.5 291.5q0 160 -68 274l-790 -833q108 -139 309 -139zM762 1282h-35l176 260h62z" />
    <glyph glyph-name="oslashacute" unicode="&#x1ff;" horiz-adv-x="956" 
d="M426 -12q-192 0 -274 131l-127 -131l-25 26l133 140q-43 85 -43 221q0 113 28 216.5t81.5 186t139 131.5t191.5 49q180 0 265 -116l112 116l25 -26l-119 -123q53 -89 53 -238q0 -113 -28 -216.5t-81.5 -186t-139 -131.5t-191.5 -49zM426 27q127 0 219.5 78.5t136 199.5
t43.5 266q0 127 -41 207l-604 -628q72 -123 246 -123zM131 375q0 -107 33 -191l602 627q-75 109 -236 109q-96 0 -173.5 -45.5t-125.5 -122t-74 -173.5t-26 -204zM584 1098h-35l176 260h61z" />
    <glyph glyph-name="Adoublegrave" unicode="&#x200;" horiz-adv-x="1048" 
d="M901 0l-94 418h-584l-237 -418h-47l690 1206h47l268 -1206h-43zM487 877l-239 -418h551l-92 415q-19 84 -34 156.5t-21 102.5l-5 30h-4q-39 -85 -156 -286zM588 1282h-31l-117 260h54zM793 1282h-31l-117 260h53z" />
    <glyph glyph-name="edoublegrave" unicode="&#x201;" horiz-adv-x="903" 
d="M741 252l37 -12q-34 -119 -119 -185.5t-225 -66.5q-167 0 -255.5 97.5t-88.5 289.5q0 113 28.5 216.5t82 186t139.5 131.5t192 49q146 0 217.5 -82.5t71.5 -220.5q0 -100 -37 -153h-645q-8 -55 -8 -127q0 -348 303 -348q126 0 199 57t108 168zM532 920
q-152 0 -251.5 -106.5t-133.5 -274.5h611q20 39 20 116q0 122 -59.5 193.5t-186.5 71.5zM481 1098h-30l-117 260h53zM686 1098h-31l-116 260h53z" />
    <glyph glyph-name="edoublegrave" unicode="&#x205;" horiz-adv-x="903" 
d="M741 252l37 -12q-34 -119 -119 -185.5t-225 -66.5q-167 0 -255.5 97.5t-88.5 289.5q0 113 28.5 216.5t82 186t139.5 131.5t192 49q146 0 217.5 -82.5t71.5 -220.5q0 -100 -37 -153h-645q-8 -55 -8 -127q0 -348 303 -348q126 0 199 57t108 168zM532 920
q-152 0 -251.5 -106.5t-133.5 -274.5h611q20 39 20 116q0 122 -59.5 193.5t-186.5 71.5zM481 1098h-30l-117 260h53zM686 1098h-31l-116 260h53z" />
    <glyph glyph-name="Ainvertedbreve" unicode="&#x202;" horiz-adv-x="1048" 
d="M901 0l-94 418h-584l-237 -418h-47l690 1206h47l268 -1206h-43zM487 877l-239 -418h551l-92 415q-19 84 -34 156.5t-21 102.5l-5 30h-4q-39 -85 -156 -286zM711 1520q89 0 135.5 -45.5t46.5 -131.5q0 -27 -6 -67h-37q4 27 4 67q0 67 -37.5 103.5t-105.5 36.5
q-179 0 -228 -207h-34q43 244 262 244z" />
    <glyph glyph-name="ainvertedbreve" unicode="&#x203;" horiz-adv-x="1028" 
d="M799 412l22 129q18 102 -6.5 187t-94.5 138.5t-175 53.5q-124 0 -219 -74.5t-145 -199.5t-50 -279q0 -162 73.5 -251t205.5 -89q142 0 251 108t138 277zM911 47l-8 -41q-29 -18 -63 -18q-48 0 -71.5 26.5t-23.5 71.5q0 28 29 184q-32 -116 -132.5 -199t-231.5 -83
q-150 0 -235 96.5t-85 282.5q0 167 56 301.5t160.5 212t238.5 77.5q126 0 209 -74.5t94 -187.5l51 250h33l-137 -790q-9 -61 -9 -70q0 -61 58 -61q32 0 67 22zM649 1335q89 0 135.5 -45t46.5 -131q0 -27 -6 -67h-37q5 34 5 67q0 67 -38 103t-106 36q-178 0 -227 -206h-35
q43 243 262 243z" />
    <glyph glyph-name="Edoublegrave" unicode="&#x204;" 
d="M752 41l-7 -41h-643l209 1206h643l-6 -41h-600l-94 -538h537l-7 -41h-536l-96 -545h600zM569 1282h-30l-117 260h53zM774 1282h-31l-116 260h53z" />
    <glyph glyph-name="Einvertedbreve" unicode="&#x206;" 
d="M752 41l-7 -41h-643l209 1206h643l-6 -41h-600l-94 -538h537l-7 -41h-536l-96 -545h600zM692 1520q89 0 135.5 -45.5t46.5 -131.5q0 -27 -6 -67h-37q5 34 5 67q0 67 -38 103.5t-106 36.5q-178 0 -227 -207h-35q43 244 262 244z" />
    <glyph glyph-name="einvertedbreve" unicode="&#x207;" horiz-adv-x="903" 
d="M741 252l37 -12q-34 -119 -119 -185.5t-225 -66.5q-167 0 -255.5 97.5t-88.5 289.5q0 113 28.5 216.5t82 186t139.5 131.5t192 49q146 0 217.5 -82.5t71.5 -220.5q0 -100 -37 -153h-645q-8 -55 -8 -127q0 -348 303 -348q126 0 199 57t108 168zM532 920
q-152 0 -251.5 -106.5t-133.5 -274.5h611q20 39 20 116q0 122 -59.5 193.5t-186.5 71.5zM610 1335q89 0 136 -45t47 -131q0 -20 -7 -67h-36q4 27 4 67q0 67 -38 103t-106 36q-178 0 -227 -206h-35q43 243 262 243z" />
    <glyph glyph-name="Idoublegrave" unicode="&#x208;" horiz-adv-x="409" 
d="M311 1206h43l-209 -1206h-43zM268 1282h-30l-117 260h53zM473 1282h-31l-116 260h53z" />
    <glyph glyph-name="idoublegrave" unicode="&#x209;" horiz-adv-x="382" 
d="M287 946l-137 -790q-9 -61 -9 -70q0 -61 58 -61q32 0 67 22l-8 -41q-29 -18 -63 -18q-48 0 -71.5 26.5t-23.5 71.5q0 19 6 57l140 803h41zM213 1098h-31l-116 260h53zM418 1098h-31l-117 260h54z" />
    <glyph glyph-name="Iinvertedbreve" unicode="&#x20a;" horiz-adv-x="409" 
d="M311 1206h43l-209 -1206h-43zM391 1520q89 0 135.5 -45.5t46.5 -131.5q0 -27 -6 -67h-37q5 34 5 67q0 67 -38 103.5t-106 36.5q-178 0 -227 -207h-35q43 244 262 244z" />
    <glyph glyph-name="iinvertedbreve" unicode="&#x20b;" horiz-adv-x="382" 
d="M287 946l-137 -790q-9 -61 -9 -70q0 -61 58 -61q32 0 67 22l-8 -41q-29 -18 -63 -18q-48 0 -71.5 26.5t-23.5 71.5q0 19 6 57l140 803h41zM342 1335q89 0 135.5 -45t46.5 -131q0 -27 -6 -67h-37q4 27 4 67q0 67 -37.5 103t-105.5 36q-178 0 -227 -206h-35q43 243 262 243
z" />
    <glyph glyph-name="Odoublegrave" unicode="&#x20c;" horiz-adv-x="1232" 
d="M555 29q112 0 212 48.5t175 137t118.5 221t43.5 291.5q0 211 -108 331t-294 120q-112 0 -211.5 -49t-174.5 -137t-118.5 -221t-43.5 -292q0 -211 107.5 -330.5t293.5 -119.5zM555 -12q-201 0 -322.5 130.5t-121.5 360.5q0 166 47 306t127 234.5t188 147t229 52.5
q201 0 323 -131t122 -361q0 -166 -47 -306t-127.5 -234t-188.5 -146.5t-229 -52.5zM670 1282h-31l-117 260h53zM874 1282h-30l-117 260h53z" />
    <glyph glyph-name="odoublegrave" unicode="&#x20d;" horiz-adv-x="956" 
d="M426 27q127 0 219.5 78.5t136 199.5t43.5 266q0 176 -76 262.5t-219 86.5q-96 0 -173.5 -45.5t-125.5 -122t-74 -173.5t-26 -204q0 -176 76 -262t219 -86zM426 -12q-162 0 -249 98t-87 289q0 113 28 216.5t81.5 186t139 131.5t191.5 49q162 0 249 -98t87 -289
q0 -113 -28 -216.5t-81.5 -186t-139 -131.5t-191.5 -49zM504 1098h-31l-117 260h54zM709 1098h-31l-117 260h53z" />
    <glyph glyph-name="Oinvertedbreve" unicode="&#x20e;" horiz-adv-x="1232" 
d="M555 29q112 0 212 48.5t175 137t118.5 221t43.5 291.5q0 211 -108 331t-294 120q-112 0 -211.5 -49t-174.5 -137t-118.5 -221t-43.5 -292q0 -211 107.5 -330.5t293.5 -119.5zM555 -12q-201 0 -322.5 130.5t-121.5 360.5q0 166 47 306t127 234.5t188 147t229 52.5
q201 0 323 -131t122 -361q0 -166 -47 -306t-127.5 -234t-188.5 -146.5t-229 -52.5zM793 1520q89 0 135.5 -45.5t46.5 -131.5q0 -27 -6 -67h-37q4 27 4 67q0 67 -37.5 103.5t-105.5 36.5q-179 0 -228 -207h-35q22 122 89 183t174 61z" />
    <glyph glyph-name="oinvertedbreve" unicode="&#x20f;" horiz-adv-x="956" 
d="M426 27q127 0 219.5 78.5t136 199.5t43.5 266q0 176 -76 262.5t-219 86.5q-96 0 -173.5 -45.5t-125.5 -122t-74 -173.5t-26 -204q0 -176 76 -262t219 -86zM426 -12q-162 0 -249 98t-87 289q0 113 28 216.5t81.5 186t139 131.5t191.5 49q162 0 249 -98t87 -289
q0 -113 -28 -216.5t-81.5 -186t-139 -131.5t-191.5 -49zM623 1335q89 0 135.5 -45t46.5 -131q0 -27 -6 -67h-37q4 27 4 67q0 67 -37.5 103t-105.5 36q-179 0 -228 -206h-35q43 243 263 243z" />
    <glyph glyph-name="Rinvertedbreve" unicode="&#x212;" horiz-adv-x="1054" 
d="M909 0h-47q-36 48 -43 137l-20 205q-11 108 -72.5 160.5t-189.5 52.5h-295l-97 -555h-43l209 1206h318q170 0 262 -69.5t92 -212.5q0 -155 -95 -247.5t-243 -101.5v-4q89 -12 137 -66t58 -161l20 -201q8 -87 49 -143zM348 1165l-98 -569h287q189 0 296 85t107 243
q0 241 -311 241h-281zM674 1520q89 0 135.5 -45.5t46.5 -131.5q0 -27 -6 -67h-37q4 27 4 67q0 67 -37.5 103.5t-105.5 36.5q-179 0 -228 -207h-34q43 244 262 244z" />
    <glyph glyph-name="rinvertedbreve" unicode="&#x213;" horiz-adv-x="595" 
d="M633 936l-15 -39q-30 23 -88 23q-114 0 -198.5 -111.5t-114.5 -286.5l-90 -522h-41l164 946h33l-37 -254q85 266 289 266q70 0 98 -22zM516 1335q89 0 135.5 -45t46.5 -131q0 -27 -6 -67h-37q4 27 4 67q0 67 -37.5 103t-105.5 36q-178 0 -227 -206h-35q43 243 262 243z
" />
    <glyph glyph-name="Udoublegrave" unicode="&#x214;" horiz-adv-x="1155" 
d="M1085 1206h43l-139 -805q-73 -413 -461 -413q-184 0 -292.5 99.5t-108.5 274.5q0 54 12 121l125 723h43l-125 -721q-12 -68 -12 -123q0 -160 100.5 -247.5t257.5 -87.5q353 0 418 376zM627 1282h-31l-117 260h53zM831 1282h-30l-117 260h53z" />
    <glyph glyph-name="udoublegrave" unicode="&#x215;" 
d="M844 946l-137 -790q-9 -61 -9 -70q0 -61 58 -61q32 0 67 22l-8 -41q-29 -18 -63 -18q-48 0 -71.5 26.5t-23.5 71.5q0 27 27 174q-40 -116 -131.5 -194t-218.5 -78q-110 0 -175 57.5t-65 165.5q0 57 12 119l107 616h41l-107 -618q-12 -70 -12 -117q0 -85 52 -134.5
t147 -49.5q140 0 244 108.5t135 288.5l90 522h41zM469 1098h-31l-116 260h53zM674 1098h-31l-117 260h54z" />
    <glyph glyph-name="Uinvertedbreve" unicode="&#x216;" horiz-adv-x="1155" 
d="M1085 1206h43l-139 -805q-73 -413 -461 -413q-184 0 -292.5 99.5t-108.5 274.5q0 54 12 121l125 723h43l-125 -721q-12 -68 -12 -123q0 -160 100.5 -247.5t257.5 -87.5q353 0 418 376zM752 1520q89 0 135.5 -45.5t46.5 -131.5q0 -27 -6 -67h-37q4 27 4 67
q0 67 -37.5 103.5t-105.5 36.5q-179 0 -228 -207h-35q22 122 89 183t174 61z" />
    <glyph glyph-name="uinvertedbreve" unicode="&#x217;" 
d="M844 946l-137 -790q-9 -61 -9 -70q0 -61 58 -61q32 0 67 22l-8 -41q-29 -18 -63 -18q-48 0 -71.5 26.5t-23.5 71.5q0 27 27 174q-40 -116 -131.5 -194t-218.5 -78q-110 0 -175 57.5t-65 165.5q0 57 12 119l107 616h41l-107 -618q-12 -70 -12 -117q0 -85 52 -134.5
t147 -49.5q140 0 244 108.5t135 288.5l90 522h41zM598 1335q89 0 135.5 -45t46.5 -131q0 -27 -6 -67h-37q4 27 4 67q0 67 -37.5 103t-105.5 36q-178 0 -227 -206h-35q43 243 262 243z" />
    <glyph glyph-name="Scommaaccent" unicode="&#x218;" horiz-adv-x="950" 
d="M49 328l41 8q1 -148 89.5 -227.5t244.5 -79.5q149 0 238.5 71.5t89.5 218.5q0 106 -69 173t-206 114q-74 25 -123.5 49.5t-90.5 59.5t-60 82.5t-19 111.5q0 154 96 232t246 78q163 0 256 -77.5t97 -236.5l-39 -8q-14 281 -314 281q-135 0 -217 -67.5t-82 -201.5
q0 -104 59 -158.5t201 -103.5q156 -56 232 -129t76 -199q0 -162 -101 -246.5t-270 -84.5q-172 0 -273.5 91t-101.5 249zM397 -293q0 -69 -56 -109t-138 -40v30q65 0 112 30t47 85q0 16 -6 25q-11 -15 -28 -15t-27 10t-10 25q0 18 11.5 28.5t31.5 10.5q28 0 45.5 -21
t17.5 -59z" />
    <glyph glyph-name="scommaaccent" unicode="&#x219;" horiz-adv-x="802" 
d="M45 264l39 6q1 -66 24.5 -114.5t64 -75.5t88.5 -40t104 -13q124 0 192 52t68 159q0 83 -61.5 137t-178.5 96q-124 44 -176.5 96t-52.5 150q0 110 78 175.5t210 65.5q140 0 212.5 -64.5t72.5 -184.5l-39 -4q-3 215 -246 215q-111 0 -179 -53.5t-68 -149.5q0 -82 43.5 -125
t158.5 -84q135 -48 201 -109t66 -161q0 -121 -79.5 -185.5t-221.5 -64.5q-145 0 -232.5 71.5t-87.5 204.5zM344 -293q0 -69 -56 -109t-138 -40v30q65 0 112 30t47 85q0 16 -6 25q-11 -15 -29 -15q-17 0 -26.5 10t-9.5 25q0 18 11.5 28.5t31.5 10.5q28 0 45.5 -21t17.5 -59z
" />
    <glyph glyph-name="Hcaron" unicode="&#x21e;" horiz-adv-x="1255" 
d="M1157 1206h43l-209 -1206h-43l101 586h-803l-101 -586h-43l209 1206h43l-100 -579h803zM782 1282h-24l-174 260h45l90 -135l53 -86h4q33 39 86 90l135 131h50z" />
    <glyph glyph-name="hcaron" unicode="&#x21f;" horiz-adv-x="978" 
d="M715 143l78 451q16 94 16 141q0 85 -51 135t-146 50q-139 0 -248 -110t-139 -288l-90 -522h-41l238 1368h41l-119 -680q40 114 135 192t223 78q110 0 174 -57.5t64 -165.5q0 -51 -16 -141l-76 -438q-8 -54 -8 -70q0 -61 57 -61q32 0 67 22l-8 -41q-29 -18 -63 -18
q-48 0 -71 26.5t-23 71.5q0 19 6 57zM375 1434h-25l-174 260h45l90 -135l54 -86h4q33 39 86 90l135 131h49z" />
    <glyph glyph-name="Adotabove" unicode="&#x226;" horiz-adv-x="1048" 
d="M901 0l-94 418h-584l-237 -418h-47l690 1206h47l268 -1206h-43zM487 877l-239 -418h551l-92 415q-19 84 -34 156.5t-21 102.5l-5 30h-4q-39 -85 -156 -286zM639 1362q0 37 37 37t37 -37t-37 -37t-37 37z" />
    <glyph glyph-name="adotabove" unicode="&#x227;" horiz-adv-x="1028" 
d="M799 412l22 129q18 102 -6.5 187t-94.5 138.5t-175 53.5q-124 0 -219 -74.5t-145 -199.5t-50 -279q0 -162 73.5 -251t205.5 -89q142 0 251 108t138 277zM911 47l-8 -41q-29 -18 -63 -18q-48 0 -71.5 26.5t-23.5 71.5q0 28 29 184q-32 -116 -132.5 -199t-231.5 -83
q-150 0 -235 96.5t-85 282.5q0 167 56 301.5t160.5 212t238.5 77.5q126 0 209 -74.5t94 -187.5l51 250h33l-137 -790q-9 -61 -9 -70q0 -61 58 -61q32 0 67 22zM590 1219q0 36 37 36t37 -36q0 -37 -37 -37t-37 37z" />
    <glyph glyph-name="Otildemacron" unicode="&#x22c;" horiz-adv-x="1232" 
d="M555 29q112 0 212 48.5t175 137t118.5 221t43.5 291.5q0 211 -108 331t-294 120q-112 0 -211.5 -49t-174.5 -137t-118.5 -221t-43.5 -292q0 -211 107.5 -330.5t293.5 -119.5zM555 -12q-201 0 -322.5 130.5t-121.5 360.5q0 166 47 306t127 234.5t188 147t229 52.5
q201 0 323 -131t122 -361q0 -166 -47 -306t-127.5 -234t-188.5 -146.5t-229 -52.5zM541 1262l-25 8q-6 24 -6 47q0 54 33 85.5t80 31.5q58 0 129 -58l63 -53q49 -43 96 -43q44 0 63 33t19 100l25 -8q6 -24 6 -47q0 -54 -33 -85.5t-80 -31.5q-59 0 -129 57l-63 54
q-49 43 -96 43q-44 0 -63 -33t-19 -100zM1008 1491h-381l6 39h381z" />
    <glyph glyph-name="otildemacron" unicode="&#x22d;" horiz-adv-x="956" 
d="M426 27q127 0 219.5 78.5t136 199.5t43.5 266q0 176 -76 262.5t-219 86.5q-96 0 -173.5 -45.5t-125.5 -122t-74 -173.5t-26 -204q0 -176 76 -262t219 -86zM426 -12q-162 0 -249 98t-87 289q0 113 28 216.5t81.5 186t139 131.5t191.5 49q162 0 249 -98t87 -289
q0 -113 -28 -216.5t-81.5 -186t-139 -131.5t-191.5 -49zM367 1059l-25 8q-6 24 -6 47q0 54 33 85.5t80 31.5q59 0 129 -57l63 -54q49 -43 96 -43q44 0 63 33t19 100l25 -8q6 -24 6 -47q0 -54 -33 -85.5t-80 -31.5q-58 0 -129 58l-63 53q-49 43 -96 43q-44 0 -63 -33
t-19 -100zM846 1329h-381l6 39h381z" />
    <glyph glyph-name="Odotabove" unicode="&#x22e;" horiz-adv-x="1232" 
d="M555 29q112 0 212 48.5t175 137t118.5 221t43.5 291.5q0 211 -108 331t-294 120q-112 0 -211.5 -49t-174.5 -137t-118.5 -221t-43.5 -292q0 -211 107.5 -330.5t293.5 -119.5zM555 -12q-201 0 -322.5 130.5t-121.5 360.5q0 166 47 306t127 234.5t188 147t229 52.5
q201 0 323 -131t122 -361q0 -166 -47 -306t-127.5 -234t-188.5 -146.5t-229 -52.5zM733 1362q0 37 37 37t37 -37t-37 -37t-37 37z" />
    <glyph glyph-name="odotabove" unicode="&#x22f;" horiz-adv-x="956" 
d="M426 27q127 0 219.5 78.5t136 199.5t43.5 266q0 176 -76 262.5t-219 86.5q-96 0 -173.5 -45.5t-125.5 -122t-74 -173.5t-26 -204q0 -176 76 -262t219 -86zM426 -12q-162 0 -249 98t-87 289q0 113 28 216.5t81.5 186t139 131.5t191.5 49q162 0 249 -98t87 -289
q0 -113 -28 -216.5t-81.5 -186t-139 -131.5t-191.5 -49zM571 1219q0 36 37 36t37 -36q0 -37 -37 -37t-37 37z" />
    <glyph glyph-name="odotabovemacron" unicode="&#x231;" horiz-adv-x="956" 
d="M426 27q127 0 219.5 78.5t136 199.5t43.5 266q0 176 -76 262.5t-219 86.5q-96 0 -173.5 -45.5t-125.5 -122t-74 -173.5t-26 -204q0 -176 76 -262t219 -86zM426 -12q-162 0 -249 98t-87 289q0 113 28 216.5t81.5 186t139 131.5t191.5 49q162 0 249 -98t87 -289
q0 -113 -28 -216.5t-81.5 -186t-139 -131.5t-191.5 -49zM543 1104q0 37 37 37q36 0 36 -37t-36 -37q-37 0 -37 37zM809 1264h-381l6 39h381z" />
    <glyph glyph-name="odotabovemacron" unicode="&#xe11e;" horiz-adv-x="956" 
d="M426 27q127 0 219.5 78.5t136 199.5t43.5 266q0 176 -76 262.5t-219 86.5q-96 0 -173.5 -45.5t-125.5 -122t-74 -173.5t-26 -204q0 -176 76 -262t219 -86zM426 -12q-162 0 -249 98t-87 289q0 113 28 216.5t81.5 186t139 131.5t191.5 49q162 0 249 -98t87 -289
q0 -113 -28 -216.5t-81.5 -186t-139 -131.5t-191.5 -49zM543 1104q0 37 37 37q36 0 36 -37t-36 -37q-37 0 -37 37zM809 1264h-381l6 39h381z" />
    <glyph glyph-name="Ymacron" unicode="&#x232;" horiz-adv-x="972" 
d="M205 1206l201 -477l77 -190h4q38 51 144 190l368 477h52l-549 -710l-86 -496h-43l86 496l-299 710h45zM823 1341h-381l7 39h380z" />
    <glyph glyph-name="ymacron" unicode="&#x233;" horiz-adv-x="849" 
d="M279 0l-142 946h39l103 -674q11 -71 18.5 -128.5t9.5 -79.5l2 -21h4q35 69 127 223l406 680h45l-711 -1190q-63 -105 -113 -148.5t-128 -43.5q-90 0 -144 61l23 35q55 -59 121 -59q63 0 108 39.5t100 134.5zM729 1157h-381l6 39h381z" />
    <glyph glyph-name="dotlessj" unicode="&#x237;" horiz-adv-x="380" 
d="M53 -213l207 1159h41l-207 -1159q-17 -103 -58.5 -161t-127.5 -58q-93 0 -139 61l20 35q51 -57 119 -57q65 0 97.5 45.5t47.5 134.5z" />
    <glyph glyph-name="schwa" unicode="&#x259;" horiz-adv-x="903" 
d="M162 694l-37 13q72 251 344 251q167 0 255.5 -97.5t88.5 -289.5q0 -113 -28.5 -216.5t-82 -186t-139.5 -131.5t-192 -49q-146 0 -217.5 82.5t-71.5 220.5q0 100 37 153h645q8 55 8 127q0 349 -303 349q-126 0 -199 -57.5t-108 -168.5zM371 27q152 0 251.5 106.5
t133.5 274.5h-611q-20 -39 -20 -117q0 -122 59.5 -193t186.5 -71z" />
    <glyph glyph-name="ezh" unicode="&#x292;" horiz-adv-x="770" 
d="M246 393l364 385l68 72t45 47.5t12 11.5v4q-49 -4 -178 -4h-401l6 37h637l-6 -31l-506 -532q76 0 143 -18t121 -54t85.5 -96t31.5 -137q0 -179 -117.5 -286t-286.5 -107q-148 0 -230.5 78.5t-82.5 207.5l37 9q2 -118 75.5 -187t200.5 -69q156 0 258.5 95.5t102.5 258.5
q0 134 -102 204t-283 70z" />
    <glyph glyph-name="circumflex" unicode="&#x2c6;" horiz-adv-x="667" 
d="M367 1358h24l174 -260h-45l-90 135l-53 86h-4q-33 -39 -86 -90l-135 -131h-50z" />
    <glyph glyph-name="caron" unicode="&#x2c7;" horiz-adv-x="667" 
d="M301 1098h-25l-174 260h45l91 -135l53 -86h4q33 39 86 90l135 131h49z" />
    <glyph glyph-name="breve" unicode="&#x2d8;" horiz-adv-x="651" 
d="M287 1087q-89 0 -136 45.5t-47 131.5q0 20 7 67h36q-4 -27 -4 -67q0 -67 38 -103.5t106 -36.5q178 0 227 207h35q-43 -244 -262 -244z" />
    <glyph glyph-name="dotaccent" unicode="&#x2d9;" horiz-adv-x="282" 
d="M98 1219q0 36 37 36t37 -36q0 -37 -37 -37t-37 37z" />
    <glyph glyph-name="ring" unicode="&#x2da;" horiz-adv-x="516" 
d="M246 1120q58 0 93.5 37.5t35.5 93.5q0 45 -26.5 74t-78.5 29q-58 0 -93.5 -37.5t-35.5 -93.5q0 -45 26.5 -74t78.5 -29zM246 1085q-68 0 -106 38.5t-38 99.5q0 69 47.5 117.5t120.5 48.5q68 0 106 -38.5t38 -99.5q0 -69 -47.5 -117.5t-120.5 -48.5z" />
    <glyph glyph-name="ogonek" unicode="&#x2db;" horiz-adv-x="471" 
d="M338 -293l20 -24q-63 -70 -145 -70q-53 0 -82 27.5t-29 80.5q0 83 70 164t178 140l19 -25q-100 -58 -162 -129.5t-62 -149.5q0 -71 74 -71q65 0 119 57z" />
    <glyph glyph-name="tilde" unicode="&#x2dc;" horiz-adv-x="718" 
d="M133 1137l-24 8q-7 28 -7 47q0 54 33 85.5t80 31.5q58 0 129 -58l64 -53q49 -43 96 -43q44 0 63 33t19 100l24 -8q6 -24 6 -47q0 -55 -32.5 -86t-79.5 -31q-58 0 -129 58l-64 53q-49 43 -96 43q-44 0 -63 -33t-19 -100z" />
    <glyph glyph-name="hungarumlaut" unicode="&#x2dd;" horiz-adv-x="647" 
d="M137 1098h-35l177 260h61zM342 1098h-35l176 260h62z" />
    <glyph glyph-name="uni0312" unicode="&#x312;" horiz-adv-x="399" 
d="M102 1419q0 69 56.5 109.5t138.5 40.5v-31q-65 0 -112.5 -30t-47.5 -85q0 -15 6 -24q11 14 29 14q17 0 27 -10t10 -25q0 -18 -11.5 -28.5t-31.5 -10.5q-28 0 -46 21.5t-18 58.5z" />
    <glyph glyph-name="uni0320" unicode="&#x320;" horiz-adv-x="675" 
d="M565 -319h-463l9 40h462z" />
    <glyph glyph-name="uni0323" unicode="&#x323;" horiz-adv-x="282" 
d="M98 -276q0 36 37 36t37 -36q0 -37 -37 -37t-37 37z" />
    <glyph glyph-name="uni0329" unicode="&#x329;" horiz-adv-x="290" 
d="M102 -393l48 276h38l-47 -268z" />
    <glyph glyph-name="pi" unicode="&#x3c0;" horiz-adv-x="1241" 
d="M389 985h852l-6 -41h-295l-119 -665q-16 -85 -16 -134q0 -118 119 -118q65 0 104 30t84 99l33 -25q-53 -76 -101.5 -109.5t-119.5 -33.5q-77 0 -119.5 41t-42.5 116q0 46 16 134l119 665h-389l-262 -944h-45l264 944h-86q-132 0 -195.5 -69.5t-89.5 -221.5h-41
q20 114 56.5 184.5t105 109t174.5 38.5z" />
    <glyph glyph-name="pi" unicode="&#x3d6;" horiz-adv-x="1241" 
d="M389 985h852l-6 -41h-295l-119 -665q-16 -85 -16 -134q0 -118 119 -118q65 0 104 30t84 99l33 -25q-53 -76 -101.5 -109.5t-119.5 -33.5q-77 0 -119.5 41t-42.5 116q0 46 16 134l119 665h-389l-262 -944h-45l264 944h-86q-132 0 -195.5 -69.5t-89.5 -221.5h-41
q20 114 56.5 184.5t105 109t174.5 38.5z" />
    <glyph glyph-name="uni0E3F" unicode="&#xe3f;" horiz-adv-x="931" 
d="M582 512v-4q85 -5 140.5 -60.5t55.5 -154.5q0 -287 -381 -293l-37 -217h-41l37 217h-256l172 985h256l33 191h41l-33 -191q125 -4 184.5 -57t59.5 -156q0 -106 -65.5 -176t-165.5 -84zM737 293q0 196 -254 199l-77 -453q165 3 248 65t83 189zM227 492l-80 -453h218
l77 453h-215zM233 530h216l71 416h-213zM772 772q0 87 -52 128t-159 46l-72 -416q121 2 202 61.5t81 180.5z" />
    <glyph glyph-name="Ddotbelow" unicode="&#x1e0c;" horiz-adv-x="1193" 
d="M152 41h272q304 0 476.5 177.5t172.5 510.5q0 210 -120.5 323t-329.5 113h-275zM422 0h-320l209 1206h314q227 0 359 -123t132 -354q0 -350 -183.5 -539.5t-510.5 -189.5zM371 -276q0 36 37 36q36 0 36 -36q0 -37 -36 -37q-37 0 -37 37z" />
    <glyph glyph-name="ddotbelow" unicode="&#x1e0d;" horiz-adv-x="1028" 
d="M799 412l22 129q18 102 -6.5 187t-94.5 138.5t-175 53.5q-124 0 -219 -74.5t-145 -199.5t-50 -279q0 -162 73.5 -251t205.5 -89q142 0 251 108t138 277zM774 270q-32 -116 -132.5 -199t-231.5 -83q-150 0 -235 96.5t-85 282.5q0 167 56 301.5t160.5 212t238.5 77.5
q126 0 209 -74.5t94 -187.5l117 672h41l-211 -1212q-9 -61 -9 -70q0 -61 58 -61q32 0 67 22l-8 -41q-29 -18 -63 -18q-48 0 -71.5 26.5t-23.5 71.5q0 21 29 184zM342 -276q0 36 37 36t37 -36q0 -37 -37 -37t-37 37z" />
    <glyph glyph-name="Dcedilla" unicode="&#x1e10;" horiz-adv-x="1193" 
d="M102 0l209 1206h314q227 0 359 -123t132 -354q0 -335 -168.5 -523.5t-470.5 -203.5l-41 -106q72 -5 119 -41.5t47 -102.5q0 -70 -52 -114t-132 -44q-65 0 -109.5 25t-66.5 64l28 26q47 -80 148 -80q65 0 104 33t39 90q0 102 -170 115l53 133h-342zM152 41h272
q304 0 476.5 177.5t172.5 510.5q0 210 -120.5 323t-329.5 113h-275z" />
    <glyph glyph-name="dcedilla" unicode="&#x1e11;" horiz-adv-x="1028" 
d="M580 -248q0 -70 -52.5 -114t-132.5 -44q-65 0 -109.5 25t-66.5 64l29 26q47 -80 147 -80q65 0 104.5 33t39.5 90q0 102 -170 115l47 121h-6q-150 0 -235 96.5t-85 282.5q0 167 56 301.5t160.5 212t238.5 77.5q126 0 209 -74.5t94 -187.5l117 672h41l-211 -1212
q-9 -61 -9 -70q0 -61 58 -61q32 0 67 22l-8 -41q-29 -18 -63 -18q-48 0 -71.5 26.5t-23.5 71.5q0 21 29 184q-31 -107 -118.5 -187t-204.5 -93l-37 -94q72 -5 119 -41.5t47 -102.5zM799 412l22 129q18 102 -6.5 187t-94.5 138.5t-175 53.5q-124 0 -219 -74.5t-145 -199.5
t-50 -279q0 -162 73.5 -251t205.5 -89q142 0 251 108t138 277z" />
    <glyph glyph-name="Hdotbelow" unicode="&#x1e24;" horiz-adv-x="1255" 
d="M1157 1206h43l-209 -1206h-43l101 586h-803l-101 -586h-43l209 1206h43l-100 -579h803zM459 -276q0 36 37 36q36 0 36 -36q0 -37 -36 -37q-37 0 -37 37z" />
    <glyph glyph-name="hdotbelow" unicode="&#x1e25;" horiz-adv-x="978" 
d="M715 143l78 451q16 94 16 141q0 85 -51 135t-146 50q-139 0 -248 -110t-139 -288l-90 -522h-41l238 1368h41l-119 -680q40 114 135 192t223 78q110 0 174 -57.5t64 -165.5q0 -51 -16 -141l-76 -438q-8 -54 -8 -70q0 -61 57 -61q32 0 67 22l-8 -41q-29 -18 -63 -18
q-48 0 -71 26.5t-23 71.5q0 19 6 57zM348 -276q0 36 37 36t37 -36q0 -37 -37 -37t-37 37z" />
    <glyph glyph-name="Ldotbelow" unicode="&#x1e36;" horiz-adv-x="839" 
d="M311 1206h43l-202 -1165h561l-6 -41h-605zM285 -276q0 36 37 36q36 0 36 -36q0 -37 -36 -37q-37 0 -37 37z" />
    <glyph glyph-name="ldotbelow" unicode="&#x1e37;" horiz-adv-x="382" 
d="M360 1368l-210 -1212q-9 -61 -9 -70q0 -61 58 -61q32 0 67 22l-8 -41q-29 -18 -63 -18q-48 0 -71.5 26.5t-23.5 71.5q0 19 6 57l213 1225h41zM47 -276q0 36 37 36t37 -36q0 -37 -37 -37t-37 37z" />
    <glyph glyph-name="uni004C032300AF" unicode="&#x1e38;" horiz-adv-x="839" 
d="M311 1206h43l-202 -1165h561l-6 -41h-605zM549 1341h-381l6 39h381zM285 -276q0 36 37 36q36 0 36 -36q0 -37 -36 -37q-37 0 -37 37z" />
    <glyph glyph-name="ldotbelowmacron" unicode="&#x1e39;" horiz-adv-x="382" 
d="M360 1368l-210 -1212q-9 -61 -9 -70q0 -61 58 -61q32 0 67 22l-8 -41q-29 -18 -63 -18q-48 0 -71.5 26.5t-23.5 71.5q0 19 6 57l213 1225h41zM557 1468h-381l6 39h381zM47 -276q0 36 37 36t37 -36q0 -37 -37 -37t-37 37z" />
    <glyph glyph-name="Mdotbelow" unicode="&#x1e42;" horiz-adv-x="1415" 
d="M694 301h-32l-252 666q-23 61 -39 107.5t-21 62.5l-4 16h-4q-6 -50 -31 -195l-166 -958h-43l209 1206h51l285 -747q13 -33 21.5 -60.5t11.5 -38.5l2 -12h4q21 35 74 109l545 749h55l-209 -1206h-43l166 958l37 195h-4q-33 -57 -127 -186zM539 -276q0 36 36 36
q37 0 37 -36q0 -37 -37 -37q-36 0 -36 37z" />
    <glyph glyph-name="mdotbelow" unicode="&#x1e43;" horiz-adv-x="1501" 
d="M813 688q40 116 127.5 193t212.5 77q219 0 219 -223q0 -51 -16 -141l-76 -438q-8 -54 -8 -70q0 -61 57 -61q33 0 68 22l-8 -41q-29 -18 -64 -18q-48 0 -71 26.5t-23 71.5q0 19 6 57l78 451q16 94 16 141q0 185 -178 185q-136 0 -236 -111t-131 -287l-90 -522h-41l103 594
q16 94 16 141q0 185 -178 185q-136 0 -236 -111t-131 -287l-90 -522h-41l164 946h33l-37 -258q41 117 127 193.5t211 76.5q107 0 163 -56t56 -167q0 -29 -2 -47zM590 -276q0 36 37 36t37 -36q0 -37 -37 -37t-37 37z" />
    <glyph glyph-name="Ndotaccent" unicode="&#x1e44;" horiz-adv-x="1253" 
d="M362 1206l504 -977l88 -178h4q11 82 31 197l166 958h43l-209 -1206h-51l-504 977l-88 178h-4q-11 -82 -31 -197l-166 -958h-43l209 1206h51zM754 1362q0 37 37 37q36 0 36 -37t-36 -37q-37 0 -37 37z" />
    <glyph glyph-name="ndotaccent" unicode="&#x1e45;" horiz-adv-x="983" 
d="M719 143l78 451q16 94 16 141q0 85 -51 135t-146 50q-139 0 -248 -110t-139 -288l-90 -522h-41l164 946h33l-37 -258q40 114 135 192t223 78q110 0 174 -57.5t64 -165.5q0 -51 -16 -141l-76 -438q-8 -54 -8 -70q0 -61 57 -61q33 0 68 22l-9 -41q-29 -18 -63 -18
q-48 0 -71 26.5t-23 71.5q0 19 6 57zM590 1219q0 36 37 36t37 -36q0 -37 -37 -37t-37 37z" />
    <glyph glyph-name="Ndotbelow" unicode="&#x1e46;" horiz-adv-x="1253" 
d="M362 1206l504 -977l88 -178h4q11 82 31 197l166 958h43l-209 -1206h-51l-504 977l-88 178h-4q-11 -82 -31 -197l-166 -958h-43l209 1206h51zM457 -276q0 36 37 36q36 0 36 -36q0 -37 -36 -37q-37 0 -37 37z" />
    <glyph glyph-name="ndotbelow" unicode="&#x1e47;" horiz-adv-x="983" 
d="M719 143l78 451q16 94 16 141q0 85 -51 135t-146 50q-139 0 -248 -110t-139 -288l-90 -522h-41l164 946h33l-37 -258q40 114 135 192t223 78q110 0 174 -57.5t64 -165.5q0 -51 -16 -141l-76 -438q-8 -54 -8 -70q0 -61 57 -61q33 0 68 22l-9 -41q-29 -18 -63 -18
q-48 0 -71 26.5t-23 71.5q0 19 6 57zM326 -276q0 36 36 36q37 0 37 -36q0 -37 -37 -37q-36 0 -36 37z" />
    <glyph glyph-name="Rdotbelow" unicode="&#x1e5a;" horiz-adv-x="1054" 
d="M909 0h-47q-36 48 -43 137l-20 205q-11 108 -72.5 160.5t-189.5 52.5h-295l-97 -555h-43l209 1206h318q170 0 262 -69.5t92 -212.5q0 -155 -95 -247.5t-243 -101.5v-4q89 -12 137 -66t58 -161l20 -201q8 -87 49 -143zM348 1165l-98 -569h287q189 0 296 85t107 243
q0 241 -311 241h-281zM334 -276q0 36 37 36t37 -36q0 -37 -37 -37t-37 37z" />
    <glyph glyph-name="rdotbelow" unicode="&#x1e5b;" horiz-adv-x="595" 
d="M633 936l-15 -39q-30 23 -88 23q-114 0 -198.5 -111.5t-114.5 -286.5l-90 -522h-41l164 946h33l-37 -254q85 266 289 266q70 0 98 -22zM20 -276q0 36 37 36t37 -36q0 -37 -37 -37t-37 37z" />
    <glyph glyph-name="Rdotbelowmacron" unicode="&#x1e5c;" horiz-adv-x="1054" 
d="M909 0h-47q-36 48 -43 137l-20 205q-11 108 -72.5 160.5t-189.5 52.5h-295l-97 -555h-43l209 1206h318q170 0 262 -69.5t92 -212.5q0 -155 -95 -247.5t-243 -101.5v-4q89 -12 137 -66t58 -161l20 -201q8 -87 49 -143zM348 1165l-98 -569h287q189 0 296 85t107 243
q0 241 -311 241h-281zM334 -276q0 36 37 36t37 -36q0 -37 -37 -37t-37 37zM848 1341h-381l6 39h381z" />
    <glyph glyph-name="rdotbelowmacron" unicode="&#x1e5d;" horiz-adv-x="595" 
d="M633 936l-15 -39q-30 23 -88 23q-114 0 -198.5 -111.5t-114.5 -286.5l-90 -522h-41l164 946h33l-37 -254q85 266 289 266q70 0 98 -22zM20 -276q0 36 37 36t37 -36q0 -37 -37 -37t-37 37zM670 1157h-381l6 39h381z" />
    <glyph glyph-name="Sdotbelow" unicode="&#x1e62;" horiz-adv-x="950" 
d="M49 328l41 8q1 -148 89.5 -227.5t244.5 -79.5q149 0 238.5 71.5t89.5 218.5q0 106 -69 173t-206 114q-74 25 -123.5 49.5t-90.5 59.5t-60 82.5t-19 111.5q0 154 96 232t246 78q163 0 256 -77.5t97 -236.5l-39 -8q-14 281 -314 281q-135 0 -217 -67.5t-82 -201.5
q0 -104 59 -158.5t201 -103.5q156 -56 232 -129t76 -199q0 -162 -101 -246.5t-270 -84.5q-172 0 -273.5 91t-101.5 249zM270 -276q0 36 37 36t37 -36q0 -37 -37 -37t-37 37z" />
    <glyph glyph-name="sdotbelow" unicode="&#x1e63;" horiz-adv-x="802" 
d="M45 264l39 6q1 -66 24.5 -114.5t64 -75.5t88.5 -40t104 -13q124 0 192 52t68 159q0 83 -61.5 137t-178.5 96q-124 44 -176.5 96t-52.5 150q0 110 78 175.5t210 65.5q140 0 212.5 -64.5t72.5 -184.5l-39 -4q-3 215 -246 215q-111 0 -179 -53.5t-68 -149.5q0 -82 43.5 -125
t158.5 -84q135 -48 201 -109t66 -161q0 -121 -79.5 -185.5t-221.5 -64.5q-145 0 -232.5 71.5t-87.5 204.5zM217 -276q0 36 37 36t37 -36q0 -37 -37 -37t-37 37z" />
    <glyph glyph-name="Tdotbelow" unicode="&#x1e6c;" horiz-adv-x="983" 
d="M424 0h-43l203 1167h-445l6 39h912l-6 -39h-424zM319 -276q0 36 37 36t37 -36q0 -37 -37 -37t-37 37z" />
    <glyph glyph-name="tdotbelow" unicode="&#x1e6d;" horiz-adv-x="587" 
d="M475 98l19 -32q-75 -78 -191 -78q-86 0 -130 43.5t-44 122.5q0 36 10 94l115 661h-133l8 37h133l37 199l41 10l-37 -209h248l-8 -37h-248l-115 -661q-10 -58 -10 -94q0 -129 133 -129q102 0 172 73zM150 -276q0 36 36 36q37 0 37 -36q0 -37 -37 -37q-36 0 -36 37z" />
    <glyph glyph-name="Wgrave" unicode="&#x1e80;" horiz-adv-x="1564" 
d="M905 1206l94 -880l27 -293h4q43 109 135 297l432 876h45l-591 -1206h-60l-92 868q-8 78 -13.5 148.5t-7.5 101.5l-1 31h-5q-41 -97 -129 -281l-415 -868h-60l-108 1206h43l80 -876q7 -84 11.5 -158t5.5 -106l1 -33h4q45 106 137 299l418 874h45zM922 1282h-31l-117 260
h53z" />
    <glyph glyph-name="wgrave" unicode="&#x1e81;" horiz-adv-x="1277" 
d="M907 270l369 676h43l-514 -946h-57l-48 698q-4 50 -6 102.5t-2 79.5v27h-4q-31 -88 -92 -217l-326 -690h-57l-76 946h39l57 -684l15 -223h4q51 116 104 229l318 678h49l47 -686l12 -223h4q51 106 121 233zM741 1098h-30l-117 260h53z" />
    <glyph glyph-name="Wacute" unicode="&#x1e82;" horiz-adv-x="1564" 
d="M905 1206l94 -880l27 -293h4q43 109 135 297l432 876h45l-591 -1206h-60l-92 868q-8 78 -13.5 148.5t-7.5 101.5l-1 31h-5q-41 -97 -129 -281l-415 -868h-60l-108 1206h43l80 -876q7 -84 11.5 -158t5.5 -106l1 -33h4q45 106 137 299l418 874h45zM911 1282h-34l176 260h61
z" />
    <glyph glyph-name="wacute" unicode="&#x1e83;" horiz-adv-x="1277" 
d="M907 270l369 676h43l-514 -946h-57l-48 698q-4 50 -6 102.5t-2 79.5v27h-4q-31 -88 -92 -217l-326 -690h-57l-76 946h39l57 -684l15 -223h4q51 116 104 229l318 678h49l47 -686l12 -223h4q51 106 121 233zM735 1098h-35l177 260h61z" />
    <glyph glyph-name="Wdieresis" unicode="&#x1e84;" horiz-adv-x="1564" 
d="M905 1206l94 -880l27 -293h4q43 109 135 297l432 876h45l-591 -1206h-60l-92 868q-8 78 -13.5 148.5t-7.5 101.5l-1 31h-5q-41 -97 -129 -281l-415 -868h-60l-108 1206h43l80 -876q7 -84 11.5 -158t5.5 -106l1 -33h4q45 106 137 299l418 874h45zM729 1362q0 37 37 37
t37 -37t-37 -37t-37 37zM1036 1362q0 37 37 37t37 -37t-37 -37t-37 37z" />
    <glyph glyph-name="wdieresis" unicode="&#x1e85;" horiz-adv-x="1277" 
d="M907 270l369 676h43l-514 -946h-57l-48 698q-4 50 -6 102.5t-2 79.5v27h-4q-31 -88 -92 -217l-326 -690h-57l-76 946h39l57 -684l15 -223h4q51 116 104 229l318 678h49l47 -686l12 -223h4q51 106 121 233zM557 1219q0 36 37 36t37 -36q0 -37 -37 -37t-37 37zM864 1219
q0 36 37 36t37 -36q0 -37 -37 -37t-37 37z" />
    <glyph glyph-name="Idotbelow" unicode="&#x1eca;" horiz-adv-x="409" 
d="M311 1206h43l-209 -1206h-43zM35 -276q0 36 37 36t37 -36q0 -37 -37 -37t-37 37z" />
    <glyph glyph-name="idotbelow" unicode="&#x1ecb;" horiz-adv-x="382" 
d="M287 946l-137 -790q-9 -61 -9 -70q0 -61 58 -61q32 0 67 22l-8 -41q-29 -18 -63 -18q-48 0 -71.5 26.5t-23.5 71.5q0 19 6 57l140 803h41zM268 1219q0 36 37 36t37 -36q0 -37 -37 -37t-37 37zM18 -276q0 36 37 36t37 -36q0 -37 -37 -37t-37 37z" />
    <glyph glyph-name="Odotbelow" unicode="&#x1ecc;" horiz-adv-x="1232" 
d="M555 29q112 0 212 48.5t175 137t118.5 221t43.5 291.5q0 211 -108 331t-294 120q-112 0 -211.5 -49t-174.5 -137t-118.5 -221t-43.5 -292q0 -211 107.5 -330.5t293.5 -119.5zM555 -12q-201 0 -322.5 130.5t-121.5 360.5q0 166 47 306t127 234.5t188 147t229 52.5
q201 0 323 -131t122 -361q0 -166 -47 -306t-127.5 -234t-188.5 -146.5t-229 -52.5zM436 -276q0 36 37 36t37 -36q0 -37 -37 -37t-37 37z" />
    <glyph glyph-name="odotbelow" unicode="&#x1ecd;" horiz-adv-x="956" 
d="M426 27q127 0 219.5 78.5t136 199.5t43.5 266q0 176 -76 262.5t-219 86.5q-96 0 -173.5 -45.5t-125.5 -122t-74 -173.5t-26 -204q0 -176 76 -262t219 -86zM426 -12q-162 0 -249 98t-87 289q0 113 28 216.5t81.5 186t139 131.5t191.5 49q162 0 249 -98t87 -289
q0 -113 -28 -216.5t-81.5 -186t-139 -131.5t-191.5 -49zM307 -276q0 36 37 36t37 -36q0 -37 -37 -37t-37 37z" />
    <glyph glyph-name="Udotbelow" unicode="&#x1ee4;" horiz-adv-x="1155" 
d="M1085 1206h43l-139 -805q-73 -413 -461 -413q-184 0 -292.5 99.5t-108.5 274.5q0 54 12 121l125 723h43l-125 -721q-12 -68 -12 -123q0 -160 100.5 -247.5t257.5 -87.5q353 0 418 376zM395 -276q0 36 37 36t37 -36q0 -37 -37 -37t-37 37z" />
    <glyph glyph-name="udotbelow" unicode="&#x1ee5;" 
d="M844 946l-137 -790q-9 -61 -9 -70q0 -61 58 -61q32 0 67 22l-8 -41q-29 -18 -63 -18q-48 0 -71.5 26.5t-23.5 71.5q0 27 27 174q-40 -116 -131.5 -194t-218.5 -78q-110 0 -175 57.5t-65 165.5q0 57 12 119l107 616h41l-107 -618q-12 -70 -12 -117q0 -85 52 -134.5
t147 -49.5q140 0 244 108.5t135 288.5l90 522h41zM272 -276q0 36 37 36t37 -36q0 -37 -37 -37t-37 37z" />
    <glyph glyph-name="Ygrave" unicode="&#x1ef2;" horiz-adv-x="972" 
d="M205 1206l201 -477l77 -190h4q38 51 144 190l368 477h52l-549 -710l-86 -496h-43l86 496l-299 710h45zM645 1282h-31l-116 260h53z" />
    <glyph glyph-name="ygrave" unicode="&#x1ef3;" horiz-adv-x="849" 
d="M279 0l-142 946h39l103 -674q11 -71 18.5 -128.5t9.5 -79.5l2 -21h4q35 69 127 223l406 680h45l-711 -1190q-63 -105 -113 -148.5t-128 -43.5q-90 0 -144 61l23 35q55 -59 121 -59q63 0 108 39.5t100 134.5zM543 1098h-31l-117 260h54z" />
    <glyph glyph-name="Ytilde" unicode="&#x1ef8;" horiz-adv-x="972" 
d="M205 1206l201 -477l77 -190h4q38 51 144 190l368 477h52l-549 -710l-86 -496h-43l86 496l-299 710h45zM395 1321l-24 8q-6 24 -6 47q0 55 32.5 86t79.5 31q59 0 129 -57l64 -54q49 -43 96 -43q44 0 63 33.5t19 100.5l24 -9q7 -28 7 -47q0 -54 -33 -85.5t-80 -31.5
q-58 0 -129 58l-64 53q-49 43 -96 43q-44 0 -63 -33t-19 -100z" />
    <glyph glyph-name="ytilde" unicode="&#x1ef9;" horiz-adv-x="849" 
d="M279 0l-142 946h39l103 -674q11 -71 18.5 -128.5t9.5 -79.5l2 -21h4q35 69 127 223l406 680h45l-711 -1190q-63 -105 -113 -148.5t-128 -43.5q-90 0 -144 61l23 35q55 -59 121 -59q63 0 108 39.5t100 134.5zM324 1137l-25 8q-6 24 -6 47q0 54 33 85.5t80 31.5
q58 0 129 -58l63 -53q49 -43 96 -43q44 0 63 33t19 100l25 -8q6 -24 6 -47q0 -54 -33 -85.5t-80 -31.5q-58 0 -129 58l-63 53q-49 43 -96 43q-44 0 -63 -33t-19 -100z" />
    <glyph glyph-name="enspace" unicode="&#x2002;" horiz-adv-x="921" 
 />
    <glyph glyph-name="emspace" unicode="&#x2003;" horiz-adv-x="1843" 
 />
    <glyph glyph-name="threeperemspace" unicode="&#x2004;" horiz-adv-x="614" 
 />
    <glyph glyph-name="fourperemspace" unicode="&#x2005;" horiz-adv-x="460" 
 />
    <glyph glyph-name="sixperemspace" unicode="&#x2006;" horiz-adv-x="307" 
 />
    <glyph glyph-name="figurespace" unicode="&#x2007;" horiz-adv-x="1050" 
 />
    <glyph glyph-name="punctuationspace" unicode="&#x2008;" horiz-adv-x="350" 
 />
    <glyph glyph-name="thinspace" unicode="&#x2009;" horiz-adv-x="184" 
 />
    <glyph glyph-name="hairspace" unicode="&#x200a;" horiz-adv-x="92" 
 />
    <glyph glyph-name="zerowidthspace" unicode="&#x200b;" horiz-adv-x="0" 
 />
    <glyph glyph-name="figuredash" unicode="&#x2012;" horiz-adv-x="1267" 
d="M154 532l8 39h940l-8 -39h-940z" />
    <glyph glyph-name="endash" unicode="&#x2013;" horiz-adv-x="1064" 
d="M154 532l8 39h737l-8 -39h-737z" />
    <glyph glyph-name="emdash" unicode="&#x2014;" horiz-adv-x="2088" 
d="M154 532l8 39h1761l-8 -39h-1761z" />
    <glyph glyph-name="uni2015" unicode="&#x2015;" horiz-adv-x="2600" 
d="M154 532l8 39h2273l-8 -39h-2273z" />
    <glyph glyph-name="doublebar" unicode="&#x2016;" horiz-adv-x="657" 
d="M111 -416h-41l313 1786h41zM276 -416h-40l313 1786h41z" />
    <glyph glyph-name="quoteleft" unicode="&#x2018;" horiz-adv-x="417" 
d="M281 1217q0 69 56 109t138 40v-31q-66 0 -113 -29.5t-47 -84.5q0 -15 7 -25q10 14 28 14q17 0 27 -9.5t10 -24.5q0 -18 -11.5 -28.5t-31.5 -10.5q-28 0 -45.5 21t-17.5 59z" />
    <glyph glyph-name="quoteright" unicode="&#x2019;" horiz-adv-x="417" 
d="M393 1288q0 -69 -56 -109t-138 -40v30q65 0 112 30t47 85q0 16 -6 25q-11 -15 -28 -15t-27 10t-10 25q0 18 11.5 28.5t31.5 10.5q28 0 45.5 -21t17.5 -59z" />
    <glyph glyph-name="quotesinglbase" unicode="&#x201a;" horiz-adv-x="417" 
d="M209 25q0 -69 -56.5 -109.5t-138.5 -40.5v31q66 0 113 29.5t47 84.5q0 16 -6 25q-10 -14 -29 -14q-17 0 -27 10t-10 25q0 17 11.5 27.5t31.5 10.5q29 0 46.5 -21t17.5 -58z" />
    <glyph glyph-name="reversequoteleft" unicode="&#x201b;" horiz-adv-x="417" 
d="M276 1278q0 43 19 66.5t45 23.5q20 0 31.5 -10.5t11.5 -28.5q0 -15 -10 -25t-27 -10q-18 0 -29 15q-6 -9 -6 -31q0 -111 117 -111v-30q-75 0 -113.5 37.5t-38.5 103.5z" />
    <glyph glyph-name="quotedblleft" unicode="&#x201c;" horiz-adv-x="622" 
d="M281 1217q0 69 56 109t138 40v-31q-66 0 -113 -29.5t-47 -84.5q0 -15 7 -25q10 14 28 14q17 0 27 -9.5t10 -24.5q0 -18 -11.5 -28.5t-31.5 -10.5q-28 0 -45.5 21t-17.5 59zM485 1217q0 69 56.5 109t138.5 40v-31q-66 0 -113 -29.5t-47 -84.5q0 -16 6 -25q10 14 29 14
q17 0 27 -9.5t10 -24.5q0 -18 -11.5 -28.5t-31.5 -10.5q-28 0 -46 21.5t-18 58.5z" />
    <glyph glyph-name="quotedblright" unicode="&#x201d;" horiz-adv-x="622" 
d="M414 1255q0 -69 -56.5 -109t-138.5 -40v31q66 0 113 29.5t47 84.5q0 16 -6 25q-11 -14 -29 -14q-17 0 -27 9.5t-10 24.5q0 18 11.5 28.5t31.5 10.5q28 0 46 -21.5t18 -58.5zM618 1255q0 -69 -56 -109t-138 -40v31q66 0 113 29.5t47 84.5q0 16 -6 25q-10 -14 -29 -14
q-17 0 -27 9.5t-10 24.5q0 18 11.5 28.5t31.5 10.5q28 0 45.5 -21t17.5 -59z" />
    <glyph glyph-name="quotedblbase" unicode="&#x201e;" horiz-adv-x="622" 
d="M209 27q0 -69 -56.5 -109.5t-138.5 -40.5v31q65 0 112.5 30t47.5 85q0 15 -6 24q-10 -14 -29 -14q-17 0 -27 10t-10 25q0 17 11.5 27.5t31.5 10.5q29 0 46.5 -21t17.5 -58zM414 27q0 -69 -56.5 -109.5t-138.5 -40.5v31q65 0 112.5 30t47.5 85q0 15 -6 24q-11 -14 -29 -14
q-17 0 -27 10t-10 25q0 17 11.5 27.5t31.5 10.5q29 0 46.5 -21t17.5 -58z" />
    <glyph glyph-name="reversequotedblleft" unicode="&#x201f;" horiz-adv-x="675" 
d="M289 1284q0 43 19 66.5t44 23.5q20 0 31.5 -10.5t11.5 -28.5q0 -15 -10 -25t-27 -10t-28 15q-6 -9 -6 -31q0 -110 116 -110v-31q-75 0 -113 37.5t-38 103.5zM535 1284q0 43 19 66.5t44 23.5q20 0 31.5 -10.5t11.5 -28.5q0 -15 -10 -25t-27 -10q-18 0 -29 15q-6 -9 -6 -31
q0 -110 117 -110v-31q-75 0 -113 37.5t-38 103.5z" />
    <glyph glyph-name="dagger" unicode="&#x2020;" horiz-adv-x="1067" 
d="M559 739l-438 -10l10 51l434 -10l66 436h51l-86 -436l438 10l-10 -51l-434 10l-174 -1044h-51z" />
    <glyph glyph-name="daggerdbl" unicode="&#x2021;" horiz-adv-x="1067" 
d="M590 739l-103 -577l439 10l-8 -51l-435 10l-67 -436h-51l88 436l-439 -10l9 51l434 -10l102 577l-438 -10l10 51l434 -10l66 436h51l-86 -436l438 10l-10 -51z" />
    <glyph glyph-name="bullet" unicode="&#x2022;" horiz-adv-x="557" 
d="M199 549q0 38 28 66t66 28t66 -28t28 -66t-28 -66t-66 -28t-66 28t-28 66z" />
    <glyph glyph-name="ellipsis" unicode="&#x2026;" horiz-adv-x="1228" 
d="M90 37q0 37 37 37t37 -37t-37 -37t-37 37zM500 37q0 37 37 37q36 0 36 -37t-36 -37q-37 0 -37 37zM909 37q0 37 37 37t37 -37t-37 -37t-37 37z" />
    <glyph glyph-name="perthousand" unicode="&#x2030;" horiz-adv-x="2258" 
d="M334 510q70 0 126 39t89.5 101t51 132t17.5 138q0 114 -48.5 187t-147.5 73q-56 0 -104 -26t-80.5 -68t-56 -96.5t-34 -110t-10.5 -109.5q0 -114 49 -187t148 -73zM424 1217q117 0 176 -83t59 -214q0 -78 -20.5 -155t-59 -143.5t-103 -107.5t-144.5 -41q-117 0 -176.5 83
t-59.5 214q0 78 20.5 155t59.5 143.5t103.5 107.5t144.5 41zM356 0l840 1206h45l-840 -1206h-45zM1176 27q70 0 126 39t89.5 101t51 131.5t17.5 137.5q0 114 -48.5 187t-147.5 73q-70 0 -126.5 -39t-90 -100.5t-51 -131.5t-17.5 -138q0 -114 49 -187t148 -73zM1266 733
q117 0 176 -83t59 -214q0 -78 -20.5 -155t-59 -143t-103 -107t-144.5 -41q-117 0 -176.5 83t-59.5 214q0 78 20.5 155t59.5 143t103.5 107t144.5 41zM1843 27q70 0 126.5 39t90 100.5t51 131.5t17.5 138q0 114 -49 187t-148 73q-70 0 -126 -39t-89.5 -101t-51 -131.5
t-17.5 -137.5q0 -114 48.5 -187t147.5 -73zM1933 733q117 0 176.5 -83t59.5 -214q0 -78 -20.5 -155t-59.5 -143t-103.5 -107t-144.5 -41q-117 0 -176 83t-59 214q0 78 20.5 155t59 143t103 107t144.5 41z" />
    <glyph glyph-name="tripleprime" unicode="&#x2034;" horiz-adv-x="663" 
d="M209 844l92 524h49l-110 -524h-31zM373 844l92 524h49l-111 -524h-30zM537 844l92 524h49l-111 -524h-30z" />
    <glyph glyph-name="guilsinglleft" unicode="&#x2039;" horiz-adv-x="624" 
d="M170 475v-4q11 -12 68 -96l188 -279l-33 -22l-270 403l412 404l28 -29l-287 -279q-38 -37 -64.5 -61.5t-33.5 -30.5z" />
    <glyph glyph-name="guilsinglright" unicode="&#x203a;" horiz-adv-x="624" 
d="M469 479v4q-11 13 -68 97l-188 278l33 23l270 -404l-412 -403l-28 28l286 279q38 37 65 61.5t35 30.5z" />
    <glyph glyph-name="fraction" unicode="&#x2044;" horiz-adv-x="264" 
d="M-270 0l839 1206h45l-839 -1206h-45z" />
    <glyph glyph-name="uni2070" unicode="&#x2070;" horiz-adv-x="688" 
d="M365 510q70 0 126 39t89.5 101t51 132t17.5 138q0 114 -48.5 187t-147.5 73q-56 0 -104 -26t-80.5 -68t-56 -96.5t-34 -110t-10.5 -109.5q0 -114 49 -187t148 -73zM455 1217q117 0 176 -83t59 -214q0 -78 -20.5 -155t-59.5 -143.5t-103.5 -107.5t-144.5 -41
q-117 0 -176 83t-59 214q0 78 20.5 155t59.5 143.5t103.5 107.5t144.5 41z" />
    <glyph glyph-name="uni2074" unicode="&#x2074;" horiz-adv-x="628" 
d="M434 483l35 197h-391l6 39l473 487h43l-86 -489h123l-8 -37h-121l-35 -197h-39zM213 717h262l60 352q4 24 9 46.5t8 32.5l3 11h-4q-25 -35 -80 -92l-250 -262q-25 -27 -47.5 -48.5t-32.5 -29.5l-10 -8v-4q37 2 82 2z" />
    <glyph glyph-name="uni2075" unicode="&#x2075;" horiz-adv-x="563" 
d="M160 829l82 377h356l-8 -37h-320l-67 -299q50 68 151 68q92 0 146.5 -57.5t54.5 -153.5q0 -121 -72 -187.5t-182 -66.5q-100 0 -161.5 46.5t-67.5 131.5l39 11q6 -77 58.5 -114.5t131.5 -37.5q94 0 153.5 56.5t59.5 158.5q0 77 -45 127.5t-115 50.5q-57 0 -92 -18.5
t-67 -55.5h-35z" />
    <glyph glyph-name="uni2076" unicode="&#x2076;" horiz-adv-x="618" 
d="M645 1061l-37 -12q-9 63 -48 97t-105 34q-110 0 -186 -107.5t-101 -298.5h4q19 83 75.5 127.5t141.5 44.5q99 0 156 -58t57 -151q0 -111 -67 -187.5t-185 -76.5q-102 0 -160.5 66t-58.5 186q0 78 19 160.5t56.5 158.5t103 124.5t147.5 48.5q166 0 188 -156zM352 510
q92 0 151.5 62.5t59.5 164.5q0 75 -48 123.5t-132 48.5q-91 0 -149 -62t-58 -157q0 -78 47 -129t129 -51z" />
    <glyph glyph-name="uni2077" unicode="&#x2077;" horiz-adv-x="534" 
d="M545 1169h-385l-21 -118h-41l27 155h475l-6 -30l-393 -693h-47z" />
    <glyph glyph-name="uni2078" unicode="&#x2078;" horiz-adv-x="595" 
d="M401 1217q91 0 150 -50t59 -135q0 -83 -49 -130.5t-121 -55.5v-4q62 -19 97.5 -63.5t35.5 -106.5q0 -93 -66.5 -146t-172.5 -53q-104 0 -169 52.5t-65 142.5q0 84 54 132t137 54v4q-49 19 -82 60t-33 100q0 93 63.5 146t161.5 53zM336 510q87 0 141.5 43t54.5 119
q0 74 -55.5 116.5t-140.5 42.5t-140 -42.5t-55 -118.5q0 -75 56 -117.5t139 -42.5zM217 1016q0 -65 47.5 -107.5t120.5 -42.5q83 0 133.5 42.5t50.5 119.5q0 66 -47.5 109t-122.5 43q-81 0 -131.5 -43.5t-50.5 -120.5z" />
    <glyph glyph-name="uni2079" unicode="&#x2079;" horiz-adv-x="618" 
d="M106 629l37 12q9 -63 48.5 -97t105.5 -34q110 0 186 107t101 298h-4q-19 -83 -76 -127.5t-142 -44.5q-99 0 -155.5 58t-56.5 151q0 112 66.5 188.5t184.5 76.5q102 0 161 -66t59 -186q0 -78 -19 -160.5t-56.5 -158.5t-103 -124.5t-147.5 -48.5q-83 0 -130.5 40.5
t-58.5 115.5zM399 1180q-92 0 -151.5 -63t-59.5 -165q0 -74 48.5 -123t132.5 -49q91 0 148.5 62t57.5 157q0 78 -47 129.5t-129 51.5z" />
    <glyph glyph-name="uni207A" unicode="&#x207a;" horiz-adv-x="888" 
d="M514 1208h41l-59 -329h342l-7 -39h-342l-63 -359h-41l64 359h-343l7 39h342z" />
    <glyph glyph-name="uni207B" unicode="&#x207b;" horiz-adv-x="888" 
d="M106 840l7 39h725l-7 -39h-725z" />
    <glyph glyph-name="uni207C" unicode="&#x207c;" horiz-adv-x="888" 
d="M86 729l8 39h725l-8 -39h-725zM127 954l6 39h725l-6 -39h-725z" />
    <glyph glyph-name="uni207D" unicode="&#x207d;" horiz-adv-x="454" 
d="M145 711q0 343 273 592h51q-91 -89 -149 -168.5t-96 -188.5t-38 -235q0 -91 30 -171t89 -167h-47q-113 170 -113 338z" />
    <glyph glyph-name="uni207E" unicode="&#x207e;" horiz-adv-x="454" 
d="M379 965q0 -343 -273 -592h-51q91 89 149 168.5t96 188.5t38 235q0 91 -30 171t-89 167h47q113 -170 113 -338z" />
    <glyph glyph-name="n.superior" unicode="&#x207f;" horiz-adv-x="667" 
d="M541 719l47 276q8 49 8 80q0 53 -32 84t-91 31q-91 0 -161.5 -69t-90.5 -185l-59 -342h-41l108 625h33l-20 -162q28 73 90.5 121.5t144.5 48.5q75 0 117.5 -38.5t42.5 -109.5q0 -26 -8 -84l-47 -272q-9 -49 -9 -64q0 -38 35 -38q24 0 47 14l-8 -37q-24 -12 -49 -12
q-66 0 -66 69q0 17 9 64z" />
    <glyph glyph-name="uni2080" unicode="&#x2080;" horiz-adv-x="688" 
d="M303 27q70 0 126.5 39t90 100.5t51 131.5t17.5 138q0 114 -49 187t-148 73q-70 0 -126.5 -39t-90 -100.5t-51 -131.5t-17.5 -138q0 -114 49 -187t148 -73zM393 733q117 0 176.5 -83t59.5 -214q0 -78 -20.5 -155t-59.5 -143t-103.5 -107t-144.5 -41q-117 0 -176 83
t-59 214q0 78 20.5 155t59 143t103 107t144.5 41z" />
    <glyph glyph-name="uni2081" unicode="&#x2081;" horiz-adv-x="618" 
d="M516 0h-489l6 35h235l113 643l-254 -62l6 41l299 72l-121 -694h213z" />
    <glyph glyph-name="uni2082" unicode="&#x2082;" horiz-adv-x="567" 
d="M113 514l-37 16q9 87 72.5 145t164.5 58q95 0 155 -56.5t60 -150.5q0 -61 -33 -125.5t-83 -116.5t-114.5 -101.5t-120.5 -82.5t-109 -59v-2h401l-6 -39h-471l6 35q71 39 130 74.5t129 87.5t117.5 101t80 108t32.5 116q0 77 -49.5 125.5t-126.5 48.5q-88 0 -139.5 -53.5
t-58.5 -128.5z" />
    <glyph glyph-name="uni2083" unicode="&#x2083;" horiz-adv-x="548" 
d="M227 -10q-100 0 -159.5 47.5t-63.5 132.5l39 8q7 -76 56 -113.5t128 -37.5q88 0 142.5 44.5t54.5 127.5q0 71 -59.5 113t-176.5 42l7 37q56 0 102 8t85.5 26.5t62 53t22.5 82.5q0 57 -39.5 96t-112.5 39q-144 0 -168 -147l-36 12q28 172 206 172q89 0 140 -47t51 -123
q0 -87 -61.5 -136t-157.5 -54v-4q77 -6 127.5 -52t50.5 -118q0 -97 -68.5 -153t-171.5 -56z" />
    <glyph glyph-name="uni2084" unicode="&#x2084;" horiz-adv-x="628" 
d="M375 0l35 197h-392l7 39l473 487h43l-86 -490h123l-9 -36h-120l-35 -197h-39zM154 233h262l59 353q4 24 9 46.5t8 33.5l4 10h-4q-25 -35 -80 -92l-250 -262q-25 -27 -47.5 -48.5t-32.5 -29.5l-10 -8v-5q37 2 82 2z" />
    <glyph glyph-name="uni2085" unicode="&#x2085;" horiz-adv-x="563" 
d="M98 346l82 377h357l-9 -37h-319l-68 -299q50 68 152 68q92 0 146.5 -57.5t54.5 -153.5q0 -121 -72 -187.5t-182 -66.5q-100 0 -162 46.5t-68 131.5l39 10q6 -77 58.5 -114t132.5 -37q94 0 153.5 56.5t59.5 158.5q0 77 -45 127.5t-115 50.5q-57 0 -93 -18.5t-67 -55.5h-35
z" />
    <glyph glyph-name="uni2086" unicode="&#x2086;" horiz-adv-x="618" 
d="M584 578l-37 -13q-9 63 -48.5 97t-105.5 34q-110 0 -186 -107t-101 -298h5q19 83 75.5 127.5t141.5 44.5q99 0 156 -58t57 -151q0 -111 -67 -187.5t-185 -76.5q-102 0 -160.5 66t-58.5 186q0 78 19 160.5t56 158t102.5 124t147.5 48.5q167 0 189 -155zM291 27
q92 0 151.5 62.5t59.5 164.5q0 75 -48 123.5t-132 48.5q-91 0 -149 -62t-58 -157q0 -78 47 -129t129 -51z" />
    <glyph glyph-name="uni2087" unicode="&#x2087;" horiz-adv-x="534" 
d="M483 686h-385l-20 -119h-41l26 156h476l-7 -31l-393 -692h-47z" />
    <glyph glyph-name="uni2088" unicode="&#x2088;" horiz-adv-x="595" 
d="M340 733q91 0 150 -50t59 -134q0 -83 -49 -131t-121 -56v-4q62 -19 97.5 -63.5t35.5 -106.5q0 -93 -67 -145.5t-173 -52.5q-104 0 -168.5 52t-64.5 142q0 84 53.5 132.5t136.5 54.5v4q-49 19 -81.5 60t-32.5 100q0 93 63.5 145.5t161.5 52.5zM274 27q87 0 142 42.5
t55 118.5q0 74 -56 117t-141 43t-139.5 -43t-54.5 -119q0 -75 55.5 -117t138.5 -42zM156 532q0 -65 47.5 -107t120.5 -42q83 0 133.5 42.5t50.5 119.5q0 66 -47.5 108.5t-122.5 42.5q-81 0 -131.5 -43.5t-50.5 -120.5z" />
    <glyph glyph-name="uni2089" unicode="&#x2089;" horiz-adv-x="618" 
d="M45 145l37 13q9 -63 48.5 -97t105.5 -34q110 0 185.5 107t100.5 298h-4q-19 -83 -75.5 -127.5t-141.5 -44.5q-99 0 -156 58t-57 151q0 111 67 187.5t185 76.5q102 0 160.5 -66t58.5 -186q0 -78 -19 -160.5t-56.5 -158t-103 -124t-147.5 -48.5q-166 0 -188 155zM338 696
q-92 0 -151.5 -62.5t-59.5 -164.5q0 -75 48 -123.5t132 -48.5q91 0 149 62t58 157q0 78 -47 129t-129 51z" />
    <glyph glyph-name="uni208A" unicode="&#x208a;" horiz-adv-x="888" 
d="M453 725h41l-60 -330h342l-6 -39h-342l-63 -358h-41l63 358h-342l6 39h342z" />
    <glyph glyph-name="uni208B" unicode="&#x208b;" horiz-adv-x="888" 
d="M45 356l6 39h725l-6 -39h-725z" />
    <glyph glyph-name="uni208C" unicode="&#x208c;" horiz-adv-x="888" 
d="M25 246l8 39h725l-8 -39h-725zM66 471l6 39h725l-6 -39h-725z" />
    <glyph glyph-name="uni208D" unicode="&#x208d;" horiz-adv-x="454" 
d="M84 227q0 344 272 592h52q-91 -89 -149 -168.5t-96 -188.5t-38 -235q0 -91 30 -171t89 -167h-47q-113 170 -113 338z" />
    <glyph glyph-name="uni208E" unicode="&#x208e;" horiz-adv-x="454" 
d="M317 481q0 -344 -272 -592h-51q139 135 210.5 272t71.5 320q0 91 -29.5 171t-88.5 167h47q112 -169 112 -338z" />
    <glyph glyph-name="uni20A1" unicode="&#x20a1;" horiz-adv-x="978" 
d="M391 -199l62 187q-92 3 -160 41l-62 -185l-36 11l65 192q-154 107 -154 340q0 181 64.5 319.5t171 211.5t238.5 79l59 179l35 -11l-58 -168q92 -3 162 -45l58 170l34 -10l-61 -182q80 -68 98 -180l-35 -11q-18 94 -77 150l-289 -862q218 16 307 219l33 -21
q-48 -114 -139 -173t-213 -64l-66 -195zM150 387q0 -204 124 -299l291 868q-185 -15 -300 -168t-115 -401zM305 68q68 -41 162 -41l299 886q-70 45 -162 45z" />
    <glyph glyph-name="uni20A2" unicode="&#x20a2;" horiz-adv-x="999" 
d="M471 -12q-166 0 -265.5 107.5t-99.5 291.5q0 140 39 256.5t107 193t158 118.5t192 42q126 0 206 -66t99 -181l-35 -11q-19 105 -90 162t-180 57q-198 0 -325 -155.5t-127 -415.5q0 -154 76 -251t208 -109l82 465h33l-25 -183q29 99 87.5 147t127.5 48q58 0 105 -29
l-19 -39q-40 29 -86 29q-187 0 -245 -328l-19 -110q243 0 338 219l33 -21q-50 -118 -147.5 -177.5t-227.5 -59.5z" />
    <glyph glyph-name="franc" unicode="&#x20a3;" horiz-adv-x="868" 
d="M721 580h-426l-29 -166h426l-6 -39h-426l-65 -375h-41l65 375h-178l6 39h178l29 166h-178l8 38h178l64 367h532l-6 -39h-492l-57 -328h426z" />
    <glyph glyph-name="lira" unicode="&#x20a4;" horiz-adv-x="1017" 
d="M684 332h-311q4 -32 4 -47q0 -93 -47.5 -158.5t-114.5 -87.5h414q94 0 148.5 27.5t86.5 99.5l39 -16q-34 -82 -99.5 -116t-172.5 -34h-574l6 39h54q83 0 150 69.5t67 176.5q0 15 -4 47h-230l6 39h216q-5 23 -20.5 78.5t-22.5 87.5h-144l8 38h127q-6 37 -6 78
q0 87 27.5 154t75 108t109 61.5t132.5 20.5q142 0 220.5 -70.5t78.5 -207.5l-43 -8q0 125 -67.5 186t-188.5 61q-137 0 -219 -78.5t-82 -226.5q0 -41 6 -78h414l-8 -38h-397q6 -32 23 -87.5t22 -78.5h323z" />
    <glyph glyph-name="uni20A6" unicode="&#x20a6;" horiz-adv-x="1230" 
d="M1147 375h-176l-66 -375h-49l-426 786l-76 150h-4q-10 -70 -26 -164l-136 -772h-41l66 375h-172l6 39h172l29 166h-172l8 38h172l63 367h50l428 -792l73 -140h4q11 64 27 160l135 772h41l-63 -367h176l-8 -38h-176l-29 -166h176z" />
    <glyph glyph-name="peseta" unicode="&#x20a7;" horiz-adv-x="2064" 
d="M1008 0h-41l118 674h-249q-20 -136 -116.5 -205.5t-256.5 -69.5h-232l-69 -399h-41l172 985h250q146 0 221.5 -62t75.5 -184q0 -5 -1 -13.5t-1 -12.5h530v32q0 116 81.5 184t219.5 68q146 0 219.5 -67.5t73.5 -192.5l-37 -4q-3 225 -256 225q-117 0 -188.5 -56
t-71.5 -157q0 -84 49 -130t164 -87q140 -50 208 -113t68 -167q0 -126 -82.5 -193t-230.5 -67q-150 0 -240 74t-90 212l39 9q1 -69 25 -120t65.5 -80.5t91.5 -43.5t109 -14q129 0 201 55.5t72 167.5q0 86 -63.5 143t-182.5 98q-105 36 -161.5 77.5t-74.5 107.5h-250zM328 946
l-90 -508h227q334 0 334 301q0 207 -264 207h-207z" />
    <glyph glyph-name="uni20A8" unicode="&#x20a8;" horiz-adv-x="1540" 
d="M307 946l-80 -457h250q156 0 241 70t85 193q0 101 -61 147.5t-185 46.5h-250zM1147 -12q-90 0 -154 39.5t-125 109.5l-120 137q-33 37 -43 48t-38.5 39.5t-44.5 38.5t-43 25.5t-53.5 20.5t-56.5 5h-250l-78 -451h-41l172 985h293q279 0 279 -233q0 -126 -81.5 -201.5
t-203.5 -85.5v-4q43 -6 81.5 -29.5t60.5 -46t73 -80.5l129 -145q58 -65 115.5 -99t128.5 -34q85 0 140.5 40t55.5 119q0 111 -184 179q-95 34 -135.5 74.5t-40.5 113.5q0 89 61 142t164 53q114 0 172 -51.5t58 -147.5l-43 -2q0 79 -49 120.5t-138 41.5q-81 0 -131.5 -40.5
t-50.5 -111.5q0 -61 33 -92.5t123 -63.5q102 -36 153 -85.5t51 -127.5q0 -98 -62.5 -149t-176.5 -51z" />
    <glyph glyph-name="uni20A9" unicode="&#x20a9;" horiz-adv-x="1445" 
d="M1331 375h-196l-179 -375h-57l-88 698l-27 240h-4q-32 -86 -104 -238l-334 -700h-59l-47 375h-195l6 39h184l-20 166h-135l8 38h121l-45 367h39l92 -717l24 -237h4q35 81 109 237l340 717h45l92 -717q8 -65 14 -127t8 -86t3 -24h2q1 0 11.5 25t38 86t58.5 126l342 717h43
l-176 -367h125l-8 -38h-135l-78 -166h184z" />
    <glyph glyph-name="uni20AA" unicode="&#x20aa;" horiz-adv-x="1255" 
d="M760 256h-41l76 438q10 62 10 103q0 74 -49 111.5t-160 37.5h-289l-166 -946h-41l172 985h330q133 0 188.5 -46.5t55.5 -141.5q0 -41 -10 -103zM1133 985h41l-121 -694q-13 -73 -34.5 -123.5t-59 -90t-97.5 -58.5t-145 -19h-330l123 702h41l-117 -663h289
q139 0 202.5 60.5t86.5 191.5z" />
    <glyph glyph-name="Euro" unicode="&#x20ac;" horiz-adv-x="1060" 
d="M727 602h-469q-27 -100 -27 -194h404l-21 -39h-383q5 -156 91 -249t231 -93q247 0 342 219l33 -21q-50 -118 -147.5 -177.5t-227.5 -59.5q-163 0 -262 102.5t-103 278.5h-168l7 39h161q0 94 27 194h-154l7 39h157q56 168 179.5 262t279.5 94q126 0 206 -66t99 -181
l-35 -11q-19 105 -90 162t-180 57q-143 0 -253 -83.5t-161 -233.5h478z" />
    <glyph glyph-name="uni20AE" unicode="&#x20ae;" horiz-adv-x="901" 
d="M365 0h-41l69 393l-284 -45l6 39l284 45l27 146l-285 -46l6 39l285 45l57 330h-364l6 39h770l-6 -39h-365l-57 -323l305 51l-8 -39l-303 -49l-27 -146l305 49l-8 -38l-303 -50z" />
    <glyph glyph-name="uni20B1" unicode="&#x20b1;" horiz-adv-x="1085" 
d="M98 670l8 39h191l49 276h250q146 0 221.5 -62t75.5 -184q0 -20 -2 -30h153l-8 -39h-149q-20 -133 -116 -202t-255 -69h-231l-70 -399h-41l117 670h-193zM518 438q292 0 328 232h-514l-41 -232h227zM381 946l-43 -237h512q2 10 2 30q0 207 -264 207h-207z" />
    <glyph glyph-name="afii61289" unicode="&#x2113;" horiz-adv-x="647" 
d="M53 393l154 121v555q0 134 47 217.5t145 83.5q67 0 110.5 -42t60 -104.5t16.5 -144.5q0 -95 -21.5 -173.5t-68 -148.5t-104 -129t-144.5 -130v-299q0 -87 42 -129.5t111 -42.5q53 0 91.5 11.5t85.5 41.5v-43q-79 -49 -177 -49q-88 0 -141 55.5t-53 151.5v270
q-66 -53 -133 -103zM248 1069v-522q106 89 166 159.5t95.5 163.5t35.5 209q0 47 -7 88.5t-22.5 80t-45.5 61t-71 22.5q-75 0 -113 -74t-38 -188z" />
    <glyph glyph-name="afii61352" unicode="&#x2116;" horiz-adv-x="2095" 
d="M1384 0l7 39h477l-6 -39h-478zM287 270l162 936h51l504 -977l88 -178h4q10 82 30 197l119 688q27 159 73 221t130 62q61 0 106 -35l-12 -39q-44 35 -94 35q-62 0 -98.5 -51t-61.5 -193l-162 -936h-51l-504 977l-88 178h-4q-10 -82 -30 -197l-119 -688
q-27 -159 -73 -220.5t-130 -61.5q-62 0 -107 35l13 38q43 -34 94 -34q42 0 69 19t50.5 73t40.5 151zM1675 307q81 0 140.5 50t87.5 127t28 169q0 221 -188 221q-81 0 -140.5 -50t-87.5 -127t-28 -169q0 -221 188 -221zM1673 268q-107 0 -167 66t-60 192q0 102 32.5 188
t102.5 142.5t164 56.5q107 0 167 -66t60 -192q0 -102 -32.5 -188t-102.5 -142.5t-164 -56.5z" />
    <glyph glyph-name="published" unicode="&#x2117;" horiz-adv-x="1454" 
d="M639 948l-66 -368h203q114 0 179 50t65 156q0 85 -46.5 123.5t-137.5 38.5h-197zM778 543h-211l-51 -297h-41l129 739h242q215 0 215 -199q0 -120 -76 -181.5t-207 -61.5zM1362 602q0 -175 -82.5 -316.5t-222.5 -219.5t-309 -78t-309.5 78t-223 219.5t-82.5 316.5
q0 132 48.5 247t131 196t196 127.5t239.5 46.5q169 0 309 -79t222.5 -221t82.5 -317zM1323 602q0 164 -77.5 298t-209 208t-288.5 74q-118 0 -223.5 -44t-183.5 -120t-123.5 -184.5t-45.5 -231.5q0 -164 77.5 -297t209.5 -206.5t289 -73.5t288.5 73.5t209 206.5t77.5 297z
" />
    <glyph glyph-name="servicemark" unicode="&#x2120;" horiz-adv-x="1232" 
d="M901 860h4q15 23 72 107l168 239h51l-88 -508h-41l51 297q8 48 16 88t12 56l5 16h-4q-27 -49 -88 -133l-152 -215h-24l-78 215l-43 133h-4q-7 -51 -25 -160l-51 -297h-41l88 508h51l86 -241zM164 844l37 8q0 -65 37.5 -97t99.5 -32q59 0 93 25t34 77q0 45 -27.5 71.5
t-89.5 49.5q-67 25 -96 55t-29 84q0 60 42.5 97t113.5 37q75 0 116.5 -38t41.5 -104l-37 -6q0 113 -121 113q-54 0 -85.5 -26t-31.5 -73q0 -36 21.5 -59.5t72.5 -42.5q77 -28 112.5 -63.5t35.5 -94.5q0 -63 -45 -99t-121 -36q-78 0 -126 41t-48 113z" />
    <glyph glyph-name="trademark" unicode="&#x2122;" horiz-adv-x="1212" 
d="M326 698h-41l82 471h-185l6 37h408l-6 -37h-182zM881 860h4q14 23 71 107l168 239h52l-89 -508h-40l51 297q8 48 16 88t12 56l4 16h-4q-27 -49 -88 -133l-151 -215h-25l-78 215l-43 133h-4q-6 -51 -24 -160l-51 -297h-41l88 508h51l86 -241z" />
    <glyph glyph-name="estimated" unicode="&#x212e;" horiz-adv-x="1325" 
d="M662 1227q117 0 213 -35t161.5 -94.5t110.5 -140t65.5 -169.5t20.5 -186v-53h-883v-342q122 -119 312 -119q263 0 376 209h136q-62 -146 -191 -231.5t-321 -85.5q-116 0 -211.5 34.5t-161 94t-111 139.5t-66 169t-20.5 185q0 97 20.5 186.5t66 169.5t111 139.5t161 94.5
t211.5 35zM662 1118q-193 0 -312 -119v-344h623v344q-119 119 -311 119z" />
    <glyph glyph-name="uni2153" unicode="&#x2153;" horiz-adv-x="1492" 
d="M618 483h-489l6 35h236l112 643l-254 -61l7 41l299 71l-121 -694h213zM410 0l839 1206h45l-839 -1206h-45zM1171 -10q-100 0 -159.5 47.5t-63.5 132.5l39 8q7 -76 56 -113.5t128 -37.5q88 0 142.5 44.5t54.5 127.5q0 71 -59 113t-176 42l6 37q56 0 102 8t85.5 26.5t62 53
t22.5 82.5q0 58 -39 96.5t-112 38.5q-144 0 -168 -147l-37 12q14 83 66 127.5t141 44.5t139.5 -46.5t50.5 -123.5q0 -87 -61.5 -136t-157.5 -54v-4q77 -6 127.5 -52t50.5 -118q0 -97 -68.5 -153t-171.5 -56z" />
    <glyph glyph-name="uni2154" unicode="&#x2154;" horiz-adv-x="1380" 
d="M174 997l-37 17q9 87 73 145t165 58q95 0 155 -56.5t60 -150.5q0 -76 -48.5 -154.5t-124.5 -142t-147.5 -110t-140.5 -79.5v-2h401l-6 -39h-471l6 35q490 268 490 488q0 77 -49.5 125.5t-126.5 48.5q-88 0 -140 -54t-59 -129zM297 0l840 1206h45l-840 -1206h-45z
M1059 -10q-100 0 -159.5 47.5t-63.5 132.5l38 8q7 -76 56.5 -113.5t128.5 -37.5q88 0 142 44.5t54 127.5q0 71 -59 113t-176 42l6 37q56 0 102 8t85.5 26.5t62 53t22.5 82.5q0 58 -39 96.5t-112 38.5q-144 0 -168 -147l-37 12q14 83 66 127.5t141 44.5t139.5 -46.5
t50.5 -123.5q0 -87 -61.5 -136t-157.5 -54v-4q77 -6 127.5 -52t50.5 -118q0 -97 -68 -153t-171 -56z" />
    <glyph glyph-name="uni215B" unicode="&#x215b;" horiz-adv-x="1540" 
d="M618 483h-489l6 35h236l112 643l-254 -61l7 41l299 71l-121 -694h213zM410 0l839 1206h45l-839 -1206h-45zM1284 733q91 0 150 -50t59 -134q0 -83 -49 -131t-121 -56v-4q62 -19 97.5 -63.5t35.5 -106.5q0 -93 -66.5 -145.5t-172.5 -52.5q-104 0 -169 52t-65 142
q0 84 54 132.5t137 54.5v4q-49 19 -82 60t-33 100q0 93 63.5 145.5t161.5 52.5zM1219 27q87 0 141.5 42.5t54.5 118.5q0 74 -55.5 117t-140.5 43t-140 -43t-55 -119q0 -75 55.5 -117t139.5 -42zM1100 532q0 -65 47.5 -107t120.5 -42q83 0 133.5 42.5t50.5 119.5
q0 66 -47.5 108.5t-122.5 42.5q-81 0 -131.5 -43.5t-50.5 -120.5z" />
    <glyph glyph-name="uni215C" unicode="&#x215c;" horiz-adv-x="1409" 
d="M289 473q-100 0 -159.5 47.5t-63.5 132.5l38 9q7 -77 56.5 -114.5t128.5 -37.5q88 0 142 44.5t54 127.5q0 71 -59 113.5t-176 42.5l6 36q56 0 102 8t85.5 26.5t62 53t22.5 82.5q0 58 -39 97t-112 39q-144 0 -168 -148l-37 12q29 173 207 173q89 0 139.5 -46.5
t50.5 -123.5q0 -87 -61.5 -136.5t-157.5 -54.5v-4q77 -6 127.5 -52t50.5 -118q0 -97 -68 -153t-171 -56zM279 0l839 1206h45l-839 -1206h-45zM1153 733q91 0 150 -50t59 -134q0 -83 -49 -131t-121 -56v-4q62 -19 97.5 -63.5t35.5 -106.5q0 -93 -67 -145.5t-173 -52.5
q-104 0 -168.5 52t-64.5 142q0 84 53.5 132.5t136.5 54.5v4q-49 19 -81.5 60t-32.5 100q0 93 63.5 145.5t161.5 52.5zM1087 27q87 0 142 42.5t55 118.5q0 74 -56 117t-141 43t-139.5 -43t-54.5 -119q0 -75 55.5 -117t138.5 -42zM969 532q0 -65 47.5 -107t120.5 -42
q83 0 133.5 42.5t50.5 119.5q0 66 -47.5 108.5t-122.5 42.5q-81 0 -131.5 -43.5t-50.5 -120.5z" />
    <glyph glyph-name="uni215D" unicode="&#x215d;" horiz-adv-x="1423" 
d="M160 829l82 377h356l-8 -37h-320l-67 -299q50 68 151 68q92 0 146.5 -57.5t54.5 -153.5q0 -121 -72 -187.5t-182 -66.5q-100 0 -161.5 46.5t-67.5 131.5l39 11q6 -77 58.5 -114.5t131.5 -37.5q94 0 153.5 56.5t59.5 158.5q0 77 -45 127.5t-115 50.5q-57 0 -92 -18.5
t-67 -55.5h-35zM293 0l840 1206h45l-840 -1206h-45zM1167 733q91 0 150 -50t59 -134q0 -83 -49 -131t-121 -56v-4q62 -19 97.5 -63.5t35.5 -106.5q0 -93 -66.5 -145.5t-172.5 -52.5q-104 0 -169 52t-65 142q0 84 54 132.5t137 54.5v4q-49 19 -82 60t-33 100q0 93 63.5 145.5
t161.5 52.5zM1102 27q87 0 141.5 42.5t54.5 118.5q0 74 -55.5 117t-140.5 43t-140 -43t-55 -119q0 -75 55.5 -117t139.5 -42zM983 532q0 -65 47.5 -107t120.5 -42q83 0 133.5 42.5t50.5 119.5q0 66 -47.5 108.5t-122.5 42.5q-81 0 -131.5 -43.5t-50.5 -120.5z" />
    <glyph glyph-name="uni215E" unicode="&#x215e;" horiz-adv-x="1394" 
d="M545 1169h-385l-21 -118h-41l27 155h475l-6 -30l-393 -693h-47zM135 0l840 1206h45l-840 -1206h-45zM1010 733q91 0 150 -50t59 -134q0 -83 -49 -131t-121 -56v-4q62 -19 97.5 -63.5t35.5 -106.5q0 -93 -67 -145.5t-173 -52.5q-104 0 -168.5 52t-64.5 142
q0 84 53.5 132.5t136.5 54.5v4q-49 19 -82 60t-33 100q0 93 63.5 145.5t162.5 52.5zM944 27q87 0 142 42.5t55 118.5q0 74 -56 117t-141 43t-139.5 -43t-54.5 -119q0 -75 55.5 -117t138.5 -42zM825 532q0 -65 47.5 -107t120.5 -42q84 0 134.5 43t50.5 119q0 66 -47.5 108.5
t-122.5 42.5q-81 0 -132 -44t-51 -120z" />
    <glyph glyph-name="arrowleft" unicode="&#x2190;" horiz-adv-x="1394" 
d="M131 621h1151v-41h-1151l545 -572l-29 -26l-590 618l590 619l29 -27z" />
    <glyph glyph-name="arrowup" unicode="&#x2191;" horiz-adv-x="1425" 
d="M692 1151l-571 -545l-27 29l619 590l618 -590l-26 -29l-572 545v-1151h-41v1151z" />
    <glyph glyph-name="arrowright" unicode="&#x2192;" horiz-adv-x="1394" 
d="M113 621h1151l-545 571l29 27l589 -619l-589 -618l-29 26l545 572h-1151v41z" />
    <glyph glyph-name="arrowdown" unicode="&#x2193;" horiz-adv-x="1443" 
d="M94 571l27 29l571 -545v1151h41v-1151l572 545l26 -29l-618 -589z" />
    <glyph glyph-name="uni2196" unicode="&#x2196;" horiz-adv-x="1439" 
d="M1393 31l-31 -31l-1135 1139v-889h-41v956h957v-41h-889z" />
    <glyph glyph-name="uni2197" unicode="&#x2197;" horiz-adv-x="1439" 
d="M78 0l-31 31l1139 1134h-889v41h956v-956h-41v889z" />
    <glyph glyph-name="uni2198" unicode="&#x2198;" horiz-adv-x="1439" 
d="M47 1176l31 30l1134 -1138v888h41v-956h-956v41h889z" />
    <glyph glyph-name="uni2199" unicode="&#x2199;" horiz-adv-x="1439" 
d="M1362 1206l31 -30l-1139 -1135h889v-41h-957v956h41v-888z" />
    <glyph glyph-name="partialdiff" unicode="&#x2202;" horiz-adv-x="1003" 
d="M426 27q127 0 219.5 78.5t136 199.5t43.5 266q0 176 -76 262.5t-219 86.5q-96 0 -173.5 -45.5t-125.5 -122t-74 -173.5t-26 -204q0 -176 76 -262t219 -86zM807 805h4q-41 210 -172 343t-381 202l31 26q311 -93 444 -281t133 -524q0 -113 -28 -216.5t-81.5 -186
t-139 -131.5t-191.5 -49q-162 0 -249 98t-87 289q0 113 28 216.5t81.5 186t139 131.5t191.5 49q98 0 172 -44t105 -109z" />
    <glyph glyph-name="increment" unicode="&#x2206;" horiz-adv-x="1107" 
d="M975 0h-1006l690 1206h48zM518 877l-479 -836h883l-185 833q-19 84 -34 156.5t-20 102.5l-5 30h-4q-39 -85 -156 -286z" />
    <glyph glyph-name="product" unicode="&#x220f;" horiz-adv-x="1193" 
d="M72 -414h-41l284 1620h799l-285 -1620h-41l279 1579h-717z" />
    <glyph glyph-name="summation" unicode="&#x2211;" horiz-adv-x="901" 
d="M618 606l-442 600h752l-6 -41h-502l-164 4v-4q45 -61 100 -135l316 -428l-457 -426l-149 -135v-4q34 4 163 4h494l-6 -41h-754z" />
    <glyph glyph-name="minus" unicode="&#x2212;" horiz-adv-x="1015" 
d="M102 528h836l-8 -41h-836z" />
    <glyph glyph-name="radical" unicode="&#x221a;" horiz-adv-x="1079" 
d="M328 920l141 -877h6l709 1362l39 -12l-725 -1393h-62l-145 854l-271 -141l-12 35z" />
    <glyph glyph-name="infinity" unicode="&#x221e;" horiz-adv-x="1767" 
d="M377 215q85 0 157.5 35t147.5 108l172 168l-98 150q-56 84 -117.5 121t-138.5 37q-70 0 -134 -24t-115.5 -69.5t-82.5 -119t-31 -164.5q0 -110 67.5 -176t172.5 -66zM872 494l-163 -160q-82 -80 -160.5 -119t-171.5 -39q-127 0 -203 77t-76 204q0 188 116 301.5
t286 113.5q93 0 163 -45t130 -137l86 -135l163 160q81 80 159.5 118.5t172.5 38.5q127 0 203 -77t76 -203q0 -188 -116 -302t-286 -114q-93 0 -163 45t-130 137zM1374 834q-158 0 -305 -144l-172 -168l98 -149q56 -84 117.5 -121t138.5 -37q70 0 134 24t115.5 69.5t82.5 119
t31 164.5q0 110 -67.5 176t-172.5 66z" />
    <glyph glyph-name="integral" unicode="&#x222b;" horiz-adv-x="532" 
d="M123 -172l227 1298q22 118 83.5 180t154.5 62q52 0 86 -17.5t65 -50.5l-28 -36q-14 28 -46.5 46.5t-76.5 18.5q-75 0 -127 -51.5t-70 -153.5l-227 -1298q-20 -117 -82.5 -179.5t-155.5 -62.5q-52 0 -86 17.5t-65 50.5l28 37q14 -28 47 -47t76 -19q75 0 127 51.5t70 153.5
z" />
    <glyph glyph-name="approxequal" unicode="&#x2248;" horiz-adv-x="1075" 
d="M764 610q114 0 211 105l-8 -58q-86 -90 -203 -90q-77 0 -219.5 53.5t-218.5 53.5q-114 0 -211 -105l8 58q86 90 203 90q76 0 218.5 -53.5t219.5 -53.5zM719 352q114 0 211 105l-8 -58q-86 -90 -203 -90q-77 0 -219.5 53.5t-218.5 53.5q-114 0 -211 -105l8 58
q86 90 203 90q76 0 218.5 -53.5t219.5 -53.5z" />
    <glyph glyph-name="notequal" unicode="&#x2260;" horiz-adv-x="1060" 
d="M141 147l193 197h-258l8 41h291l221 225h-473l8 41h504l225 228l31 -27l-197 -201h273l-9 -41h-305l-221 -225h488l-9 -41h-518l-221 -225z" />
    <glyph glyph-name="lessequal" unicode="&#x2264;" horiz-adv-x="917" 
d="M684 43h-627l9 39h626zM156 592l592 414l20 -33l-549 -385l406 -387l-29 -25z" />
    <glyph glyph-name="greaterequal" unicode="&#x2265;" horiz-adv-x="917" 
d="M664 43h-627l8 39h627zM758 590l-592 -414l-21 33l549 385l-405 387l28 25z" />
    <glyph glyph-name="blacksquare" unicode="&#x25a0;" horiz-adv-x="1595" 
d="M195 0v1206h1206v-1206h-1206z" />
    <glyph glyph-name="whitesquare" unicode="&#x25a1;" horiz-adv-x="1595" 
d="M195 0v1206h1206v-1206h-1206zM283 1118v-1030h1030v1030h-1030z" />
    <glyph glyph-name="blacksmallsquare" unicode="&#x25aa;" horiz-adv-x="1056" 
d="M195 285v665h667v-665h-667z" />
    <glyph glyph-name="whitesmallsquare" unicode="&#x25ab;" horiz-adv-x="1056" 
d="M195 285v665h667v-665h-667zM283 862v-489h491v489h-491z" />
    <glyph glyph-name="triagup" unicode="&#x25b2;" horiz-adv-x="1210" 
d="M102 0l502 1231l504 -1231h-1006z" />
    <glyph glyph-name="triagrt" unicode="&#x25ba;" horiz-adv-x="1445" 
d="M174 1098l1231 -502l-1231 -504v1006z" />
    <glyph glyph-name="triagdn" unicode="&#x25bc;" horiz-adv-x="1210" 
d="M604 -25l-502 1231h1006z" />
    <glyph glyph-name="triaglf" unicode="&#x25c4;" horiz-adv-x="1445" 
d="M20 596l1231 502v-1006z" />
    <glyph glyph-name="lozenge" unicode="&#x25ca;" horiz-adv-x="1036" 
d="M406 8l460 621l-235 608l-461 -621zM414 -47h-29l-262 670l500 669h28l262 -669z" />
    <glyph glyph-name="whitecircle" unicode="&#x25cb;" horiz-adv-x="1480" 
d="M113 602q0 127 49.5 243.5t133.5 201t200 134.5t243 50q170 0 315 -84.5t229.5 -229.5t84.5 -315t-84.5 -314.5t-229.5 -228.5t-315 -84q-127 0 -243 49.5t-200 133.5t-133.5 200.5t-49.5 243.5zM203 600q0 -147 71.5 -272t195 -198t269.5 -73q145 0 269 73t196 198
t72 272q0 148 -72 274t-196 199.5t-269 73.5q-146 0 -269.5 -73.5t-195 -199.5t-71.5 -274z" />
    </font>
</defs>
</svg>
