<?xml version="1.0" standalone="no"?>
<!DOCTYPE svg PUBLIC "-//W3C//DTD SVG 1.1//EN" "http://www.w3.org/Graphics/SVG/1.1/DTD/svg11.dtd" >
<svg xmlns="http://www.w3.org/2000/svg" xmlns:xlink="http://www.w3.org/1999/xlink" version="1.1">
<metadata>
Created by FontForge 20170731 at Fri Sep 17 22:21:35 2021
 By Aleksey,,,
Copyright (c) 2004-9 by Kris Sowersby. All rights reserved.
</metadata>
<defs>
<font id="National-SemiboldItalic" horiz-adv-x="1167" >
  <font-face 
    font-family="National Semibold Italic"
    font-weight="710"
    font-style="italic"
    font-stretch="normal"
    units-per-em="2048"
    panose-1="2 0 5 3 0 0 0 2 0 4"
    ascent="1638"
    descent="-410"
    x-height="946"
    cap-height="1206"
    bbox="-336 -526 2499 2001"
    underline-thickness="116"
    underline-position="-173"
    unicode-range="U+0020-F778"
  />
<missing-glyph horiz-adv-x="1546" 
d="M170 0v1206h1206v-1206h-1206zM772 541l-453 -453h908zM319 1118l453 -454l455 454h-908zM834 602l454 -452v907zM711 602l-453 455v-907z" />
    <glyph glyph-name="f_b" unicode="fb" horiz-adv-x="1740" 
d="M1014 524l-25 -143q-16 -95 25.5 -165.5t130.5 -70.5q80 0 140.5 58.5t90 150t29.5 199.5t-44.5 166.5t-123.5 58.5q-80 0 -141 -67.5t-82 -186.5zM674 0l203 1155q-70 45 -160 45q-161 0 -195 -168l-14 -86h180l-35 -190h-180l-162 -928q-26 -146 -94 -203t-201 -57
q-112 0 -188 49l47 178q52 -41 102 -41q39 0 60.5 20t28.5 68l161 914h-143l35 190h141l16 92q17 92 57 160.5t96.5 108t121.5 58.5t139 19q138 0 234 -47l239 31l-108 -604q88 205 301 205q145 0 230 -100.5t85 -293.5q0 -170 -56 -305t-165.5 -215t-255.5 -80
q-99 0 -170 46t-86 124l-74 -145h-190z" />
    <glyph glyph-name="f_f_b" unicode="ffb" horiz-adv-x="2320" 
d="M1595 524l-26 -143q-16 -95 25 -165.5t130 -70.5q81 0 142 58.5t91 150t30 199.5t-44.5 166.5t-123.5 58.5q-80 0 -142 -67.5t-82 -186.5zM1255 0l203 1155q-73 45 -160 45q-163 0 -194 -168l-17 -86h179l-33 -190h-178l-160 -901q-27 -146 -95 -203.5t-200 -57.5
q-114 0 -188 50l47 178q52 -41 102 -41q39 0 59 19.5t29 68.5l158 887h-334l-162 -928q-26 -146 -94 -203t-201 -57q-112 0 -188 49l47 178q52 -41 102 -41q39 0 60.5 20t28.5 68l161 914h-143l35 190h141l16 94q55 328 340 328q64 0 110 -12t99 -43l-80 -203q-27 29 -50 41
t-54 12q-49 0 -75 -28t-40 -91l-18 -98h332l18 92q17 92 57 160.5t96.5 108t121.5 58.5t139 19q135 0 231 -47l240 31l-107 -604q88 205 299 205q145 0 230.5 -100.5t85.5 -293.5q0 -170 -56 -305t-165.5 -215t-255.5 -80q-99 0 -170 46t-84 124l-76 -145h-189z" />
    <glyph glyph-name="f_f_h" unicode="ffh" horiz-adv-x="2304" 
d="M1253 0l205 1155q-73 45 -160 45q-163 0 -194 -168l-17 -86h179l-33 -190h-178l-160 -901q-27 -146 -95 -203.5t-200 -57.5q-114 0 -188 50l47 178q52 -41 102 -41q39 0 59 19.5t29 68.5l158 887h-334l-162 -928q-26 -146 -94 -203t-201 -57q-112 0 -188 49l47 178
q52 -41 102 -41q39 0 60.5 20t28.5 68l161 914h-143l35 190h141l16 94q55 328 340 328q64 0 110 -12t99 -43l-80 -203q-27 29 -50 41t-54 12q-49 0 -75 -28t-40 -91l-18 -98h332l18 92q17 92 57 160.5t96.5 108t121.5 58.5t139 19q135 0 231 -47l240 31l-109 -614
q49 108 120.5 161.5t180.5 53.5q111 0 177.5 -63t66.5 -171q0 -42 -8 -86l-62 -375q-7 -42 3.5 -65t52.5 -23q13 0 59 11l-37 -185q-68 -22 -137 -22q-239 0 -197 248l64 360q28 168 -109 168q-72 0 -133 -63.5t-84 -194.5l-90 -508h-248z" />
    <glyph glyph-name="f_f_j" unicode="ffj" horiz-adv-x="1701" 
d="M1389 756h-334l-160 -901q-27 -146 -95 -203.5t-200 -57.5q-114 0 -188 50l47 178q52 -41 102 -41q39 0 59 19.5t29 68.5l158 887h-334l-162 -928q-26 -146 -94 -203t-201 -57q-112 0 -188 49l47 178q52 -41 102 -41q39 0 60.5 20t28.5 68l161 914h-143l35 190h141l16 94
q55 328 340 328q64 0 110 -12t99 -43l-80 -203q-27 29 -50 41t-54 12q-49 0 -75 -28t-40 -91l-18 -98h332l18 90q70 348 402 348q160 0 272 -69l-80 -205q-91 72 -178 72q-70 0 -112 -38t-60 -124l-15 -74h582l-192 -1091q-26 -146 -94.5 -203.5t-202.5 -57.5
q-112 0 -189 50l49 178q52 -41 101 -41q39 0 60 20t30 68z" />
    <glyph glyph-name="f_f_k" unicode="ffk" horiz-adv-x="2213" 
d="M1253 0l205 1155q-73 45 -160 45q-163 0 -194 -168l-17 -86h179l-33 -190h-178l-160 -901q-27 -146 -95 -203.5t-200 -57.5q-114 0 -188 50l47 178q52 -41 102 -41q39 0 59 19.5t29 68.5l158 887h-334l-162 -928q-26 -146 -94 -203t-201 -57q-112 0 -188 49l47 178
q52 -41 102 -41q39 0 60.5 20t28.5 68l161 914h-143l35 190h141l16 94q55 328 340 328q64 0 110 -12t99 -43l-80 -203q-27 29 -50 41t-54 12q-49 0 -75 -28t-40 -91l-18 -98h332l18 92q17 92 57 160.5t96.5 108t121.5 58.5t139 19q135 0 231 -47l240 31l-133 -760h45
l309 338h299l-412 -430l131 -262q28 -53 66.5 -63.5t103.5 10.5l-38 -191q-65 -20 -136 -20q-69 0 -118 29.5t-82 103.5l-140 299h-61l-76 -422h-248z" />
    <glyph glyph-name="f_h" unicode="fh" horiz-adv-x="1724" 
d="M674 0l203 1155q-70 45 -160 45q-161 0 -195 -168l-14 -86h180l-35 -190h-180l-162 -928q-26 -146 -94 -203t-201 -57q-112 0 -188 49l47 178q52 -41 102 -41q39 0 60.5 20t28.5 68l161 914h-143l35 190h141l16 92q17 92 57 160.5t96.5 108t121.5 58.5t139 19
q138 0 234 -47l239 31l-108 -614q47 108 118.5 161.5t182.5 53.5t176 -63t65 -171q0 -53 -6 -86l-63 -375q-7 -41 3.5 -64.5t51.5 -23.5q16 0 62 11l-37 -185q-68 -22 -138 -22q-241 0 -196 248l63 360q28 168 -110 168q-72 0 -132.5 -63.5t-84.5 -194.5l-88 -508h-248z" />
    <glyph glyph-name="f_j" unicode="fj" horiz-adv-x="1120" 
d="M1087 946l-192 -1091q-26 -146 -94 -203.5t-201 -57.5q-114 0 -188 50l47 178q52 -41 102 -41q39 0 59 19.5t29 68.5l158 887h-334l-162 -928q-26 -146 -94 -203t-201 -57q-112 0 -188 49l47 178q52 -41 102 -41q39 0 60.5 20t28.5 68l161 914h-143l35 190h141l19 90
q70 348 401 348q160 0 272 -69l-80 -205q-91 72 -178 72q-72 0 -113.5 -38t-58.5 -124l-14 -74h579z" />
    <glyph glyph-name="f_k" unicode="fk" horiz-adv-x="1634" 
d="M674 0l203 1155q-70 45 -160 45q-161 0 -195 -168l-14 -86h178l-33 -190h-180l-162 -928q-26 -146 -94 -203t-201 -57q-112 0 -188 49l47 178q52 -41 102 -41q39 0 60.5 20t28.5 68l161 914h-143l35 190h141l16 92q17 92 57 160.5t96.5 108t121.5 58.5t139 19
q138 0 234 -47l239 31l-135 -760h47l309 338h299l-411 -430l131 -262q27 -53 66 -63.5t102 10.5l-37 -191q-68 -20 -137 -20t-118.5 29.5t-82.5 103.5l-139 299h-62l-73 -422h-248z" />
    <glyph glyph-name="ff" unicode="ff" horiz-adv-x="1255" 
d="M1055 756l-160 -901q-27 -146 -95 -203.5t-200 -57.5q-114 0 -188 50l47 178q52 -41 102 -41q39 0 59 19.5t29 68.5l158 887h-334l-162 -928q-26 -146 -94 -203t-201 -57q-112 0 -188 49l47 178q52 -41 102 -41q39 0 60.5 20t28.5 68l161 914h-143l35 190h141l16 94
q55 328 340 328q64 0 110 -12t99 -43l-80 -203q-27 29 -50 41t-54 12q-49 0 -75 -28t-40 -91l-18 -98h332l18 98q20 119 77 197t134 110.5t176 32.5q130 0 244 -57l-80 -201q-77 54 -156 54q-65 0 -99 -33t-48 -103l-19 -98h240l-33 -190h-239z" />
    <glyph glyph-name="ffi" unicode="ffi" horiz-adv-x="1763" 
d="M1669 946l-119 -672q-7 -41 4.5 -64.5t53.5 -23.5q13 0 59 11l-37 -185q-68 -22 -137 -22q-242 0 -197 248l90 518h-331l-160 -901q-27 -146 -95 -203.5t-200 -57.5q-114 0 -188 50l47 178q52 -41 102 -41q39 0 59 19.5t29 68.5l158 887h-334l-162 -928
q-26 -146 -94 -203t-201 -57q-112 0 -188 49l47 178q52 -41 102 -41q39 0 60.5 20t28.5 68l161 914h-143l35 190h141l16 94q55 328 340 328q64 0 110 -12t99 -43l-80 -203q-27 29 -50 41t-54 12q-49 0 -75 -28t-40 -91l-18 -98h332l18 90q70 348 402 348q160 0 272 -69
l-80 -205q-91 72 -178 72q-70 0 -112 -38t-60 -124l-15 -74h582z" />
    <glyph glyph-name="ffl" unicode="ffl" horiz-adv-x="1763" 
d="M1055 756l-160 -901q-27 -146 -95 -203.5t-200 -57.5q-114 0 -188 50l47 178q52 -41 102 -41q39 0 59 19.5t29 68.5l158 887h-334l-162 -928q-26 -146 -94 -203t-201 -57q-112 0 -188 49l47 178q52 -41 102 -41q39 0 60.5 20t28.5 68l161 914h-143l35 190h141l16 94
q55 328 340 328q64 0 110 -12t99 -43l-80 -203q-27 29 -50 41t-54 12q-49 0 -75 -28t-40 -91l-18 -98h332l18 92q17 92 57 160.5t96.5 108t121.5 58.5t139 19q135 0 231 -47l240 31l-193 -1094q-7 -41 4.5 -64.5t53.5 -23.5q13 0 59 11l-37 -185q-68 -22 -137 -22
q-242 0 -197 248l162 917q-73 45 -160 45q-163 0 -194 -168l-17 -86h181l-33 -190h-180z" />
    <glyph glyph-name="fi" unicode="fi" horiz-adv-x="1183" 
d="M1087 946l-116 -672q-7 -41 3.5 -64.5t51.5 -23.5q15 0 61 11l-38 -185q-64 -22 -136 -22q-240 0 -198 248l90 518h-332l-162 -928q-26 -146 -94 -203t-201 -57q-112 0 -188 49l47 178q52 -41 102 -41q39 0 60.5 20t28.5 68l161 914h-143l35 190h141l19 90
q70 348 401 348q160 0 272 -69l-80 -205q-91 72 -178 72q-72 0 -113.5 -38t-58.5 -124l-14 -74h579z" />
    <glyph glyph-name="fl" unicode="fl" horiz-adv-x="1183" 
d="M473 756l-162 -928q-26 -146 -94 -203t-201 -57q-112 0 -188 49l47 178q52 -41 102 -41q39 0 60.5 20t28.5 68l161 914h-143l35 190h141l16 92q17 92 57 160.5t96.5 108t121.5 58.5t139 19q138 0 234 -47l239 31l-192 -1094q-7 -41 3.5 -64.5t51.5 -23.5q15 0 61 11
l-38 -185q-64 -22 -136 -22q-240 0 -198 248l162 917q-70 45 -160 45q-161 0 -195 -168l-14 -86h180l-35 -190h-180z" />
    <glyph glyph-name=".notdef" horiz-adv-x="1546" 
d="M170 0v1206h1206v-1206h-1206zM772 541l-453 -453h908zM319 1118l453 -454l455 454h-908zM834 602l454 -452v907zM711 602l-453 455v-907z" />
    <glyph glyph-name=".null" horiz-adv-x="0" 
 />
    <glyph glyph-name="nonmarkingreturn" horiz-adv-x="682" 
 />
    <glyph glyph-name="space" unicode=" " horiz-adv-x="456" 
 />
    <glyph glyph-name="exclam" unicode="!" horiz-adv-x="518" 
d="M242 1206h305l-228 -817h-163zM37 137q0 65 45 106.5t111 41.5q68 0 113.5 -41.5t45.5 -106.5t-45.5 -106t-113.5 -41q-66 0 -111 41t-45 106z" />
    <glyph glyph-name="quotedbl" unicode="&#x22;" horiz-adv-x="724" 
d="M160 844l92 524h246l-191 -524h-147zM502 844l92 524h246l-191 -524h-147z" />
    <glyph glyph-name="numbersign" unicode="#" horiz-adv-x="1361" 
d="M1184 264h-332l-125 -264h-201l127 264h-186l-127 -264h-199l125 264h-196l30 170h248l78 162h-256l29 170h309l104 219h203l-106 -219h186l104 219h203l-106 -219h217l-29 -170h-270l-78 -162h276zM627 596l-78 -162h186l76 162h-184z" />
    <glyph glyph-name="dollar" unicode="$" horiz-adv-x="962" 
d="M25 248l200 61q3 -66 44 -111t104 -61l47 262q-20 6 -39 17q-128 44 -182 107.5t-54 166.5q0 82 32 144t87 98.5t120.5 55t141.5 20.5l31 168h102l-30 -172q143 -14 221 -83.5t78 -183.5l-213 -49q2 55 -28.5 95t-86.5 55l-47 -254l18 -4q150 -46 209.5 -114t59.5 -179
q0 -101 -53 -171.5t-139.5 -103.5t-201.5 -37l-32 -192h-103l35 197q-145 12 -231 81.5t-90 186.5zM614 252q0 41 -21.5 66.5t-76.5 48.5l-41 -234q139 13 139 119zM365 729q0 -37 19.5 -62t74.5 -49l41 228q-135 -15 -135 -117z" />
    <glyph glyph-name="percent" unicode="%" horiz-adv-x="1814" 
d="M358 469q-133 0 -198.5 81.5t-65.5 219.5q0 114 39.5 215.5t122.5 169.5t193 68q126 0 195 -85.5t69 -224.5q0 -117 -39 -216t-121.5 -163.5t-194.5 -64.5zM430 1063q-42 0 -74 -31t-48 -79t-24 -93.5t-8 -85.5q0 -69 26 -111t77 -42q41 0 72.5 31.5t48 79.5t24.5 94
t8 85q0 152 -102 152zM412 0l837 1206h162l-842 -1206h-157zM1368 -14q-133 0 -198.5 81.5t-65.5 219.5q0 114 39 215t122 169t193 68q126 0 195 -85t69 -224q0 -117 -39 -216t-121 -163.5t-194 -64.5zM1440 580q-42 0 -74 -31t-48 -79t-24 -93.5t-8 -85.5q0 -69 26 -111.5
t77 -42.5q41 0 72.5 32t48 80t24.5 94t8 85q0 152 -102 152z" />
    <glyph glyph-name="ampersand" unicode="&#x26;" horiz-adv-x="1173" 
d="M1102 129l-191 -154l-116 138q-181 -138 -414 -138q-167 0 -262.5 76t-95.5 221q0 134 88 219.5t254 133.5l-56 63q-90 110 -90 232q0 101 58.5 173.5t147.5 105t196 32.5q154 0 242.5 -70.5t88.5 -195.5q0 -230 -305 -316l197 -229q53 74 82 203l202 -74
q-22 -69 -68.5 -143.5t-94.5 -124.5zM266 299q0 -63 43.5 -103t118.5 -40q143 0 254 90l-238 284q-90 -51 -134 -101.5t-44 -129.5zM600 1067q-62 0 -101.5 -35t-39.5 -90t49 -119l63 -82q74 37 115 90t41 111q0 60 -32.5 92.5t-94.5 32.5z" />
    <glyph glyph-name="quotesingle" unicode="'" horiz-adv-x="382" 
d="M160 844l92 524h246l-191 -524h-147z" />
    <glyph glyph-name="parenleft" unicode="(" horiz-adv-x="733" 
d="M369 287q0 -192 47 -357t159 -344h-247q-197 303 -197 690q0 335 134.5 618t357.5 474h274q-94 -90 -165 -169.5t-143 -184t-117.5 -210t-74 -238.5t-28.5 -279z" />
    <glyph glyph-name="parenright" unicode=")" horiz-adv-x="733" 
d="M373 668q0 191 -47 355.5t-158 344.5h246q196 -301 196 -690q0 -335 -134 -618t-357 -474h-275q94 90 165.5 169.5t143 184.5t117.5 210.5t74.5 239t28.5 278.5z" />
    <glyph glyph-name="asterisk" unicode="*" horiz-adv-x="800" 
d="M625 1190l-86 -199l213 47l12 -178l-217 17l112 -191l-176 -72l-47 213l-143 -165l-117 145l186 115l-200 88l96 149l166 -139l18 217z" />
    <glyph glyph-name="plus" unicode="+" horiz-adv-x="1024" 
d="M106 578h340l60 333h147l-59 -333h348l-24 -140h-349l-63 -362h-148l64 362h-340z" />
    <glyph glyph-name="comma" unicode="," horiz-adv-x="593" 
d="M418 92q0 -86 -33 -151.5t-90.5 -104t-127.5 -58.5t-153 -22v105q98 6 169 48.5t71 110.5q-71 -11 -121.5 24.5t-50.5 107.5q0 71 45.5 110t114.5 39q80 0 128 -57t48 -152z" />
    <glyph glyph-name="hyphen" unicode="-" horiz-adv-x="794" 
d="M131 426l37 205h496l-37 -205h-496z" />
    <glyph glyph-name="period" unicode="." horiz-adv-x="593" 
d="M78 150q0 71 47 119t115 48q71 0 118.5 -47.5t47.5 -119.5q0 -68 -48 -114t-118 -46q-68 0 -115 46.5t-47 113.5z" />
    <glyph glyph-name="slash" unicode="/" horiz-adv-x="804" 
d="M-174 -416l870 1784h217l-876 -1784h-211z" />
    <glyph glyph-name="zero" unicode="0" horiz-adv-x="1191" 
d="M547 -25q-94 0 -171 25.5t-129.5 68.5t-88 101.5t-52 124t-16.5 137.5q0 135 44 245t120 182t175.5 110.5t213.5 38.5q117 0 207 -37.5t144 -103t81 -147.5t27 -177q0 -130 -44 -238.5t-119.5 -180t-176 -110.5t-215.5 -39zM326 449q0 -119 61 -193t172 -74
q128 0 214.5 97t86.5 251q0 118 -61.5 191.5t-169.5 73.5q-133 0 -218 -96t-85 -250z" />
    <glyph glyph-name="one" unicode="1" horiz-adv-x="749" 
d="M467 0h-250l135 762l-272 -39l35 199l528 79z" />
    <glyph glyph-name="two" unicode="2" horiz-adv-x="964" 
d="M823 203l-35 -203h-780l31 184q299 138 439 250.5t140 237.5q0 61 -32 93t-92 32q-65 0 -108 -42t-50 -132l-223 71q14 84 53.5 146t96.5 98t121.5 53t137.5 17q173 0 262.5 -80.5t89.5 -220.5q0 -100 -50 -186.5t-134 -146.5t-181.5 -100.5t-205.5 -62.5v-8h520z" />
    <glyph glyph-name="three" unicode="3" horiz-adv-x="964" 
d="M494 383v-8q161 -10 238 -89t77 -200q0 -173 -131.5 -271t-337.5 -98q-187 0 -288 75.5t-109 211.5l233 78q0 -87 49 -132.5t135 -45.5q87 0 142 46.5t55 133.5q0 41 -13 73.5t-44.5 62t-91.5 48t-146 25.5l29 170q134 15 212 46.5t107 73t29 103.5q0 61 -37.5 94
t-99.5 33q-72 0 -116 -43t-54 -125l-230 62q34 146 143.5 223.5t289.5 77.5q167 0 263.5 -73.5t96.5 -211.5q0 -159 -105.5 -246.5t-295.5 -93.5z" />
    <glyph glyph-name="four" unicode="4" horiz-adv-x="1148" 
d="M532 -268l62 336h-586l29 161l729 756h235l-129 -733h199l-33 -184h-196l-60 -336h-250zM422 252h203l43 248q9 49 20.5 101t19.5 79l7 27h-8q-45 -64 -119 -146l-174 -188q-32 -36 -66 -66.5t-52 -42.5l-17 -12v-8q45 8 143 8z" />
    <glyph glyph-name="five" unicode="5" horiz-adv-x="976" 
d="M135 285l152 700h643l-37 -215h-440l-72 -317q62 45 162 45q142 0 221.5 -91t77.5 -235q0 -113 -41 -202t-112 -143.5t-161.5 -83t-195.5 -28.5q-171 0 -274 77t-103 210l221 78q3 -88 54.5 -129t134.5 -41q100 0 165.5 59.5t65.5 173.5q0 86 -46.5 136.5t-121.5 50.5
q-73 0 -121 -45h-172z" />
    <glyph glyph-name="six" unicode="6" horiz-adv-x="1071" 
d="M1069 1020l-170 -133q-25 69 -76 107t-121 38q-156 0 -258.5 -132.5t-126.5 -350.5h9q33 107 115 162t196 55q155 0 248.5 -93.5t93.5 -248.5q0 -201 -125 -325t-334 -124q-212 0 -321 126t-109 362q0 119 26 231.5t79 209.5t126.5 170t175 115t218.5 42q272 0 354 -211z
M561 580q-94 0 -158.5 -63t-64.5 -171q0 -86 46.5 -134t131.5 -48q95 0 159 65t64 177q0 82 -47 128t-131 46z" />
    <glyph glyph-name="seven" unicode="7" horiz-adv-x="1042" 
d="M602 768h-287l-28 -150h-205l63 367h885l-29 -172l-671 -1081h-264l563 903q31 48 58.5 82.5t39.5 44.5l12 10v8q-37 -12 -137 -12z" />
    <glyph glyph-name="eight" unicode="8" horiz-adv-x="1054" 
d="M471 -25q-194 0 -302 87t-108 221t82 222t213 111l2 9q-86 25 -135 87.5t-49 147.5q0 94 37.5 166.5t102 116.5t145.5 66t174 22q172 0 276.5 -84t104.5 -219q0 -125 -75.5 -210t-193.5 -106v-10q94 -27 150.5 -96.5t56.5 -167.5q-1 -79 -29 -142t-74 -103.5t-109 -67.5
t-129.5 -38.5t-139.5 -11.5zM612 1055q-90 0 -144 -58t-54 -141q0 -72 43 -110.5t108 -38.5q91 0 147 56.5t56 143.5q0 65 -40.5 106.5t-115.5 41.5zM537 518q-97 0 -161.5 -56t-64.5 -145q0 -72 46.5 -115.5t127.5 -43.5q103 0 164.5 54.5t61.5 149.5q0 72 -49 114t-125 42
z" />
    <glyph glyph-name="nine" unicode="9" horiz-adv-x="1071" 
d="M-2 -72l158 133q65 -149 223 -149q157 0 253.5 131.5t119.5 390.5h-9q-31 -109 -110.5 -164t-188.5 -55q-159 0 -255.5 94.5t-96.5 247.5q0 203 126 327t341 124q206 0 314 -129t108 -367q0 -168 -41.5 -312.5t-118.5 -252t-195.5 -169t-263.5 -61.5q-274 0 -364 211z
M506 401q92 0 156.5 63.5t64.5 172.5q0 87 -47.5 134.5t-134.5 47.5q-92 0 -155.5 -64.5t-63.5 -174.5q0 -83 47.5 -131t132.5 -48z" />
    <glyph glyph-name="colon" unicode=":" horiz-adv-x="593" 
d="M78 150q0 71 47 119t115 48q71 0 118.5 -47.5t47.5 -119.5q0 -68 -48 -114t-118 -46q-68 0 -115 46.5t-47 113.5zM199 829q0 70 46.5 118t114.5 48q70 0 118 -47.5t48 -118.5q0 -68 -48 -114.5t-118 -46.5q-68 0 -114.5 47t-46.5 114z" />
    <glyph glyph-name="semicolon" unicode=";" horiz-adv-x="593" 
d="M418 92q0 -86 -33 -151.5t-90.5 -104t-127.5 -58.5t-153 -22v105q98 6 169 48.5t71 110.5q-71 -11 -121.5 24.5t-50.5 107.5q0 71 45.5 110t114.5 39q80 0 128 -57t48 -152zM199 829q0 70 46.5 118t114.5 48q70 0 118 -47.5t48 -118.5q0 -68 -48 -114.5t-118 -46.5
q-68 0 -114.5 47t-46.5 114z" />
    <glyph glyph-name="less" unicode="&#x3c;" horiz-adv-x="856" 
d="M795 815l-453 -326l322 -309l-119 -114l-434 440l596 434z" />
    <glyph glyph-name="equal" unicode="=" horiz-adv-x="1075" 
d="M918 289h-836l24 137h836zM969 582h-836l25 137h835z" />
    <glyph glyph-name="greater" unicode="&#x3e;" horiz-adv-x="856" 
d="M74 190l452 326l-319 309l117 115l434 -440l-594 -434z" />
    <glyph glyph-name="question" unicode="?" horiz-adv-x="913" 
d="M317 831l-217 80q87 320 435 320q191 0 292 -90.5t101 -255.5q0 -95 -37.5 -169.5t-99.5 -118.5t-134.5 -66.5t-150.5 -22.5l-27 -139h-215l51 276h76q287 0 287 209q0 79 -42.5 121.5t-123.5 42.5q-162 0 -195 -187zM184 137q0 65 44.5 106.5t111.5 41.5q68 0 113 -41.5
t45 -106.5t-45 -106t-113 -41q-67 0 -111.5 41t-44.5 106z" />
    <glyph glyph-name="at" unicode="@" horiz-adv-x="1814" 
d="M1032 365l17 86q17 89 -20.5 142.5t-108.5 53.5q-94 0 -151.5 -83.5t-57.5 -217.5q0 -182 129 -182q71 0 122.5 49.5t69.5 151.5zM1264 -25q-115 0 -174.5 46t-65.5 145q-32 -104 -100.5 -147.5t-169.5 -43.5q-133 0 -210 93.5t-77 263.5q0 226 115.5 365t281.5 139
q90 0 153.5 -45.5t76.5 -128.5l77 161h183l-115 -587q-20 -123 92 -123q99 0 169.5 114t70.5 297q0 142 -50 253t-138 179.5t-201 104t-244 35.5q-108 0 -209 -28t-188 -86t-152 -139.5t-102 -196t-37 -249.5q0 -166 54 -296t151.5 -213.5t230.5 -127t295 -43.5
q108 0 197.5 15t197.5 51l31 -133q-201 -64 -428 -64q-272 1 -470.5 94t-307.5 276.5t-109 440.5q0 241 107 429t300.5 292.5t440.5 104.5q188 0 339 -54t246.5 -148t146 -216t50.5 -262q0 -91 -15 -172.5t-50 -154.5t-87 -126t-130.5 -84t-175.5 -31z" />
    <glyph glyph-name="A" unicode="A" horiz-adv-x="1265" 
d="M883 0l-49 279h-469l-144 -279h-268l649 1206h311l228 -1206h-258zM567 666l-98 -183h328q-25 123 -43 255t-24.5 204t-4.5 72h-8q-50 -155 -150 -348z" />
    <glyph glyph-name="B" unicode="B" horiz-adv-x="1110" 
d="M784 621v-9q117 -14 175.5 -78.5t58.5 -162.5q0 -126 -61 -210.5t-166 -122.5t-250 -38h-471l211 1206h442q338 0 338 -270q0 -135 -79 -218t-198 -97zM444 694h162q91 0 145 41.5t54 134.5q0 66 -38.5 96.5t-117.5 30.5h-151zM412 510l-54 -301h203q211 0 211 172
q0 62 -36.5 95.5t-121.5 33.5h-202z" />
    <glyph glyph-name="C" unicode="C" horiz-adv-x="1183" 
d="M885 371l211 -113q-75 -144 -198 -213.5t-302 -69.5q-235 0 -362.5 133t-127.5 365q0 140 32.5 261.5t90.5 211.5t136.5 155t172.5 97.5t197 32.5q196 0 306 -88t139 -246l-258 -88q-25 205 -205 205q-109 0 -191 -73t-123 -192t-41 -264q0 -140 65.5 -219.5t182.5 -79.5
q91 0 155.5 40.5t119.5 144.5z" />
    <glyph glyph-name="D" unicode="D" horiz-adv-x="1257" 
d="M358 209h144q187 0 303.5 128.5t116.5 375.5q0 284 -304 284h-120zM481 0h-411l211 1206h381q261 0 392.5 -119t131.5 -352q0 -156 -38 -281.5t-103.5 -209t-156.5 -139.5t-192 -80.5t-215 -24.5z" />
    <glyph glyph-name="E" unicode="E" horiz-adv-x="1042" 
d="M893 215l-37 -215h-786l211 1206h786l-37 -215h-534l-50 -278h472l-37 -209h-471l-52 -289h535z" />
    <glyph glyph-name="F" unicode="F" horiz-adv-x="978" 
d="M322 0h-252l211 1206h761l-38 -215h-508l-56 -315h445l-37 -209h-445z" />
    <glyph glyph-name="G" unicode="G" horiz-adv-x="1277" 
d="M678 637h508l-113 -637h-158l-20 150q-84 -175 -317 -175q-222 0 -347 133.5t-125 364.5q0 174 50 318.5t136.5 240t201 147.5t243.5 52q195 0 304.5 -88t138.5 -246l-258 -88q-23 205 -205 205q-108 0 -190 -72.5t-123.5 -191t-41.5 -261.5q0 -146 69.5 -228.5
t201.5 -82.5q106 0 176 53.5t88 157.5l8 45h-262z" />
    <glyph glyph-name="H" unicode="H" horiz-adv-x="1306" 
d="M322 0h-252l211 1206h251l-83 -485h495l86 485h252l-211 -1206h-252l88 504h-497z" />
    <glyph glyph-name="I" unicode="I" horiz-adv-x="557" 
d="M281 1206h251l-210 -1206h-252z" />
    <glyph glyph-name="J" unicode="J" horiz-adv-x="927" 
d="M662 1206h251l-151 -868q-34 -197 -139.5 -280t-294.5 -83q-296 0 -371 250l203 135q22 -91 65.5 -135.5t114.5 -44.5q83 0 118.5 41.5t53.5 147.5z" />
    <glyph glyph-name="K" unicode="K" horiz-adv-x="1142" 
d="M1042 0h-286l-254 504h-92l-88 -504h-252l211 1206h251l-83 -487h75l394 487h294l-491 -594z" />
    <glyph glyph-name="L" unicode="L" horiz-adv-x="954" 
d="M281 1206h251l-174 -991h490l-35 -215h-743z" />
    <glyph glyph-name="M" unicode="M" horiz-adv-x="1472" 
d="M774 285h-131l-125 315q-19 50 -34 102.5t-20 79.5l-5 27h-8q-2 -80 -25 -219l-104 -590h-252l211 1206h258l161 -446q19 -52 32 -98.5t16 -67.5l4 -21h8q24 68 110 185l320 448h258l-211 -1206h-252l105 590q10 62 22 116.5t18 78.5l7 24h-9q-38 -92 -120 -205z" />
    <glyph glyph-name="N" unicode="N" horiz-adv-x="1312" 
d="M520 1206l291 -606q24 -50 44.5 -104.5t28.5 -83.5l9 -29h8q10 122 37 276l96 547h254l-211 -1206h-231l-299 596q-25 53 -47.5 109.5t-32.5 86.5l-10 31h-8q-4 -116 -35 -284l-92 -539h-252l211 1206h239z" />
    <glyph glyph-name="O" unicode="O" horiz-adv-x="1296" 
d="M596 -25q-234 0 -362 134.5t-128 363.5q0 140 32.5 261.5t90.5 211.5t136.5 155t172.5 97.5t197 32.5q235 0 362.5 -135t127.5 -365q0 -174 -50.5 -318.5t-136.5 -239t-200 -146.5t-242 -52zM717 1014q-109 0 -191 -72.5t-123 -190t-41 -259.5q0 -145 65.5 -225.5
t182.5 -80.5q105 0 186.5 72.5t124 192.5t42.5 264q0 137 -63.5 218t-182.5 81z" />
    <glyph glyph-name="P" unicode="P" horiz-adv-x="1060" 
d="M498 997l-70 -387h127q246 0 246 242q0 75 -42 110t-134 35h-127zM322 0h-252l211 1206h389q205 0 294 -84.5t89 -249.5q0 -113 -38 -203t-104.5 -146t-153 -85.5t-186.5 -29.5h-180z" />
    <glyph glyph-name="Q" unicode="Q" horiz-adv-x="1306" 
d="M1235 731q0 -164 -44.5 -301.5t-121.5 -230.5t-179.5 -149t-219.5 -68q53 -67 136 -85.5t191 -9.5l-69 -215q-443 -3 -508 330q-147 46 -225 168t-78 303q0 174 50 319t136 240t199.5 147t242.5 52q236 0 363 -133t127 -367zM727 1014q-109 0 -191 -72.5t-122.5 -189.5
t-40.5 -260q0 -145 65.5 -225.5t182.5 -80.5q105 0 186.5 72.5t123.5 192.5t42 264q0 137 -63.5 218t-182.5 81z" />
    <glyph glyph-name="R" unicode="R" horiz-adv-x="1171" 
d="M1044 0h-272q-35 35 -49 121l-31 190q-13 82 -47.5 108.5t-116.5 26.5h-129l-77 -446h-252l211 1206h444q197 0 288 -73.5t91 -233.5q0 -86 -28 -153.5t-75 -109t-102.5 -64t-116.5 -27.5v-8q81 -12 119 -51.5t53 -127.5l39 -229q14 -83 51 -129zM498 997l-62 -344h189
q101 0 160 49t59 156q0 69 -39 104t-125 35h-182z" />
    <glyph glyph-name="S" unicode="S" horiz-adv-x="1040" 
d="M29 287l227 78q0 -96 55 -149.5t152 -53.5q196 0 196 155q0 69 -40 109.5t-144 75.5q-157 52 -228 132.5t-71 217.5q0 101 39.5 177.5t105.5 119t140 62.5t155 20q191 0 292.5 -79t107.5 -249l-242 -47q3 86 -44.5 130t-133.5 44q-83 0 -130.5 -38.5t-47.5 -110.5
q0 -62 40 -94t150 -72q162 -57 232.5 -138t70.5 -225q0 -101 -38 -176t-105 -117.5t-149 -63t-181 -20.5q-185 0 -292 76.5t-117 235.5z" />
    <glyph glyph-name="T" unicode="T" horiz-adv-x="1015" 
d="M545 0h-250l172 991h-336l39 215h928l-39 -215h-340z" />
    <glyph glyph-name="U" unicode="U" horiz-adv-x="1236" 
d="M979 1206h254l-141 -798q-21 -122 -69 -208t-121 -134.5t-159.5 -69.5t-197.5 -21q-105 0 -188.5 26t-146 81.5t-86 153.5t0.5 231l129 739h252l-131 -737q-51 -287 205 -287q125 0 184.5 67t85.5 214z" />
    <glyph glyph-name="V" unicode="V" horiz-adv-x="1161" 
d="M406 1206l94 -688q11 -77 16.5 -156t5.5 -119v-40h8q37 143 119 313l334 690h270l-610 -1206h-305l-186 1206h254z" />
    <glyph glyph-name="W" unicode="W" horiz-adv-x="1748" 
d="M1143 1206l43 -694q5 -79 5 -163t-3 -129l-2 -44h8q40 160 106 334l267 696h262l-481 -1206h-357l-47 635q-5 76 -5 155.5t3 121.5l2 42h-8q-28 -145 -100 -321l-263 -633h-344l-49 1206h254l23 -692q3 -92 2 -167t-3 -123l-3 -48h8q34 162 106 336l281 694h295z" />
    <glyph glyph-name="X" unicode="X" horiz-adv-x="1157" 
d="M780 0l-145 279q-27 54 -42 93.5t-17 52.5l-1 13h-8q-4 -38 -106 -159l-234 -279h-293l527 614l-297 592h276l117 -245q28 -60 45 -104.5t20 -58.5l3 -14h8q6 41 112 174l195 248h287l-484 -592l308 -614h-271z" />
    <glyph glyph-name="Y" unicode="Y" horiz-adv-x="1087" 
d="M414 1206l102 -319q21 -68 33.5 -136.5t14.5 -102.5l3 -34h8q4 14 12.5 38.5t42 96t77.5 138.5l208 319h269l-516 -786l-72 -420h-252l72 420l-266 786h264z" />
    <glyph glyph-name="Z" unicode="Z" horiz-adv-x="1097" 
d="M37 172l594 684q40 45 78.5 80.5t57.5 47.5l19 13v9q-71 -15 -184 -15h-403l39 215h890l-36 -172l-603 -684q-39 -45 -77.5 -80.5t-57.5 -47.5l-18 -13v-8q69 14 182 14h445l-35 -215h-922z" />
    <glyph glyph-name="bracketleft" unicode="[" horiz-adv-x="737" 
d="M551 1186l-250 -1419h293l-33 -183h-538l313 1784h538l-30 -182h-293z" />
    <glyph glyph-name="backslash" unicode="\" horiz-adv-x="741" 
d="M379 1368l248 -1784h-197l-250 1784h199z" />
    <glyph glyph-name="bracketright" unicode="]" horiz-adv-x="737" 
d="M180 -233l252 1421h-293l31 180h539l-314 -1784h-538l30 183h293z" />
    <glyph glyph-name="asciicircum" unicode="^" horiz-adv-x="1071" 
d="M879 657l-82 269q-24 84 -36.5 152t-12.5 94v26h-9q-2 -10 -9.5 -29.5t-44 -89.5t-91.5 -151l-184 -271h-234l494 711h213l241 -711h-245z" />
    <glyph glyph-name="underscore" unicode="_" horiz-adv-x="985" 
d="M-18 -229l32 184h781l-35 -184h-778z" />
    <glyph glyph-name="grave" unicode="`" horiz-adv-x="786" 
d="M623 1079h-222l-237 310h311z" />
    <glyph glyph-name="a" unicode="a" horiz-adv-x="1128" 
d="M686 393l31 160q8 60 1.5 110.5t-41 84.5t-91.5 34q-79 0 -140 -56.5t-91.5 -147t-30.5 -199.5q0 -95 40 -155t115 -60q83 0 136 62t71 167zM1032 946l-117 -672q-15 -88 56 -88q15 0 61 11l-39 -185q-64 -22 -135 -22q-98 0 -147.5 41t-53.5 129q-68 -185 -272 -185
q-149 0 -232 102.5t-83 284.5q0 164 53.5 301t158 221.5t240.5 84.5q216 0 236 -181l57 158h217z" />
    <glyph glyph-name="b" unicode="b" horiz-adv-x="1134" 
d="M410 526l-27 -141q-16 -93 26 -162t130 -69q81 0 142 57.5t90.5 147.5t29.5 198q0 105 -44.5 163t-123.5 58q-80 0 -141 -66.5t-82 -185.5zM334 145l-76 -145h-188l241 1368h248l-108 -604q88 205 299 205q146 0 230.5 -100.5t84.5 -293.5q0 -170 -55.5 -305t-165 -215
t-256.5 -80q-99 0 -170 46t-84 124z" />
    <glyph glyph-name="c" unicode="c" horiz-adv-x="964" 
d="M664 324l237 -39q-94 -310 -430 -310q-184 0 -292.5 106t-108.5 296q0 93 20 179t62 161.5t102 131t146 88t188 32.5q175 0 261.5 -92.5t86.5 -243.5l-242 -41q3 76 -28.5 128t-102.5 52t-125.5 -54.5t-82 -140t-27.5 -184.5q0 -115 43 -172t121 -57q130 0 172 160z" />
    <glyph glyph-name="d" unicode="d" horiz-adv-x="1134" 
d="M696 393l29 160q16 95 -17.5 161t-121.5 66q-79 0 -140 -56t-91.5 -146.5t-30.5 -198.5q0 -96 39.5 -155.5t115.5 -59.5q86 0 141.5 59t75.5 170zM1114 1368l-190 -1094q-7 -41 3.5 -64.5t51.5 -23.5q15 0 61 11l-36 -185q-68 -22 -138 -22q-98 0 -147 41t-53 129
q-32 -95 -108 -140t-173 -45q-149 0 -232 102.5t-83 284.5q0 164 53.5 300.5t160 221.5t246.5 85q100 0 163 -44.5t73 -136.5l100 580h248z" />
    <glyph glyph-name="e" unicode="e" horiz-adv-x="993" 
d="M492 164q73 0 114.5 32t61.5 103l229 -55q-44 -143 -146.5 -206t-279.5 -63q-189 0 -295 110t-106 298q0 138 42 251t112 185t159 111t186 39q94 0 167.5 -28.5t118 -77t67 -108.5t22.5 -128q0 -112 -41 -199h-579q-16 -111 28 -187.5t140 -76.5zM350 573h340q6 24 6 56
q0 70 -33.5 113.5t-105.5 43.5q-78 0 -130.5 -60t-76.5 -153z" />
    <glyph glyph-name="f" unicode="f" horiz-adv-x="675" 
d="M66 -158l161 914h-143l35 190h141l16 98q31 176 134.5 258t255.5 82q129 0 243 -57l-80 -201q-77 54 -155 54q-65 0 -100.5 -33t-47.5 -103l-18 -98h240l-35 -190h-240l-162 -928q-26 -146 -94 -203t-201 -57q-112 0 -188 49l47 178q52 -41 102 -41q39 0 60.5 20t28.5 68
z" />
    <glyph glyph-name="g" unicode="g" horiz-adv-x="1077" 
d="M698 403l27 150q17 95 -16.5 162t-122.5 67q-120 0 -189 -112t-69 -279q0 -96 38.5 -155.5t114.5 -59.5q175 0 217 227zM1040 946l-168 -956q-38 -217 -164 -319.5t-356 -102.5q-343 0 -415 237l192 121q14 -76 77 -124t152 -48q120 0 183 66t88 192l30 154
q-67 -178 -270 -178q-149 0 -233 103t-84 284q0 164 53.5 297.5t159.5 215t245 81.5q100 0 163 -44.5t73 -136.5l55 158h219z" />
    <glyph glyph-name="h" unicode="h" horiz-adv-x="1120" 
d="M987 649l-63 -375q-7 -41 3.5 -64.5t51.5 -23.5q15 0 61 11l-36 -185q-68 -22 -138 -22q-241 0 -196 248l63 360q28 168 -110 168q-72 0 -132.5 -63.5t-84.5 -194.5l-89 -508h-247l239 1368h250l-108 -614q47 108 118.5 161.5t182.5 53.5t176 -63t65 -171q0 -53 -6 -86z
" />
    <glyph glyph-name="i" unicode="i" horiz-adv-x="559" 
d="M465 946l-119 -672q-7 -41 3.5 -64.5t51.5 -23.5q16 0 62 11l-37 -185q-68 -22 -137 -22q-242 0 -197 248l125 708h248zM229 1239q0 68 44 107.5t108 39.5q70 0 114 -39t44 -108q0 -66 -44.5 -104.5t-113.5 -38.5q-64 0 -108 39t-44 104z" />
    <glyph glyph-name="j" unicode="j" horiz-adv-x="497" 
d="M465 946l-191 -1075q-28 -166 -115.5 -234.5t-240.5 -68.5q-133 0 -223 55l69 184q66 -53 138 -53q54 0 85.5 33t45.5 119l184 1040h248zM229 1239q0 68 44 107.5t108 39.5q70 0 114 -39t44 -108q0 -66 -44.5 -104.5t-113.5 -38.5q-64 0 -108 39t-44 104z" />
    <glyph glyph-name="k" unicode="k" horiz-adv-x="1030" 
d="M592 123l-139 299h-62l-74 -422h-247l239 1368h250l-135 -760h47l309 338h299l-411 -430l131 -262q27 -53 66 -63.5t102 10.5l-37 -191q-68 -20 -137 -20t-118.5 29.5t-82.5 103.5z" />
    <glyph glyph-name="l" unicode="l" horiz-adv-x="559" 
d="M539 1368l-193 -1094q-7 -41 3.5 -64.5t51.5 -23.5q16 0 62 11l-37 -185q-68 -22 -137 -22q-242 0 -197 248l199 1130h248z" />
    <glyph glyph-name="m" unicode="m" horiz-adv-x="1630" 
d="M854 0h-250l105 598q28 168 -103 168q-70 0 -122.5 -62t-77.5 -196l-89 -508h-247l166 946h217l-4 -192q47 111 111 163t175 52q110 0 172 -59.5t62 -168.5q79 228 299 228q109 0 172 -62.5t63 -171.5q0 -53 -6 -86l-63 -375q-7 -41 3.5 -64.5t51.5 -23.5q15 0 61 11
l-39 -185q-64 -22 -135 -22q-240 0 -198 248l63 360q14 77 -9.5 122.5t-90.5 45.5q-71 0 -125 -62.5t-76 -195.5z" />
    <glyph glyph-name="n" unicode="n" horiz-adv-x="1120" 
d="M987 649l-63 -375q-7 -41 3.5 -64.5t51.5 -23.5q15 0 61 11l-36 -185q-68 -22 -138 -22q-241 0 -196 248l63 360q28 168 -110 168q-72 0 -132.5 -63.5t-84.5 -194.5l-89 -508h-247l166 946h217l-4 -192q49 108 121 161.5t182 53.5q111 0 176 -63t65 -171q0 -53 -6 -86z
" />
    <glyph glyph-name="o" unicode="o" horiz-adv-x="1062" 
d="M588 969q189 0 297 -109.5t108 -304.5q0 -93 -20.5 -178t-63 -158.5t-102.5 -127.5t-144.5 -85t-183.5 -31q-183 0 -296 105t-113 297q0 95 20.5 182t62.5 162t102.5 130t146 86.5t186.5 31.5zM565 772q-107 0 -172 -111t-65 -276q0 -107 44.5 -164t123.5 -57
q109 0 173 112t64 279q0 104 -44 160.5t-124 56.5z" />
    <glyph glyph-name="p" unicode="p" horiz-adv-x="1136" 
d="M410 526l-27 -141q-16 -93 26 -162t132 -69q119 0 189.5 118t70.5 285q0 105 -44.5 162t-123.5 57q-80 0 -141 -65.5t-82 -184.5zM342 145l-96 -561h-250l240 1362h219l-4 -182q85 205 301 205q145 0 230 -100.5t85 -293.5q0 -170 -56 -305t-165.5 -215t-255.5 -80
q-98 0 -165.5 45.5t-82.5 124.5z" />
    <glyph glyph-name="q" unicode="q" horiz-adv-x="1077" 
d="M696 393l29 160q16 95 -17.5 161t-121.5 66q-79 0 -140 -56t-91.5 -146.5t-30.5 -198.5q0 -95 40 -156t115 -61q86 0 141.5 60t75.5 171zM803 -416h-250l100 568q-34 -90 -104 -133.5t-164 -43.5q-149 0 -232 102.5t-83 284.5q0 164 53.5 300.5t160 221.5t246.5 85
q100 0 163 -44.5t73 -136.5l57 158h219z" />
    <glyph glyph-name="r" unicode="r" horiz-adv-x="768" 
d="M815 963l-59 -289q-52 21 -108.5 21t-107 -20t-88 -67.5t-49.5 -115.5l-86 -492h-247l166 946h217l-13 -241q51 134 155 209t220 49z" />
    <glyph glyph-name="s" unicode="s" horiz-adv-x="876" 
d="M16 244l207 69q3 -84 48 -127t118 -43q135 0 135 103q0 52 -31 82t-116 57q-124 37 -183 105t-59 176q0 150 104.5 226.5t270.5 76.5t251 -67t85 -193l-211 -45q0 65 -36.5 101t-104.5 36q-57 0 -91 -27.5t-34 -73.5q0 -43 31 -69t130 -62q132 -46 185 -113t53 -186
q0 -149 -105.5 -222t-283.5 -73q-161 0 -257 68t-106 201z" />
    <glyph glyph-name="t" unicode="t" horiz-adv-x="706" 
d="M598 236v-205q-42 -26 -106.5 -41t-129.5 -15q-148 0 -214 81.5t-35 252.5l77 447h-133l33 190h137l35 201l250 29l-39 -230h248l-35 -190h-246l-80 -451q-22 -117 78 -117q76 0 160 48z" />
    <glyph glyph-name="u" unicode="u" horiz-adv-x="1112" 
d="M662 180q-42 -106 -117.5 -155.5t-190.5 -49.5q-150 0 -217.5 95t-38.5 264l109 612h248l-109 -627q-13 -79 15.5 -121t93.5 -42q77 0 137.5 59t79.5 176l98 555h248l-119 -672q-7 -41 3.5 -64.5t51.5 -23.5q14 0 60 11l-37 -185q-68 -22 -137 -22q-99 0 -141.5 47
t-36.5 143z" />
    <glyph glyph-name="v" unicode="v" horiz-adv-x="921" 
d="M215 0l-145 946h249l54 -461q8 -80 9.5 -156.5t-0.5 -112.5l-3 -36h8q33 141 117 305l241 461h263l-525 -946h-268z" />
    <glyph glyph-name="w" unicode="w" horiz-adv-x="1427" 
d="M901 946l35 -426q9 -84 9 -170t-5 -130l-4 -44h8q29 149 109 342l180 428h260l-416 -946h-291l-45 375q-6 72 -6 148t3 115l3 40h-8q-30 -139 -102 -305l-156 -373h-289l-96 946h250l35 -428q7 -84 8 -169.5t-1 -128.5l-3 -44h8q31 156 111 344l182 426h221z" />
    <glyph glyph-name="x" unicode="x" horiz-adv-x="970" 
d="M625 0l-93 188q-24 55 -37 97t-13 57l-1 14h-8q-8 -45 -104 -168l-152 -188h-274l391 473l-207 473h262l70 -166q22 -54 34.5 -97t14.5 -59l2 -16h8q25 64 105 170l131 168h276l-375 -465l226 -481h-256z" />
    <glyph glyph-name="y" unicode="y" horiz-adv-x="935" 
d="M338 946l47 -495q8 -76 10 -147t0 -104l-2 -32h8q29 137 107 289l254 489h260l-569 -1044q-57 -105 -111.5 -173t-110 -102t-106 -46.5t-117.5 -12.5q-100 0 -176 39l68 196q59 -36 116 -36q68 0 120 42.5t102 137.5l-156 999h256z" />
    <glyph glyph-name="z" unicode="z" horiz-adv-x="915" 
d="M27 135l415 479q40 46 79 82t58 49l19 13v8q-71 -16 -184 -16h-254l39 196h719l-21 -151l-422 -467q-41 -45 -80 -80.5t-57 -48.5l-19 -13v-8q72 15 183 15h286l-32 -193h-752z" />
    <glyph glyph-name="braceleft" unicode="{" horiz-adv-x="835" 
d="M332 475v-8q89 -10 131.5 -58t21.5 -161l-59 -344q-13 -76 4 -111t76 -35q40 0 67 7.5t66 27.5l10 -172q-102 -51 -239 -51q-278 0 -224 295l62 354q17 92 -14 125t-99 33h-84l31 186h84q67 0 111.5 34t60.5 124l61 356q25 138 102.5 215.5t227.5 77.5q140 0 219 -51
l-69 -172q-33 20 -57.5 27.5t-63.5 7.5q-60 0 -89 -34.5t-42 -109.5l-62 -344q-10 -62 -32.5 -105t-55 -66t-66.5 -33.5t-79 -14.5z" />
    <glyph glyph-name="bar" unicode="|" horiz-adv-x="503" 
d="M197 -416h-199l313 1784h199z" />
    <glyph glyph-name="braceright" unicode="}" horiz-adv-x="835" 
d="M500 467v8q-33 3 -58 10.5t-49 23t-35.5 39.5t-17 60.5t5.5 85.5l60 344q13 74 -4 109t-76 35q-40 0 -67 -7.5t-66 -27.5l-11 172q96 51 240 51q150 0 199 -77.5t24 -215.5l-61 -356q-17 -91 14 -124.5t98 -33.5h84l-30 -186h-84q-68 0 -112 -33t-60 -125l-62 -354
q-54 -295 -330 -295q-136 0 -219 51l70 172q33 -20 57.5 -27.5t63.5 -7.5q60 0 89 35t42 111l61 344q10 62 32.5 104.5t55.5 65.5t66.5 33.5t79.5 15.5z" />
    <glyph glyph-name="asciitilde" unicode="~" horiz-adv-x="794" 
d="M436 422l-108 51q-32 21 -62 21q-75 0 -86 -82l-98 41q-8 33 -8 67q0 75 51 130t129 55q54 0 117 -29l84 -45q34 -17 69 -17q70 0 86 84l105 -49q6 -24 6 -51q-2 -84 -53 -143.5t-127 -59.5q-49 0 -105 27z" />
    <glyph glyph-name="nbspace" unicode="&#xa0;" horiz-adv-x="313" 
 />
    <glyph glyph-name="exclamdown" unicode="&#xa1;" horiz-adv-x="518" 
d="M270 -260h-305l228 817h161zM473 809q0 -65 -44.5 -106t-111.5 -41q-68 0 -112.5 41t-44.5 106t44.5 106t112.5 41q67 0 111.5 -41t44.5 -106z" />
    <glyph glyph-name="cent" unicode="&#xa2;" horiz-adv-x="1032" 
d="M760 338l196 -121q-72 -120 -173 -179t-253 -63l-32 -192h-103l35 199q-158 22 -249 128t-91 285q0 122 33.5 229.5t97 191t164 134.5t225.5 56l31 170h102l-30 -172q137 -14 210 -83.5t101 -185.5l-236 -88q-16 119 -112 152l-111 -623q63 6 109.5 46.5t85.5 115.5z
M340 414q0 -86 32.5 -145.5t94.5 -82.5l108 623q-108 -17 -171.5 -125.5t-63.5 -269.5z" />
    <glyph glyph-name="sterling" unicode="&#xa3;" horiz-adv-x="1017" 
d="M741 410h-247q-3 -27 -13 -58q-10 -57 -41.5 -97t-74.5 -54h294q27 0 47 3t43 12.5t43 30t35 52.5l154 -98q-33 -96 -117.5 -148.5t-197.5 -52.5h-646l35 203h90q59 0 99.5 46.5t40.5 108.5q0 31 -6 52h-185l23 131h135q-16 70 -16 145q0 81 33 144.5t89 101.5t125 57
t146 19q102 0 175.5 -25.5t120 -89.5t46.5 -164l-228 -51q-3 141 -141 141q-67 0 -106 -38t-39 -109q0 -49 20 -131h287z" />
    <glyph glyph-name="currency" unicode="&#xa4;" horiz-adv-x="952" 
d="M29 272l161 140q-30 62 -30 131q0 160 92 272l-100 121l77 68l99 -123q86 55 204 55q127 0 203 -64l158 136l59 -72l-159 -137q32 -62 32 -140q0 -164 -94 -268l105 -123l-78 -67l-105 127q-84 -52 -196 -52q-129 0 -205 64l-164 -139zM518 797q-75 0 -120.5 -71
t-45.5 -177q0 -68 31 -103.5t86 -35.5q76 0 120 71t44 178q0 67 -30 102.5t-85 35.5z" />
    <glyph glyph-name="yen" unicode="&#xa5;" horiz-adv-x="1085" 
d="M971 494h-226l-71 -99h289l-9 -106h-338l-49 -289h-250l50 289h-304l9 106h274l-39 99h-227l10 106h174l-151 385h264l94 -274q21 -58 33 -110t14 -75l2 -22h8q21 74 109 205l188 276h273l-279 -385h162z" />
    <glyph glyph-name="brokenbar" unicode="&#xa6;" horiz-adv-x="503" 
d="M371 569h-199l139 799h199zM197 -414h-199l139 797h199z" />
    <glyph glyph-name="section" unicode="&#xa7;" horiz-adv-x="884" 
d="M45 481q0 107 57.5 171t153.5 89q-63 72 -63 183q0 81 33 142.5t88.5 95t119 49.5t135.5 16q336 0 336 -260l-211 -43q0 63 -40 99t-105 36q-53 0 -87 -27.5t-34 -73.5q0 -43 32.5 -70.5t139.5 -70.5q134 -50 189 -116.5t55 -168.5t-56 -167.5t-155 -92.5q65 -71 65 -178
q0 -149 -108.5 -222t-286.5 -73q-175 0 -261.5 63.5t-92.5 192.5l203 56q7 -75 51.5 -113.5t111.5 -38.5q63 0 101.5 24t38.5 74q0 46 -31 74t-127 66q-134 47 -193 114t-59 170zM453 383l47 -16q45 9 75.5 43.5t30.5 78.5q0 46 -33.5 75.5t-128.5 66.5q-41 10 -63 22
q-49 -15 -77 -50.5t-28 -78.5q0 -40 35 -68.5t142 -72.5z" />
    <glyph glyph-name="dieresis" unicode="&#xa8;" horiz-adv-x="1044" 
d="M164 1221q0 66 40.5 104.5t100.5 38.5q64 0 105 -38t41 -105q0 -66 -41.5 -105t-104.5 -39q-59 0 -100 39.5t-41 104.5zM596 1219q0 67 40 105t101 38q63 0 103.5 -38t40.5 -105q0 -65 -40.5 -103.5t-103.5 -38.5q-60 0 -100.5 39t-40.5 103z" />
    <glyph glyph-name="copyright" unicode="&#xa9;" horiz-adv-x="1429" 
d="M889 492l160 -99q-58 -97 -141.5 -143.5t-207.5 -46.5q-150 0 -239.5 84.5t-89.5 240.5q0 97 27.5 182.5t80 151.5t135 104t185.5 38q139 0 209 -56.5t94 -159.5l-193 -71q-13 119 -129 119q-93 0 -150 -84.5t-57 -208.5q0 -80 39 -129t111 -49q58 0 96 32t70 95z
M113 602q0 179 84 323.5t227 225t315 80.5q128 0 244 -47.5t200.5 -129.5t134.5 -200t50 -252t-50 -251.5t-134.5 -199.5t-200.5 -129t-244 -47t-243.5 47t-199.5 129t-133.5 199.5t-49.5 251.5zM176 602q0 -163 77 -294t206 -202t284 -71q115 0 218.5 42t179.5 115.5
t121 180t45 229.5q0 162 -76.5 293.5t-205 203.5t-282.5 72q-115 0 -219.5 -42.5t-181 -117t-121.5 -181t-45 -228.5z" />
    <glyph glyph-name="ordfeminine" unicode="&#xaa;" horiz-adv-x="858" 
d="M528 848l21 104q13 62 -10.5 105t-87.5 43q-88 0 -139.5 -75.5t-51.5 -184.5q0 -63 28 -102.5t83 -39.5q126 0 157 150zM795 1214l-90 -442q-4 -25 3 -39t35 -14q17 0 50 8l-29 -131q-58 -14 -105 -14q-137 0 -155 104q-27 -56 -82 -85.5t-121 -29.5q-114 0 -177 68
t-63 190q0 109 41 199.5t122 146.5t186 56q70 0 116 -30t56 -87l41 100h172z" />
    <glyph glyph-name="guillemotleft" unicode="&#xab;" horiz-adv-x="1134" 
d="M715 481v-8q31 -14 86 -90l162 -219l-148 -117l-321 434l475 437l110 -123l-239 -226q-32 -30 -63 -52t-47 -29zM274 481v-8q31 -14 86 -90l164 -219l-147 -117l-322 434l475 437l109 -123l-238 -226q-33 -30 -64.5 -52t-46.5 -29z" />
    <glyph glyph-name="logicalnot" unicode="&#xac;" horiz-adv-x="1024" 
d="M756 506h-674l24 139h836l-70 -393h-161z" />
    <glyph glyph-name="uni00AD" unicode="&#xad;" horiz-adv-x="757" 
d="M131 426l37 205h459l-37 -205h-459z" />
    <glyph glyph-name="registered" unicode="&#xae;" horiz-adv-x="1429" 
d="M1053 246h-205q-18 21 -29 82l-8 75q-6 47 -26 66.5t-72 19.5h-92l-43 -243h-189l129 739h318q129 0 191.5 -53.5t62.5 -151.5q0 -106 -62.5 -160t-161.5 -61v-6q115 -6 131 -104l19 -115q10 -57 37 -88zM680 836l-35 -205h121q135 0 135 123q0 82 -94 82h-127zM113 602
q0 179 84 323.5t227 225t315 80.5q128 0 244 -47.5t200.5 -129.5t134.5 -200t50 -252t-50 -251.5t-134.5 -199.5t-200.5 -129t-244 -47t-243.5 47t-199.5 129t-133.5 199.5t-49.5 251.5zM176 602q0 -163 77 -294t206 -202t284 -71q115 0 218.5 42t179.5 115.5t121 180
t45 229.5q0 162 -76.5 293.5t-205 203.5t-282.5 72q-115 0 -219.5 -42.5t-181 -117t-121.5 -181t-45 -228.5z" />
    <glyph glyph-name="macron" unicode="&#xaf;" horiz-adv-x="944" 
d="M743 1116h-579l37 199h579z" />
    <glyph glyph-name="degree" unicode="&#xb0;" horiz-adv-x="606" 
d="M100 963q0 112 76.5 190t198.5 78q102 0 165.5 -64.5t63.5 -158.5q0 -115 -76.5 -194t-193.5 -79q-113 0 -173.5 63.5t-60.5 164.5zM365 1114q-58 0 -96 -42t-38 -101q0 -54 29.5 -85.5t81.5 -31.5q60 0 96.5 42t36.5 101q0 53 -29 85t-81 32z" />
    <glyph glyph-name="plusminus" unicode="&#xb1;" horiz-adv-x="1116" 
d="M182 723h338l47 260h150l-47 -260h348l-25 -139h-348l-51 -289h-150l54 289h-340zM901 61h-835l24 140h836z" />
    <glyph glyph-name="twosuperior" unicode="&#xb2;" horiz-adv-x="667" 
d="M582 627l-27 -144h-561l22 123q88 52 144 86.5t113.5 75t88.5 72.5t50.5 66.5t19.5 68.5q0 94 -96 94q-104 0 -125 -131l-148 57q14 101 91 164.5t206 63.5q119 0 188.5 -57.5t69.5 -164.5q0 -60 -27.5 -114t-66 -90.5t-96.5 -70.5t-101 -52.5t-98 -38.5v-8h353z" />
    <glyph glyph-name="threesuperior" unicode="&#xb3;" horiz-adv-x="645" 
d="M397 854l-2 -4q170 -20 170 -168q0 -103 -84.5 -158t-216.5 -55q-119 0 -186 50.5t-76 139.5l160 48q5 -52 28.5 -78.5t73.5 -26.5t80.5 22t30.5 64q0 22 -6 38t-23.5 31.5t-53.5 23t-91 7.5l20 111q193 5 193 107q0 34 -21.5 52.5t-56.5 18.5q-85 0 -109 -90l-139 57
q57 179 272 179q108 0 174 -46.5t66 -138.5q0 -76 -53 -123t-150 -61z" />
    <glyph glyph-name="acute" unicode="&#xb4;" horiz-adv-x="786" 
d="M385 1079h-221l145 310h314z" />
    <glyph glyph-name="mu" unicode="&#xb5;" horiz-adv-x="1112" 
d="M662 158q-42 -103 -103.5 -143t-157.5 -40q-40 0 -71 14.5t-39 33.5l-76 -439h-246l238 1362h248l-109 -627q-13 -79 15.5 -121t93.5 -42q77 0 137.5 59t79.5 176l98 555h248l-119 -672q-7 -41 3.5 -64.5t51.5 -23.5q14 0 60 11l-37 -185q-68 -22 -137 -22q-98 0 -137 40
t-41 128z" />
    <glyph glyph-name="mu" unicode="&#x3bc;" horiz-adv-x="1112" 
d="M662 158q-42 -103 -103.5 -143t-157.5 -40q-40 0 -71 14.5t-39 33.5l-76 -439h-246l238 1362h248l-109 -627q-13 -79 15.5 -121t93.5 -42q77 0 137.5 59t79.5 176l98 555h248l-119 -672q-7 -41 3.5 -64.5t51.5 -23.5q14 0 60 11l-37 -185q-68 -22 -137 -22q-98 0 -137 40
t-41 128z" />
    <glyph glyph-name="paragraph" unicode="&#xb6;" horiz-adv-x="1122" 
d="M1057 1008l-183 -1037q-28 -158 -128 -231.5t-246 -73.5q-66 0 -114 12t-99 43l86 216q59 -62 147 -62q49 0 79.5 27.5t41.5 93.5l64 360h-101q-220 0 -326 103.5t-69 308.5q78 438 606 438h438l-34 -198h-162z" />
    <glyph glyph-name="periodcentered" unicode="&#xb7;" horiz-adv-x="593" 
d="M127 543q0 70 47 118t115 48q71 0 118.5 -47.5t47.5 -118.5q0 -68 -48 -115t-118 -47q-67 0 -114.5 47.5t-47.5 114.5z" />
    <glyph glyph-name="cedilla" unicode="&#xb8;" horiz-adv-x="763" 
d="M600 -246q0 -90 -65 -138t-166 -48q-67 0 -121 20.5t-84 55.5l51 120q57 -71 127 -71q72 0 72 59q0 71 -107 82l76 197h102l-47 -109q83 -14 122.5 -53.5t39.5 -114.5z" />
    <glyph glyph-name="onesuperior" unicode="&#xb9;" horiz-adv-x="628" 
d="M559 483h-545l25 138h186l72 415l-213 -18l25 145l401 43l-102 -585h176z" />
    <glyph glyph-name="ordmasculine" unicode="&#xba;" horiz-adv-x="788" 
d="M434 1231q136 0 214.5 -73.5t78.5 -203.5q0 -77 -24 -145.5t-69 -122t-116.5 -84.5t-159.5 -31q-133 0 -215 70t-82 197q0 165 98 279t275 114zM420 1092q-76 0 -121 -71t-45 -177q0 -68 30.5 -103.5t84.5 -35.5q76 0 119.5 71t43.5 178q0 67 -29 102.5t-83 35.5z" />
    <glyph glyph-name="guillemotright" unicode="&#xbb;" horiz-adv-x="1134" 
d="M420 481v8q-31 17 -86 93l-162 219l147 117l320 -437l-473 -434l-111 123l238 225q33 30 64.5 51.5t46.5 27.5zM860 481v8q-31 17 -86 93l-164 219l148 117l321 -437l-475 -434l-110 123l239 225q32 30 63.5 51.5t47.5 27.5z" />
    <glyph glyph-name="onequarter" unicode="&#xbc;" horiz-adv-x="1802" 
d="M592 483h-545l25 138h186l72 415l-213 -18l24 145l402 43l-103 -585h176zM401 0l838 1206h162l-842 -1206h-158zM1413 0l27 154h-361l23 129l440 440h182l-75 -434h106l-24 -135h-107l-27 -154h-184zM1468 285l25 145q6 34 15 70l14 56l6 19h-8q-29 -51 -82 -108l-88 -90
q-25 -25 -54 -48.5t-45 -34.5l-16 -11v-9q41 11 117 11h116z" />
    <glyph glyph-name="onehalf" unicode="&#xbd;" horiz-adv-x="1802" 
d="M592 483h-545l25 138h186l72 415l-213 -18l24 145l402 43l-103 -585h176zM401 0l838 1206h162l-842 -1206h-158zM1647 143l-27 -143h-561l22 123q88 52 144 86.5t113.5 75t88.5 72.5t50.5 66.5t19.5 68.5q0 94 -96 94q-104 0 -125 -131l-148 57q14 100 91 163.5t206 63.5
q119 0 188.5 -57t69.5 -164q0 -60 -27.5 -114t-66 -90.5t-96.5 -70.5t-101 -52.5t-98 -38.5v-9h353z" />
    <glyph glyph-name="threequarters" unicode="&#xbe;" horiz-adv-x="1802" 
d="M442 854l-2 -4q170 -20 170 -168q0 -103 -84.5 -158t-216.5 -55q-119 0 -186 50.5t-76 139.5l160 48q5 -52 28.5 -78.5t73.5 -26.5t80.5 22t30.5 64q0 22 -6 38t-23.5 31.5t-53.5 23t-91 7.5l20 111q193 5 193 107q0 34 -21.5 52.5t-56.5 18.5q-85 0 -109 -90l-139 57
q57 179 273 179q108 0 173.5 -46.5t65.5 -138.5q0 -76 -53 -123t-150 -61zM401 0l838 1206h162l-842 -1206h-158zM1413 0l27 154h-361l23 129l440 440h182l-75 -434h106l-24 -135h-107l-27 -154h-184zM1468 285l25 145q6 34 15 70l14 56l6 19h-8q-29 -51 -82 -108l-88 -90
q-25 -25 -54 -48.5t-45 -34.5l-16 -11v-9q41 11 117 11h116z" />
    <glyph glyph-name="questiondown" unicode="&#xbf;" horiz-adv-x="913" 
d="M621 115l217 -80q-40 -155 -149 -237.5t-283 -82.5q-193 0 -294.5 90.5t-101.5 255.5q0 95 37.5 169.5t100 118.5t135 66.5t149.5 22.5l27 140h215l-49 -277h-78q-285 0 -285 -209q0 -79 41.5 -121.5t122.5 -42.5q83 0 130.5 45t64.5 142zM756 809q0 -65 -45.5 -106
t-112.5 -41q-68 0 -113 41t-45 106t45 106t113 41q67 0 112.5 -41t45.5 -106z" />
    <glyph glyph-name="Agrave" unicode="&#xc0;" horiz-adv-x="1265" 
d="M883 0l-49 279h-469l-144 -279h-268l649 1206h311l228 -1206h-258zM887 1329h-223l-218 279h312zM567 666l-98 -183h328q-25 123 -43 255t-24.5 204t-4.5 72h-8q-50 -155 -150 -348z" />
    <glyph glyph-name="Aacute" unicode="&#xc1;" horiz-adv-x="1265" 
d="M883 0l-49 279h-469l-144 -279h-268l649 1206h311l228 -1206h-258zM864 1329h-223l129 279h311zM567 666l-98 -183h328q-25 123 -43 255t-24.5 204t-4.5 72h-8q-50 -155 -150 -348z" />
    <glyph glyph-name="Acircumflex" unicode="&#xc2;" horiz-adv-x="1265" 
d="M883 0l-49 279h-469l-144 -279h-268l649 1206h311l228 -1206h-258zM719 1616h153l220 -287h-232l-51 66q-13 16 -20.5 32t-8.5 23l-2 8h-8q4 -2 -14 -22.5t-50 -50t-65 -56.5h-242zM567 666l-98 -183h328q-25 123 -43 255t-24.5 204t-4.5 72h-8q-50 -155 -150 -348z" />
    <glyph glyph-name="Atilde" unicode="&#xc3;" horiz-adv-x="1265" 
d="M883 0l-49 279h-469l-144 -279h-268l649 1206h311l228 -1206h-258zM901 1331q-47 0 -91.5 16.5t-71.5 36t-56 36t-49 16.5q-32 0 -54.5 -27.5t-25.5 -77.5h-137q-29 126 36 211.5t177 85.5q71 0 133 -41q6 -4 18 -12.5t17 -11.5t14 -9t13 -8.5t11.5 -6.5t11.5 -5.5t10 -4
t10.5 -3.5t10 -1.5t11.5 -0.5q66 0 72 100h145q29 -129 -29.5 -211t-175.5 -82zM567 666l-98 -183h328q-25 123 -43 255t-24.5 204t-4.5 72h-8q-50 -155 -150 -348z" />
    <glyph glyph-name="Adieresis" unicode="&#xc4;" horiz-adv-x="1265" 
d="M883 0l-49 279h-469l-144 -279h-268l649 1206h311l228 -1206h-258zM852 1473q0 67 40 105t101 38q63 0 103.5 -38t40.5 -105q0 -65 -40.5 -103.5t-103.5 -38.5q-60 0 -100.5 39t-40.5 103zM420 1475q0 66 40.5 104.5t100.5 38.5q64 0 105 -38t41 -105q0 -66 -41.5 -105
t-104.5 -39q-59 0 -100 39.5t-41 104.5zM567 666l-98 -183h328q-25 123 -43 255t-24.5 204t-4.5 72h-8q-50 -155 -150 -348z" />
    <glyph glyph-name="Aring" unicode="&#xc5;" horiz-adv-x="1265" 
d="M883 0l-49 279h-469l-144 -279h-268l649 1206h311l228 -1206h-258zM578 1493q2 99 68 167.5t173 68.5q90 0 144.5 -56.5t54.5 -140.5q0 -101 -66 -169.5t-170 -68.5q-98 0 -151 55.5t-53 143.5zM567 666l-98 -183h328q-25 123 -43 255t-24.5 204t-4.5 72h-8
q-50 -155 -150 -348zM809 1616q-46 0 -76.5 -33.5t-30.5 -81.5q0 -42 24.5 -67t66.5 -25q48 0 77 34t29 83q0 40 -24 65t-66 25z" />
    <glyph glyph-name="AE" unicode="&#xc6;" horiz-adv-x="1800" 
d="M825 0l49 279h-446l-217 -279h-283l940 1206h957l-39 -215h-535l-49 -278h471l-37 -209h-471l-51 -289h535l-35 -215h-789zM1008 1024l-422 -541h323l52 293q16 87 29.5 149t19.5 81l6 18h-8z" />
    <glyph glyph-name="Ccedilla" unicode="&#xc7;" horiz-adv-x="1183" 
d="M694 -246q0 -90 -65 -138t-166 -48q-66 0 -120.5 20.5t-84.5 55.5l51 120q59 -71 129 -71q72 0 72 59q0 71 -109 82l62 156q-172 34 -264.5 160.5t-92.5 322.5q0 140 32.5 261.5t90.5 211.5t136.5 155t172.5 97.5t197 32.5q196 0 306 -88t139 -246l-258 -88
q-25 205 -205 205q-109 0 -191 -73t-123 -192t-41 -264q0 -140 65.5 -219.5t182.5 -79.5q91 0 155.5 40.5t119.5 144.5l211 -113q-75 -144 -198 -213.5t-302 -69.5h-39l-22 -53q83 -14 121 -53t38 -115z" />
    <glyph glyph-name="Egrave" unicode="&#xc8;" horiz-adv-x="1042" 
d="M893 215l-37 -215h-786l211 1206h786l-37 -215h-534l-50 -278h472l-37 -209h-471l-52 -289h535zM797 1329h-224l-219 279h312z" />
    <glyph glyph-name="Eacute" unicode="&#xc9;" horiz-adv-x="1042" 
d="M893 215l-37 -215h-786l211 1206h786l-37 -215h-534l-50 -278h472l-37 -209h-471l-52 -289h535zM772 1329h-223l131 279h311z" />
    <glyph glyph-name="Ecircumflex" unicode="&#xca;" horiz-adv-x="1042" 
d="M893 215l-37 -215h-786l211 1206h786l-37 -215h-534l-50 -278h472l-37 -209h-471l-52 -289h535zM627 1616h153l217 -287h-229l-51 66q-13 16 -21 32t-10 23l-2 8h-6q-12 -26 -55 -63l-76 -66h-240z" />
    <glyph glyph-name="Edieresis" unicode="&#xcb;" horiz-adv-x="1042" 
d="M893 215l-37 -215h-786l211 1206h786l-37 -215h-534l-50 -278h472l-37 -209h-471l-52 -289h535zM328 1475q0 66 40.5 104.5t100.5 38.5q65 0 105 -38t40 -105q0 -66 -40.5 -105t-104.5 -39q-59 0 -100 39.5t-41 104.5zM760 1473q0 66 40.5 104.5t100.5 38.5q64 0 105 -38
t41 -105q0 -65 -41.5 -103.5t-104.5 -38.5q-59 0 -100 39t-41 103z" />
    <glyph glyph-name="Igrave" unicode="&#xcc;" horiz-adv-x="557" 
d="M281 1206h251l-210 -1206h-252zM551 1329h-223l-219 279h311z" />
    <glyph glyph-name="Iacute" unicode="&#xcd;" horiz-adv-x="557" 
d="M281 1206h251l-210 -1206h-252zM526 1329h-223l131 279h311z" />
    <glyph glyph-name="Icircumflex" unicode="&#xce;" horiz-adv-x="557" 
d="M281 1206h251l-210 -1206h-252zM383 1616h154l217 -287h-230l-51 66q-13 16 -21 32t-10 23l-2 8h-6q-12 -26 -55 -63l-76 -66h-240z" />
    <glyph glyph-name="Idieresis" unicode="&#xcf;" horiz-adv-x="557" 
d="M281 1206h251l-210 -1206h-252zM82 1475q0 66 40.5 104.5t100.5 38.5q65 0 105.5 -38t40.5 -105q0 -66 -41 -105t-105 -39q-59 0 -100 39.5t-41 104.5zM514 1473q0 66 40.5 104.5t100.5 38.5q64 0 105 -38t41 -105q0 -65 -41.5 -103.5t-104.5 -38.5q-59 0 -100 39
t-41 103z" />
    <glyph glyph-name="Eth" unicode="&#xd0;" horiz-adv-x="1261" 
d="M481 0h-411l88 506h-135l36 203h134l88 497h381q261 0 392.5 -119t131.5 -352q0 -156 -38 -281.5t-103.5 -209t-156.5 -139.5t-192 -80.5t-215 -24.5zM358 209h144q187 0 303.5 128.5t116.5 375.5q0 284 -304 284h-120l-54 -288h236l-37 -203h-233z" />
    <glyph glyph-name="Ntilde" unicode="&#xd1;" horiz-adv-x="1312" 
d="M520 1206l291 -606q24 -50 44.5 -104.5t28.5 -83.5l9 -29h8q10 122 37 276l96 547h254l-211 -1206h-231l-299 596q-25 53 -47.5 109.5t-32.5 86.5l-10 31h-8q-4 -116 -35 -284l-92 -539h-252l211 1206h239zM920 1331q-37 0 -66.5 8t-44 16.5t-45.5 28.5q-5 3 -17.5 11.5
t-16.5 11t-14 8.5t-14 7.5t-11.5 5.5t-12.5 5t-12 2t-13 1q-34 0 -56.5 -27t-23.5 -78h-139q-28 126 37 211.5t176 85.5q34 0 62.5 -7.5t44 -16t41.5 -25.5q35 -24 47 -32t30 -15.5t35 -7.5q66 0 74 100h143q30 -129 -28 -211t-176 -82z" />
    <glyph glyph-name="Ograve" unicode="&#xd2;" horiz-adv-x="1296" 
d="M596 -25q-234 0 -362 134.5t-128 363.5q0 140 32.5 261.5t90.5 211.5t136.5 155t172.5 97.5t197 32.5q235 0 362.5 -135t127.5 -365q0 -174 -50.5 -318.5t-136.5 -239t-200 -146.5t-242 -52zM717 1014q-109 0 -191 -72.5t-123 -190t-41 -259.5q0 -145 65.5 -225.5
t182.5 -80.5q105 0 186.5 72.5t124 192.5t42.5 264q0 137 -63.5 218t-182.5 81zM895 1329h-223l-219 279h311z" />
    <glyph glyph-name="Oacute" unicode="&#xd3;" horiz-adv-x="1296" 
d="M596 -25q-234 0 -362 134.5t-128 363.5q0 140 32.5 261.5t90.5 211.5t136.5 155t172.5 97.5t197 32.5q235 0 362.5 -135t127.5 -365q0 -174 -50.5 -318.5t-136.5 -239t-200 -146.5t-242 -52zM717 1014q-109 0 -191 -72.5t-123 -190t-41 -259.5q0 -145 65.5 -225.5
t182.5 -80.5q105 0 186.5 72.5t124 192.5t42.5 264q0 137 -63.5 218t-182.5 81zM870 1329h-223l131 279h312z" />
    <glyph glyph-name="Ocircumflex" unicode="&#xd4;" horiz-adv-x="1296" 
d="M596 -25q-234 0 -362 134.5t-128 363.5q0 140 32.5 261.5t90.5 211.5t136.5 155t172.5 97.5t197 32.5q235 0 362.5 -135t127.5 -365q0 -174 -50.5 -318.5t-136.5 -239t-200 -146.5t-242 -52zM717 1014q-109 0 -191 -72.5t-123 -190t-41 -259.5q0 -145 65.5 -225.5
t182.5 -80.5q105 0 186.5 72.5t124 192.5t42.5 264q0 137 -63.5 218t-182.5 81zM727 1616h154l217 -287h-230l-51 66q-13 16 -21 32t-10 23l-2 8h-6q-12 -26 -55 -63l-76 -66h-239z" />
    <glyph glyph-name="Otilde" unicode="&#xd5;" horiz-adv-x="1296" 
d="M596 -25q-234 0 -362 134.5t-128 363.5q0 140 32.5 261.5t90.5 211.5t136.5 155t172.5 97.5t197 32.5q235 0 362.5 -135t127.5 -365q0 -174 -50.5 -318.5t-136.5 -239t-200 -146.5t-242 -52zM717 1014q-109 0 -191 -72.5t-123 -190t-41 -259.5q0 -145 65.5 -225.5
t182.5 -80.5q105 0 186.5 72.5t124 192.5t42.5 264q0 137 -63.5 218t-182.5 81zM909 1331q-38 0 -67.5 8t-43.5 16t-46 29l-22.5 15t-21 13.5t-16.5 9.5t-18 8.5t-15 3.5t-18 2q-32 0 -54.5 -27.5t-25.5 -77.5h-139q-27 126 38 211.5t175 85.5q50 0 80.5 -12t66.5 -37
q5 -3 15.5 -10.5t14 -9.5t12 -8t12 -7.5t10.5 -5.5t10.5 -5.5t9.5 -3.5t10.5 -3t9.5 -1.5t11 -0.5q66 0 72 100h145q29 -129 -29.5 -211t-175.5 -82z" />
    <glyph glyph-name="Odieresis" unicode="&#xd6;" horiz-adv-x="1296" 
d="M596 -25q-234 0 -362 134.5t-128 363.5q0 140 32.5 261.5t90.5 211.5t136.5 155t172.5 97.5t197 32.5q235 0 362.5 -135t127.5 -365q0 -174 -50.5 -318.5t-136.5 -239t-200 -146.5t-242 -52zM717 1014q-109 0 -191 -72.5t-123 -190t-41 -259.5q0 -145 65.5 -225.5
t182.5 -80.5q105 0 186.5 72.5t124 192.5t42.5 264q0 137 -63.5 218t-182.5 81zM426 1475q0 66 40.5 104.5t100.5 38.5q65 0 105.5 -38t40.5 -105q0 -66 -41 -105t-105 -39q-59 0 -100 39.5t-41 104.5zM858 1473q0 66 40.5 104.5t100.5 38.5q64 0 105 -38t41 -105
q0 -65 -41.5 -103.5t-104.5 -38.5q-59 0 -100 39t-41 103z" />
    <glyph glyph-name="multiply" unicode="&#xd7;" horiz-adv-x="999" 
d="M76 244l315 270l-207 258l113 98l211 -258l323 275l93 -111l-324 -276l227 -273l-114 -96l-228 272l-317 -270z" />
    <glyph glyph-name="Oslash" unicode="&#xd8;" horiz-adv-x="1296" 
d="M141 -27l-92 82l127 131q-70 116 -70 287q0 140 32.5 261.5t90.5 211.5t136.5 155t172.5 97.5t197 32.5q206 0 336 -111l107 111l96 -82l-121 -129q72 -119 72 -289q0 -174 -50.5 -318.5t-136.5 -239t-200 -146.5t-242 -52q-215 0 -342 115zM963 715q0 49 -13 96
l-524 -543q67 -82 184 -82q105 0 186.5 72.5t124 192.5t42.5 264zM717 1014q-109 0 -191 -72.5t-123 -190t-41 -259.5q0 -46 11 -99l522 543q-65 78 -178 78z" />
    <glyph glyph-name="Ugrave" unicode="&#xd9;" horiz-adv-x="1236" 
d="M979 1206h254l-141 -798q-21 -122 -69 -208t-121 -134.5t-159.5 -69.5t-197.5 -21q-105 0 -188.5 26t-146 81.5t-86 153.5t0.5 231l129 739h252l-131 -737q-51 -287 205 -287q125 0 184.5 67t85.5 214zM879 1329h-226l-217 279h312z" />
    <glyph glyph-name="Uacute" unicode="&#xda;" horiz-adv-x="1236" 
d="M979 1206h254l-141 -798q-21 -122 -69 -208t-121 -134.5t-159.5 -69.5t-197.5 -21q-105 0 -188.5 26t-146 81.5t-86 153.5t0.5 231l129 739h252l-131 -737q-51 -287 205 -287q125 0 184.5 67t85.5 214zM854 1329h-223l131 279h311z" />
    <glyph glyph-name="Ucircumflex" unicode="&#xdb;" horiz-adv-x="1236" 
d="M979 1206h254l-141 -798q-21 -122 -69 -208t-121 -134.5t-159.5 -69.5t-197.5 -21q-105 0 -188.5 26t-146 81.5t-86 153.5t0.5 231l129 739h252l-131 -737q-51 -287 205 -287q125 0 184.5 67t85.5 214zM711 1616h153l217 -287h-229l-51 66q-14 16 -22 32t-9 23l-2 8h-8
q-10 -26 -53 -63l-76 -66h-242z" />
    <glyph glyph-name="Udieresis" unicode="&#xdc;" horiz-adv-x="1236" 
d="M979 1206h254l-141 -798q-21 -122 -69 -208t-121 -134.5t-159.5 -69.5t-197.5 -21q-105 0 -188.5 26t-146 81.5t-86 153.5t0.5 231l129 739h252l-131 -737q-51 -287 205 -287q125 0 184.5 67t85.5 214zM410 1475q0 66 40.5 104.5t100.5 38.5q64 0 104.5 -38t40.5 -105
q0 -66 -41 -105t-104 -39q-59 0 -100 39.5t-41 104.5zM842 1473q0 67 40 105t101 38q64 0 104.5 -38t40.5 -105q0 -65 -41 -103.5t-104 -38.5q-60 0 -100.5 39t-40.5 103z" />
    <glyph glyph-name="Yacute" unicode="&#xdd;" horiz-adv-x="1087" 
d="M414 1206l102 -319q21 -68 33.5 -136.5t14.5 -102.5l3 -34h8q4 14 12.5 38.5t42 96t77.5 138.5l208 319h269l-516 -786l-72 -420h-252l72 420l-266 786h264zM793 1329h-224l131 279h312z" />
    <glyph glyph-name="Thorn" unicode="&#xde;" horiz-adv-x="1056" 
d="M463 805l-66 -367h129q124 0 184 49.5t60 169.5q0 77 -43 112.5t-135 35.5h-129zM322 0h-252l211 1206h251l-34 -192h139q200 0 292.5 -85.5t92.5 -248.5q0 -113 -37.5 -200.5t-104 -140.5t-151.5 -79.5t-186 -26.5h-181z" />
    <glyph glyph-name="germandbls" unicode="&#xdf;" horiz-adv-x="1157" 
d="M27 -158l182 1037q19 112 58.5 200t91 144.5t117.5 93.5t135 52t147 15q179 0 268.5 -83t89.5 -211q0 -145 -80 -224t-207 -100v-8q128 -17 192 -101.5t64 -212.5q0 -228 -122.5 -348.5t-321.5 -120.5q-192 0 -258 123l100 174q46 -104 162 -104q83 0 139 64t56 204
q0 221 -219 221h-101l35 195h109q99 0 157 46.5t58 143.5q0 146 -156 146q-104 0 -170 -71t-94 -234l-185 -1055q-27 -146 -95.5 -203t-201.5 -57q-112 0 -188 49l47 178q52 -41 103 -41q39 0 60 20t28 68z" />
    <glyph glyph-name="agrave" unicode="&#xe0;" horiz-adv-x="1128" 
d="M686 393l31 160q8 60 1.5 110.5t-41 84.5t-91.5 34q-79 0 -140 -56.5t-91.5 -147t-30.5 -199.5q0 -95 40 -155t115 -60q83 0 136 62t71 167zM1032 946l-117 -672q-15 -88 56 -88q15 0 61 11l-39 -185q-64 -22 -135 -22q-98 0 -147.5 41t-53.5 129q-68 -185 -272 -185
q-149 0 -232 102.5t-83 284.5q0 164 53.5 301t158 221.5t240.5 84.5q216 0 236 -181l57 158h217zM756 1079h-221l-238 310h313z" />
    <glyph glyph-name="aacute" unicode="&#xe1;" horiz-adv-x="1128" 
d="M686 393l31 160q8 60 1.5 110.5t-41 84.5t-91.5 34q-79 0 -140 -56.5t-91.5 -147t-30.5 -199.5q0 -95 40 -155t115 -60q83 0 136 62t71 167zM1032 946l-117 -672q-15 -88 56 -88q15 0 61 11l-39 -185q-64 -22 -135 -22q-98 0 -147.5 41t-53.5 129q-68 -185 -272 -185
q-149 0 -232 102.5t-83 284.5q0 164 53.5 301t158 221.5t240.5 84.5q216 0 236 -181l57 158h217zM729 1079h-221l147 310h312z" />
    <glyph glyph-name="acircumflex" unicode="&#xe2;" horiz-adv-x="1128" 
d="M686 393l31 160q8 60 1.5 110.5t-41 84.5t-91.5 34q-79 0 -140 -56.5t-91.5 -147t-30.5 -199.5q0 -95 40 -155t115 -60q83 0 136 62t71 167zM1032 946l-117 -672q-15 -88 56 -88q15 0 61 11l-39 -185q-64 -22 -135 -22q-98 0 -147.5 41t-53.5 129q-68 -185 -272 -185
q-149 0 -232 102.5t-83 284.5q0 164 53.5 301t158 221.5t240.5 84.5q216 0 236 -181l57 158h217zM600 1393h152l215 -318h-228l-53 76q-14 20 -21 38t-7 26l-1 8h-10q-8 -27 -55 -72l-80 -76h-236z" />
    <glyph glyph-name="atilde" unicode="&#xe3;" horiz-adv-x="1128" 
d="M686 393l31 160q8 60 1.5 110.5t-41 84.5t-91.5 34q-79 0 -140 -56.5t-91.5 -147t-30.5 -199.5q0 -95 40 -155t115 -60q83 0 136 62t71 167zM1032 946l-117 -672q-15 -88 56 -88q15 0 61 11l-39 -185q-64 -22 -135 -22q-98 0 -147.5 41t-53.5 129q-68 -185 -272 -185
q-149 0 -232 102.5t-83 284.5q0 164 53.5 301t158 221.5t240.5 84.5q216 0 236 -181l57 158h217zM784 1073q-38 0 -68 8t-43 15.5t-44 27.5q-5 3 -17.5 11.5t-16.5 11t-14 8.5t-14 7.5t-11.5 5.5t-12.5 5t-12 2t-13 1q-34 0 -56.5 -27t-23.5 -78h-139q-28 127 37 213t176 86
q34 0 62.5 -8.5t42.5 -16t42 -26.5q66 -44 88 -50q12 -3 25 -3q67 0 72 100h145q30 -129 -28.5 -211t-176.5 -82z" />
    <glyph glyph-name="adieresis" unicode="&#xe4;" horiz-adv-x="1128" 
d="M686 393l31 160q8 60 1.5 110.5t-41 84.5t-91.5 34q-79 0 -140 -56.5t-91.5 -147t-30.5 -199.5q0 -95 40 -155t115 -60q83 0 136 62t71 167zM1032 946l-117 -672q-15 -88 56 -88q15 0 61 11l-39 -185q-64 -22 -135 -22q-98 0 -147.5 41t-53.5 129q-68 -185 -272 -185
q-149 0 -232 102.5t-83 284.5q0 164 53.5 301t158 221.5t240.5 84.5q216 0 236 -181l57 158h217zM291 1221q0 66 40.5 104.5t100.5 38.5q65 0 105.5 -38t40.5 -105q0 -66 -41 -105t-105 -39q-59 0 -100 39.5t-41 104.5zM723 1219q0 66 40.5 104.5t100.5 38.5q64 0 105 -38
t41 -105q0 -65 -41.5 -103.5t-104.5 -38.5q-59 0 -100 39t-41 103z" />
    <glyph glyph-name="aring" unicode="&#xe5;" horiz-adv-x="1128" 
d="M686 393l31 160q8 60 1.5 110.5t-41 84.5t-91.5 34q-79 0 -140 -56.5t-91.5 -147t-30.5 -199.5q0 -95 40 -155t115 -60q83 0 136 62t71 167zM1032 946l-117 -672q-15 -88 56 -88q15 0 61 11l-39 -185q-64 -22 -135 -22q-98 0 -147.5 41t-53.5 129q-68 -185 -272 -185
q-149 0 -232 102.5t-83 284.5q0 164 53.5 301t158 221.5t240.5 84.5q216 0 236 -181l57 158h217zM444 1247q0 98 67 166t173 68q90 0 145.5 -56.5t55.5 -140.5q0 -100 -66.5 -167.5t-169.5 -67.5q-100 0 -152.5 54t-52.5 144zM674 1370q-46 0 -75.5 -34t-29.5 -81
q0 -43 23.5 -67.5t64.5 -24.5q48 0 77.5 33.5t29.5 81.5q0 41 -24 66.5t-66 25.5z" />
    <glyph glyph-name="ae" unicode="&#xe6;" horiz-adv-x="1531" 
d="M1030 164q73 0 114.5 32t61.5 103l232 -55q-45 -143 -148 -206t-280 -63q-216 0 -324 146q-111 -146 -330 -146q-145 0 -224 65.5t-79 188.5q0 172 147.5 251.5t428.5 82.5q13 49 37 105q1 57 -29 85.5t-86 28.5q-65 0 -108 -37.5t-52 -105.5l-235 43q31 145 146 216
t278 71q188 0 262 -88q124 88 266 88q95 0 168.5 -28.5t117.5 -77t66.5 -108.5t22.5 -128q0 -131 -41 -209h-580q-13 -109 30.5 -181.5t137.5 -72.5zM625 256q-15 55 -15 127v33q-307 -7 -307 -166q0 -45 28.5 -69.5t80.5 -24.5q137 0 213 100zM891 563h340q6 24 6 66
q0 70 -34 113.5t-105 43.5q-79 0 -131.5 -64t-75.5 -159z" />
    <glyph glyph-name="ccedilla" unicode="&#xe7;" horiz-adv-x="964" 
d="M580 -246q0 -90 -65.5 -138t-166.5 -48q-66 0 -120.5 20.5t-84.5 55.5l52 120q59 -71 129 -71q71 0 71 59q0 71 -108 82l61 158q-131 30 -204.5 129.5t-73.5 255.5q0 93 20 179t62 161.5t102 131t146 88t188 32.5q175 0 261.5 -92.5t86.5 -243.5l-242 -41q3 76 -28.5 128
t-102.5 52t-125.5 -54.5t-82 -140t-27.5 -184.5q0 -115 43 -172t121 -57q130 0 172 160l237 -39q-94 -310 -430 -310q-19 0 -29 2l-22 -55q83 -14 121.5 -53.5t38.5 -114.5z" />
    <glyph glyph-name="egrave" unicode="&#xe8;" horiz-adv-x="993" 
d="M492 164q73 0 114.5 32t61.5 103l229 -55q-44 -143 -146.5 -206t-279.5 -63q-189 0 -295 110t-106 298q0 138 42 251t112 185t159 111t186 39q94 0 167.5 -28.5t118 -77t67 -108.5t22.5 -128q0 -112 -41 -199h-579q-16 -111 28 -187.5t140 -76.5zM350 573h340q6 24 6 56
q0 70 -33.5 113.5t-105.5 43.5q-78 0 -130.5 -60t-76.5 -153zM705 1079h-220l-239 310h313z" />
    <glyph glyph-name="eacute" unicode="&#xe9;" horiz-adv-x="993" 
d="M492 164q73 0 114.5 32t61.5 103l229 -55q-44 -143 -146.5 -206t-279.5 -63q-189 0 -295 110t-106 298q0 138 42 251t112 185t159 111t186 39q94 0 167.5 -28.5t118 -77t67 -108.5t22.5 -128q0 -112 -41 -199h-579q-16 -111 28 -187.5t140 -76.5zM350 573h340q6 24 6 56
q0 70 -33.5 113.5t-105.5 43.5q-78 0 -130.5 -60t-76.5 -153zM678 1079h-219l145 310h311z" />
    <glyph glyph-name="ecircumflex" unicode="&#xea;" horiz-adv-x="993" 
d="M492 164q73 0 114.5 32t61.5 103l229 -55q-44 -143 -146.5 -206t-279.5 -63q-189 0 -295 110t-106 298q0 138 42 251t112 185t159 111t186 39q94 0 167.5 -28.5t118 -77t67 -108.5t22.5 -128q0 -112 -41 -199h-579q-16 -111 28 -187.5t140 -76.5zM350 573h340q6 24 6 56
q0 70 -33.5 113.5t-105.5 43.5q-78 0 -130.5 -60t-76.5 -153zM549 1393h151l215 -318h-225l-55 76q-14 20 -21 38t-8 26v8h-10q-8 -27 -55 -72l-80 -76h-236z" />
    <glyph glyph-name="edieresis" unicode="&#xeb;" horiz-adv-x="993" 
d="M492 164q73 0 114.5 32t61.5 103l229 -55q-44 -143 -146.5 -206t-279.5 -63q-189 0 -295 110t-106 298q0 138 42 251t112 185t159 111t186 39q94 0 167.5 -28.5t118 -77t67 -108.5t22.5 -128q0 -112 -41 -199h-579q-16 -111 28 -187.5t140 -76.5zM350 573h340q6 24 6 56
q0 70 -33.5 113.5t-105.5 43.5q-78 0 -130.5 -60t-76.5 -153zM242 1221q0 67 40 105t101 38q63 0 103 -38t40 -105q0 -66 -40 -105t-103 -39q-60 0 -100.5 39t-40.5 105zM672 1219q0 66 40.5 104.5t100.5 38.5q64 0 104.5 -38t40.5 -105q0 -65 -41 -103.5t-104 -38.5
q-59 0 -100 39t-41 103z" />
    <glyph glyph-name="igrave" unicode="&#xec;" horiz-adv-x="559" 
d="M485 1079h-219l-239 310h313zM465 946l-119 -672q-7 -41 3.5 -64.5t51.5 -23.5q16 0 62 11l-37 -185q-68 -22 -137 -22q-242 0 -197 248l125 708h248z" />
    <glyph glyph-name="iacute" unicode="&#xed;" horiz-adv-x="559" 
d="M459 1079h-221l147 310h311zM465 946l-119 -672q-7 -41 3.5 -64.5t51.5 -23.5q16 0 62 11l-37 -185q-68 -22 -137 -22q-242 0 -197 248l125 708h248z" />
    <glyph glyph-name="icircumflex" unicode="&#xee;" horiz-adv-x="559" 
d="M465 946l-119 -672q-7 -41 3.5 -64.5t51.5 -23.5q16 0 62 11l-37 -185q-68 -22 -137 -22q-242 0 -197 248l125 708h248zM330 1393h151l215 -318h-225l-55 76q-14 20 -21 38t-7 26l-1 8h-10q-8 -27 -55 -72l-80 -76h-236z" />
    <glyph glyph-name="idieresis" unicode="&#xef;" horiz-adv-x="559" 
d="M23 1221q0 67 40 105t101 38q63 0 103 -38t40 -105q0 -66 -40 -105t-103 -39q-60 0 -100.5 39t-40.5 105zM453 1219q0 66 40.5 104.5t100.5 38.5q64 0 104.5 -38t40.5 -105q0 -65 -41 -103.5t-104 -38.5q-59 0 -100 39t-41 103zM465 946l-119 -672q-7 -41 3.5 -64.5
t51.5 -23.5q16 0 62 11l-37 -185q-68 -22 -137 -22q-242 0 -197 248l125 708h248z" />
    <glyph glyph-name="eth" unicode="&#xf0;" horiz-adv-x="1056" 
d="M264 979l-28 98l249 72q-130 79 -288 115l221 118q196 -52 319 -155l203 61l29 -98l-152 -45q170 -204 170 -545q0 -134 -32.5 -247t-95 -198t-160.5 -132.5t-222 -47.5q-182 0 -294.5 105.5t-112.5 302.5q0 154 56 281.5t162 204.5t242 77q152 0 207 -119h8
q-41 146 -155 248zM563 756q-107 0 -171 -108.5t-64 -268.5q0 -106 44 -161.5t122 -55.5q109 0 173 109.5t64 273.5q0 104 -43.5 157.5t-124.5 53.5z" />
    <glyph glyph-name="ntilde" unicode="&#xf1;" horiz-adv-x="1120" 
d="M987 649l-63 -375q-7 -41 3.5 -64.5t51.5 -23.5q15 0 61 11l-36 -185q-68 -22 -138 -22q-241 0 -196 248l63 360q28 168 -110 168q-72 0 -132.5 -63.5t-84.5 -194.5l-89 -508h-247l166 946h217l-4 -192q49 108 121 161.5t182 53.5q111 0 176 -63t65 -171q0 -53 -6 -86z
M799 1073q-37 0 -67 8t-43 15.5t-46 27.5q-5 3 -17.5 11.5t-16.5 11t-14 8.5t-14 7.5t-11.5 5.5t-12.5 5t-12 2t-13 1q-33 0 -55.5 -27.5t-23.5 -77.5h-140q-28 127 37 213t176 86q34 0 63 -8.5t43 -16.5t42 -26q7 -5 21 -14t19.5 -12t15.5 -9t15.5 -8.5t13 -5t14.5 -3.5
t15 -1q67 0 72 100h146q29 -129 -30 -211t-177 -82z" />
    <glyph glyph-name="ograve" unicode="&#xf2;" horiz-adv-x="1062" 
d="M588 969q189 0 297 -109.5t108 -304.5q0 -93 -20.5 -178t-63 -158.5t-102.5 -127.5t-144.5 -85t-183.5 -31q-183 0 -296 105t-113 297q0 95 20.5 182t62.5 162t102.5 130t146 86.5t186.5 31.5zM565 772q-107 0 -172 -111t-65 -276q0 -107 44.5 -164t123.5 -57
q109 0 173 112t64 279q0 104 -44 160.5t-124 56.5zM729 1079h-221l-238 310h312z" />
    <glyph glyph-name="oacute" unicode="&#xf3;" horiz-adv-x="1062" 
d="M588 969q189 0 297 -109.5t108 -304.5q0 -93 -20.5 -178t-63 -158.5t-102.5 -127.5t-144.5 -85t-183.5 -31q-183 0 -296 105t-113 297q0 95 20.5 182t62.5 162t102.5 130t146 86.5t186.5 31.5zM565 772q-107 0 -172 -111t-65 -276q0 -107 44.5 -164t123.5 -57
q109 0 173 112t64 279q0 104 -44 160.5t-124 56.5zM702 1079h-221l148 310h311z" />
    <glyph glyph-name="ocircumflex" unicode="&#xf4;" horiz-adv-x="1062" 
d="M588 969q189 0 297 -109.5t108 -304.5q0 -93 -20.5 -178t-63 -158.5t-102.5 -127.5t-144.5 -85t-183.5 -31q-183 0 -296 105t-113 297q0 95 20.5 182t62.5 162t102.5 130t146 86.5t186.5 31.5zM565 772q-107 0 -172 -111t-65 -276q0 -107 44.5 -164t123.5 -57
q109 0 173 112t64 279q0 104 -44 160.5t-124 56.5zM573 1393h152l213 -318h-225l-54 76q-14 20 -21.5 38t-7.5 26l-1 8h-8q-11 -27 -58 -72l-78 -76h-237z" />
    <glyph glyph-name="otilde" unicode="&#xf5;" horiz-adv-x="1062" 
d="M588 969q189 0 297 -109.5t108 -304.5q0 -93 -20.5 -178t-63 -158.5t-102.5 -127.5t-144.5 -85t-183.5 -31q-183 0 -296 105t-113 297q0 95 20.5 182t62.5 162t102.5 130t146 86.5t186.5 31.5zM565 772q-107 0 -172 -111t-65 -276q0 -107 44.5 -164t123.5 -57
q109 0 173 112t64 279q0 104 -44 160.5t-124 56.5zM758 1073q-37 0 -67 8t-43 15.5t-46 27.5q-6 4 -20 13t-18.5 12t-15 9t-15 8t-12.5 5t-15 4t-14 1q-33 0 -56 -27.5t-24 -77.5h-140q-28 127 37 213t176 86q34 0 63 -8.5t43 -16.5t42 -26q6 -4 18.5 -12t17.5 -11t14.5 -9
t14 -8t12 -5.5t13 -4.5t12 -2t13.5 -1q66 0 71 100h146q29 -129 -30 -211t-177 -82z" />
    <glyph glyph-name="odieresis" unicode="&#xf6;" horiz-adv-x="1062" 
d="M588 969q189 0 297 -109.5t108 -304.5q0 -93 -20.5 -178t-63 -158.5t-102.5 -127.5t-144.5 -85t-183.5 -31q-183 0 -296 105t-113 297q0 95 20.5 182t62.5 162t102.5 130t146 86.5t186.5 31.5zM565 772q-107 0 -172 -111t-65 -276q0 -107 44.5 -164t123.5 -57
q109 0 173 112t64 279q0 104 -44 160.5t-124 56.5zM264 1221q0 66 41 104.5t101 38.5q64 0 104.5 -38t40.5 -105q0 -66 -41 -105t-104 -39q-59 0 -100.5 39.5t-41.5 104.5zM696 1219q0 67 40.5 105t101.5 38q64 0 104.5 -38t40.5 -105q0 -65 -41 -103.5t-104 -38.5
q-60 0 -101 39t-41 103z" />
    <glyph glyph-name="divide" unicode="&#xf7;" horiz-adv-x="1024" 
d="M918 438h-836l24 140h836zM317 166q0 46 31.5 78t75.5 32t76 -32t32 -78q0 -43 -32 -74t-76 -31t-75.5 31t-31.5 74zM473 836q0 46 31.5 78t75.5 32t76 -32t32 -78q0 -43 -32 -74t-76 -31t-75.5 31t-31.5 74z" />
    <glyph glyph-name="oslash" unicode="&#xf8;" horiz-adv-x="1062" 
d="M588 969q180 0 289 -103l108 103l84 -92l-121 -113q45 -92 45 -209q0 -93 -20.5 -178t-63 -158.5t-102.5 -127.5t-144.5 -85t-183.5 -31q-174 0 -278 88l-103 -94l-86 86l109 103q-51 91 -51 219q0 95 20.5 182t62.5 162t102.5 130t146 86.5t186.5 31.5zM565 772
q-97 0 -159.5 -91t-71.5 -228q-6 -53 0 -99l364 348q-42 70 -133 70zM496 164q98 0 160 91t71 228q4 50 4 80l-360 -340q42 -59 125 -59z" />
    <glyph glyph-name="ugrave" unicode="&#xf9;" horiz-adv-x="1112" 
d="M662 180q-42 -106 -117.5 -155.5t-190.5 -49.5q-150 0 -217.5 95t-38.5 264l109 612h248l-109 -627q-13 -79 15.5 -121t93.5 -42q77 0 137.5 59t79.5 176l98 555h248l-119 -672q-7 -41 3.5 -64.5t51.5 -23.5q14 0 60 11l-37 -185q-68 -22 -137 -22q-99 0 -141.5 47
t-36.5 143zM752 1079h-222l-237 310h311z" />
    <glyph glyph-name="uacute" unicode="&#xfa;" horiz-adv-x="1112" 
d="M662 180q-42 -106 -117.5 -155.5t-190.5 -49.5q-150 0 -217.5 95t-38.5 264l109 612h248l-109 -627q-13 -79 15.5 -121t93.5 -42q77 0 137.5 59t79.5 176l98 555h248l-119 -672q-7 -41 3.5 -64.5t51.5 -23.5q14 0 60 11l-37 -185q-68 -22 -137 -22q-99 0 -141.5 47
t-36.5 143zM725 1079h-221l145 310h314z" />
    <glyph glyph-name="ucircumflex" unicode="&#xfb;" horiz-adv-x="1112" 
d="M662 180q-42 -106 -117.5 -155.5t-190.5 -49.5q-150 0 -217.5 95t-38.5 264l109 612h248l-109 -627q-13 -79 15.5 -121t93.5 -42q77 0 137.5 59t79.5 176l98 555h248l-119 -672q-7 -41 3.5 -64.5t51.5 -23.5q14 0 60 11l-37 -185q-68 -22 -137 -22q-99 0 -141.5 47
t-36.5 143zM596 1393h149l216 -318h-226l-53 76q-14 20 -21.5 38t-8.5 26l-1 8h-8q-10 -27 -57 -72l-78 -76h-238z" />
    <glyph glyph-name="udieresis" unicode="&#xfc;" horiz-adv-x="1112" 
d="M662 180q-42 -106 -117.5 -155.5t-190.5 -49.5q-150 0 -217.5 95t-38.5 264l109 612h248l-109 -627q-13 -79 15.5 -121t93.5 -42q77 0 137.5 59t79.5 176l98 555h248l-119 -672q-7 -41 3.5 -64.5t51.5 -23.5q14 0 60 11l-37 -185q-68 -22 -137 -22q-99 0 -141.5 47
t-36.5 143zM285 1221q0 66 40.5 104.5t100.5 38.5q65 0 105 -38t40 -105q0 -66 -40.5 -105t-104.5 -39q-59 0 -100 39.5t-41 104.5zM717 1219q0 66 40.5 104.5t100.5 38.5q64 0 105 -38t41 -105q0 -65 -41.5 -103.5t-104.5 -38.5q-59 0 -100 39t-41 103z" />
    <glyph glyph-name="yacute" unicode="&#xfd;" horiz-adv-x="935" 
d="M338 946l47 -495q8 -76 10 -147t0 -104l-2 -32h8q29 137 107 289l254 489h260l-569 -1044q-57 -105 -111.5 -173t-110 -102t-106 -46.5t-117.5 -12.5q-100 0 -176 39l68 196q59 -36 116 -36q68 0 120 42.5t102 137.5l-156 999h256zM647 1079h-221l145 310h314z" />
    <glyph glyph-name="thorn" unicode="&#xfe;" horiz-adv-x="1136" 
d="M410 524l-27 -143q-10 -61 3.5 -114t54 -87.5t100.5 -34.5q80 0 140.5 58.5t90 150t29.5 199.5t-44.5 166.5t-123.5 58.5q-80 0 -141 -67.5t-82 -186.5zM342 145l-96 -561h-250l313 1784h248l-106 -604q85 205 301 205q145 0 230 -100.5t85 -293.5q0 -170 -56 -305
t-165.5 -215t-255.5 -80q-98 0 -165.5 45.5t-82.5 124.5z" />
    <glyph glyph-name="ydieresis" unicode="&#xff;" horiz-adv-x="935" 
d="M338 946l47 -495q8 -76 10 -147t0 -104l-2 -32h8q29 137 107 289l254 489h260l-569 -1044q-57 -105 -111.5 -173t-110 -102t-106 -46.5t-117.5 -12.5q-100 0 -176 39l68 196q59 -36 116 -36q68 0 120 42.5t102 137.5l-156 999h256zM209 1221q0 66 40.5 104.5t100.5 38.5
q64 0 105 -38t41 -105q0 -66 -41.5 -105t-104.5 -39q-59 0 -100 39.5t-41 104.5zM641 1219q0 67 40 105t101 38q63 0 103.5 -38t40.5 -105q0 -65 -40.5 -103.5t-103.5 -38.5q-60 0 -100.5 39t-40.5 103z" />
    <glyph glyph-name="Amacron" unicode="&#x100;" horiz-adv-x="1265" 
d="M883 0l-49 279h-469l-144 -279h-268l649 1206h311l228 -1206h-258zM1069 1366h-592l33 197h592zM567 666l-98 -183h328q-25 123 -43 255t-24.5 204t-4.5 72h-8q-50 -155 -150 -348z" />
    <glyph glyph-name="amacron" unicode="&#x101;" horiz-adv-x="1128" 
d="M686 393l31 160q8 60 1.5 110.5t-41 84.5t-91.5 34q-79 0 -140 -56.5t-91.5 -147t-30.5 -199.5q0 -95 40 -155t115 -60q83 0 136 62t71 167zM1032 946l-117 -672q-15 -88 56 -88q15 0 61 11l-39 -185q-64 -22 -135 -22q-98 0 -147.5 41t-53.5 129q-68 -185 -272 -185
q-149 0 -232 102.5t-83 284.5q0 164 53.5 301t158 221.5t240.5 84.5q216 0 236 -181l57 158h217zM926 1116h-580l37 199h580z" />
    <glyph glyph-name="Abreve" unicode="&#x102;" horiz-adv-x="1265" 
d="M883 0l-49 279h-469l-144 -279h-268l649 1206h311l228 -1206h-258zM760 1321q-148 0 -209 77.5t-35 215.5h182q-8 -61 13 -91t80 -30q62 0 92 29.5t43 91.5h184q-26 -138 -114 -215.5t-236 -77.5zM567 666l-98 -183h328q-25 123 -43 255t-24.5 204t-4.5 72h-8
q-50 -155 -150 -348z" />
    <glyph glyph-name="abreve" unicode="&#x103;" horiz-adv-x="1128" 
d="M686 393l31 160q8 60 1.5 110.5t-41 84.5t-91.5 34q-79 0 -140 -56.5t-91.5 -147t-30.5 -199.5q0 -95 40 -155t115 -60q83 0 136 62t71 167zM1032 946l-117 -672q-15 -88 56 -88q15 0 61 11l-39 -185q-64 -22 -135 -22q-98 0 -147.5 41t-53.5 129q-68 -185 -272 -185
q-149 0 -232 102.5t-83 284.5q0 164 53.5 301t158 221.5t240.5 84.5q216 0 236 -181l57 158h217zM623 1069q-147 0 -207.5 86.5t-34.5 226.5h182q-8 -69 9 -102t81 -33q65 0 95 33.5t45 101.5h182q-24 -140 -115 -226.5t-237 -86.5z" />
    <glyph glyph-name="Aogonek" unicode="&#x104;" horiz-adv-x="1265" 
d="M510 -227q0 71 32.5 133t84.5 102.5t113 65.5t122 30l-28 175h-469l-144 -279h-268l649 1206h311l228 -1206h-109q-323 0 -323 -186q0 -39 22.5 -62.5t59.5 -23.5q39 0 66 15.5t58 51.5l60 -123q-84 -104 -236 -104q-104 0 -166.5 52t-62.5 153zM567 666l-98 -183h328
q-25 123 -43 255t-24.5 204t-4.5 72h-8q-50 -155 -150 -348z" />
    <glyph glyph-name="aogonek" unicode="&#x105;" horiz-adv-x="1128" 
d="M510 -227q0 90 55 159.5t137 106.5q-42 49 -45 121q-36 -88 -108.5 -136.5t-163.5 -48.5q-149 0 -232 102.5t-83 284.5q0 164 53.5 301t158 221.5t240.5 84.5q216 0 236 -181l57 158h217l-117 -672q-15 -88 56 -88q15 0 61 11l-39 -185q-48 -9 -79.5 -16t-74.5 -23
t-68 -35t-43.5 -51t-18.5 -73q0 -40 22 -63t60 -23t65.5 15.5t58.5 51.5l60 -123q-84 -104 -236 -104q-104 0 -166.5 52t-62.5 153zM686 393l31 160q8 60 1.5 110.5t-41 84.5t-91.5 34q-79 0 -140 -56.5t-91.5 -147t-30.5 -199.5q0 -95 40 -155t115 -60q83 0 136 62t71 167z
" />
    <glyph glyph-name="Cacute" unicode="&#x106;" horiz-adv-x="1183" 
d="M885 371l211 -113q-75 -144 -198 -213.5t-302 -69.5q-235 0 -362.5 133t-127.5 365q0 140 32.5 261.5t90.5 211.5t136.5 155t172.5 97.5t197 32.5q196 0 306 -88t139 -246l-258 -88q-25 205 -205 205q-109 0 -191 -73t-123 -192t-41 -264q0 -140 65.5 -219.5t182.5 -79.5
q91 0 155.5 40.5t119.5 144.5zM860 1329h-225l131 279h311z" />
    <glyph glyph-name="cacute" unicode="&#x107;" horiz-adv-x="964" 
d="M664 324l237 -39q-94 -310 -430 -310q-184 0 -292.5 106t-108.5 296q0 93 20 179t62 161.5t102 131t146 88t188 32.5q175 0 261.5 -92.5t86.5 -243.5l-242 -41q3 76 -28.5 128t-102.5 52t-125.5 -54.5t-82 -140t-27.5 -184.5q0 -115 43 -172t121 -57q130 0 172 160z
M700 1079h-219l146 310h311z" />
    <glyph glyph-name="Ccircumflex" unicode="&#x108;" horiz-adv-x="1183" 
d="M885 371l211 -113q-75 -144 -198 -213.5t-302 -69.5q-235 0 -362.5 133t-127.5 365q0 140 32.5 261.5t90.5 211.5t136.5 155t172.5 97.5t197 32.5q196 0 306 -88t139 -246l-258 -88q-25 205 -205 205q-109 0 -191 -73t-123 -192t-41 -264q0 -140 65.5 -219.5t182.5 -79.5
q91 0 155.5 40.5t119.5 144.5zM715 1616h155l217 -287h-231l-51 66q-13 16 -20.5 32t-8.5 23l-2 8h-8q-10 -26 -53 -63l-76 -66h-242z" />
    <glyph glyph-name="ccircumflex" unicode="&#x109;" horiz-adv-x="964" 
d="M664 324l237 -39q-94 -310 -430 -310q-184 0 -292.5 106t-108.5 296q0 93 20 179t62 161.5t102 131t146 88t188 32.5q175 0 261.5 -92.5t86.5 -243.5l-242 -41q3 76 -28.5 128t-102.5 52t-125.5 -54.5t-82 -140t-27.5 -184.5q0 -115 43 -172t121 -57q130 0 172 160z
M571 1393h152l215 -318h-225l-56 76q-14 20 -21 38t-7 26v8h-11q-8 -27 -55 -72l-80 -76h-235z" />
    <glyph glyph-name="Cdotaccent" unicode="&#x10a;" horiz-adv-x="1183" 
d="M885 371l211 -113q-75 -144 -198 -213.5t-302 -69.5q-235 0 -362.5 133t-127.5 365q0 140 32.5 261.5t90.5 211.5t136.5 155t172.5 97.5t197 32.5q196 0 306 -88t139 -246l-258 -88q-25 205 -205 205q-109 0 -191 -73t-123 -192t-41 -264q0 -140 65.5 -219.5t182.5 -79.5
q91 0 155.5 40.5t119.5 144.5zM631 1495q0 68 43 107.5t108 39.5q70 0 114 -39t44 -108q0 -66 -44.5 -105.5t-113.5 -39.5q-65 0 -108 39.5t-43 105.5z" />
    <glyph glyph-name="cdotaccent" unicode="&#x10b;" horiz-adv-x="964" 
d="M664 324l237 -39q-94 -310 -430 -310q-184 0 -292.5 106t-108.5 296q0 93 20 179t62 161.5t102 131t146 88t188 32.5q175 0 261.5 -92.5t86.5 -243.5l-242 -41q3 76 -28.5 128t-102.5 52t-125.5 -54.5t-82 -140t-27.5 -184.5q0 -115 43 -172t121 -57q130 0 172 160z
M469 1233q0 67 44 107t108 40q69 0 113 -39.5t44 -107.5q0 -66 -44 -106t-113 -40q-64 0 -108 40t-44 106z" />
    <glyph glyph-name="Ccaron" unicode="&#x10c;" horiz-adv-x="1183" 
d="M885 371l211 -113q-75 -144 -198 -213.5t-302 -69.5q-235 0 -362.5 133t-127.5 365q0 140 32.5 261.5t90.5 211.5t136.5 155t172.5 97.5t197 32.5q196 0 306 -88t139 -246l-258 -88q-25 205 -205 205q-109 0 -191 -73t-123 -192t-41 -264q0 -140 65.5 -219.5t182.5 -79.5
q91 0 155.5 40.5t119.5 144.5zM827 1329h-153l-217 287h229l51 -66q13 -17 21 -33t10 -23l2 -7h6q12 24 55 63l76 66h240z" />
    <glyph glyph-name="ccaron" unicode="&#x10d;" horiz-adv-x="964" 
d="M664 324l237 -39q-94 -310 -430 -310q-184 0 -292.5 106t-108.5 296q0 93 20 179t62 161.5t102 131t146 88t188 32.5q175 0 261.5 -92.5t86.5 -243.5l-242 -41q3 76 -28.5 128t-102.5 52t-125.5 -54.5t-82 -140t-27.5 -184.5q0 -115 43 -172t121 -57q130 0 172 160z
M670 1075h-152l-215 318h227l54 -76q14 -19 21 -36.5t7 -25.5v-8h11q8 27 55 70l80 76h235z" />
    <glyph glyph-name="Dcaron" unicode="&#x10e;" horiz-adv-x="1261" 
d="M358 209h144q187 0 303.5 128.5t116.5 375.5q0 284 -304 284h-120zM481 0h-411l211 1206h381q261 0 392.5 -119t131.5 -352q0 -156 -38 -281.5t-103.5 -209t-156.5 -139.5t-192 -80.5t-215 -24.5zM764 1329h-156l-217 287h232l51 -66q13 -17 20.5 -33t9.5 -23l1 -7h8
q10 24 53 63l76 66h241z" />
    <glyph glyph-name="dcaron" unicode="&#x10f;" horiz-adv-x="1134" 
d="M1491 1405l-113 -363h-176l31 363h258zM696 393l29 160q16 95 -17.5 161t-121.5 66q-79 0 -140 -56t-91.5 -146.5t-30.5 -198.5q0 -96 39.5 -155.5t115.5 -59.5q86 0 141.5 59t75.5 170zM1114 1368l-190 -1094q-7 -41 3.5 -64.5t51.5 -23.5q15 0 61 11l-36 -185
q-68 -22 -138 -22q-98 0 -147 41t-53 129q-32 -95 -108 -140t-173 -45q-149 0 -232 102.5t-83 284.5q0 164 53.5 300.5t160 221.5t246.5 85q100 0 163 -44.5t73 -136.5l100 580h248z" />
    <glyph glyph-name="Dcroat" unicode="&#x110;" horiz-adv-x="1261" 
d="M481 0h-411l88 506h-135l36 203h134l88 497h381q261 0 392.5 -119t131.5 -352q0 -156 -38 -281.5t-103.5 -209t-156.5 -139.5t-192 -80.5t-215 -24.5zM358 209h144q187 0 303.5 128.5t116.5 375.5q0 284 -304 284h-120l-54 -288h236l-37 -203h-233z" />
    <glyph glyph-name="dcroat" unicode="&#x111;" horiz-adv-x="1134" 
d="M1114 1368l-27 -143h154l-29 -156h-151l-137 -795q-7 -41 3.5 -64.5t51.5 -23.5q15 0 61 11l-36 -185q-68 -22 -138 -22q-98 0 -147 41t-53 129q-32 -95 -108 -140t-173 -45q-149 0 -232 102.5t-83 284.5q0 164 53.5 300.5t160 221.5t246.5 85q100 0 163 -44.5t73 -136.5
l49 281h-280l28 156h279l24 143h248zM696 393l29 160q16 95 -17.5 161t-121.5 66q-79 0 -140 -56t-91.5 -146.5t-30.5 -198.5q0 -96 39.5 -155.5t115.5 -59.5q86 0 141.5 59t75.5 170z" />
    <glyph glyph-name="Emacron" unicode="&#x112;" horiz-adv-x="1042" 
d="M893 215l-37 -215h-786l211 1206h786l-37 -215h-534l-50 -278h472l-37 -209h-471l-52 -289h535zM977 1366h-592l35 197h592z" />
    <glyph glyph-name="emacron" unicode="&#x113;" horiz-adv-x="993" 
d="M492 164q73 0 114.5 32t61.5 103l229 -55q-44 -143 -146.5 -206t-279.5 -63q-189 0 -295 110t-106 298q0 138 42 251t112 185t159 111t186 39q94 0 167.5 -28.5t118 -77t67 -108.5t22.5 -128q0 -112 -41 -199h-579q-16 -111 28 -187.5t140 -76.5zM350 573h340q6 24 6 56
q0 70 -33.5 113.5t-105.5 43.5q-78 0 -130.5 -60t-76.5 -153zM877 1116h-582l37 199h579z" />
    <glyph glyph-name="Ebreve" unicode="&#x114;" horiz-adv-x="1042" 
d="M893 215l-37 -215h-786l211 1206h786l-37 -215h-534l-50 -278h472l-37 -209h-471l-52 -289h535zM666 1321q-148 0 -208 77.5t-36 215.5h184q-8 -62 12 -91.5t80 -29.5q61 0 92 30t44 91h184q-26 -138 -114.5 -215.5t-237.5 -77.5z" />
    <glyph glyph-name="ebreve" unicode="&#x115;" horiz-adv-x="993" 
d="M492 164q73 0 114.5 32t61.5 103l229 -55q-44 -143 -146.5 -206t-279.5 -63q-189 0 -295 110t-106 298q0 138 42 251t112 185t159 111t186 39q94 0 167.5 -28.5t118 -77t67 -108.5t22.5 -128q0 -112 -41 -199h-579q-16 -111 28 -187.5t140 -76.5zM350 573h340q6 24 6 56
q0 70 -33.5 113.5t-105.5 43.5q-78 0 -130.5 -60t-76.5 -153zM571 1069q-146 0 -206.5 86.5t-34.5 226.5h184q-10 -69 7 -102t81 -33t94 33.5t45 101.5h185q-26 -141 -117 -227t-238 -86z" />
    <glyph glyph-name="Edotaccent" unicode="&#x116;" horiz-adv-x="1042" 
d="M893 215l-37 -215h-786l211 1206h786l-37 -215h-534l-50 -278h472l-37 -209h-471l-52 -289h535zM543 1495q0 68 43 107.5t108 39.5q70 0 114 -39t44 -108q0 -66 -44.5 -105.5t-113.5 -39.5q-65 0 -108 39.5t-43 105.5z" />
    <glyph glyph-name="edotaccent" unicode="&#x117;" horiz-adv-x="993" 
d="M492 164q73 0 114.5 32t61.5 103l229 -55q-44 -143 -146.5 -206t-279.5 -63q-189 0 -295 110t-106 298q0 138 42 251t112 185t159 111t186 39q94 0 167.5 -28.5t118 -77t67 -108.5t22.5 -128q0 -112 -41 -199h-579q-16 -111 28 -187.5t140 -76.5zM350 573h340q6 24 6 56
q0 70 -33.5 113.5t-105.5 43.5q-78 0 -130.5 -60t-76.5 -153zM446 1233q0 67 44 107t108 40q69 0 113.5 -39.5t44.5 -107.5q0 -66 -44.5 -106t-113.5 -40q-64 0 -108 40t-44 106z" />
    <glyph glyph-name="Eogonek" unicode="&#x118;" horiz-adv-x="1042" 
d="M367 -227q0 70 38 131t99 96h-434l211 1206h786l-37 -215h-534l-50 -278h472l-37 -209h-471l-52 -289h535l-37 -215h-57q-102 0 -167 -53t-65 -133q0 -40 21.5 -63t58.5 -23q40 0 68 16t57 51l59 -123q-81 -104 -233 -104q-104 0 -167.5 52t-63.5 153z" />
    <glyph glyph-name="eogonek" unicode="&#x119;" horiz-adv-x="993" 
d="M305 -227q0 117 92 209q-156 20 -241.5 126.5t-85.5 274.5q0 138 42 251t112 185t159 111t186 39q94 0 167.5 -28.5t118 -77t67 -108.5t22.5 -128q0 -112 -41 -199h-579q-16 -111 28 -187.5t140 -76.5q73 0 114.5 32t61.5 103l229 -55q-33 -101 -97.5 -156t-172.5 -96
q-123 -48 -123 -172q0 -41 22.5 -66.5t59.5 -25.5q40 0 68 16t57 51l59 -123q-81 -104 -233 -104q-104 0 -168 52.5t-64 152.5zM350 573h340q6 24 6 56q0 70 -33.5 113.5t-105.5 43.5q-78 0 -130.5 -60t-76.5 -153z" />
    <glyph glyph-name="Ecaron" unicode="&#x11a;" horiz-adv-x="1042" 
d="M893 215l-37 -215h-786l211 1206h786l-37 -215h-534l-50 -278h472l-37 -209h-471l-52 -289h535zM739 1329h-155l-217 287h231l51 -66q13 -17 20.5 -33t8.5 -23l2 -7h8q10 24 53 63l76 66h242z" />
    <glyph glyph-name="ecaron" unicode="&#x11b;" horiz-adv-x="993" 
d="M492 164q73 0 114.5 32t61.5 103l229 -55q-44 -143 -146.5 -206t-279.5 -63q-189 0 -295 110t-106 298q0 138 42 251t112 185t159 111t186 39q94 0 167.5 -28.5t118 -77t67 -108.5t22.5 -128q0 -112 -41 -199h-579q-16 -111 28 -187.5t140 -76.5zM350 573h340q6 24 6 56
q0 70 -33.5 113.5t-105.5 43.5q-78 0 -130.5 -60t-76.5 -153zM647 1075h-151l-215 318h227l53 -76q14 -19 21 -36.5t8 -25.5v-8h10q8 27 55 70l80 76h236z" />
    <glyph glyph-name="Gcircumflex" unicode="&#x11c;" horiz-adv-x="1277" 
d="M678 637h508l-113 -637h-158l-20 150q-84 -175 -317 -175q-222 0 -347 133.5t-125 364.5q0 174 50 318.5t136.5 240t201 147.5t243.5 52q195 0 304.5 -88t138.5 -246l-258 -88q-23 205 -205 205q-108 0 -190 -72.5t-123.5 -191t-41.5 -261.5q0 -146 69.5 -228.5
t201.5 -82.5q106 0 176 53.5t88 157.5l8 45h-262zM729 1616h154l217 -287h-230l-51 66q-14 16 -22 32t-9 23l-2 8h-8q-10 -26 -53 -63l-76 -66h-241z" />
    <glyph glyph-name="gcircumflex" unicode="&#x11d;" horiz-adv-x="1077" 
d="M698 403l27 150q17 95 -16.5 162t-122.5 67q-120 0 -189 -112t-69 -279q0 -96 38.5 -155.5t114.5 -59.5q175 0 217 227zM1040 946l-168 -956q-38 -217 -164 -319.5t-356 -102.5q-343 0 -415 237l192 121q14 -76 77 -124t152 -48q120 0 183 66t88 192l30 154
q-67 -178 -270 -178q-149 0 -233 103t-84 284q0 164 53.5 297.5t159.5 215t245 81.5q100 0 163 -44.5t73 -136.5l55 158h219zM586 1393h151l215 -318h-225l-53 76q-14 20 -21.5 38t-8.5 26l-1 8h-10q-8 -27 -55 -72l-80 -76h-236z" />
    <glyph glyph-name="Gbreve" unicode="&#x11e;" horiz-adv-x="1277" 
d="M678 637h508l-113 -637h-158l-20 150q-84 -175 -317 -175q-222 0 -347 133.5t-125 364.5q0 174 50 318.5t136.5 240t201 147.5t243.5 52q195 0 304.5 -88t138.5 -246l-258 -88q-23 205 -205 205q-108 0 -190 -72.5t-123.5 -191t-41.5 -261.5q0 -146 69.5 -228.5
t201.5 -82.5q106 0 176 53.5t88 157.5l8 45h-262zM768 1321q-148 0 -209 77.5t-35 215.5h185q-9 -61 11 -91t81 -30q60 0 90 29.5t43 91.5h184q-26 -138 -114 -215.5t-236 -77.5z" />
    <glyph glyph-name="gbreve" unicode="&#x11f;" horiz-adv-x="1077" 
d="M698 403l27 150q17 95 -16.5 162t-122.5 67q-120 0 -189 -112t-69 -279q0 -96 38.5 -155.5t114.5 -59.5q175 0 217 227zM1040 946l-168 -956q-38 -217 -164 -319.5t-356 -102.5q-343 0 -415 237l192 121q14 -76 77 -124t152 -48q120 0 183 66t88 192l30 154
q-67 -178 -270 -178q-149 0 -233 103t-84 284q0 164 53.5 297.5t159.5 215t245 81.5q100 0 163 -44.5t73 -136.5l55 158h219zM610 1069q-146 0 -206.5 86.5t-34.5 226.5h182q-8 -69 9 -102t81 -33t94 33.5t45 101.5h183q-24 -140 -115.5 -226.5t-237.5 -86.5z" />
    <glyph glyph-name="Gdotaccent" unicode="&#x120;" horiz-adv-x="1277" 
d="M678 637h508l-113 -637h-158l-20 150q-84 -175 -317 -175q-222 0 -347 133.5t-125 364.5q0 174 50 318.5t136.5 240t201 147.5t243.5 52q195 0 304.5 -88t138.5 -246l-258 -88q-23 205 -205 205q-108 0 -190 -72.5t-123.5 -191t-41.5 -261.5q0 -146 69.5 -228.5
t201.5 -82.5q106 0 176 53.5t88 157.5l8 45h-262zM645 1495q0 68 43.5 107.5t108.5 39.5q68 0 111.5 -39t43.5 -108q0 -66 -44 -105.5t-111 -39.5q-65 0 -108.5 39.5t-43.5 105.5z" />
    <glyph glyph-name="gdotaccent" unicode="&#x121;" horiz-adv-x="1077" 
d="M698 403l27 150q17 95 -16.5 162t-122.5 67q-120 0 -189 -112t-69 -279q0 -96 38.5 -155.5t114.5 -59.5q175 0 217 227zM1040 946l-168 -956q-38 -217 -164 -319.5t-356 -102.5q-343 0 -415 237l192 121q14 -76 77 -124t152 -48q120 0 183 66t88 192l30 154
q-67 -178 -270 -178q-149 0 -233 103t-84 284q0 164 53.5 297.5t159.5 215t245 81.5q100 0 163 -44.5t73 -136.5l55 158h219zM485 1233q0 67 44 107t108 40q69 0 113.5 -39.5t44.5 -107.5q0 -66 -44.5 -106t-113.5 -40q-64 0 -108 40t-44 106z" />
    <glyph glyph-name="Gcommaaccent" unicode="&#x122;" horiz-adv-x="1277" 
d="M678 637h508l-113 -637h-158l-20 150q-84 -175 -317 -175q-222 0 -347 133.5t-125 364.5q0 174 50 318.5t136.5 240t201 147.5t243.5 52q195 0 304.5 -88t138.5 -246l-258 -88q-23 205 -205 205q-108 0 -190 -72.5t-123.5 -191t-41.5 -261.5q0 -146 69.5 -228.5
t201.5 -82.5q106 0 176 53.5t88 157.5l8 45h-262zM649 -281q0 -117 -84 -177t-221 -60v88q158 4 158 80q-59 -9 -97 19.5t-38 88.5t37 92.5t96 32.5q68 0 108.5 -43t40.5 -121z" />
    <glyph glyph-name="gcommaaccent" unicode="&#x123;" horiz-adv-x="1077" 
d="M698 403l27 150q17 95 -16.5 162t-122.5 67q-120 0 -189 -112t-69 -279q0 -96 38.5 -155.5t114.5 -59.5q175 0 217 227zM1040 946l-168 -956q-38 -217 -164 -319.5t-356 -102.5q-343 0 -415 237l192 121q14 -76 77 -124t152 -48q120 0 183 66t88 192l30 154
q-67 -178 -270 -178q-149 0 -233 103t-84 284q0 164 53.5 297.5t159.5 215t245 81.5q100 0 163 -44.5t73 -136.5l55 158h219zM508 1241q0 117 84 177.5t221 60.5v-88q-158 -4 -158 -82q59 11 97.5 -18t38.5 -89q0 -61 -37 -93t-97 -32q-68 0 -108.5 43t-40.5 121z" />
    <glyph glyph-name="Hcircumflex" unicode="&#x124;" horiz-adv-x="1306" 
d="M322 0h-252l211 1206h251l-83 -485h495l86 485h252l-211 -1206h-252l88 504h-497zM758 1616h153l219 -287h-231l-51 66q-13 16 -20.5 32t-9.5 23l-1 8h-8q-10 -26 -55 -63l-74 -66h-242z" />
    <glyph glyph-name="hcircumflex" unicode="&#x125;" horiz-adv-x="1120" 
d="M987 649l-63 -375q-7 -41 3.5 -64.5t51.5 -23.5q15 0 61 11l-36 -185q-68 -22 -138 -22q-241 0 -196 248l63 360q28 168 -110 168q-72 0 -132.5 -63.5t-84.5 -194.5l-89 -508h-247l239 1368h250l-108 -614q47 108 118.5 161.5t182.5 53.5t176 -63t65 -171q0 -53 -6 -86z
M420 1714h155l218 -287h-232l-51 66q-13 16 -20.5 32t-9.5 23l-1 8h-8q-10 -26 -53 -63l-76 -66h-242z" />
    <glyph glyph-name="Hbar" unicode="&#x126;" horiz-adv-x="1353" 
d="M338 0h-252l147 848h-167l34 194h166l31 164h252l-29 -164h498l29 164h251l-30 -164h184l-37 -194h-180l-148 -848h-251l86 492h-498zM461 694h495l27 154h-498z" />
    <glyph glyph-name="hbar" unicode="&#x127;" horiz-adv-x="1120" 
d="M102 1069l29 156h152l26 143h250l-27 -143h277l-29 -156h-274l-55 -315q47 108 118.5 161.5t182.5 53.5t176 -63t65 -171q0 -53 -6 -86l-63 -375q-7 -41 3.5 -64.5t51.5 -23.5q15 0 61 11l-36 -185q-68 -22 -138 -22q-241 0 -196 248l63 360q28 168 -110 168
q-72 0 -132.5 -63.5t-84.5 -194.5l-89 -508h-247l186 1069h-154z" />
    <glyph glyph-name="Itilde" unicode="&#x128;" horiz-adv-x="557" 
d="M281 1206h251l-210 -1206h-252zM565 1331q-38 0 -67.5 8t-43.5 16t-46 29l-22.5 15t-21 13.5t-16.5 9.5t-18 8.5t-15 3.5t-18 2q-32 0 -54.5 -27.5t-25.5 -77.5h-139q-27 126 38 211.5t175 85.5q50 0 80.5 -12t66.5 -37q5 -3 15.5 -10.5t14 -9.5t12 -8t12 -7.5t10.5 -5.5
t10.5 -5.5t9.5 -3.5t10.5 -3t9.5 -1.5t11 -0.5q66 0 72 100h145q29 -129 -29.5 -211t-175.5 -82z" />
    <glyph glyph-name="itilde" unicode="&#x129;" horiz-adv-x="559" 
d="M514 1073q-37 0 -67 8t-43 15.5t-46 27.5q-6 4 -20 13t-18.5 12t-15 9t-15 8t-12.5 5t-15 4t-14 1q-33 0 -56 -27.5t-24 -77.5h-139q-28 127 37 213t176 86q34 0 62.5 -8.5t42.5 -16t42 -26.5q6 -4 18.5 -12t17.5 -11t14.5 -9t14 -8t12 -5.5t13 -4.5t12 -2t13.5 -1
q66 0 71 100h146q29 -129 -30 -211t-177 -82zM465 946l-119 -672q-7 -41 3.5 -64.5t51.5 -23.5q16 0 62 11l-37 -185q-68 -22 -137 -22q-242 0 -197 248l125 708h248z" />
    <glyph glyph-name="Imacron" unicode="&#x12a;" horiz-adv-x="557" 
d="M281 1206h251l-210 -1206h-252zM731 1366h-590l33 197h592z" />
    <glyph glyph-name="imacron" unicode="&#x12b;" horiz-adv-x="559" 
d="M657 1116h-581l37 199h579zM465 946l-119 -672q-7 -41 3.5 -64.5t51.5 -23.5q16 0 62 11l-37 -185q-68 -22 -137 -22q-242 0 -197 248l125 708h248z" />
    <glyph glyph-name="Ibreve" unicode="&#x12c;" horiz-adv-x="557" 
d="M281 1206h251l-210 -1206h-252zM422 1321q-148 0 -209 77.5t-35 215.5h184q-8 -62 12.5 -91.5t80.5 -29.5t90.5 29.5t44.5 91.5h182q-24 -137 -113 -215t-237 -78z" />
    <glyph glyph-name="ibreve" unicode="&#x12d;" horiz-adv-x="559" 
d="M352 1069q-147 0 -207.5 86t-35.5 227h184q-10 -69 7 -102t83 -33q64 0 93 33t44 102h185q-24 -140 -115.5 -226.5t-237.5 -86.5zM465 946l-119 -672q-7 -41 3.5 -64.5t51.5 -23.5q16 0 62 11l-37 -185q-68 -22 -137 -22q-242 0 -197 248l125 708h248z" />
    <glyph glyph-name="Iogonek" unicode="&#x12e;" horiz-adv-x="557" 
d="M-127 -227q0 97 59.5 171t147.5 115l201 1147h251l-210 -1206q-109 0 -178.5 -51.5t-69.5 -134.5q0 -40 21.5 -63t58.5 -23q40 0 68 16t57 51l59 -123q-81 -104 -234 -104q-105 0 -168 52t-63 153z" />
    <glyph glyph-name="iogonek" unicode="&#x12f;" horiz-adv-x="559" 
d="M-25 -223q0 84 43.5 152t114.5 106q-68 65 -41 203l125 708h248l-119 -672q-7 -41 3.5 -64.5t51.5 -23.5q16 0 62 11l-37 -185q-252 -36 -252 -198q0 -39 22.5 -62.5t59.5 -23.5q40 0 68 16t57 51l59 -123q-84 -104 -233 -104q-106 0 -169 53t-63 156zM229 1239
q0 68 44 107.5t108 39.5q70 0 114 -39t44 -108q0 -66 -44.5 -104.5t-113.5 -38.5q-64 0 -108 39t-44 104z" />
    <glyph glyph-name="Idotaccent" unicode="&#x130;" horiz-adv-x="557" 
d="M281 1206h251l-210 -1206h-252zM299 1495q0 68 43.5 107.5t108.5 39.5q68 0 111.5 -39t43.5 -108q0 -66 -44 -105.5t-111 -39.5q-65 0 -108.5 39.5t-43.5 105.5z" />
    <glyph glyph-name="dotlessi" unicode="&#x131;" horiz-adv-x="559" 
d="M465 946l-119 -672q-7 -41 3.5 -64.5t51.5 -23.5q16 0 62 11l-37 -185q-68 -22 -137 -22q-242 0 -197 248l125 708h248z" />
    <glyph glyph-name="IJ" unicode="&#x132;" horiz-adv-x="1495" 
d="M281 1206h251l-210 -1206h-252zM1229 1206h252l-154 -868q-34 -197 -139 -280t-293 -83q-296 0 -371 250l203 135q41 -180 180 -180q83 0 117.5 41.5t54.5 147.5z" />
    <glyph glyph-name="ij" unicode="&#x133;" horiz-adv-x="1056" 
d="M465 946l-119 -672q-7 -41 3.5 -64.5t51.5 -23.5q16 0 62 11l-37 -185q-68 -22 -137 -22q-242 0 -197 248l125 708h248zM229 1239q0 68 44 107.5t108 39.5q70 0 114 -39t44 -108q0 -66 -44.5 -104.5t-113.5 -38.5q-64 0 -108 39t-44 104zM1024 946l-190 -1075
q-28 -166 -116 -234.5t-241 -68.5q-133 0 -223 55l70 184q66 -53 137 -53q54 0 85.5 33t45.5 119l184 1040h248zM788 1239q0 68 44 107.5t108 39.5q70 0 114 -39t44 -108q0 -66 -44.5 -104.5t-113.5 -38.5q-64 0 -108 39t-44 104z" />
    <glyph glyph-name="Jcircumflex" unicode="&#x134;" horiz-adv-x="927" 
d="M662 1206h251l-151 -868q-34 -197 -139.5 -280t-294.5 -83q-296 0 -371 250l203 135q22 -91 65.5 -135.5t114.5 -44.5q83 0 118.5 41.5t53.5 147.5zM762 1616h156l217 -287h-232l-51 66q-13 16 -20.5 32t-9.5 23l-1 8h-8q-10 -26 -53 -63l-76 -66h-242z" />
    <glyph glyph-name="jcircumflex" unicode="&#x135;" horiz-adv-x="497" 
d="M465 946l-191 -1075q-28 -166 -115.5 -234.5t-240.5 -68.5q-133 0 -223 55l69 184q66 -53 138 -53q54 0 85.5 33t45.5 119l184 1040h248zM330 1393h151l215 -318h-225l-53 76q-14 20 -21.5 38t-8.5 26l-1 8h-10q-8 -27 -55 -72l-80 -76h-236z" />
    <glyph glyph-name="Kcommaaccent" unicode="&#x136;" horiz-adv-x="1142" 
d="M1042 0h-286l-254 504h-92l-88 -504h-252l211 1206h251l-83 -487h75l394 487h294l-491 -594zM580 -281q0 -117 -84.5 -177t-221.5 -60v88q158 4 158 80q-58 -9 -96.5 19.5t-38.5 88.5q0 59 37.5 92t95.5 33q68 0 109 -43t41 -121z" />
    <glyph glyph-name="kcommaaccent" unicode="&#x137;" horiz-adv-x="1030" 
d="M592 123l-139 299h-62l-74 -422h-247l239 1368h250l-135 -760h47l309 338h299l-411 -430l131 -262q27 -53 66 -63.5t102 10.5l-37 -191q-68 -20 -137 -20t-118.5 29.5t-82.5 103.5zM565 -281q0 -117 -84 -177t-221 -60v88q158 4 158 80q-59 -9 -97 19.5t-38 88.5t37 92.5
t96 32.5q66 0 107.5 -43t41.5 -121z" />
    <glyph glyph-name="kgreenlandic" unicode="&#x138;" horiz-adv-x="1030" 
d="M592 123l-139 299h-62l-74 -422h-247l166 946h249l-61 -338h47l309 338h299l-411 -430l131 -262q27 -53 66 -63.5t102 10.5l-37 -191q-68 -20 -137 -20t-118.5 29.5t-82.5 103.5z" />
    <glyph glyph-name="Lacute" unicode="&#x139;" horiz-adv-x="954" 
d="M281 1206h251l-174 -991h490l-35 -215h-743zM535 1329h-224l131 279h312z" />
    <glyph glyph-name="lacute" unicode="&#x13a;" horiz-adv-x="559" 
d="M539 1368l-193 -1094q-7 -41 3.5 -64.5t51.5 -23.5q16 0 62 11l-37 -185q-68 -22 -137 -22q-242 0 -197 248l199 1130h248zM532 1425h-223l131 279h312z" />
    <glyph glyph-name="Lcommaaccent" unicode="&#x13b;" horiz-adv-x="954" 
d="M281 1206h251l-174 -991h490l-35 -215h-743zM553 -281q0 -117 -84 -177t-221 -60v88q158 4 158 80q-59 -9 -97.5 19.5t-38.5 88.5t37 92.5t96 32.5q68 0 109 -43t41 -121z" />
    <glyph glyph-name="lcommaaccent" unicode="&#x13c;" horiz-adv-x="559" 
d="M539 1368l-193 -1094q-7 -41 3.5 -64.5t51.5 -23.5q16 0 62 11l-37 -185q-68 -22 -137 -22q-242 0 -197 248l199 1130h248zM342 -281q0 -117 -83.5 -177t-221.5 -60v88q160 4 160 80q-59 -9 -97.5 19.5t-38.5 88.5t37.5 92.5t96.5 32.5q66 0 106.5 -43t40.5 -121z" />
    <glyph glyph-name="Lcaron" unicode="&#x13d;" horiz-adv-x="954" 
d="M281 1206h251l-174 -991h490l-35 -215h-743zM948 1368l-114 -387h-177l33 387h258z" />
    <glyph glyph-name="lcaron" unicode="&#x13e;" horiz-adv-x="559" 
d="M915 1405l-114 -363h-174l30 363h258zM539 1368l-193 -1094q-7 -41 3.5 -64.5t51.5 -23.5q16 0 62 11l-37 -185q-68 -22 -137 -22q-242 0 -197 248l199 1130h248z" />
    <glyph glyph-name="Ldot" unicode="&#x13f;" horiz-adv-x="954" 
d="M281 1206h251l-174 -991h490l-35 -215h-743zM639 635q0 70 47 118t115 48q71 0 118.5 -47.5t47.5 -118.5q0 -68 -48 -115t-118 -47q-67 0 -114.5 47.5t-47.5 114.5z" />
    <glyph glyph-name="ldot" unicode="&#x140;" horiz-adv-x="798" 
d="M539 1368l-193 -1094q-7 -41 3.5 -64.5t51.5 -23.5q16 0 62 11l-37 -185q-68 -22 -137 -22q-242 0 -197 248l199 1130h248zM524 662q0 70 47 117.5t115 47.5q71 0 118.5 -47.5t47.5 -117.5q0 -68 -48 -115t-118 -47q-68 0 -115 47t-47 115z" />
    <glyph glyph-name="Lslash" unicode="&#x141;" horiz-adv-x="970" 
d="M295 1206h254l-82 -456l285 96l-31 -178l-285 -95l-63 -358h491l-37 -215h-743l86 485l-141 -47l30 174l142 47z" />
    <glyph glyph-name="lslash" unicode="&#x142;" horiz-adv-x="579" 
d="M547 1368l-86 -485l172 78l-33 -185l-172 -80l-74 -422q-15 -88 56 -88q15 0 61 11l-39 -185q-64 -22 -135 -22q-241 0 -199 248l60 335l-140 -63l33 184l139 64l109 610h248z" />
    <glyph glyph-name="Nacute" unicode="&#x143;" horiz-adv-x="1312" 
d="M520 1206l291 -606q24 -50 44.5 -104.5t28.5 -83.5l9 -29h8q10 122 37 276l96 547h254l-211 -1206h-231l-299 596q-25 53 -47.5 109.5t-32.5 86.5l-10 31h-8q-4 -116 -35 -284l-92 -539h-252l211 1206h239zM883 1329h-224l129 279h312z" />
    <glyph glyph-name="nacute" unicode="&#x144;" horiz-adv-x="1120" 
d="M987 649l-63 -375q-7 -41 3.5 -64.5t51.5 -23.5q15 0 61 11l-36 -185q-68 -22 -138 -22q-241 0 -196 248l63 360q28 168 -110 168q-72 0 -132.5 -63.5t-84.5 -194.5l-89 -508h-247l166 946h217l-4 -192q49 108 121 161.5t182 53.5q111 0 176 -63t65 -171q0 -53 -6 -86z
M743 1079h-221l148 310h311z" />
    <glyph glyph-name="Ncommaaccent" unicode="&#x145;" horiz-adv-x="1312" 
d="M520 1206l291 -606q24 -50 44.5 -104.5t28.5 -83.5l9 -29h8q10 122 37 276l96 547h254l-211 -1206h-231l-299 596q-25 53 -47.5 109.5t-32.5 86.5l-10 31h-8q-4 -116 -35 -284l-92 -539h-252l211 1206h239zM659 -281q0 -117 -84 -177t-221 -60v88q158 4 158 80
q-59 -9 -97 19.5t-38 88.5t37 92.5t96 32.5q66 0 107.5 -43t41.5 -121z" />
    <glyph glyph-name="ncommaaccent" unicode="&#x146;" horiz-adv-x="1120" 
d="M987 649l-63 -375q-7 -41 3.5 -64.5t51.5 -23.5q15 0 61 11l-36 -185q-68 -22 -138 -22q-241 0 -196 248l63 360q28 168 -110 168q-72 0 -132.5 -63.5t-84.5 -194.5l-89 -508h-247l166 946h217l-4 -192q49 108 121 161.5t182 53.5q111 0 176 -63t65 -171q0 -53 -6 -86z
M563 -281q0 -117 -83.5 -177t-221.5 -60v88q160 4 160 80q-59 -9 -97 19.5t-38 88.5t37 92.5t96 32.5q66 0 106.5 -43t40.5 -121z" />
    <glyph glyph-name="Ncaron" unicode="&#x147;" horiz-adv-x="1312" 
d="M520 1206l291 -606q24 -50 44.5 -104.5t28.5 -83.5l9 -29h8q10 122 37 276l96 547h254l-211 -1206h-231l-299 596q-25 53 -47.5 109.5t-32.5 86.5l-10 31h-8q-4 -116 -35 -284l-92 -539h-252l211 1206h239zM850 1329h-154l-217 287h230l51 -66q14 -17 22 -33t10 -23l1 -7
h8q10 24 53 63l76 66h241z" />
    <glyph glyph-name="ncaron" unicode="&#x148;" horiz-adv-x="1120" 
d="M987 649l-63 -375q-7 -41 3.5 -64.5t51.5 -23.5q15 0 61 11l-36 -185q-68 -22 -138 -22q-241 0 -196 248l63 360q28 168 -110 168q-72 0 -132.5 -63.5t-84.5 -194.5l-89 -508h-247l166 946h217l-4 -192q49 108 121 161.5t182 53.5q111 0 176 -63t65 -171q0 -53 -6 -86z
M713 1075h-152l-215 318h227l54 -76q14 -19 21 -36.5t7 -25.5v-8h11q8 27 55 70l80 76h235z" />
    <glyph glyph-name="Eng" unicode="&#x14a;" horiz-adv-x="1312" 
d="M1288 1206l-225 -1276q-34 -196 -140.5 -279t-295.5 -83q-246 0 -355 166l170 186q25 -66 78.5 -105.5t116.5 -39.5q89 0 125.5 45t56.5 157l8 56l-280 563q-25 53 -47.5 109.5t-32.5 86.5l-10 31h-8q-4 -116 -35 -284l-92 -539h-252l211 1206h239l291 -606
q24 -50 44.5 -104.5t28.5 -83.5l9 -29h8q10 122 37 276l96 547h254z" />
    <glyph glyph-name="eng" unicode="&#x14b;" horiz-adv-x="1073" 
d="M987 649l-135 -778q-28 -166 -116 -234.5t-242 -68.5q-135 0 -222 55l70 184q63 -53 137 -53q54 0 84 32.5t47 119.5l123 692q28 168 -110 168q-72 0 -132.5 -63.5t-84.5 -194.5l-89 -508h-247l166 946h217l-4 -192q49 108 121 161.5t182 53.5q111 0 176 -63t65 -171
q0 -53 -6 -86z" />
    <glyph glyph-name="Omacron" unicode="&#x14c;" horiz-adv-x="1296" 
d="M596 -25q-234 0 -362 134.5t-128 363.5q0 140 32.5 261.5t90.5 211.5t136.5 155t172.5 97.5t197 32.5q235 0 362.5 -135t127.5 -365q0 -174 -50.5 -318.5t-136.5 -239t-200 -146.5t-242 -52zM717 1014q-109 0 -191 -72.5t-123 -190t-41 -259.5q0 -145 65.5 -225.5
t182.5 -80.5q105 0 186.5 72.5t124 192.5t42.5 264q0 137 -63.5 218t-182.5 81zM1075 1366h-590l33 197h592z" />
    <glyph glyph-name="omacron" unicode="&#x14d;" horiz-adv-x="1062" 
d="M588 969q189 0 297 -109.5t108 -304.5q0 -93 -20.5 -178t-63 -158.5t-102.5 -127.5t-144.5 -85t-183.5 -31q-183 0 -296 105t-113 297q0 95 20.5 182t62.5 162t102.5 130t146 86.5t186.5 31.5zM565 772q-107 0 -172 -111t-65 -276q0 -107 44.5 -164t123.5 -57
q109 0 173 112t64 279q0 104 -44 160.5t-124 56.5zM899 1116h-580l35 199h582z" />
    <glyph glyph-name="Obreve" unicode="&#x14e;" horiz-adv-x="1296" 
d="M596 -25q-234 0 -362 134.5t-128 363.5q0 140 32.5 261.5t90.5 211.5t136.5 155t172.5 97.5t197 32.5q235 0 362.5 -135t127.5 -365q0 -174 -50.5 -318.5t-136.5 -239t-200 -146.5t-242 -52zM717 1014q-109 0 -191 -72.5t-123 -190t-41 -259.5q0 -145 65.5 -225.5
t182.5 -80.5q105 0 186.5 72.5t124 192.5t42.5 264q0 137 -63.5 218t-182.5 81zM766 1321q-148 0 -209 77.5t-35 215.5h185q-8 -62 12 -91.5t80 -29.5t90.5 29.5t44.5 91.5h182q-24 -137 -113 -215t-237 -78z" />
    <glyph glyph-name="obreve" unicode="&#x14f;" horiz-adv-x="1062" 
d="M588 969q189 0 297 -109.5t108 -304.5q0 -93 -20.5 -178t-63 -158.5t-102.5 -127.5t-144.5 -85t-183.5 -31q-183 0 -296 105t-113 297q0 95 20.5 182t62.5 162t102.5 130t146 86.5t186.5 31.5zM565 772q-107 0 -172 -111t-65 -276q0 -107 44.5 -164t123.5 -57
q109 0 173 112t64 279q0 104 -44 160.5t-124 56.5zM596 1069q-148 0 -208 86t-36 227h185q-10 -69 7 -102t83 -33q64 0 93 33t44 102h184q-24 -140 -115 -226.5t-237 -86.5z" />
    <glyph glyph-name="Ohungarumlaut" unicode="&#x150;" horiz-adv-x="1296" 
d="M596 -25q-234 0 -362 134.5t-128 363.5q0 140 32.5 261.5t90.5 211.5t136.5 155t172.5 97.5t197 32.5q235 0 362.5 -135t127.5 -365q0 -174 -50.5 -318.5t-136.5 -239t-200 -146.5t-242 -52zM717 1014q-109 0 -191 -72.5t-123 -190t-41 -259.5q0 -145 65.5 -225.5
t182.5 -80.5q105 0 186.5 72.5t124 192.5t42.5 264q0 137 -63.5 218t-182.5 81zM680 1329h-176l112 279h269zM1020 1329h-191l148 279h280z" />
    <glyph glyph-name="ohungarumlaut" unicode="&#x151;" horiz-adv-x="1062" 
d="M588 969q189 0 297 -109.5t108 -304.5q0 -93 -20.5 -178t-63 -158.5t-102.5 -127.5t-144.5 -85t-183.5 -31q-183 0 -296 105t-113 297q0 95 20.5 182t62.5 162t102.5 130t146 86.5t186.5 31.5zM565 772q-107 0 -172 -111t-65 -276q0 -107 44.5 -164t123.5 -57
q109 0 173 112t64 279q0 104 -44 160.5t-124 56.5zM518 1079h-176l113 310h268zM858 1079h-190l147 310h281z" />
    <glyph glyph-name="OE" unicode="&#x152;" horiz-adv-x="1757" 
d="M596 -25q-234 0 -362 134.5t-128 363.5q0 140 32.5 261.5t90.5 211.5t136.5 155t172.5 97.5t197 32.5q95 0 178 -25h869l-39 -215h-580q50 -80 56 -188q4 -29 4 -90h407l-37 -209h-395q-37 -173 -133 -289h541l-35 -215h-807q-83 -25 -168 -25zM717 1014
q-109 0 -191 -72.5t-123 -190t-41 -259.5q0 -145 65.5 -225.5t182.5 -80.5q105 0 186.5 72.5t124 192.5t42.5 264q0 137 -63.5 218t-182.5 81z" />
    <glyph glyph-name="oe" unicode="&#x153;" horiz-adv-x="1656" 
d="M1147 164q136 0 176 135l231 -55q-45 -141 -150 -205t-274 -64q-104 0 -190.5 44.5t-120.5 111.5q-130 -156 -340 -156q-183 0 -296 105t-113 297q0 95 20.5 182t62.5 162t102.5 130t146 86.5t186.5 31.5q102 0 182 -41.5t127 -114.5q58 73 146 114.5t182 41.5
t167.5 -28.5t117.5 -77t66.5 -108.5t22.5 -128q0 -115 -40 -199h-572q-15 -110 25.5 -187t134.5 -77zM565 772q-107 0 -172 -111t-65 -276q0 -107 44.5 -164t123.5 -57q109 0 173 112t64 279q0 104 -44 160.5t-124 56.5zM1008 573h338q8 21 8 56q0 70 -34.5 113.5
t-105.5 43.5q-75 0 -127 -59t-79 -154z" />
    <glyph glyph-name="Racute" unicode="&#x154;" horiz-adv-x="1171" 
d="M1044 0h-272q-35 35 -49 121l-31 190q-13 82 -47.5 108.5t-116.5 26.5h-129l-77 -446h-252l211 1206h444q197 0 288 -73.5t91 -233.5q0 -86 -28 -153.5t-75 -109t-102.5 -64t-116.5 -27.5v-8q81 -12 119 -51.5t53 -127.5l39 -229q14 -83 51 -129zM498 997l-62 -344h189
q101 0 160 49t59 156q0 69 -39 104t-125 35h-182zM788 1329h-223l129 279h312z" />
    <glyph glyph-name="racute" unicode="&#x155;" horiz-adv-x="768" 
d="M815 963l-59 -289q-52 21 -108.5 21t-107 -20t-88 -67.5t-49.5 -115.5l-86 -492h-247l166 946h217l-13 -241q51 134 155 209t220 49zM627 1079h-221l145 310h313z" />
    <glyph glyph-name="Rcommaaccent" unicode="&#x156;" horiz-adv-x="1171" 
d="M1044 0h-272q-35 35 -49 121l-31 190q-13 82 -47.5 108.5t-116.5 26.5h-129l-77 -446h-252l211 1206h444q197 0 288 -73.5t91 -233.5q0 -86 -28 -153.5t-75 -109t-102.5 -64t-116.5 -27.5v-8q81 -12 119 -51.5t53 -127.5l39 -229q14 -83 51 -129zM498 997l-62 -344h189
q101 0 160 49t59 156q0 69 -39 104t-125 35h-182zM631 -281q0 -117 -84 -177t-221 -60v88q157 4 157 80q-59 -9 -97 19.5t-38 88.5t37 92.5t96 32.5q67 0 108.5 -43.5t41.5 -120.5z" />
    <glyph glyph-name="rcommaaccent" unicode="&#x157;" horiz-adv-x="768" 
d="M815 963l-59 -289q-52 21 -108.5 21t-107 -20t-88 -67.5t-49.5 -115.5l-86 -492h-247l166 946h217l-13 -241q51 134 155 209t220 49zM307 -281q0 -117 -83.5 -177t-221.5 -60v88q160 4 160 80q-59 -9 -97 19.5t-38 88.5t37 92.5t96 32.5q66 0 106.5 -43t40.5 -121z" />
    <glyph glyph-name="Rcaron" unicode="&#x158;" horiz-adv-x="1171" 
d="M1044 0h-272q-35 35 -49 121l-31 190q-13 82 -47.5 108.5t-116.5 26.5h-129l-77 -446h-252l211 1206h444q197 0 288 -73.5t91 -233.5q0 -86 -28 -153.5t-75 -109t-102.5 -64t-116.5 -27.5v-8q81 -12 119 -51.5t53 -127.5l39 -229q14 -83 51 -129zM498 997l-62 -344h189
q101 0 160 49t59 156q0 69 -39 104t-125 35h-182zM756 1329h-154l-217 287h229l52 -66q14 -17 22 -33t9 -23l1 -7h9q10 24 53 63l76 66h241z" />
    <glyph glyph-name="rcaron" unicode="&#x159;" horiz-adv-x="768" 
d="M815 963l-59 -289q-52 21 -108.5 21t-107 -20t-88 -67.5t-49.5 -115.5l-86 -492h-247l166 946h217l-13 -241q51 134 155 209t220 49zM594 1075h-150l-215 318h226l53 -76q14 -19 21.5 -36.5t8.5 -25.5l1 -8h8q10 27 57 70l78 76h238z" />
    <glyph glyph-name="Sacute" unicode="&#x15a;" horiz-adv-x="1040" 
d="M29 287l227 78q0 -96 55 -149.5t152 -53.5q196 0 196 155q0 69 -40 109.5t-144 75.5q-157 52 -228 132.5t-71 217.5q0 101 39.5 177.5t105.5 119t140 62.5t155 20q191 0 292.5 -79t107.5 -249l-242 -47q3 86 -44.5 130t-133.5 44q-83 0 -130.5 -38.5t-47.5 -110.5
q0 -62 40 -94t150 -72q162 -57 232.5 -138t70.5 -225q0 -101 -38 -176t-105 -117.5t-149 -63t-181 -20.5q-185 0 -292 76.5t-117 235.5zM750 1329h-224l129 279h312z" />
    <glyph glyph-name="sacute" unicode="&#x15b;" horiz-adv-x="876" 
d="M16 244l207 69q3 -84 48 -127t118 -43q135 0 135 103q0 52 -31 82t-116 57q-124 37 -183 105t-59 176q0 150 104.5 226.5t270.5 76.5t251 -67t85 -193l-211 -45q0 65 -36.5 101t-104.5 36q-57 0 -91 -27.5t-34 -73.5q0 -43 31 -69t130 -62q132 -46 185 -113t53 -186
q0 -149 -105.5 -222t-283.5 -73q-161 0 -257 68t-106 201zM641 1079h-219l145 310h314z" />
    <glyph glyph-name="Scircumflex" unicode="&#x15c;" horiz-adv-x="1040" 
d="M29 287l227 78q0 -96 55 -149.5t152 -53.5q196 0 196 155q0 69 -40 109.5t-144 75.5q-157 52 -228 132.5t-71 217.5q0 101 39.5 177.5t105.5 119t140 62.5t155 20q191 0 292.5 -79t107.5 -249l-242 -47q3 86 -44.5 130t-133.5 44q-83 0 -130.5 -38.5t-47.5 -110.5
q0 -62 40 -94t150 -72q162 -57 232.5 -138t70.5 -225q0 -101 -38 -176t-105 -117.5t-149 -63t-181 -20.5q-185 0 -292 76.5t-117 235.5zM604 1616h156l217 -287h-232l-49 66q-14 16 -22 32t-9 23l-1 8h-9q-10 -26 -53 -63l-76 -66h-241z" />
    <glyph glyph-name="scircumflex" unicode="&#x15d;" horiz-adv-x="876" 
d="M16 244l207 69q3 -84 48 -127t118 -43q135 0 135 103q0 52 -31 82t-116 57q-124 37 -183 105t-59 176q0 150 104.5 226.5t270.5 76.5t251 -67t85 -193l-211 -45q0 65 -36.5 101t-104.5 36q-57 0 -91 -27.5t-34 -73.5q0 -43 31 -69t130 -62q132 -46 185 -113t53 -186
q0 -149 -105.5 -222t-283.5 -73q-161 0 -257 68t-106 201zM512 1393h152l215 -318h-226l-53 76q-14 20 -21.5 38t-8.5 26l-1 8h-10q-8 -27 -55 -72l-80 -76h-236z" />
    <glyph glyph-name="Scedilla" unicode="&#x15e;" horiz-adv-x="1040" 
d="M586 -246q0 -90 -65.5 -138t-166.5 -48q-68 0 -122 20.5t-82 55.5l49 120q59 -71 129 -71q71 0 71 59q0 71 -108 82l57 148q-145 15 -227.5 90.5t-91.5 214.5l227 78q0 -96 55 -149.5t152 -53.5q196 0 196 155q0 69 -40 109.5t-144 75.5q-157 52 -228 132.5t-71 217.5
q0 101 39.5 177.5t105.5 119t140 62.5t155 20q191 0 292.5 -79t107.5 -249l-242 -47q3 86 -44.5 130t-133.5 44q-83 0 -130.5 -38.5t-47.5 -110.5q0 -62 40 -94t150 -72q162 -57 232.5 -138t70.5 -225q0 -100 -37 -174t-103 -117t-147 -63.5t-178 -22.5l-22 -53
q83 -14 122.5 -53.5t39.5 -114.5z" />
    <glyph glyph-name="scedilla" unicode="&#x15f;" horiz-adv-x="876" 
d="M522 -246q0 -90 -65 -138t-166 -48q-68 0 -122.5 21t-82.5 55l49 120q59 -71 129 -71q72 0 72 59q0 71 -109 82l58 148q-121 19 -191.5 84.5t-77.5 177.5l207 69q3 -84 48 -127t118 -43q135 0 135 103q0 52 -31 82t-116 57q-124 37 -183 105t-59 176q0 150 104.5 226.5
t270.5 76.5t251 -67t85 -193l-211 -45q0 65 -36.5 101t-104.5 36q-56 0 -90.5 -27t-34.5 -74q0 -43 31 -69t130 -62q132 -46 185 -113t53 -186q0 -134 -84.5 -205.5t-232.5 -84.5q-50 -5 -68 -5l-23 -53q83 -14 122.5 -53.5t39.5 -114.5z" />
    <glyph glyph-name="Scaron" unicode="&#x160;" horiz-adv-x="1040" 
d="M29 287l227 78q0 -96 55 -149.5t152 -53.5q196 0 196 155q0 69 -40 109.5t-144 75.5q-157 52 -228 132.5t-71 217.5q0 101 39.5 177.5t105.5 119t140 62.5t155 20q191 0 292.5 -79t107.5 -249l-242 -47q3 86 -44.5 130t-133.5 44q-83 0 -130.5 -38.5t-47.5 -110.5
q0 -62 40 -94t150 -72q162 -57 232.5 -138t70.5 -225q0 -101 -38 -176t-105 -117.5t-149 -63t-181 -20.5q-185 0 -292 76.5t-117 235.5zM717 1329h-154l-217 287h229l52 -66q14 -17 22 -33t9 -23l1 -7h9q10 24 53 63l76 66h241z" />
    <glyph glyph-name="scaron" unicode="&#x161;" horiz-adv-x="876" 
d="M16 244l207 69q3 -84 48 -127t118 -43q135 0 135 103q0 52 -31 82t-116 57q-124 37 -183 105t-59 176q0 150 104.5 226.5t270.5 76.5t251 -67t85 -193l-211 -45q0 65 -36.5 101t-104.5 36q-57 0 -91 -27.5t-34 -73.5q0 -43 31 -69t130 -62q132 -46 185 -113t53 -186
q0 -149 -105.5 -222t-283.5 -73q-161 0 -257 68t-106 201zM610 1075h-151l-213 318h225l53 -76q14 -19 21.5 -36.5t8.5 -25.5l1 -8h8q11 27 58 70l77 76h238z" />
    <glyph glyph-name="Tcommaaccent" unicode="&#x162;" horiz-adv-x="1015" 
d="M545 0h-250l172 991h-336l39 215h928l-39 -215h-340zM532 -281q0 -117 -84 -177t-221 -60v88q158 4 158 80q-58 -9 -96.5 19.5t-38.5 88.5q0 59 37.5 92t95.5 33q68 0 108.5 -43t40.5 -121z" />
    <glyph glyph-name="tcommaaccent" unicode="&#x163;" horiz-adv-x="706" 
d="M598 236v-205q-42 -26 -106.5 -41t-129.5 -15q-148 0 -214 81.5t-35 252.5l77 447h-133l33 190h137l35 201l250 29l-39 -230h248l-35 -190h-246l-80 -451q-22 -117 78 -117q76 0 160 48zM430 -281q0 -117 -83.5 -177t-221.5 -60v88q160 4 160 80q-59 -9 -97 19.5
t-38 88.5t37 92.5t96 32.5q66 0 106.5 -43t40.5 -121z" />
    <glyph glyph-name="Tcaron" unicode="&#x164;" horiz-adv-x="1015" 
d="M545 0h-250l172 991h-336l39 215h928l-39 -215h-340zM723 1329h-154l-217 287h230l51 -66q14 -17 22 -33t9 -23l2 -7h8q10 24 53 63l76 66h241z" />
    <glyph glyph-name="tcaron" unicode="&#x165;" horiz-adv-x="706" 
d="M598 236v-205q-42 -26 -106.5 -41t-129.5 -15q-148 0 -214 81.5t-35 252.5l77 447h-133l33 190h137l35 201l250 29l-39 -230h248l-35 -190h-246l-80 -451q-22 -117 78 -117q76 0 160 48zM866 1419l-114 -387h-174l30 387h258z" />
    <glyph glyph-name="Tbar" unicode="&#x166;" horiz-adv-x="1015" 
d="M545 0h-250l82 475h-205l35 201h205l55 315h-336l39 215h928l-39 -215h-340l-55 -315h223l-35 -201h-223z" />
    <glyph glyph-name="tbar" unicode="&#x167;" horiz-adv-x="759" 
d="M43 438l33 180h129l24 138h-133l35 190h135l35 201l250 29l-39 -230h248l-35 -190h-246l-24 -138h250l-33 -180h-250l-23 -133q-22 -117 80 -117q74 0 158 48v-205q-42 -26 -106.5 -41t-129.5 -15q-307 0 -249 334l22 129h-131z" />
    <glyph glyph-name="Utilde" unicode="&#x168;" horiz-adv-x="1236" 
d="M979 1206h254l-141 -798q-21 -122 -69 -208t-121 -134.5t-159.5 -69.5t-197.5 -21q-105 0 -188.5 26t-146 81.5t-86 153.5t0.5 231l129 739h252l-131 -737q-51 -287 205 -287q125 0 184.5 67t85.5 214zM891 1331q-38 0 -67.5 8t-44.5 16.5t-44 28.5q-9 6 -23.5 15t-21 13
t-17 10t-17 8t-15.5 4t-18 2q-32 0 -54.5 -27.5t-25.5 -77.5h-137q-29 126 35.5 211.5t176.5 85.5q34 0 62.5 -7.5t44 -16t41.5 -25.5q33 -23 46.5 -32t31.5 -16t35 -7q65 0 71 100h146q29 -129 -29.5 -211t-175.5 -82z" />
    <glyph glyph-name="utilde" unicode="&#x169;" horiz-adv-x="1112" 
d="M662 180q-42 -106 -117.5 -155.5t-190.5 -49.5q-150 0 -217.5 95t-38.5 264l109 612h248l-109 -627q-13 -79 15.5 -121t93.5 -42q77 0 137.5 59t79.5 176l98 555h248l-119 -672q-7 -41 3.5 -64.5t51.5 -23.5q14 0 60 11l-37 -185q-68 -22 -137 -22q-99 0 -141.5 47
t-36.5 143zM780 1073q-38 0 -68.5 8.5t-42.5 15t-46 27.5l-22.5 15t-21 13.5t-16.5 9.5t-18 8.5t-15 3.5t-18 2q-32 0 -54.5 -27.5t-25.5 -77.5h-139q-27 127 38 213t175 86q35 0 63.5 -8t43 -16.5t40.5 -26.5q6 -4 18.5 -12t17.5 -11t14.5 -9t14 -8t12 -5.5t13 -4.5t12 -2
t13.5 -1q67 0 72 100h145q29 -129 -29.5 -211t-175.5 -82z" />
    <glyph glyph-name="Umacron" unicode="&#x16a;" horiz-adv-x="1236" 
d="M979 1206h254l-141 -798q-21 -122 -69 -208t-121 -134.5t-159.5 -69.5t-197.5 -21q-105 0 -188.5 26t-146 81.5t-86 153.5t0.5 231l129 739h252l-131 -737q-51 -287 205 -287q125 0 184.5 67t85.5 214zM1059 1366h-592l35 197h592z" />
    <glyph glyph-name="umacron" unicode="&#x16b;" horiz-adv-x="1112" 
d="M662 180q-42 -106 -117.5 -155.5t-190.5 -49.5q-150 0 -217.5 95t-38.5 264l109 612h248l-109 -627q-13 -79 15.5 -121t93.5 -42q77 0 137.5 59t79.5 176l98 555h248l-119 -672q-7 -41 3.5 -64.5t51.5 -23.5q14 0 60 11l-37 -185q-68 -22 -137 -22q-99 0 -141.5 47
t-36.5 143zM922 1116h-580l35 199h581z" />
    <glyph glyph-name="Ubreve" unicode="&#x16c;" horiz-adv-x="1236" 
d="M979 1206h254l-141 -798q-21 -122 -69 -208t-121 -134.5t-159.5 -69.5t-197.5 -21q-105 0 -188.5 26t-146 81.5t-86 153.5t0.5 231l129 739h252l-131 -737q-51 -287 205 -287q125 0 184.5 67t85.5 214zM748 1321q-148 0 -209 77.5t-35 215.5h184q-8 -62 12 -91.5
t80 -29.5t90.5 29.5t44.5 91.5h185q-26 -138 -114.5 -215.5t-237.5 -77.5z" />
    <glyph glyph-name="ubreve" unicode="&#x16d;" horiz-adv-x="1112" 
d="M662 180q-42 -106 -117.5 -155.5t-190.5 -49.5q-150 0 -217.5 95t-38.5 264l109 612h248l-109 -627q-13 -79 15.5 -121t93.5 -42q77 0 137.5 59t79.5 176l98 555h248l-119 -672q-7 -41 3.5 -64.5t51.5 -23.5q14 0 60 11l-37 -185q-68 -22 -137 -22q-99 0 -141.5 47
t-36.5 143zM618 1069q-147 0 -207.5 86t-35.5 227h184q-10 -69 7 -102t81 -33q66 0 95 33t44 102h185q-26 -141 -116.5 -227t-236.5 -86z" />
    <glyph glyph-name="Uring" unicode="&#x16e;" horiz-adv-x="1236" 
d="M979 1206h254l-141 -798q-21 -122 -69 -208t-121 -134.5t-159.5 -69.5t-197.5 -21q-105 0 -188.5 26t-146 81.5t-86 153.5t0.5 231l129 739h252l-131 -737q-51 -287 205 -287q125 0 184.5 67t85.5 214zM569 1493q0 98 67 167t173 69q90 0 145.5 -56.5t55.5 -140.5
q0 -101 -66.5 -169.5t-169.5 -68.5q-99 0 -152 55t-53 144zM799 1616q-46 0 -75.5 -33.5t-29.5 -81.5q0 -42 23.5 -67t64.5 -25q48 0 77.5 34t29.5 83q0 40 -24 65t-66 25z" />
    <glyph glyph-name="uring" unicode="&#x16f;" horiz-adv-x="1112" 
d="M662 180q-42 -106 -117.5 -155.5t-190.5 -49.5q-150 0 -217.5 95t-38.5 264l109 612h248l-109 -627q-13 -79 15.5 -121t93.5 -42q77 0 137.5 59t79.5 176l98 555h248l-119 -672q-7 -41 3.5 -64.5t51.5 -23.5q14 0 60 11l-37 -185q-68 -22 -137 -22q-99 0 -141.5 47
t-36.5 143zM438 1247q0 98 67 166t173 68q90 0 145.5 -56.5t55.5 -140.5q0 -100 -66.5 -167.5t-169.5 -67.5q-100 0 -152.5 54t-52.5 144zM668 1370q-45 0 -75 -34t-30 -81q0 -43 23.5 -67.5t66.5 -24.5q46 0 75.5 34t29.5 81q0 41 -24 66.5t-66 25.5z" />
    <glyph glyph-name="Uhungarumlaut" unicode="&#x170;" horiz-adv-x="1236" 
d="M979 1206h254l-141 -798q-21 -122 -69 -208t-121 -134.5t-159.5 -69.5t-197.5 -21q-105 0 -188.5 26t-146 81.5t-86 153.5t0.5 231l129 739h252l-131 -737q-51 -287 205 -287q125 0 184.5 67t85.5 214zM662 1329h-175l113 279h268zM1004 1329h-191l145 279h283z" />
    <glyph glyph-name="uhungarumlaut" unicode="&#x171;" horiz-adv-x="1112" 
d="M662 180q-42 -106 -117.5 -155.5t-190.5 -49.5q-150 0 -217.5 95t-38.5 264l109 612h248l-109 -627q-13 -79 15.5 -121t93.5 -42q77 0 137.5 59t79.5 176l98 555h248l-119 -672q-7 -41 3.5 -64.5t51.5 -23.5q14 0 60 11l-37 -185q-68 -22 -137 -22q-99 0 -141.5 47
t-36.5 143zM539 1079h-174l112 310h268zM881 1079h-191l146 310h282z" />
    <glyph glyph-name="Uogonek" unicode="&#x172;" horiz-adv-x="1239" 
d="M322 -227q0 121 94 215q-63 11 -113.5 34.5t-92 62t-64 92.5t-30 126.5t10.5 163.5l129 739h254l-133 -737q-48 -287 205 -287q125 0 184.5 67t85.5 214l131 743h252l-141 -798q-38 -215 -155 -314.5t-308 -113.5q-52 -27 -81.5 -70t-29.5 -96q0 -40 22 -63t60 -23t66 16
t59 51l59 -123q-84 -104 -235 -104q-104 0 -166.5 52t-62.5 153z" />
    <glyph glyph-name="uogonek" unicode="&#x173;" horiz-adv-x="1112" 
d="M1018 946l-119 -672q-7 -41 3.5 -64.5t51.5 -23.5q16 0 62 11l-37 -185q-49 -9 -80.5 -16t-75 -23t-69 -35t-44 -51t-18.5 -73q0 -39 22.5 -62.5t59.5 -23.5q39 0 66.5 15.5t58.5 51.5l59 -123q-84 -104 -235 -104q-104 0 -166.5 52t-62.5 153q0 89 59 158t143 108
q-45 49 -34 141q-42 -106 -117.5 -155.5t-190.5 -49.5q-150 0 -217.5 95t-38.5 264l109 612h248l-109 -627q-13 -79 15.5 -121t93.5 -42q77 0 137.5 59t79.5 176l98 555h248z" />
    <glyph glyph-name="Wcircumflex" unicode="&#x174;" horiz-adv-x="1748" 
d="M1143 1206l43 -694q5 -79 5 -163t-3 -129l-2 -44h8q40 160 106 334l267 696h262l-481 -1206h-357l-47 635q-5 76 -5 155.5t3 121.5l2 42h-8q-28 -145 -100 -321l-263 -633h-344l-49 1206h254l23 -692q3 -92 2 -167t-3 -123l-3 -48h8q34 162 106 336l281 694h295z
M954 1616h156l217 -287h-231l-52 66q-13 16 -20.5 32t-8.5 23l-1 8h-8q-11 -26 -54 -63l-75 -66h-242z" />
    <glyph glyph-name="wcircumflex" unicode="&#x175;" horiz-adv-x="1427" 
d="M901 946l35 -426q9 -84 9 -170t-5 -130l-4 -44h8q29 149 109 342l180 428h260l-416 -946h-291l-45 375q-6 72 -6 148t3 115l3 40h-8q-30 -139 -102 -305l-156 -373h-289l-96 946h250l35 -428q7 -84 8 -169.5t-1 -128.5l-3 -44h8q31 156 111 344l182 426h221zM774 1393
h150l215 -318h-226l-53 76q-14 20 -21.5 38t-8.5 26l-1 8h-8q-10 -27 -57 -72l-78 -76h-237z" />
    <glyph glyph-name="Ycircumflex" unicode="&#x176;" horiz-adv-x="1087" 
d="M414 1206l102 -319q21 -68 33.5 -136.5t14.5 -102.5l3 -34h8q4 14 12.5 38.5t42 96t77.5 138.5l208 319h269l-516 -786l-72 -420h-252l72 420l-266 786h264zM647 1616h156l217 -287h-232l-49 66q-14 16 -22 32t-9 23l-1 8h-9q-10 -26 -53 -63l-76 -66h-241z" />
    <glyph glyph-name="ycircumflex" unicode="&#x177;" horiz-adv-x="935" 
d="M338 946l47 -495q8 -76 10 -147t0 -104l-2 -32h8q29 137 107 289l254 489h260l-569 -1044q-57 -105 -111.5 -173t-110 -102t-106 -46.5t-117.5 -12.5q-100 0 -176 39l68 196q59 -36 116 -36q68 0 120 42.5t102 137.5l-156 999h256zM518 1393h150l215 -318h-226l-53 76
q-14 20 -21.5 38t-8.5 26l-1 8h-8q-10 -27 -57 -72l-78 -76h-237z" />
    <glyph glyph-name="Ydieresis" unicode="&#x178;" horiz-adv-x="1087" 
d="M414 1206l102 -319q21 -68 33.5 -136.5t14.5 -102.5l3 -34h8q4 14 12.5 38.5t42 96t77.5 138.5l208 319h269l-516 -786l-72 -420h-252l72 420l-266 786h264zM348 1475q0 66 40.5 104.5t100.5 38.5q65 0 105.5 -38t40.5 -105q0 -66 -41 -105t-105 -39q-59 0 -100 39.5
t-41 104.5zM780 1473q0 66 41 104.5t101 38.5q64 0 104.5 -38t40.5 -105q0 -65 -41 -103.5t-104 -38.5q-59 0 -100.5 39t-41.5 103z" />
    <glyph glyph-name="Zacute" unicode="&#x179;" horiz-adv-x="1097" 
d="M37 172l594 684q40 45 78.5 80.5t57.5 47.5l19 13v9q-71 -15 -184 -15h-403l39 215h890l-36 -172l-603 -684q-39 -45 -77.5 -80.5t-57.5 -47.5l-18 -13v-8q69 14 182 14h445l-35 -215h-922zM793 1329h-224l131 279h312z" />
    <glyph glyph-name="zacute" unicode="&#x17a;" horiz-adv-x="915" 
d="M27 135l415 479q40 46 79 82t58 49l19 13v8q-71 -16 -184 -16h-254l39 196h719l-21 -151l-422 -467q-41 -45 -80 -80.5t-57 -48.5l-19 -13v-8q72 15 183 15h286l-32 -193h-752zM651 1079h-221l148 310h311z" />
    <glyph glyph-name="Zdotaccent" unicode="&#x17b;" horiz-adv-x="1097" 
d="M37 172l594 684q40 45 78.5 80.5t57.5 47.5l19 13v9q-71 -15 -184 -15h-403l39 215h890l-36 -172l-603 -684q-39 -45 -77.5 -80.5t-57.5 -47.5l-18 -13v-8q69 14 182 14h445l-35 -215h-922zM563 1495q0 68 43.5 107.5t108.5 39.5q69 0 113 -39t44 -108q0 -66 -44 -105.5
t-113 -39.5q-65 0 -108.5 39.5t-43.5 105.5z" />
    <glyph glyph-name="zdotaccent" unicode="&#x17c;" horiz-adv-x="915" 
d="M27 135l415 479q40 46 79 82t58 49l19 13v8q-71 -16 -184 -16h-254l39 196h719l-21 -151l-422 -467q-41 -45 -80 -80.5t-57 -48.5l-19 -13v-8q72 15 183 15h286l-32 -193h-752zM420 1233q0 67 43 107t108 40q69 0 112.5 -39.5t43.5 -107.5q0 -66 -43.5 -106t-112.5 -40
q-65 0 -108 40t-43 106z" />
    <glyph glyph-name="Zcaron" unicode="&#x17d;" horiz-adv-x="1097" 
d="M37 172l594 684q40 45 78.5 80.5t57.5 47.5l19 13v9q-71 -15 -184 -15h-403l39 215h890l-36 -172l-603 -684q-39 -45 -77.5 -80.5t-57.5 -47.5l-18 -13v-8q69 14 182 14h445l-35 -215h-922zM760 1329h-156l-217 287h231l50 -66q14 -17 22 -33t9 -23l1 -7h9q10 24 53 63
l76 66h241z" />
    <glyph glyph-name="zcaron" unicode="&#x17e;" horiz-adv-x="915" 
d="M27 135l415 479q40 46 79 82t58 49l19 13v8q-71 -16 -184 -16h-254l39 196h719l-21 -151l-422 -467q-41 -45 -80 -80.5t-57 -48.5l-19 -13v-8q72 15 183 15h286l-32 -193h-752zM621 1075h-152l-215 318h225l53 -76q14 -19 21.5 -36.5t8.5 -25.5l1 -8h10q9 27 56 70l80 76
h235z" />
    <glyph glyph-name="Schwa" unicode="&#x18f;" horiz-adv-x="1232" 
d="M649 1008q-189 0 -252 -185l-231 68q114 340 510 340q227 0 356 -138.5t129 -373.5q0 -175 -48.5 -318t-132 -235t-191 -141.5t-228.5 -49.5q-118 0 -208 36t-142.5 97.5t-78.5 137t-26 162.5q0 135 50 251h737q9 96 -14 174t-82.5 126.5t-147.5 48.5zM866 483h-497
q-13 -43 -13 -84q0 -98 49.5 -160.5t149.5 -62.5q117 0 198 83t113 224z" />
    <glyph glyph-name="florin" unicode="&#x192;" horiz-adv-x="919" 
d="M29 -248l159 539h-137l49 190h142l57 193q99 336 418 336q81 0 156 -30.5t118 -92.5l-160 -185q-25 49 -57 73t-82 24q-58 0 -92.5 -35.5t-58.5 -110.5l-54 -172h242l-49 -190h-244l-162 -539h-245z" />
    <glyph glyph-name="Khook" unicode="&#x198;" horiz-adv-x="1142" 
d="M721 612l321 -612h-286l-254 504h-92l-88 -504h-252l211 1206h251l-83 -487h75l164 276q72 124 141.5 180t178.5 56q159 0 225 -146l-141 -165q-31 63 -84 63q-29 0 -53 -23t-62 -81z" />
    <glyph glyph-name="khook" unicode="&#x199;" horiz-adv-x="1030" 
d="M502 1044l-78 -436h47l309 338h299l-411 -430l131 -262q27 -53 66 -63.5t102 10.5l-37 -191q-68 -20 -137 -20t-118.5 29.5t-82.5 103.5l-139 299h-62l-74 -422h-247l182 1044q31 176 133 258t254 82q133 0 244 -57l-78 -201q-80 54 -158 54q-64 0 -98.5 -33t-46.5 -103z
" />
    <glyph glyph-name="Ezh" unicode="&#x1b7;" horiz-adv-x="1032" 
d="M532 991h-376l39 215h849l-30 -172l-467 -502l-2 -8q91 -6 159.5 -40.5t106.5 -87.5t56 -113.5t18 -128.5q0 -125 -43 -225.5t-117.5 -164t-170.5 -97.5t-206 -34q-211 0 -326 95.5t-116 273.5l205 96q1 -138 65.5 -207t177.5 -69q125 0 205 79t80 228q0 41 -10.5 76.5
t-36.5 69t-67 57t-105 38.5t-146 17l31 170l256 299q39 46 78 81.5t59 47.5l19 12v9q-72 -15 -185 -15z" />
    <glyph glyph-name="Acaron" unicode="&#x1cd;" horiz-adv-x="1265" 
d="M883 0l-49 279h-469l-144 -279h-268l649 1206h311l228 -1206h-258zM831 1329h-153l-219 287h231l51 -66q13 -17 20.5 -33t8.5 -23l2 -7h6q-2 2 16 22t50.5 50.5t64.5 56.5h242zM567 666l-98 -183h328q-25 123 -43 255t-24.5 204t-4.5 72h-8q-50 -155 -150 -348z" />
    <glyph glyph-name="acaron" unicode="&#x1ce;" horiz-adv-x="1128" 
d="M686 393l31 160q8 60 1.5 110.5t-41 84.5t-91.5 34q-79 0 -140 -56.5t-91.5 -147t-30.5 -199.5q0 -95 40 -155t115 -60q83 0 136 62t71 167zM1032 946l-117 -672q-15 -88 56 -88q15 0 61 11l-39 -185q-64 -22 -135 -22q-98 0 -147.5 41t-53.5 129q-68 -185 -272 -185
q-149 0 -232 102.5t-83 284.5q0 164 53.5 301t158 221.5t240.5 84.5q216 0 236 -181l57 158h217zM698 1075h-151l-215 318h225l55 -76q14 -19 21 -36.5t7 -25.5l1 -8h10q9 27 56 70l79 76h236z" />
    <glyph glyph-name="Icaron" unicode="&#x1cf;" horiz-adv-x="557" 
d="M281 1206h251l-210 -1206h-252zM496 1329h-156l-217 287h231l52 -66q13 -17 20.5 -33t8.5 -23l1 -7h8q11 24 54 63l75 66h242z" />
    <glyph glyph-name="icaron" unicode="&#x1d0;" horiz-adv-x="559" 
d="M428 1075h-152l-215 318h228l53 -76q14 -19 21 -36.5t7 -25.5l1 -8h10q8 27 55 70l80 76h236zM465 946l-119 -672q-7 -41 3.5 -64.5t51.5 -23.5q16 0 62 11l-37 -185q-68 -22 -137 -22q-242 0 -197 248l125 708h248z" />
    <glyph glyph-name="Ocaron" unicode="&#x1d1;" horiz-adv-x="1296" 
d="M596 -25q-234 0 -362 134.5t-128 363.5q0 140 32.5 261.5t90.5 211.5t136.5 155t172.5 97.5t197 32.5q235 0 362.5 -135t127.5 -365q0 -174 -50.5 -318.5t-136.5 -239t-200 -146.5t-242 -52zM717 1014q-109 0 -191 -72.5t-123 -190t-41 -259.5q0 -145 65.5 -225.5
t182.5 -80.5q105 0 186.5 72.5t124 192.5t42.5 264q0 137 -63.5 218t-182.5 81zM840 1329h-156l-217 287h231l52 -66q13 -17 20.5 -33t8.5 -23l1 -7h8q11 24 54 63l76 66h241z" />
    <glyph glyph-name="ocaron" unicode="&#x1d2;" horiz-adv-x="1062" 
d="M588 969q189 0 297 -109.5t108 -304.5q0 -93 -20.5 -178t-63 -158.5t-102.5 -127.5t-144.5 -85t-183.5 -31q-183 0 -296 105t-113 297q0 95 20.5 182t62.5 162t102.5 130t146 86.5t186.5 31.5zM565 772q-107 0 -172 -111t-65 -276q0 -107 44.5 -164t123.5 -57
q109 0 173 112t64 279q0 104 -44 160.5t-124 56.5zM672 1075h-152l-215 318h225l54 -76q14 -19 21.5 -36.5t8.5 -25.5v-8h11q8 27 55 70l80 76h235z" />
    <glyph glyph-name="Ucaron" unicode="&#x1d3;" horiz-adv-x="1236" 
d="M979 1206h254l-141 -798q-21 -122 -69 -208t-121 -134.5t-159.5 -69.5t-197.5 -21q-105 0 -188.5 26t-146 81.5t-86 153.5t0.5 231l129 739h252l-131 -737q-51 -287 205 -287q125 0 184.5 67t85.5 214zM823 1329h-155l-217 287h231l49 -66q14 -17 22 -33t9 -23l2 -7h8
q10 24 53 63l76 66h242z" />
    <glyph glyph-name="ucaron" unicode="&#x1d4;" horiz-adv-x="1112" 
d="M662 180q-42 -106 -117.5 -155.5t-190.5 -49.5q-150 0 -217.5 95t-38.5 264l109 612h248l-109 -627q-13 -79 15.5 -121t93.5 -42q77 0 137.5 59t79.5 176l98 555h248l-119 -672q-7 -41 3.5 -64.5t51.5 -23.5q14 0 60 11l-37 -185q-68 -22 -137 -22q-99 0 -141.5 47
t-36.5 143zM692 1075h-149l-215 318h225l53 -76q14 -19 21.5 -36.5t8.5 -25.5l1 -8h8q10 27 57 70l78 76h238z" />
    <glyph glyph-name="uni01D9" unicode="&#x1d9;" horiz-adv-x="1236" 
d="M979 1206h254l-141 -798q-21 -122 -69 -208t-121 -134.5t-159.5 -69.5t-197.5 -21q-105 0 -188.5 26t-146 81.5t-86 153.5t0.5 231l129 739h252l-131 -737q-51 -287 205 -287q125 0 184.5 67t85.5 214zM410 1413q0 66 40.5 104.5t100.5 38.5q64 0 104.5 -38t40.5 -105
q0 -66 -41 -104.5t-104 -38.5q-59 0 -100 39t-41 104zM842 1411q0 67 40 105t101 38q64 0 104.5 -38t40.5 -105q0 -65 -41 -103t-104 -38q-60 0 -100.5 38.5t-40.5 102.5zM864 1575h-153l-217 285h229l51 -64q13 -17 21 -33.5t10 -24.5l2 -7h6q12 26 55 65l76 64h240z" />
    <glyph glyph-name="uni01DA" unicode="&#x1da;" horiz-adv-x="1112" 
d="M662 180q-42 -106 -117.5 -155.5t-190.5 -49.5q-150 0 -217.5 95t-38.5 264l109 612h248l-109 -627q-13 -79 15.5 -121t93.5 -42q77 0 137.5 59t79.5 176l98 555h248l-119 -672q-7 -41 3.5 -64.5t51.5 -23.5q14 0 60 11l-37 -185q-68 -22 -137 -22q-99 0 -141.5 47
t-36.5 143zM279 1153q0 66 40.5 104.5t100.5 38.5q64 0 104.5 -38t40.5 -105q0 -65 -41 -104t-104 -39q-59 0 -100 39.5t-41 103.5zM711 1153q0 67 40 105t101 38q64 0 104.5 -38t40.5 -105q0 -66 -41 -104.5t-104 -38.5q-60 0 -100.5 38.5t-40.5 104.5zM733 1315h-153
l-218 287h230l51 -66q13 -17 21 -33t10 -23l2 -7h6q12 24 55 63l76 66h240z" />
    <glyph glyph-name="uni004100A800AF" unicode="&#x1de;" horiz-adv-x="1265" 
d="M883 0l-49 279h-469l-144 -279h-268l649 1206h311l228 -1206h-258zM1114 1620h-590l33 195h592zM420 1409q0 67 40 106t101 39q63 0 103.5 -39t40.5 -106q0 -65 -40.5 -103t-103.5 -38q-60 0 -100.5 38.5t-40.5 102.5zM850 1409q0 66 40.5 104.5t100.5 38.5q64 0 105 -38
t41 -105q0 -65 -41.5 -104t-104.5 -39q-59 0 -100 39.5t-41 103.5zM567 666l-98 -183h328q-25 123 -43 255t-24.5 204t-4.5 72h-8q-50 -155 -150 -348z" />
    <glyph glyph-name="adieresismacron" unicode="&#x1df;" horiz-adv-x="1128" 
d="M686 393l31 160q8 60 1.5 110.5t-41 84.5t-91.5 34q-79 0 -140 -56.5t-91.5 -147t-30.5 -199.5q0 -95 40 -155t115 -60q83 0 136 62t71 167zM1032 946l-117 -672q-15 -88 56 -88q15 0 61 11l-39 -185q-64 -22 -135 -22q-98 0 -147.5 41t-53.5 129q-68 -185 -272 -185
q-149 0 -232 102.5t-83 284.5q0 164 53.5 301t158 221.5t240.5 84.5q216 0 236 -181l57 158h217zM987 1413h-579l34 199h582zM293 1180q0 67 41 106t100 39q63 0 104.5 -39t41.5 -106q0 -65 -41.5 -103.5t-104.5 -38.5q-59 0 -100 39t-41 103zM725 1180q0 67 40 105t101 38
q64 0 105 -38t41 -105q0 -65 -41.5 -104.5t-104.5 -39.5q-60 0 -100.5 39.5t-40.5 104.5z" />
    <glyph glyph-name="AEmacron" unicode="&#x1e2;" horiz-adv-x="1824" 
d="M850 0l49 279h-446l-217 -279h-283l940 1206h956l-39 -215h-534l-49 -278h471l-37 -209h-471l-51 -289h534l-35 -215h-788zM1620 1366h-592l35 197h592zM1032 1024l-422 -541h324l51 293q16 87 29.5 149t19.5 81l6 18h-8z" />
    <glyph glyph-name="aemacron" unicode="&#x1e3;" horiz-adv-x="1515" 
d="M1014 164q136 0 176 135l231 -55q-45 -143 -147 -206t-277 -63q-222 0 -329 148q-42 -69 -128 -108.5t-198 -39.5q-137 0 -213 64.5t-76 179.5q0 166 142.5 252.5t416.5 85.5q12 55 33 100q3 62 -27 93.5t-88 31.5q-64 0 -106 -37.5t-51 -105.5l-236 43q24 97 86.5 163
t146.5 95t189 29q184 0 254 -97q126 97 279 97q95 0 168.5 -28.5t117.5 -77t66 -108.5t22 -128q0 -119 -41 -203h-573q-11 -108 29.5 -184t132.5 -76zM1163 1116h-579l37 199h579zM870 557h340q11 33 11 72q0 70 -34.5 113.5t-105.5 43.5q-78 0 -132.5 -60.5t-78.5 -168.5z
M594 377v45q-289 -10 -289 -168q0 -100 107 -100q59 0 113.5 25.5t82.5 70.5q-14 57 -14 127z" />
    <glyph glyph-name="Gstroke" unicode="&#x1e4;" horiz-adv-x="1306" 
d="M686 672h506l-43 -238h117l-25 -141h-117l-51 -293h-158l-20 150q-84 -175 -317 -175q-222 0 -347 133.5t-125 364.5q0 174 50 318.5t136.5 240t201 147.5t243.5 52q195 0 304.5 -88t138.5 -246l-258 -88q-23 205 -205 205q-108 0 -190 -72.5t-123.5 -191t-41.5 -261.5
q0 -147 70.5 -231t206.5 -84q89 0 146 28t92 91h-261l25 141h264l19 86h-265z" />
    <glyph glyph-name="gstroke" unicode="&#x1e5;" horiz-adv-x="1077" 
d="M1040 946l-168 -956l-14 -66h129l-12 -71h-139q-57 -145 -176 -215t-308 -70q-343 0 -415 237l192 121q14 -76 77 -124t152 -48q135 0 205 99h-254l13 71h282q18 48 25 88l30 154q-67 -178 -270 -178q-149 0 -233 103t-84 284q0 164 53.5 297.5t159.5 215t245 81.5
q100 0 163 -44.5t73 -136.5l55 158h219zM698 403l27 150q17 95 -16.5 162t-122.5 67q-120 0 -189 -112t-69 -279q0 -96 38.5 -155.5t114.5 -59.5q175 0 217 227z" />
    <glyph glyph-name="Gcaron" unicode="&#x1e6;" horiz-adv-x="1277" 
d="M678 637h508l-113 -637h-158l-20 150q-84 -175 -317 -175q-222 0 -347 133.5t-125 364.5q0 174 50 318.5t136.5 240t201 147.5t243.5 52q195 0 304.5 -88t138.5 -246l-258 -88q-23 205 -205 205q-108 0 -190 -72.5t-123.5 -191t-41.5 -261.5q0 -146 69.5 -228.5
t201.5 -82.5q106 0 176 53.5t88 157.5l8 45h-262zM842 1329h-156l-217 287h231l50 -66q14 -17 22 -33t9 -23l1 -7h9q10 24 53 63l76 66h241z" />
    <glyph glyph-name="gcaron" unicode="&#x1e7;" horiz-adv-x="1077" 
d="M698 403l27 150q17 95 -16.5 162t-122.5 67q-120 0 -189 -112t-69 -279q0 -96 38.5 -155.5t114.5 -59.5q175 0 217 227zM1040 946l-168 -956q-38 -217 -164 -319.5t-356 -102.5q-343 0 -415 237l192 121q14 -76 77 -124t152 -48q120 0 183 66t88 192l30 154
q-67 -178 -270 -178q-149 0 -233 103t-84 284q0 164 53.5 297.5t159.5 215t245 81.5q100 0 163 -44.5t73 -136.5l55 158h219zM684 1075h-152l-213 318h226l53 -76q14 -19 21.5 -36.5t8.5 -25.5l1 -8h8q10 27 57 70l78 76h238z" />
    <glyph glyph-name="Kcaron" unicode="&#x1e8;" horiz-adv-x="1142" 
d="M1042 0h-286l-254 504h-92l-88 -504h-252l211 1206h251l-83 -487h75l394 487h294l-491 -594zM770 1329h-154l-217 287h230l51 -66q13 -17 21 -33t10 -23l2 -7h6q12 24 55 63l76 66h240z" />
    <glyph glyph-name="kcaron" unicode="&#x1e9;" horiz-adv-x="1030" 
d="M592 123l-139 299h-62l-74 -422h-247l239 1368h250l-135 -760h47l309 338h299l-411 -430l131 -262q27 -53 66 -63.5t102 10.5l-37 -191q-68 -20 -137 -20t-118.5 29.5t-82.5 103.5zM516 1432h-154l-217 286h230l51 -65q13 -16 21 -32t10 -24l2 -8h6q12 27 55 64l76 65
h240z" />
    <glyph glyph-name="Oogonek" unicode="&#x1ea;" horiz-adv-x="1296" 
d="M313 -227q0 134 107 227q-151 44 -232.5 168t-81.5 305q0 140 32.5 261.5t90.5 211.5t136.5 155t172.5 97.5t197 32.5q235 0 362.5 -135t127.5 -365q0 -169 -47.5 -310.5t-129 -236t-190.5 -148.5t-233 -59q-53 -25 -83 -67.5t-30 -95.5q0 -39 22.5 -62.5t59.5 -23.5
q39 0 66.5 15.5t58.5 51.5l59 -123q-84 -104 -235 -104q-104 0 -167 52t-63 153zM717 1014q-109 0 -191 -72.5t-123 -190t-41 -259.5q0 -145 65.5 -225.5t182.5 -80.5q105 0 186.5 72.5t124 192.5t42.5 264q0 137 -63.5 218t-182.5 81z" />
    <glyph glyph-name="oogonek" unicode="&#x1eb;" horiz-adv-x="1060" 
d="M215 -227q0 130 107 227q-117 36 -184.5 133t-67.5 244q0 95 20.5 182t62.5 162t102.5 130t146 86.5t186.5 31.5q189 0 297 -109.5t108 -304.5q0 -111 -30 -210.5t-87 -178.5t-147 -129.5t-203 -59.5q-112 -56 -112 -163q0 -39 22.5 -62.5t59.5 -23.5q39 0 66.5 15.5
t58.5 51.5l59 -123q-84 -104 -236 -104q-104 0 -166.5 52t-62.5 153zM565 772q-107 0 -172 -111t-65 -276q0 -107 44.5 -164t123.5 -57q109 0 173 112t64 279q0 104 -44 160.5t-124 56.5z" />
    <glyph glyph-name="uni004F02DB00AF" unicode="&#x1ec;" horiz-adv-x="1296" 
d="M1075 1366h-590l33 197h592zM313 -227q0 134 107 227q-151 44 -232.5 168t-81.5 305q0 140 32.5 261.5t90.5 211.5t136.5 155t172.5 97.5t197 32.5q235 0 362.5 -135t127.5 -365q0 -169 -47.5 -310.5t-129 -236t-190.5 -148.5t-233 -59q-53 -25 -83 -67.5t-30 -95.5
q0 -39 22.5 -62.5t59.5 -23.5q39 0 66.5 15.5t58.5 51.5l59 -123q-84 -104 -235 -104q-104 0 -167 52t-63 153zM717 1014q-109 0 -191 -72.5t-123 -190t-41 -259.5q0 -145 65.5 -225.5t182.5 -80.5q105 0 186.5 72.5t124 192.5t42.5 264q0 137 -63.5 218t-182.5 81z" />
    <glyph glyph-name="oogonekmacron" unicode="&#x1ed;" horiz-adv-x="1060" 
d="M899 1116h-580l35 199h582zM215 -227q0 130 107 227q-117 36 -184.5 133t-67.5 244q0 95 20.5 182t62.5 162t102.5 130t146 86.5t186.5 31.5q189 0 297 -109.5t108 -304.5q0 -111 -30 -210.5t-87 -178.5t-147 -129.5t-203 -59.5q-112 -56 -112 -163q0 -39 22.5 -62.5
t59.5 -23.5q39 0 66.5 15.5t58.5 51.5l59 -123q-84 -104 -236 -104q-104 0 -166.5 52t-62.5 153zM565 772q-107 0 -172 -111t-65 -276q0 -107 44.5 -164t123.5 -57q109 0 173 112t64 279q0 104 -44 160.5t-124 56.5z" />
    <glyph glyph-name="Ezhcaron" unicode="&#x1ee;" horiz-adv-x="1032" 
d="M532 991h-376l39 215h849l-30 -172l-467 -502l-2 -8q91 -6 159.5 -40.5t106.5 -87.5t56 -113.5t18 -128.5q0 -125 -43 -225.5t-117.5 -164t-170.5 -97.5t-206 -34q-211 0 -326 95.5t-116 273.5l205 96q1 -138 65.5 -207t177.5 -69q125 0 205 79t80 228q0 41 -10.5 76.5
t-36.5 69t-67 57t-105 38.5t-146 17l31 170l256 299q39 46 78 81.5t59 47.5l19 12v9q-72 -15 -185 -15zM700 1329h-153l-217 287h229l51 -66q13 -17 21 -33t10 -23l2 -7h6q13 24 56 63l75 66h240z" />
    <glyph glyph-name="ezhcaron" unicode="&#x1ef;" horiz-adv-x="866" 
d="M233 451l140 149q40 44 79 81.5t58 52.5l20 16l2 8q-65 -8 -176 -8h-241l35 196h708l-27 -155l-378 -375l-2 -6q144 -16 212 -105t68 -223q0 -95 -39 -172.5t-104 -125t-145.5 -72.5t-168.5 -25q-340 0 -360 286l213 78q-6 -89 40.5 -135.5t125.5 -46.5q88 0 144.5 53
t56.5 146q0 46 -11.5 81t-41.5 67.5t-88.5 53.5t-145.5 29zM588 1075h-152l-213 318h226l53 -76q14 -19 21.5 -36.5t8.5 -25.5v-8h9q10 27 57 70l78 76h237z" />
    <glyph glyph-name="jcaron" unicode="&#x1f0;" horiz-adv-x="497" 
d="M428 1075h-152l-213 318h226l53 -76q14 -19 21.5 -36.5t8.5 -25.5l1 -8h8q10 27 57 70l78 76h238zM465 946l-191 -1075q-28 -166 -115.5 -234.5t-240.5 -68.5q-133 0 -223 55l69 184q66 -53 138 -53q54 0 85.5 33t45.5 119l184 1040h248z" />
    <glyph glyph-name="jcaron" unicode="&#xe10c;" horiz-adv-x="497" 
d="M428 1075h-152l-213 318h226l53 -76q14 -19 21.5 -36.5t8.5 -25.5l1 -8h8q10 27 57 70l78 76h238zM465 946l-191 -1075q-28 -166 -115.5 -234.5t-240.5 -68.5q-133 0 -223 55l69 184q66 -53 138 -53q54 0 85.5 33t45.5 119l184 1040h248z" />
    <glyph glyph-name="Gacute" unicode="&#x1f4;" horiz-adv-x="1277" 
d="M678 637h508l-113 -637h-158l-20 150q-84 -175 -317 -175q-222 0 -347 133.5t-125 364.5q0 174 50 318.5t136.5 240t201 147.5t243.5 52q195 0 304.5 -88t138.5 -246l-258 -88q-23 205 -205 205q-108 0 -190 -72.5t-123.5 -191t-41.5 -261.5q0 -146 69.5 -228.5
t201.5 -82.5q106 0 176 53.5t88 157.5l8 45h-262zM872 1329h-223l131 279h312z" />
    <glyph glyph-name="gacute" unicode="&#x1f5;" horiz-adv-x="1077" 
d="M698 403l27 150q17 95 -16.5 162t-122.5 67q-120 0 -189 -112t-69 -279q0 -96 38.5 -155.5t114.5 -59.5q175 0 217 227zM1040 946l-168 -956q-38 -217 -164 -319.5t-356 -102.5q-343 0 -415 237l192 121q14 -76 77 -124t152 -48q120 0 183 66t88 192l30 154
q-67 -178 -270 -178q-149 0 -233 103t-84 284q0 164 53.5 297.5t159.5 215t245 81.5q100 0 163 -44.5t73 -136.5l55 158h219zM715 1079h-219l145 310h313z" />
    <glyph glyph-name="Ngrave" unicode="&#x1f8;" horiz-adv-x="1312" 
d="M520 1206l291 -606q24 -50 44.5 -104.5t28.5 -83.5l9 -29h8q10 122 37 276l96 547h254l-211 -1206h-231l-299 596q-25 53 -47.5 109.5t-32.5 86.5l-10 31h-8q-4 -116 -35 -284l-92 -539h-252l211 1206h239zM905 1329h-223l-217 279h311z" />
    <glyph glyph-name="ngrave" unicode="&#x1f9;" horiz-adv-x="1120" 
d="M987 649l-63 -375q-7 -41 3.5 -64.5t51.5 -23.5q15 0 61 11l-36 -185q-68 -22 -138 -22q-241 0 -196 248l63 360q28 168 -110 168q-72 0 -132.5 -63.5t-84.5 -194.5l-89 -508h-247l166 946h217l-4 -192q49 108 121 161.5t182 53.5q111 0 176 -63t65 -171q0 -53 -6 -86z
M770 1079h-219l-240 310h314z" />
    <glyph glyph-name="uni004102DA00B4" unicode="&#x1fa;" horiz-adv-x="1265" 
d="M883 0l-49 279h-469l-144 -279h-268l649 1206h311l228 -1206h-258zM569 1444q0 98 67 165.5t173 67.5q90 0 145.5 -56t55.5 -140q0 -100 -66 -168t-170 -68q-98 0 -151.5 55t-53.5 144zM946 1722h-223l131 279h311zM567 666l-98 -183h328q-25 123 -43 255t-24.5 204
t-4.5 72h-8q-50 -155 -150 -348zM801 1567q-46 0 -76.5 -34t-30.5 -81q0 -43 23.5 -67.5t66.5 -24.5q46 0 75.5 34t29.5 81q0 41 -23 66.5t-65 25.5z" />
    <glyph glyph-name="aringacute" unicode="&#x1fb;" horiz-adv-x="1128" 
d="M686 393l31 160q8 60 1.5 110.5t-41 84.5t-91.5 34q-79 0 -140 -56.5t-91.5 -147t-30.5 -199.5q0 -95 40 -155t115 -60q83 0 136 62t71 167zM1032 946l-117 -672q-15 -88 56 -88q15 0 61 11l-39 -185q-64 -22 -135 -22q-98 0 -147.5 41t-53.5 129q-68 -185 -272 -185
q-149 0 -232 102.5t-83 284.5q0 164 53.5 301t158 221.5t240.5 84.5q216 0 236 -181l57 158h217zM434 1214q0 98 67 167t173 69q90 0 145 -56.5t55 -140.5q0 -101 -66 -169t-169 -68q-99 0 -152 55t-53 143zM664 1337q-45 0 -75 -33t-30 -81q0 -42 24 -67.5t66 -25.5
q46 0 75.5 34t29.5 83q0 40 -24 65t-66 25zM803 1509h-223l129 281h311z" />
    <glyph glyph-name="AEacute" unicode="&#x1fc;" horiz-adv-x="1824" 
d="M850 0l49 279h-446l-217 -279h-283l940 1206h956l-39 -215h-534l-49 -278h471l-37 -209h-471l-51 -289h534l-35 -215h-788zM1415 1329h-223l131 279h311zM1032 1024l-422 -541h324l51 293q16 87 29.5 149t19.5 81l6 18h-8z" />
    <glyph glyph-name="aeacute" unicode="&#x1fd;" horiz-adv-x="1515" 
d="M1014 164q136 0 176 135l231 -55q-45 -143 -147 -206t-277 -63q-222 0 -329 148q-42 -69 -128 -108.5t-198 -39.5q-137 0 -213 64.5t-76 179.5q0 166 142.5 252.5t416.5 85.5q12 55 33 100q3 62 -27 93.5t-88 31.5q-64 0 -106 -37.5t-51 -105.5l-236 43q24 97 86.5 163
t146.5 95t189 29q184 0 254 -97q126 97 279 97q95 0 168.5 -28.5t117.5 -77t66 -108.5t22 -128q0 -119 -41 -203h-573q-11 -108 29.5 -184t132.5 -76zM967 1079h-222l148 310h311zM870 557h340q11 33 11 72q0 70 -34.5 113.5t-105.5 43.5q-78 0 -132.5 -60.5t-78.5 -168.5z
M594 377v45q-289 -10 -289 -168q0 -100 107 -100q59 0 113.5 25.5t82.5 70.5q-14 57 -14 127z" />
    <glyph glyph-name="Oslashacute" unicode="&#x1fe;" horiz-adv-x="1296" 
d="M141 -27l-92 82l127 131q-70 116 -70 287q0 140 32.5 261.5t90.5 211.5t136.5 155t172.5 97.5t197 32.5q206 0 336 -111l107 111l96 -82l-121 -129q72 -119 72 -289q0 -174 -50.5 -318.5t-136.5 -239t-200 -146.5t-242 -52q-215 0 -342 115zM963 715q0 49 -13 96
l-524 -543q67 -82 184 -82q105 0 186.5 72.5t124 192.5t42.5 264zM889 1329h-223l129 279h311zM717 1014q-109 0 -191 -72.5t-123 -190t-41 -259.5q0 -46 11 -99l522 543q-65 78 -178 78z" />
    <glyph glyph-name="oslashacute" unicode="&#x1ff;" horiz-adv-x="1062" 
d="M588 969q180 0 289 -103l108 103l84 -92l-121 -113q45 -92 45 -209q0 -93 -20.5 -178t-63 -158.5t-102.5 -127.5t-144.5 -85t-183.5 -31q-174 0 -278 88l-103 -94l-86 86l109 103q-51 91 -51 219q0 95 20.5 182t62.5 162t102.5 130t146 86.5t186.5 31.5zM727 1079h-219
l145 310h314zM565 772q-97 0 -159.5 -91t-71.5 -228q-6 -53 0 -99l364 348q-42 70 -133 70zM496 164q98 0 160 91t71 228q4 50 4 80l-360 -340q42 -59 125 -59z" />
    <glyph glyph-name="Adoublegrave" unicode="&#x200;" horiz-adv-x="1265" 
d="M883 0l-49 279h-469l-144 -279h-268l649 1206h311l228 -1206h-258zM688 1329h-190l-240 279h283zM1014 1329h-176l-205 279h266zM567 666l-98 -183h328q-25 123 -43 255t-24.5 204t-4.5 72h-8q-50 -155 -150 -348z" />
    <glyph glyph-name="edoublegrave" unicode="&#x201;" horiz-adv-x="993" 
d="M492 164q73 0 114.5 32t61.5 103l229 -55q-44 -143 -146.5 -206t-279.5 -63q-189 0 -295 110t-106 298q0 138 42 251t112 185t159 111t186 39q94 0 167.5 -28.5t118 -77t67 -108.5t22.5 -128q0 -112 -41 -199h-579q-16 -111 28 -187.5t140 -76.5zM350 573h340q6 24 6 56
q0 70 -33.5 113.5t-105.5 43.5q-78 0 -130.5 -60t-76.5 -153zM842 1079h-176l-205 310h266zM516 1079h-190l-240 310h283z" />
    <glyph glyph-name="edoublegrave" unicode="&#x205;" horiz-adv-x="993" 
d="M492 164q73 0 114.5 32t61.5 103l229 -55q-44 -143 -146.5 -206t-279.5 -63q-189 0 -295 110t-106 298q0 138 42 251t112 185t159 111t186 39q94 0 167.5 -28.5t118 -77t67 -108.5t22.5 -128q0 -112 -41 -199h-579q-16 -111 28 -187.5t140 -76.5zM350 573h340q6 24 6 56
q0 70 -33.5 113.5t-105.5 43.5q-78 0 -130.5 -60t-76.5 -153zM842 1079h-176l-205 310h266zM516 1079h-190l-240 310h283z" />
    <glyph glyph-name="Ainvertedbreve" unicode="&#x202;" horiz-adv-x="1265" 
d="M883 0l-49 279h-469l-144 -279h-268l649 1206h311l228 -1206h-258zM819 1626q148 0 208 -77t36 -214h-184q8 60 -12.5 89.5t-80.5 29.5t-91 -29.5t-44 -89.5h-184q26 137 114.5 214t237.5 77zM567 666l-98 -183h328q-25 123 -43 255t-24.5 204t-4.5 72h-8
q-50 -155 -150 -348z" />
    <glyph glyph-name="ainvertedbreve" unicode="&#x203;" horiz-adv-x="1128" 
d="M686 393l31 160q8 60 1.5 110.5t-41 84.5t-91.5 34q-79 0 -140 -56.5t-91.5 -147t-30.5 -199.5q0 -95 40 -155t115 -60q83 0 136 62t71 167zM1032 946l-117 -672q-15 -88 56 -88q15 0 61 11l-39 -185q-64 -22 -135 -22q-98 0 -147.5 41t-53.5 129q-68 -185 -272 -185
q-149 0 -232 102.5t-83 284.5q0 164 53.5 301t158 221.5t240.5 84.5q216 0 236 -181l57 158h217zM680 1395q147 0 207.5 -86t34.5 -226h-183q8 69 -9 102.5t-81 33.5t-94 -33.5t-45 -102.5h-182q24 140 115 226t237 86z" />
    <glyph glyph-name="Edoublegrave" unicode="&#x204;" horiz-adv-x="1042" 
d="M893 215l-37 -215h-786l211 1206h786l-37 -215h-534l-50 -278h472l-37 -209h-471l-52 -289h535zM922 1329h-177l-204 279h268zM596 1329h-190l-238 279h281z" />
    <glyph glyph-name="Einvertedbreve" unicode="&#x206;" horiz-adv-x="1042" 
d="M893 215l-37 -215h-786l211 1206h786l-37 -215h-534l-50 -278h472l-37 -209h-471l-52 -289h535zM725 1626q148 0 209 -77.5t35 -213.5h-183q8 60 -12.5 89.5t-79.5 29.5q-62 0 -92 -29t-43 -90h-184q26 137 114 214t236 77z" />
    <glyph glyph-name="einvertedbreve" unicode="&#x207;" horiz-adv-x="993" 
d="M492 164q73 0 114.5 32t61.5 103l229 -55q-44 -143 -146.5 -206t-279.5 -63q-189 0 -295 110t-106 298q0 138 42 251t112 185t159 111t186 39q94 0 167.5 -28.5t118 -77t67 -108.5t22.5 -128q0 -112 -41 -199h-579q-16 -111 28 -187.5t140 -76.5zM350 573h340q6 24 6 56
q0 70 -33.5 113.5t-105.5 43.5q-78 0 -130.5 -60t-76.5 -153zM629 1395q148 0 207.5 -85.5t35.5 -226.5h-184q10 69 -7 102.5t-83 33.5q-64 0 -93 -33.5t-44 -102.5h-185q24 140 115 226t238 86z" />
    <glyph glyph-name="Idoublegrave" unicode="&#x208;" horiz-adv-x="557" 
d="M281 1206h251l-210 -1206h-252zM678 1329h-176l-205 279h266zM350 1329h-190l-238 279h283z" />
    <glyph glyph-name="idoublegrave" unicode="&#x209;" horiz-adv-x="559" 
d="M465 946l-119 -672q-7 -41 3.5 -64.5t51.5 -23.5q16 0 62 11l-37 -185q-68 -22 -137 -22q-242 0 -197 248l125 708h248zM621 1079h-175l-204 310h266zM295 1079h-191l-237 310h283z" />
    <glyph glyph-name="Iinvertedbreve" unicode="&#x20a;" horiz-adv-x="557" 
d="M281 1206h251l-210 -1206h-252zM481 1626q148 0 209 -77.5t35 -213.5h-184q8 60 -12 89.5t-80 29.5t-91 -29.5t-45 -89.5h-182q24 136 113 213.5t237 77.5z" />
    <glyph glyph-name="iinvertedbreve" unicode="&#x20b;" horiz-adv-x="559" 
d="M465 946l-119 -672q-7 -41 3.5 -64.5t51.5 -23.5q16 0 62 11l-37 -185q-68 -22 -137 -22q-242 0 -197 248l125 708h248zM410 1395q148 0 207.5 -85.5t35.5 -226.5h-184q10 69 -7 102.5t-83 33.5q-64 0 -93 -33.5t-44 -102.5h-185q24 140 115 226t238 86z" />
    <glyph glyph-name="Odoublegrave" unicode="&#x20c;" horiz-adv-x="1296" 
d="M596 -25q-234 0 -362 134.5t-128 363.5q0 140 32.5 261.5t90.5 211.5t136.5 155t172.5 97.5t197 32.5q235 0 362.5 -135t127.5 -365q0 -174 -50.5 -318.5t-136.5 -239t-200 -146.5t-242 -52zM717 1014q-109 0 -191 -72.5t-123 -190t-41 -259.5q0 -145 65.5 -225.5
t182.5 -80.5q105 0 186.5 72.5t124 192.5t42.5 264q0 137 -63.5 218t-182.5 81zM1022 1329h-176l-205 279h266zM694 1329h-190l-238 279h283z" />
    <glyph glyph-name="odoublegrave" unicode="&#x20d;" horiz-adv-x="1062" 
d="M588 969q189 0 297 -109.5t108 -304.5q0 -93 -20.5 -178t-63 -158.5t-102.5 -127.5t-144.5 -85t-183.5 -31q-183 0 -296 105t-113 297q0 95 20.5 182t62.5 162t102.5 130t146 86.5t186.5 31.5zM565 772q-107 0 -172 -111t-65 -276q0 -107 44.5 -164t123.5 -57
q109 0 173 112t64 279q0 104 -44 160.5t-124 56.5zM864 1079h-174l-205 310h267zM539 1079h-191l-237 310h282z" />
    <glyph glyph-name="Oinvertedbreve" unicode="&#x20e;" horiz-adv-x="1296" 
d="M596 -25q-234 0 -362 134.5t-128 363.5q0 140 32.5 261.5t90.5 211.5t136.5 155t172.5 97.5t197 32.5q235 0 362.5 -135t127.5 -365q0 -174 -50.5 -318.5t-136.5 -239t-200 -146.5t-242 -52zM717 1014q-109 0 -191 -72.5t-123 -190t-41 -259.5q0 -145 65.5 -225.5
t182.5 -80.5q105 0 186.5 72.5t124 192.5t42.5 264q0 137 -63.5 218t-182.5 81zM825 1626q148 0 209 -77.5t35 -213.5h-184q8 60 -12 89.5t-80 29.5t-91 -29.5t-45 -89.5h-182q24 136 113 213.5t237 77.5z" />
    <glyph glyph-name="oinvertedbreve" unicode="&#x20f;" horiz-adv-x="1062" 
d="M588 969q189 0 297 -109.5t108 -304.5q0 -93 -20.5 -178t-63 -158.5t-102.5 -127.5t-144.5 -85t-183.5 -31q-183 0 -296 105t-113 297q0 95 20.5 182t62.5 162t102.5 130t146 86.5t186.5 31.5zM565 772q-107 0 -172 -111t-65 -276q0 -107 44.5 -164t123.5 -57
q109 0 173 112t64 279q0 104 -44 160.5t-124 56.5zM653 1395q147 0 207.5 -86t34.5 -226h-184q10 69 -7 102.5t-81 33.5t-94.5 -34t-45.5 -102h-184q26 141 116.5 226.5t237.5 85.5z" />
    <glyph glyph-name="Rinvertedbreve" unicode="&#x212;" horiz-adv-x="1171" 
d="M1044 0h-272q-35 35 -49 121l-31 190q-13 82 -47.5 108.5t-116.5 26.5h-129l-77 -446h-252l211 1206h444q197 0 288 -73.5t91 -233.5q0 -86 -28 -153.5t-75 -109t-102.5 -64t-116.5 -27.5v-8q81 -12 119 -51.5t53 -127.5l39 -229q14 -83 51 -129zM498 997l-62 -344h189
q101 0 160 49t59 156q0 69 -39 104t-125 35h-182zM743 1626q148 0 208 -77t36 -214h-184q8 60 -12 89.5t-80 29.5q-61 0 -92 -29.5t-44 -89.5h-184q26 137 114.5 214t237.5 77z" />
    <glyph glyph-name="rinvertedbreve" unicode="&#x213;" horiz-adv-x="768" 
d="M815 963l-59 -289q-52 21 -108.5 21t-107 -20t-88 -67.5t-49.5 -115.5l-86 -492h-247l166 946h217l-13 -241q51 134 155 209t220 49zM575 1395q147 0 207.5 -86t34.5 -226h-182q8 69 -9 102.5t-81 33.5t-94 -33.5t-45 -102.5h-183q24 140 115 226t237 86z" />
    <glyph glyph-name="Udoublegrave" unicode="&#x214;" horiz-adv-x="1236" 
d="M979 1206h254l-141 -798q-21 -122 -69 -208t-121 -134.5t-159.5 -69.5t-197.5 -21q-105 0 -188.5 26t-146 81.5t-86 153.5t0.5 231l129 739h252l-131 -737q-51 -287 205 -287q125 0 184.5 67t85.5 214zM1004 1329h-177l-204 279h266zM678 1329h-191l-239 279h282z" />
    <glyph glyph-name="udoublegrave" unicode="&#x215;" horiz-adv-x="1112" 
d="M662 180q-42 -106 -117.5 -155.5t-190.5 -49.5q-150 0 -217.5 95t-38.5 264l109 612h248l-109 -627q-13 -79 15.5 -121t93.5 -42q77 0 137.5 59t79.5 176l98 555h248l-119 -672q-7 -41 3.5 -64.5t51.5 -23.5q14 0 60 11l-37 -185q-68 -22 -137 -22q-99 0 -141.5 47
t-36.5 143zM887 1079h-174l-207 310h268zM561 1079h-190l-238 310h283z" />
    <glyph glyph-name="Uinvertedbreve" unicode="&#x216;" horiz-adv-x="1236" 
d="M979 1206h254l-141 -798q-21 -122 -69 -208t-121 -134.5t-159.5 -69.5t-197.5 -21q-105 0 -188.5 26t-146 81.5t-86 153.5t0.5 231l129 739h252l-131 -737q-51 -287 205 -287q125 0 184.5 67t85.5 214zM809 1626q148 0 209 -77.5t35 -213.5h-185q8 60 -12 89.5t-80 29.5
t-90.5 -29t-44.5 -90h-184q26 137 114.5 214t237.5 77z" />
    <glyph glyph-name="uinvertedbreve" unicode="&#x217;" horiz-adv-x="1112" 
d="M662 180q-42 -106 -117.5 -155.5t-190.5 -49.5q-150 0 -217.5 95t-38.5 264l109 612h248l-109 -627q-13 -79 15.5 -121t93.5 -42q77 0 137.5 59t79.5 176l98 555h248l-119 -672q-7 -41 3.5 -64.5t51.5 -23.5q14 0 60 11l-37 -185q-68 -22 -137 -22q-99 0 -141.5 47
t-36.5 143zM676 1395q147 0 207.5 -86t34.5 -226h-185q10 69 -7 102.5t-81 33.5t-94 -33.5t-45 -102.5h-184q26 141 116.5 226.5t237.5 85.5z" />
    <glyph glyph-name="Scommaaccent" unicode="&#x218;" horiz-adv-x="1040" 
d="M29 287l227 78q0 -96 55 -149.5t152 -53.5q196 0 196 155q0 69 -40 109.5t-144 75.5q-157 52 -228 132.5t-71 217.5q0 101 39.5 177.5t105.5 119t140 62.5t155 20q191 0 292.5 -79t107.5 -249l-242 -47q3 86 -44.5 130t-133.5 44q-83 0 -130.5 -38.5t-47.5 -110.5
q0 -62 40 -94t150 -72q162 -57 232.5 -138t70.5 -225q0 -101 -38 -176t-105 -117.5t-149 -63t-181 -20.5q-185 0 -292 76.5t-117 235.5zM526 -281q0 -117 -84 -177t-221 -60v88q158 4 158 80q-59 -9 -97 19.5t-38 88.5t37 92.5t96 32.5q66 0 107.5 -43t41.5 -121z" />
    <glyph glyph-name="scommaaccent" unicode="&#x219;" horiz-adv-x="876" 
d="M16 244l207 69q3 -84 48 -127t118 -43q135 0 135 103q0 52 -31 82t-116 57q-124 37 -183 105t-59 176q0 150 104.5 226.5t270.5 76.5t251 -67t85 -193l-211 -45q0 65 -36.5 101t-104.5 36q-57 0 -91 -27.5t-34 -73.5q0 -43 31 -69t130 -62q132 -46 185 -113t53 -186
q0 -149 -105.5 -222t-283.5 -73q-161 0 -257 68t-106 201zM463 -281q0 -117 -84 -177t-221 -60v88q157 4 157 80q-58 -9 -96.5 19.5t-38.5 88.5q0 59 37.5 92t95.5 33q68 0 109 -43t41 -121z" />
    <glyph glyph-name="Hcaron" unicode="&#x21e;" horiz-adv-x="1306" 
d="M322 0h-252l211 1206h251l-83 -485h495l86 485h252l-211 -1206h-252l88 504h-497zM870 1329h-153l-219 287h231l51 -66q13 -17 20.5 -33t9.5 -23l1 -7h8q10 24 55 63l74 66h242z" />
    <glyph glyph-name="hcaron" unicode="&#x21f;" horiz-adv-x="1120" 
d="M987 649l-63 -375q-7 -41 3.5 -64.5t51.5 -23.5q15 0 61 11l-36 -185q-68 -22 -138 -22q-241 0 -196 248l63 360q28 168 -110 168q-72 0 -132.5 -63.5t-84.5 -194.5l-89 -508h-247l239 1368h250l-108 -614q47 108 118.5 161.5t182.5 53.5t176 -63t65 -171q0 -53 -6 -86z
M516 1438h-154l-217 286h230l51 -65q13 -16 21 -32t10 -24l2 -8h6q12 27 55 64l76 65h240z" />
    <glyph glyph-name="Adotabove" unicode="&#x226;" horiz-adv-x="1265" 
d="M883 0l-49 279h-469l-144 -279h-268l649 1206h311l228 -1206h-258zM635 1495q0 68 43 107.5t108 39.5q70 0 114 -39t44 -108q0 -66 -44.5 -105.5t-113.5 -39.5q-65 0 -108 39.5t-43 105.5zM567 666l-98 -183h328q-25 123 -43 255t-24.5 204t-4.5 72h-8
q-50 -155 -150 -348z" />
    <glyph glyph-name="adotabove" unicode="&#x227;" horiz-adv-x="1128" 
d="M686 393l31 160q8 60 1.5 110.5t-41 84.5t-91.5 34q-79 0 -140 -56.5t-91.5 -147t-30.5 -199.5q0 -95 40 -155t115 -60q83 0 136 62t71 167zM1032 946l-117 -672q-15 -88 56 -88q15 0 61 11l-39 -185q-64 -22 -135 -22q-98 0 -147.5 41t-53.5 129q-68 -185 -272 -185
q-149 0 -232 102.5t-83 284.5q0 164 53.5 301t158 221.5t240.5 84.5q216 0 236 -181l57 158h217zM498 1233q0 67 43.5 107t107.5 40q69 0 113.5 -39.5t44.5 -107.5q0 -66 -44.5 -106t-113.5 -40q-64 0 -107.5 40t-43.5 106z" />
    <glyph glyph-name="Otildemacron" unicode="&#x22c;" horiz-adv-x="1296" 
d="M596 -25q-234 0 -362 134.5t-128 363.5q0 140 32.5 261.5t90.5 211.5t136.5 155t172.5 97.5t197 32.5q235 0 362.5 -135t127.5 -365q0 -174 -50.5 -318.5t-136.5 -239t-200 -146.5t-242 -52zM717 1014q-109 0 -191 -72.5t-123 -190t-41 -259.5q0 -145 65.5 -225.5
t182.5 -80.5q105 0 186.5 72.5t124 192.5t42.5 264q0 137 -63.5 218t-182.5 81zM903 1272q-14 0 -27.5 1.5t-23 2.5t-21 5.5t-17 6t-17.5 8t-15.5 8.5t-17 10.5t-16.5 10.5q-65 42 -87 48q-12 3 -24 3q-34 0 -56.5 -27t-23.5 -77h-139q-28 126 37 211.5t176 85.5
q34 0 62 -7.5t43.5 -16t41.5 -25.5q4 -3 16 -11t15.5 -10t13 -8t13 -8t11 -6t11.5 -5t10.5 -3t11.5 -2.5t11 -0.5q66 0 74 101h143q30 -131 -28.5 -213t-176.5 -82zM1116 1628h-590l33 197h592z" />
    <glyph glyph-name="otildemacron" unicode="&#x22d;" horiz-adv-x="1062" 
d="M588 969q189 0 297 -109.5t108 -304.5q0 -93 -20.5 -178t-63 -158.5t-102.5 -127.5t-144.5 -85t-183.5 -31q-183 0 -296 105t-113 297q0 95 20.5 182t62.5 162t102.5 130t146 86.5t186.5 31.5zM565 772q-107 0 -172 -111t-65 -276q0 -107 44.5 -164t123.5 -57
q109 0 173 112t64 279q0 104 -44 160.5t-124 56.5zM762 1016q-38 0 -68.5 8t-43.5 15.5t-46 27.5l-19.5 13t-18.5 12l-15 9t-15 7.5t-12.5 4.5t-14.5 4t-15 1q-32 0 -54.5 -27t-25.5 -77h-140q-27 127 38 213t175 86q35 0 64 -8t44 -16.5t40 -26.5q8 -5 24.5 -16t22 -14
t17 -9.5t18 -8.5t15.5 -4t18 -2q66 0 71 101h146q29 -129 -29.5 -211t-175.5 -82zM958 1382h-579l37 199h579z" />
    <glyph glyph-name="Odotabove" unicode="&#x22e;" horiz-adv-x="1296" 
d="M596 -25q-234 0 -362 134.5t-128 363.5q0 140 32.5 261.5t90.5 211.5t136.5 155t172.5 97.5t197 32.5q235 0 362.5 -135t127.5 -365q0 -174 -50.5 -318.5t-136.5 -239t-200 -146.5t-242 -52zM717 1014q-109 0 -191 -72.5t-123 -190t-41 -259.5q0 -145 65.5 -225.5
t182.5 -80.5q105 0 186.5 72.5t124 192.5t42.5 264q0 137 -63.5 218t-182.5 81zM643 1495q0 68 43.5 107.5t108.5 39.5q68 0 111.5 -39t43.5 -108q0 -66 -44 -105.5t-111 -39.5q-65 0 -108.5 39.5t-43.5 105.5z" />
    <glyph glyph-name="odotabove" unicode="&#x22f;" horiz-adv-x="1062" 
d="M588 969q189 0 297 -109.5t108 -304.5q0 -93 -20.5 -178t-63 -158.5t-102.5 -127.5t-144.5 -85t-183.5 -31q-183 0 -296 105t-113 297q0 95 20.5 182t62.5 162t102.5 130t146 86.5t186.5 31.5zM565 772q-107 0 -172 -111t-65 -276q0 -107 44.5 -164t123.5 -57
q109 0 173 112t64 279q0 104 -44 160.5t-124 56.5zM539 1233q0 67 43 107t108 40q69 0 112.5 -39.5t43.5 -107.5q0 -66 -43.5 -106t-112.5 -40q-65 0 -108 40t-43 106z" />
    <glyph glyph-name="odotabovemacron" unicode="&#x231;" horiz-adv-x="1062" 
d="M588 969q189 0 297 -109.5t108 -304.5q0 -93 -20.5 -178t-63 -158.5t-102.5 -127.5t-144.5 -85t-183.5 -31q-183 0 -296 105t-113 297q0 95 20.5 182t62.5 162t102.5 130t146 86.5t186.5 31.5zM565 772q-107 0 -172 -111t-65 -276q0 -107 44.5 -164t123.5 -57
q109 0 173 112t64 279q0 104 -44 160.5t-124 56.5zM952 1364h-579l37 199h579zM475 1157q0 67 44 107.5t108 40.5q69 0 113 -40t44 -108q0 -66 -44 -105.5t-113 -39.5q-64 0 -108 40t-44 105z" />
    <glyph glyph-name="odotabovemacron" unicode="&#xe11e;" horiz-adv-x="1062" 
d="M588 969q189 0 297 -109.5t108 -304.5q0 -93 -20.5 -178t-63 -158.5t-102.5 -127.5t-144.5 -85t-183.5 -31q-183 0 -296 105t-113 297q0 95 20.5 182t62.5 162t102.5 130t146 86.5t186.5 31.5zM565 772q-107 0 -172 -111t-65 -276q0 -107 44.5 -164t123.5 -57
q109 0 173 112t64 279q0 104 -44 160.5t-124 56.5zM952 1364h-579l37 199h579zM475 1157q0 67 44 107.5t108 40.5q69 0 113 -40t44 -108q0 -66 -44 -105.5t-113 -39.5q-64 0 -108 40t-44 105z" />
    <glyph glyph-name="Ymacron" unicode="&#x232;" horiz-adv-x="1087" 
d="M414 1206l102 -319q21 -68 33.5 -136.5t14.5 -102.5l3 -34h8q4 14 12.5 38.5t42 96t77.5 138.5l208 319h269l-516 -786l-72 -420h-252l72 420l-266 786h264zM997 1366h-591l34 197h592z" />
    <glyph glyph-name="ymacron" unicode="&#x233;" horiz-adv-x="935" 
d="M338 946l47 -495q8 -76 10 -147t0 -104l-2 -32h8q29 137 107 289l254 489h260l-569 -1044q-57 -105 -111.5 -173t-110 -102t-106 -46.5t-117.5 -12.5q-100 0 -176 39l68 196q59 -36 116 -36q68 0 120 42.5t102 137.5l-156 999h256zM846 1116h-582l37 199h580z" />
    <glyph glyph-name="dotlessj" unicode="&#x237;" horiz-adv-x="497" 
d="M465 946l-191 -1075q-28 -166 -115.5 -234.5t-240.5 -68.5q-133 0 -223 55l69 184q66 -53 138 -53q54 0 85.5 33t45.5 119l184 1040h248z" />
    <glyph glyph-name="schwa" unicode="&#x259;" horiz-adv-x="1013" 
d="M522 780q-129 0 -178 -137l-229 57q105 269 428 269q188 0 294.5 -109t106.5 -293q0 -142 -42 -257t-112.5 -186.5t-159 -110t-186.5 -38.5q-94 0 -167.5 28.5t-117.5 77t-66.5 108.5t-22.5 128q0 112 41 199h571q15 110 -25.5 187t-134.5 77zM662 371h-338
q-9 -24 -9 -56q0 -70 34.5 -113.5t105.5 -43.5q151 0 207 213z" />
    <glyph glyph-name="ezh" unicode="&#x292;" horiz-adv-x="866" 
d="M233 451l140 149q40 44 79 81.5t58 52.5l20 16l2 8q-65 -8 -176 -8h-241l35 196h708l-27 -155l-378 -375l-2 -6q144 -16 212 -105t68 -223q0 -95 -39 -172.5t-104 -125t-145.5 -72.5t-168.5 -25q-340 0 -360 286l213 78q-6 -89 40.5 -135.5t125.5 -46.5q88 0 144.5 53
t56.5 146q0 46 -11.5 81t-41.5 67.5t-88.5 53.5t-145.5 29z" />
    <glyph glyph-name="circumflex" unicode="&#x2c6;" horiz-adv-x="1017" 
d="M487 1393h152l215 -318h-225l-54 76q-14 20 -21.5 38t-7.5 26l-1 8h-10q-9 -27 -56 -72l-80 -76h-235z" />
    <glyph glyph-name="caron" unicode="&#x2c7;" horiz-adv-x="1017" 
d="M530 1075h-151l-215 318h225l53 -76q14 -19 21.5 -36.5t8.5 -25.5l1 -8h10q9 27 56 70l79 76h236z" />
    <glyph glyph-name="breve" unicode="&#x2d8;" horiz-adv-x="931" 
d="M414 1069q-147 0 -207.5 86.5t-34.5 226.5h184q-10 -69 7 -102t81 -33q65 0 95 33.5t45 101.5h184q-26 -141 -116.5 -227t-237.5 -86z" />
    <glyph glyph-name="dotaccent" unicode="&#x2d9;" horiz-adv-x="636" 
d="M164 1233q0 67 43.5 107t107.5 40q69 0 113.5 -39.5t44.5 -107.5q0 -66 -44.5 -106t-113.5 -40q-64 0 -107.5 40t-43.5 106z" />
    <glyph glyph-name="ring" unicode="&#x2da;" horiz-adv-x="768" 
d="M164 1247q0 98 66.5 166t172.5 68q90 0 145.5 -56.5t55.5 -140.5q0 -100 -65.5 -167.5t-169.5 -67.5q-98 0 -151.5 54.5t-53.5 143.5zM395 1370q-46 0 -76 -34t-30 -81q0 -43 23.5 -67.5t66.5 -24.5q46 0 75 34t29 81q0 41 -23 66.5t-65 25.5z" />
    <glyph glyph-name="ogonek" unicode="&#x2db;" horiz-adv-x="792" 
d="M164 -227q0 76 37 140.5t94.5 105.5t124 64.5t129.5 25.5l63 -109q-109 0 -179.5 -51.5t-70.5 -134.5q0 -39 22.5 -62.5t59.5 -23.5q39 0 66.5 15.5t58.5 51.5l60 -123q-84 -104 -236 -104q-104 0 -166.5 52t-62.5 153z" />
    <glyph glyph-name="tilde" unicode="&#x2dc;" horiz-adv-x="1038" 
d="M659 1073q-38 0 -68.5 8.5t-42.5 15t-46 27.5l-22.5 15t-21 13.5t-16.5 9.5t-18 8.5t-15 3.5t-18 2q-32 0 -54.5 -27.5t-25.5 -77.5h-139q-27 127 38 213t175 86q35 0 63.5 -8t43 -16.5t40.5 -26.5q6 -4 18.5 -12t17.5 -11t14.5 -9t14 -8t12 -5.5t13 -4.5t12 -2t13.5 -1
q67 0 72 100h145q29 -129 -29.5 -211t-175.5 -82z" />
    <glyph glyph-name="hungarumlaut" unicode="&#x2dd;" horiz-adv-x="1081" 
d="M340 1079h-176l112 310h269zM680 1079h-191l148 310h281z" />
    <glyph glyph-name="uni0312" unicode="&#x312;" horiz-adv-x="700" 
d="M164 1489q0 117 84 177t221 60v-86q-158 -7 -158 -81q57 9 96 -20t39 -89q0 -59 -37.5 -92t-95.5 -33q-67 0 -108 43.5t-41 120.5z" />
    <glyph glyph-name="uni0320" unicode="&#x320;" horiz-adv-x="944" 
d="M743 -389h-579l37 199h579z" />
    <glyph glyph-name="uni0323" unicode="&#x323;" horiz-adv-x="636" 
d="M164 -254q0 68 43 108t108 40q68 0 113 -40t45 -108q0 -66 -45 -105.5t-113 -39.5q-65 0 -108 39.5t-43 105.5z" />
    <glyph glyph-name="uni0329" unicode="&#x329;" horiz-adv-x="563" 
d="M164 -426v332h235v-316z" />
    <glyph glyph-name="pi" unicode="&#x3c0;" horiz-adv-x="1355" 
d="M410 985h921l-33 -186h-206l-101 -543q-19 -104 51 -104q19 0 33.5 5.5t30 22t25 29.5t30.5 43l103 -123q-50 -84 -121 -119t-166 -35q-136 0 -191.5 75t-27.5 220l100 529h-213l-237 -799h-248l246 799h-25q-66 0 -108 -36t-46 -114h-188q9 169 100 252.5t271 83.5z" />
    <glyph glyph-name="pi" unicode="&#x3d6;" horiz-adv-x="1355" 
d="M410 985h921l-33 -186h-206l-101 -543q-19 -104 51 -104q19 0 33.5 5.5t30 22t25 29.5t30.5 43l103 -123q-50 -84 -121 -119t-166 -35q-136 0 -191.5 75t-27.5 220l100 529h-213l-237 -799h-248l246 799h-25q-66 0 -108 -36t-46 -114h-188q9 169 100 252.5t271 83.5z" />
    <glyph glyph-name="uni0E3F" unicode="&#xe3f;" horiz-adv-x="1093" 
d="M784 508v-8q100 -7 153.5 -62t53.5 -145q0 -82 -30 -140t-87 -91t-131 -47.5t-172 -14.5h-51l-37 -217h-102l37 217h-357l172 985h359l35 191h102l-35 -191q165 0 245.5 -53t80.5 -174q0 -112 -62.5 -175t-173.5 -75zM629 420h-33l-45 -242h22q84 0 133.5 33t49.5 102
q0 54 -30.5 80.5t-96.5 26.5zM410 571h110l41 240h-110zM383 420l-43 -242h109l45 242h-111zM776 711q0 49 -27.5 73t-84.5 27l-41 -240q68 0 110.5 36.5t42.5 103.5z" />
    <glyph glyph-name="Ddotbelow" unicode="&#x1e0c;" horiz-adv-x="1261" 
d="M358 209h144q187 0 303.5 128.5t116.5 375.5q0 284 -304 284h-120zM481 0h-411l211 1206h381q261 0 392.5 -119t131.5 -352q0 -156 -38 -281.5t-103.5 -209t-156.5 -139.5t-192 -80.5t-215 -24.5zM260 -274q0 67 43.5 107t108.5 40q69 0 113 -39.5t44 -107.5
q0 -66 -44 -106t-113 -40q-65 0 -108.5 40t-43.5 106z" />
    <glyph glyph-name="ddotbelow" unicode="&#x1e0d;" horiz-adv-x="1134" 
d="M696 393l29 160q16 95 -17.5 161t-121.5 66q-79 0 -140 -56t-91.5 -146.5t-30.5 -198.5q0 -96 39.5 -155.5t115.5 -59.5q86 0 141.5 59t75.5 170zM1114 1368l-190 -1094q-7 -41 3.5 -64.5t51.5 -23.5q15 0 61 11l-36 -185q-68 -22 -138 -22q-98 0 -147 41t-53 129
q-32 -95 -108 -140t-173 -45q-149 0 -232 102.5t-83 284.5q0 164 53.5 300.5t160 221.5t246.5 85q100 0 163 -44.5t73 -136.5l100 580h248zM270 -274q0 67 43.5 107t108.5 40q69 0 113.5 -39.5t44.5 -107.5q0 -66 -44.5 -106t-113.5 -40q-65 0 -108.5 40t-43.5 106z" />
    <glyph glyph-name="Dcedilla" unicode="&#x1e10;" horiz-adv-x="1261" 
d="M633 -246q0 -90 -65.5 -138t-166.5 -48q-68 0 -122 20.5t-82 55.5l49 120q59 -71 129 -71q71 0 71 59q0 71 -108 82l65 166h-333l211 1206h381q261 0 392.5 -119t131.5 -352q0 -154 -37 -278t-99.5 -206.5t-151 -138.5t-186 -82t-208.5 -30l-33 -78q83 -14 122.5 -53.5
t39.5 -114.5zM358 209h144q187 0 303.5 128.5t116.5 375.5q0 284 -304 284h-120z" />
    <glyph glyph-name="dcedilla" unicode="&#x1e11;" horiz-adv-x="1134" 
d="M641 -246q0 -90 -65 -138t-166 -48q-66 0 -120.5 20.5t-84.5 55.5l51 120q59 -71 129 -71q72 0 72 59q0 71 -109 82l55 143q-26 0 -53 3q-134 10 -207 111t-73 271q0 157 50 290t149 218.5t229 94.5q37 5 84 -2q77 -9 125.5 -53t58.5 -122l100 580h248l-190 -1094
q-7 -41 3.5 -64.5t51.5 -23.5q15 0 61 11l-36 -185q-68 -22 -138 -22q-97 0 -146.5 41t-53.5 129q-39 -112 -150 -156l-35 -82q83 -14 121.5 -53.5t38.5 -114.5zM696 393l29 160q16 95 -17.5 161t-121.5 66q-79 0 -140 -56t-91.5 -146.5t-30.5 -198.5q0 -96 39.5 -155.5
t115.5 -59.5q86 0 141.5 59t75.5 170z" />
    <glyph glyph-name="Hdotbelow" unicode="&#x1e24;" horiz-adv-x="1306" 
d="M322 0h-252l211 1206h251l-83 -485h495l86 485h252l-211 -1206h-252l88 504h-497zM367 -274q0 67 43 107t108 40q69 0 113.5 -39.5t44.5 -107.5q0 -66 -44.5 -106t-113.5 -40q-65 0 -108 40t-43 106z" />
    <glyph glyph-name="hdotbelow" unicode="&#x1e25;" horiz-adv-x="1120" 
d="M987 649l-63 -375q-7 -41 3.5 -64.5t51.5 -23.5q15 0 61 11l-36 -185q-68 -22 -138 -22q-241 0 -196 248l63 360q28 168 -110 168q-72 0 -132.5 -63.5t-84.5 -194.5l-89 -508h-247l239 1368h250l-108 -614q47 108 118.5 161.5t182.5 53.5t176 -63t65 -171q0 -53 -6 -86z
M305 -274q0 67 43.5 107t108.5 40q69 0 113 -39.5t44 -107.5q0 -66 -44 -106t-113 -40q-65 0 -108.5 40t-43.5 106z" />
    <glyph glyph-name="Ldotbelow" unicode="&#x1e36;" horiz-adv-x="954" 
d="M281 1206h251l-174 -991h490l-35 -215h-743zM242 -274q0 67 43 107t108 40q68 0 112 -40t44 -107q0 -66 -44.5 -106t-111.5 -40q-65 0 -108 40t-43 106z" />
    <glyph glyph-name="ldotbelow" unicode="&#x1e37;" horiz-adv-x="559" 
d="M539 1368l-193 -1094q-7 -41 3.5 -64.5t51.5 -23.5q16 0 62 11l-37 -185q-68 -22 -137 -22q-242 0 -197 248l199 1130h248zM31 -274q0 67 43 107t108 40q68 0 112 -40t44 -107q0 -66 -44.5 -106t-111.5 -40q-65 0 -108 40t-43 106z" />
    <glyph glyph-name="uni004C032300AF" unicode="&#x1e38;" horiz-adv-x="954" 
d="M281 1206h251l-174 -991h490l-35 -215h-743zM242 -274q0 67 43 107t108 40q68 0 112 -40t44 -107q0 -66 -44.5 -106t-111.5 -40q-65 0 -108 40t-43 106zM739 1366h-592l35 197h590z" />
    <glyph glyph-name="ldotbelowmacron" unicode="&#x1e39;" horiz-adv-x="559" 
d="M539 1368l-193 -1094q-7 -41 3.5 -64.5t51.5 -23.5q16 0 62 11l-37 -185q-68 -22 -137 -22q-242 0 -197 248l199 1130h248zM31 -274q0 67 43 107t108 40q69 0 113.5 -39.5t44.5 -107.5q0 -66 -44.5 -106t-113.5 -40q-65 0 -108 40t-43 106zM733 1464h-592l35 197h590z
" />
    <glyph glyph-name="Mdotbelow" unicode="&#x1e42;" horiz-adv-x="1472" 
d="M774 285h-131l-125 315q-19 50 -34 102.5t-20 79.5l-5 27h-8q-2 -80 -25 -219l-104 -590h-252l211 1206h258l161 -446q19 -52 32 -98.5t16 -67.5l4 -21h8q24 68 110 185l320 448h258l-211 -1206h-252l105 590q10 62 22 116.5t18 78.5l7 24h-9q-38 -92 -120 -205z
M444 -274q0 67 43.5 107t108.5 40q69 0 113.5 -39.5t44.5 -107.5q0 -66 -44.5 -106t-113.5 -40q-65 0 -108.5 40t-43.5 106z" />
    <glyph glyph-name="mdotbelow" unicode="&#x1e43;" horiz-adv-x="1630" 
d="M854 0h-250l105 598q28 168 -103 168q-70 0 -122.5 -62t-77.5 -196l-89 -508h-247l166 946h217l-4 -192q47 111 111 163t175 52q110 0 172 -59.5t62 -168.5q79 228 299 228q109 0 172 -62.5t63 -171.5q0 -53 -6 -86l-63 -375q-7 -41 3.5 -64.5t51.5 -23.5q15 0 61 11
l-39 -185q-64 -22 -135 -22q-240 0 -198 248l63 360q14 77 -9.5 122.5t-90.5 45.5q-71 0 -125 -62.5t-76 -195.5zM524 -274q0 67 43.5 107t108.5 40q68 0 111.5 -39.5t43.5 -107.5q0 -66 -44 -106t-111 -40q-65 0 -108.5 40t-43.5 106z" />
    <glyph glyph-name="Ndotaccent" unicode="&#x1e44;" horiz-adv-x="1312" 
d="M520 1206l291 -606q24 -50 44.5 -104.5t28.5 -83.5l9 -29h8q10 122 37 276l96 547h254l-211 -1206h-231l-299 596q-25 53 -47.5 109.5t-32.5 86.5l-10 31h-8q-4 -116 -35 -284l-92 -539h-252l211 1206h239zM653 1495q0 68 43.5 107.5t108.5 39.5q70 0 114 -39t44 -108
q0 -66 -44.5 -105.5t-113.5 -39.5q-65 0 -108.5 39.5t-43.5 105.5z" />
    <glyph glyph-name="ndotaccent" unicode="&#x1e45;" horiz-adv-x="1120" 
d="M987 649l-63 -375q-7 -41 3.5 -64.5t51.5 -23.5q15 0 61 11l-36 -185q-68 -22 -138 -22q-241 0 -196 248l63 360q28 168 -110 168q-72 0 -132.5 -63.5t-84.5 -194.5l-89 -508h-247l166 946h217l-4 -192q49 108 121 161.5t182 53.5q111 0 176 -63t65 -171q0 -53 -6 -86z
M514 1233q0 67 43.5 107t108.5 40q69 0 112 -39.5t43 -107.5q0 -67 -43 -106.5t-112 -39.5q-65 0 -108.5 40t-43.5 106z" />
    <glyph glyph-name="Ndotbelow" unicode="&#x1e46;" horiz-adv-x="1312" 
d="M520 1206l291 -606q24 -50 44.5 -104.5t28.5 -83.5l9 -29h8q10 122 37 276l96 547h254l-211 -1206h-231l-299 596q-25 53 -47.5 109.5t-32.5 86.5l-10 31h-8q-4 -116 -35 -284l-92 -539h-252l211 1206h239zM346 -274q0 67 43.5 107t108.5 40q69 0 113 -39.5t44 -107.5
q0 -66 -44 -106t-113 -40q-65 0 -108.5 40t-43.5 106z" />
    <glyph glyph-name="ndotbelow" unicode="&#x1e47;" horiz-adv-x="1120" 
d="M987 649l-63 -375q-7 -41 3.5 -64.5t51.5 -23.5q15 0 61 11l-36 -185q-68 -22 -138 -22q-241 0 -196 248l63 360q28 168 -110 168q-72 0 -132.5 -63.5t-84.5 -194.5l-89 -508h-247l166 946h217l-4 -192q49 108 121 161.5t182 53.5q111 0 176 -63t65 -171q0 -53 -6 -86z
M252 -274q0 67 43 107t108 40q69 0 113.5 -39.5t44.5 -107.5q0 -66 -44.5 -106t-113.5 -40q-65 0 -108 40t-43 106z" />
    <glyph glyph-name="Rdotbelow" unicode="&#x1e5a;" horiz-adv-x="1171" 
d="M1044 0h-272q-35 35 -49 121l-31 190q-13 82 -47.5 108.5t-116.5 26.5h-129l-77 -446h-252l211 1206h444q197 0 288 -73.5t91 -233.5q0 -86 -28 -153.5t-75 -109t-102.5 -64t-116.5 -27.5v-8q81 -12 119 -51.5t53 -127.5l39 -229q14 -83 51 -129zM498 997l-62 -344h189
q101 0 160 49t59 156q0 69 -39 104t-125 35h-182zM313 -274q0 67 43.5 107t108.5 40q69 0 113.5 -39.5t44.5 -107.5q0 -66 -44.5 -106t-113.5 -40q-65 0 -108.5 40t-43.5 106z" />
    <glyph glyph-name="rdotbelow" unicode="&#x1e5b;" horiz-adv-x="768" 
d="M815 963l-59 -289q-52 21 -108.5 21t-107 -20t-88 -67.5t-49.5 -115.5l-86 -492h-247l166 946h217l-13 -241q51 134 155 209t220 49zM2 -274q0 67 43.5 107t108.5 40q69 0 113 -39.5t44 -107.5q0 -66 -44 -106t-113 -40q-65 0 -108.5 40t-43.5 106z" />
    <glyph glyph-name="Rdotbelowmacron" unicode="&#x1e5c;" horiz-adv-x="1171" 
d="M1044 0h-272q-35 35 -49 121l-31 190q-13 82 -47.5 108.5t-116.5 26.5h-129l-77 -446h-252l211 1206h444q197 0 288 -73.5t91 -233.5q0 -86 -28 -153.5t-75 -109t-102.5 -64t-116.5 -27.5v-8q81 -12 119 -51.5t53 -127.5l39 -229q14 -83 51 -129zM498 997l-62 -344h189
q101 0 160 49t59 156q0 69 -39 104t-125 35h-182zM313 -274q0 67 43.5 107t108.5 40q69 0 113.5 -39.5t44.5 -107.5q0 -66 -44.5 -106t-113.5 -40q-65 0 -108.5 40t-43.5 106zM993 1366h-592l35 197h592z" />
    <glyph glyph-name="rdotbelowmacron" unicode="&#x1e5d;" horiz-adv-x="768" 
d="M815 963l-59 -289q-52 21 -108.5 21t-107 -20t-88 -67.5t-49.5 -115.5l-86 -492h-247l166 946h217l-13 -241q51 134 155 209t220 49zM823 1116h-579l35 199h581zM2 -274q0 67 43.5 107t108.5 40q69 0 113 -39.5t44 -107.5q0 -66 -44 -106t-113 -40q-65 0 -108.5 40
t-43.5 106z" />
    <glyph glyph-name="Sdotbelow" unicode="&#x1e62;" horiz-adv-x="1040" 
d="M29 287l227 78q0 -96 55 -149.5t152 -53.5q196 0 196 155q0 69 -40 109.5t-144 75.5q-157 52 -228 132.5t-71 217.5q0 101 39.5 177.5t105.5 119t140 62.5t155 20q191 0 292.5 -79t107.5 -249l-242 -47q3 86 -44.5 130t-133.5 44q-83 0 -130.5 -38.5t-47.5 -110.5
q0 -62 40 -94t150 -72q162 -57 232.5 -138t70.5 -225q0 -101 -38 -176t-105 -117.5t-149 -63t-181 -20.5q-185 0 -292 76.5t-117 235.5zM213 -274q0 67 43.5 107t108.5 40q69 0 113 -39.5t44 -107.5q0 -66 -44 -106t-113 -40q-65 0 -108.5 40t-43.5 106z" />
    <glyph glyph-name="sdotbelow" unicode="&#x1e63;" horiz-adv-x="876" 
d="M16 244l207 69q3 -84 48 -127t118 -43q135 0 135 103q0 52 -31 82t-116 57q-124 37 -183 105t-59 176q0 150 104.5 226.5t270.5 76.5t251 -67t85 -193l-211 -45q0 65 -36.5 101t-104.5 36q-57 0 -91 -27.5t-34 -73.5q0 -43 31 -69t130 -62q132 -46 185 -113t53 -186
q0 -149 -105.5 -222t-283.5 -73q-161 0 -257 68t-106 201zM150 -274q0 67 43 107t108 40q69 0 113.5 -39.5t44.5 -107.5q0 -66 -44.5 -106t-113.5 -40q-65 0 -108 40t-43 106z" />
    <glyph glyph-name="Tdotbelow" unicode="&#x1e6c;" horiz-adv-x="1015" 
d="M545 0h-250l172 991h-336l39 215h928l-39 -215h-340zM221 -274q0 67 43.5 107t108.5 40q68 0 111.5 -39.5t43.5 -107.5q0 -66 -44 -106t-111 -40q-65 0 -108.5 40t-43.5 106z" />
    <glyph glyph-name="tdotbelow" unicode="&#x1e6d;" horiz-adv-x="706" 
d="M598 236v-205q-42 -26 -106.5 -41t-129.5 -15q-148 0 -214 81.5t-35 252.5l77 447h-133l33 190h137l35 201l250 29l-39 -230h248l-35 -190h-246l-80 -451q-22 -117 78 -117q76 0 160 48zM121 -274q0 67 43 107t108 40q68 0 112 -40t44 -107q0 -66 -44.5 -106t-111.5 -40
q-65 0 -108 40t-43 106z" />
    <glyph glyph-name="Wgrave" unicode="&#x1e80;" horiz-adv-x="1748" 
d="M1143 1206l43 -694q5 -79 5 -163t-3 -129l-2 -44h8q40 160 106 334l267 696h262l-481 -1206h-357l-47 635q-5 76 -5 155.5t3 121.5l2 42h-8q-28 -145 -100 -321l-263 -633h-344l-49 1206h254l23 -692q3 -92 2 -167t-3 -123l-3 -48h8q34 162 106 336l281 694h295z
M1122 1329h-223l-219 279h311z" />
    <glyph glyph-name="wgrave" unicode="&#x1e81;" horiz-adv-x="1427" 
d="M901 946l35 -426q9 -84 9 -170t-5 -130l-4 -44h8q29 149 109 342l180 428h260l-416 -946h-291l-45 375q-6 72 -6 148t3 115l3 40h-8q-30 -139 -102 -305l-156 -373h-289l-96 946h250l35 -428q7 -84 8 -169.5t-1 -128.5l-3 -44h8q31 156 111 344l182 426h221zM930 1079
h-221l-238 310h311z" />
    <glyph glyph-name="Wacute" unicode="&#x1e82;" horiz-adv-x="1748" 
d="M1143 1206l43 -694q5 -79 5 -163t-3 -129l-2 -44h8q40 160 106 334l267 696h262l-481 -1206h-357l-47 635q-5 76 -5 155.5t3 121.5l2 42h-8q-28 -145 -100 -321l-263 -633h-344l-49 1206h254l23 -692q3 -92 2 -167t-3 -123l-3 -48h8q34 162 106 336l281 694h295z
M1100 1329h-226l132 279h311z" />
    <glyph glyph-name="wacute" unicode="&#x1e83;" horiz-adv-x="1427" 
d="M901 946l35 -426q9 -84 9 -170t-5 -130l-4 -44h8q29 149 109 342l180 428h260l-416 -946h-291l-45 375q-6 72 -6 148t3 115l3 40h-8q-30 -139 -102 -305l-156 -373h-289l-96 946h250l35 -428q7 -84 8 -169.5t-1 -128.5l-3 -44h8q31 156 111 344l182 426h221zM903 1079
h-221l145 310h314z" />
    <glyph glyph-name="Wdieresis" unicode="&#x1e84;" horiz-adv-x="1748" 
d="M1143 1206l43 -694q5 -79 5 -163t-3 -129l-2 -44h8q40 160 106 334l267 696h262l-481 -1206h-357l-47 635q-5 76 -5 155.5t3 121.5l2 42h-8q-28 -145 -100 -321l-263 -633h-344l-49 1206h254l23 -692q3 -92 2 -167t-3 -123l-3 -48h8q34 162 106 336l281 694h295z
M655 1475q0 67 40.5 105t101.5 38q64 0 104.5 -38t40.5 -105q0 -66 -41 -105t-104 -39q-60 0 -101 39t-41 105zM1085 1473q0 66 41 104.5t101 38.5q65 0 105 -38t40 -105q0 -65 -40.5 -103.5t-104.5 -38.5q-59 0 -100.5 39t-41.5 103z" />
    <glyph glyph-name="wdieresis" unicode="&#x1e85;" horiz-adv-x="1427" 
d="M901 946l35 -426q9 -84 9 -170t-5 -130l-4 -44h8q29 149 109 342l180 428h260l-416 -946h-291l-45 375q-6 72 -6 148t3 115l3 40h-8q-30 -139 -102 -305l-156 -373h-289l-96 946h250l35 -428q7 -84 8 -169.5t-1 -128.5l-3 -44h8q31 156 111 344l182 426h221zM463 1221
q0 66 40.5 104.5t100.5 38.5q65 0 105.5 -38t40.5 -105q0 -66 -41 -105t-105 -39q-59 0 -100 39.5t-41 104.5zM895 1219q0 66 40.5 104.5t100.5 38.5q64 0 105 -38t41 -105q0 -65 -41.5 -103.5t-104.5 -38.5q-59 0 -100 39t-41 103z" />
    <glyph glyph-name="Idotbelow" unicode="&#x1eca;" horiz-adv-x="557" 
d="M281 1206h251l-210 -1206h-252zM-8 -274q0 67 43 107t108 40q68 0 112 -40t44 -107q0 -66 -44.5 -106t-111.5 -40q-65 0 -108 40t-43 106z" />
    <glyph glyph-name="idotbelow" unicode="&#x1ecb;" horiz-adv-x="559" 
d="M465 946l-119 -672q-7 -41 3.5 -64.5t51.5 -23.5q16 0 62 11l-37 -185q-68 -22 -137 -22q-242 0 -197 248l125 708h248zM229 1239q0 68 44 107.5t108 39.5q70 0 114 -39t44 -108q0 -66 -44.5 -104.5t-113.5 -38.5q-64 0 -108 39t-44 104zM-6 -274q0 67 43 107t108 40
q69 0 113.5 -39.5t44.5 -107.5q0 -66 -44.5 -106t-113.5 -40q-65 0 -108 40t-43 106z" />
    <glyph glyph-name="Odotbelow" unicode="&#x1ecc;" horiz-adv-x="1296" 
d="M596 -25q-234 0 -362 134.5t-128 363.5q0 140 32.5 261.5t90.5 211.5t136.5 155t172.5 97.5t197 32.5q235 0 362.5 -135t127.5 -365q0 -174 -50.5 -318.5t-136.5 -239t-200 -146.5t-242 -52zM717 1014q-109 0 -191 -72.5t-123 -190t-41 -259.5q0 -145 65.5 -225.5
t182.5 -80.5q105 0 186.5 72.5t124 192.5t42.5 264q0 137 -63.5 218t-182.5 81zM336 -274q0 67 43 107t108 40q68 0 112 -40t44 -107q0 -66 -44.5 -106t-111.5 -40q-65 0 -108 40t-43 106z" />
    <glyph glyph-name="odotbelow" unicode="&#x1ecd;" horiz-adv-x="1062" 
d="M588 969q189 0 297 -109.5t108 -304.5q0 -93 -20.5 -178t-63 -158.5t-102.5 -127.5t-144.5 -85t-183.5 -31q-183 0 -296 105t-113 297q0 95 20.5 182t62.5 162t102.5 130t146 86.5t186.5 31.5zM565 772q-107 0 -172 -111t-65 -276q0 -107 44.5 -164t123.5 -57
q109 0 173 112t64 279q0 104 -44 160.5t-124 56.5zM211 -274q0 67 43 107t108 40q68 0 112 -40t44 -107q0 -66 -44.5 -106t-111.5 -40q-65 0 -108 40t-43 106z" />
    <glyph glyph-name="Udotbelow" unicode="&#x1ee4;" horiz-adv-x="1236" 
d="M979 1206h254l-141 -798q-21 -122 -69 -208t-121 -134.5t-159.5 -69.5t-197.5 -21q-105 0 -188.5 26t-146 81.5t-86 153.5t0.5 231l129 739h252l-131 -737q-51 -287 205 -287q125 0 184.5 67t85.5 214zM319 -274q0 67 43.5 107t108.5 40q68 0 112 -40t44 -107
q0 -66 -44.5 -106t-111.5 -40q-65 0 -108.5 40t-43.5 106z" />
    <glyph glyph-name="udotbelow" unicode="&#x1ee5;" horiz-adv-x="1112" 
d="M662 180q-42 -106 -117.5 -155.5t-190.5 -49.5q-150 0 -217.5 95t-38.5 264l109 612h248l-109 -627q-13 -79 15.5 -121t93.5 -42q77 0 137.5 59t79.5 176l98 555h248l-119 -672q-7 -41 3.5 -64.5t51.5 -23.5q14 0 60 11l-37 -185q-68 -22 -137 -22q-99 0 -141.5 47
t-36.5 143zM233 -274q0 67 43.5 107t108.5 40q68 0 112 -40t44 -107q0 -66 -44.5 -106t-111.5 -40q-65 0 -108.5 40t-43.5 106z" />
    <glyph glyph-name="Ygrave" unicode="&#x1ef2;" horiz-adv-x="1087" 
d="M414 1206l102 -319q21 -68 33.5 -136.5t14.5 -102.5l3 -34h8q4 14 12.5 38.5t42 96t77.5 138.5l208 319h269l-516 -786l-72 -420h-252l72 420l-266 786h264zM817 1329h-223l-219 279h311z" />
    <glyph glyph-name="ygrave" unicode="&#x1ef3;" horiz-adv-x="935" 
d="M338 946l47 -495q8 -76 10 -147t0 -104l-2 -32h8q29 137 107 289l254 489h260l-569 -1044q-57 -105 -111.5 -173t-110 -102t-106 -46.5t-117.5 -12.5q-100 0 -176 39l68 196q59 -36 116 -36q68 0 120 42.5t102 137.5l-156 999h256zM674 1079h-221l-238 310h311z" />
    <glyph glyph-name="Ytilde" unicode="&#x1ef8;" horiz-adv-x="1087" 
d="M414 1206l102 -319q21 -68 33.5 -136.5t14.5 -102.5l3 -34h8q4 14 12.5 38.5t42 96t77.5 138.5l208 319h269l-516 -786l-72 -420h-252l72 420l-266 786h264zM829 1331q-37 0 -66.5 8t-43 16t-45.5 29q-5 3 -17.5 11.5t-16.5 11t-14 8.5t-14 7.5t-11.5 5.5t-12.5 5t-12 2
t-13 1q-34 0 -56.5 -27t-23.5 -78h-139q-28 126 37 211.5t176 85.5q34 0 62.5 -7.5t44 -16t41.5 -25.5q35 -24 47 -32t30 -15.5t35 -7.5q66 0 74 100h143q30 -129 -28.5 -211t-176.5 -82z" />
    <glyph glyph-name="ytilde" unicode="&#x1ef9;" horiz-adv-x="935" 
d="M338 946l47 -495q8 -76 10 -147t0 -104l-2 -32h8q29 137 107 289l254 489h260l-569 -1044q-57 -105 -111.5 -173t-110 -102t-106 -46.5t-117.5 -12.5q-100 0 -176 39l68 196q59 -36 116 -36q68 0 120 42.5t102 137.5l-156 999h256zM702 1073q-37 0 -67 8.5t-42 15
t-46 27.5q-5 3 -17.5 11.5t-16.5 11t-14 8.5t-14 7.5t-11.5 5.5t-12.5 5t-12 2t-13 1q-34 0 -56.5 -27t-23.5 -78h-139q-28 127 37 213t176 86q34 0 63 -8.5t43 -16.5t42 -26q65 -43 85 -49q14 -4 27 -4q66 0 74 100h143q30 -129 -28.5 -211t-176.5 -82z" />
    <glyph glyph-name="enspace" unicode="&#x2002;" horiz-adv-x="921" 
 />
    <glyph glyph-name="emspace" unicode="&#x2003;" horiz-adv-x="1843" 
 />
    <glyph glyph-name="threeperemspace" unicode="&#x2004;" horiz-adv-x="614" 
 />
    <glyph glyph-name="fourperemspace" unicode="&#x2005;" horiz-adv-x="460" 
 />
    <glyph glyph-name="sixperemspace" unicode="&#x2006;" horiz-adv-x="307" 
 />
    <glyph glyph-name="figurespace" unicode="&#x2007;" horiz-adv-x="1050" 
 />
    <glyph glyph-name="punctuationspace" unicode="&#x2008;" horiz-adv-x="350" 
 />
    <glyph glyph-name="thinspace" unicode="&#x2009;" horiz-adv-x="184" 
 />
    <glyph glyph-name="hairspace" unicode="&#x200a;" horiz-adv-x="92" 
 />
    <glyph glyph-name="zerowidthspace" unicode="&#x200b;" horiz-adv-x="0" 
 />
    <glyph glyph-name="figuredash" unicode="&#x2012;" 
d="M131 436l29 166h876l-28 -166h-877z" />
    <glyph glyph-name="endash" unicode="&#x2013;" horiz-adv-x="1052" 
d="M131 436l29 166h762l-29 -166h-762z" />
    <glyph glyph-name="emdash" unicode="&#x2014;" horiz-adv-x="2076" 
d="M131 436l29 166h1786l-29 -166h-1786z" />
    <glyph glyph-name="uni2015" unicode="&#x2015;" horiz-adv-x="2560" 
d="M143 436l29 166h2245l-29 -166h-2245z" />
    <glyph glyph-name="doublebar" unicode="&#x2016;" horiz-adv-x="888" 
d="M197 -416h-199l313 1784h199zM582 -416h-199l313 1784h199z" />
    <glyph glyph-name="quoteleft" unicode="&#x2018;" horiz-adv-x="495" 
d="M178 1057q0 86 33 152t90.5 104.5t128 58t152.5 21.5v-105q-98 -6 -169 -49t-71 -111q70 13 121 -23t51 -108q0 -71 -45.5 -110t-116.5 -39q-78 0 -126 57t-48 152z" />
    <glyph glyph-name="quoteright" unicode="&#x2019;" horiz-adv-x="495" 
d="M537 1184q0 -86 -33 -151.5t-90.5 -104t-127.5 -58.5t-153 -22v104q98 6 169 49t71 111q-71 -11 -121.5 24t-50.5 107q0 71 45 110.5t114 39.5q80 0 128.5 -57t48.5 -152z" />
    <glyph glyph-name="quotesinglbase" unicode="&#x201a;" horiz-adv-x="495" 
d="M352 78q0 -85 -33 -150.5t-90 -104.5t-127.5 -59t-152.5 -22v104q98 6 168.5 49t70.5 111q-71 -11 -121.5 24.5t-50.5 106.5q0 72 45 111t115 39q80 0 128 -57t48 -152z" />
    <glyph glyph-name="reversequoteleft" unicode="&#x201b;" horiz-adv-x="436" 
d="M143 1192q0 95 48 152t126 57q71 0 116.5 -38.5t45.5 -109.5q0 -72 -50.5 -108t-121.5 -25q0 -68 70.5 -109t169.5 -48v-105q-82 2 -152.5 21.5t-128 58t-90.5 104t-33 150.5z" />
    <glyph glyph-name="quotedblleft" unicode="&#x201c;" horiz-adv-x="933" 
d="M178 1057q0 86 33 152t90.5 104.5t128 58t152.5 21.5v-105q-98 -6 -169 -49t-71 -111q70 13 121 -23t51 -108q0 -71 -45.5 -110t-116.5 -39q-78 0 -126 57t-48 152zM616 1057q0 86 33 152t90.5 104.5t128 58t152.5 21.5v-105q-98 -6 -169 -49t-71 -111q70 13 121 -23
t51 -108q0 -71 -45.5 -110t-115.5 -39q-78 0 -126.5 57t-48.5 152z" />
    <glyph glyph-name="quotedblright" unicode="&#x201d;" horiz-adv-x="933" 
d="M537 1184q0 -86 -33 -151.5t-90.5 -104t-127.5 -58.5t-153 -22v104q98 6 169 49t71 111q-71 -11 -121.5 24t-50.5 107q0 71 45 110.5t114 39.5q80 0 128.5 -57t48.5 -152zM975 1184q0 -86 -33 -151.5t-90.5 -104t-127.5 -58.5t-153 -22v104q98 6 169 49t71 111
q-71 -11 -121.5 24t-50.5 107q0 71 45.5 110.5t114.5 39.5q80 0 128 -57t48 -152z" />
    <glyph glyph-name="quotedblbase" unicode="&#x201e;" horiz-adv-x="933" 
d="M352 80q0 -69 -22 -125.5t-59 -94t-89 -63.5t-110 -38.5t-123 -14.5v104q98 6 168.5 49t70.5 111q-71 -11 -121.5 24t-50.5 107q0 71 45.5 110.5t114.5 39.5q80 0 128 -57t48 -152zM791 80q0 -86 -33 -151.5t-90.5 -104t-127.5 -58.5t-153 -22v104q98 6 169 49t71 111
q-71 -11 -121.5 24t-50.5 107q0 71 45 110.5t114 39.5q80 0 128.5 -57t48.5 -152z" />
    <glyph glyph-name="reversequotedblleft" unicode="&#x201f;" horiz-adv-x="819" 
d="M143 1194q0 95 48 152t126 57q70 0 116 -39.5t46 -110.5q0 -72 -51 -108t-121 -23q0 -68 71 -110.5t169 -48.5v-105q-82 2 -152.5 21.5t-128 58t-90.5 104.5t-33 152zM526 1194q0 95 48 152t126 57q70 0 116 -39.5t46 -110.5q0 -72 -51 -108t-121 -23q0 -68 70.5 -110
t167.5 -49v-105q-82 2 -152 21.5t-127 58t-90 104.5t-33 152z" />
    <glyph glyph-name="dagger" unicode="&#x2020;" horiz-adv-x="1128" 
d="M557 543l-377 -23l41 228l367 -21l63 479h248l-104 -479l374 21l-41 -228l-366 23l-129 -850h-246z" />
    <glyph glyph-name="daggerdbl" unicode="&#x2021;" horiz-adv-x="1128" 
d="M774 612l-53 -303l375 21l-39 -226l-369 23l-55 -434h-244l98 434l-378 -23l38 226l369 -21l53 303l-376 -22l40 227l369 -22l51 411h246l-92 -411l375 22l-39 -227z" />
    <glyph glyph-name="bullet" unicode="&#x2022;" horiz-adv-x="712" 
d="M129 516q0 91 65 156t154 65q91 0 156 -65t65 -156q0 -89 -65 -154t-156 -65q-89 0 -154 65t-65 154z" />
    <glyph glyph-name="ellipsis" unicode="&#x2026;" horiz-adv-x="1781" 
d="M78 150q0 71 47 119t115 48q71 0 118.5 -47.5t47.5 -119.5q0 -68 -48 -114t-118 -46q-68 0 -115 46.5t-47 113.5zM672 150q0 71 47 119t115 48q71 0 118 -47.5t47 -119.5q0 -68 -47.5 -114t-117.5 -46q-68 0 -115 46.5t-47 113.5zM1266 150q0 72 46.5 119.5t114.5 47.5
q71 0 118.5 -47.5t47.5 -119.5q0 -68 -48 -114t-118 -46q-68 0 -114.5 46.5t-46.5 113.5z" />
    <glyph glyph-name="perthousand" unicode="&#x2030;" horiz-adv-x="2551" 
d="M358 469q-133 0 -198.5 81.5t-65.5 219.5q0 114 39.5 215.5t122.5 169.5t193 68q126 0 195 -85.5t69 -224.5q0 -117 -39 -216t-121.5 -163.5t-194.5 -64.5zM430 1063q-42 0 -74 -31t-48 -79t-24 -93.5t-8 -85.5q0 -69 26 -111t77 -42q41 0 72.5 31.5t48 79.5t24.5 94
t8 85q0 152 -102 152zM412 0l837 1206h162l-842 -1206h-157zM1368 -14q-133 0 -198.5 81.5t-65.5 219.5q0 114 39 215t122 169t193 68q126 0 195 -85t69 -224q0 -117 -39 -216t-121 -163.5t-194 -64.5zM1440 580q-42 0 -74 -31t-48 -79t-24 -93.5t-8 -85.5q0 -69 26 -111.5
t77 -42.5q41 0 72.5 32t48 80t24.5 94t8 85q0 152 -102 152zM2105 -14q-133 0 -198.5 81.5t-65.5 219.5q0 114 39 215t122 169t193 68q126 0 195.5 -85t69.5 -224q0 -117 -39 -216t-121.5 -163.5t-194.5 -64.5zM2177 580q-42 0 -74 -31t-48 -79t-24 -93.5t-8 -85.5
q0 -69 26 -111.5t77 -42.5q41 0 72.5 32t48 80t24.5 94t8 85q0 152 -102 152z" />
    <glyph glyph-name="tripleprime" unicode="&#x2034;" horiz-adv-x="1089" 
d="M160 844l92 524h246l-191 -524h-147zM502 844l92 524h246l-191 -524h-147zM842 844l92 524h246l-191 -524h-147z" />
    <glyph glyph-name="guilsinglleft" unicode="&#x2039;" horiz-adv-x="694" 
d="M274 481v-8q31 -14 86 -90l164 -219l-147 -117l-322 434l475 437l109 -123l-238 -226q-33 -30 -64.5 -52t-46.5 -29z" />
    <glyph glyph-name="guilsinglright" unicode="&#x203a;" horiz-adv-x="694" 
d="M420 481v8q-31 17 -86 93l-162 219l147 117l320 -437l-473 -434l-111 123l238 225q33 30 64.5 51.5t46.5 27.5z" />
    <glyph glyph-name="fraction" unicode="&#x2044;" horiz-adv-x="327" 
d="M-336 0l838 1206h162l-842 -1206h-158z" />
    <glyph glyph-name="uni2070" unicode="&#x2070;" horiz-adv-x="745" 
d="M328 469q-133 0 -199 81.5t-66 219.5q0 114 39.5 215.5t122.5 169.5t193 68q126 0 195 -85.5t69 -224.5q0 -117 -39 -216t-121 -163.5t-194 -64.5zM399 1063q-42 0 -73.5 -31t-48 -79t-24 -93.5t-7.5 -85.5q0 -69 25.5 -111t76.5 -42q41 0 73 31.5t48.5 79.5t24.5 94
t8 85q0 152 -103 152z" />
    <glyph glyph-name="uni2074" unicode="&#x2074;" horiz-adv-x="745" 
d="M348 483l27 154h-361l23 129l440 440h182l-75 -434h106l-24 -135h-107l-27 -154h-184zM403 768l25 145q6 34 15 70.5t15 56.5l5 19h-8q-29 -52 -82 -109l-88 -90q-25 -25 -54 -48.5t-45 -34.5l-16 -11v-8q41 10 117 10h116z" />
    <glyph glyph-name="uni2075" unicode="&#x2075;" horiz-adv-x="684" 
d="M102 795l88 411h459l-24 -151h-318l-41 -160q47 53 142 53q92 0 144 -54.5t52 -150.5q0 -137 -87 -205.5t-224 -68.5q-245 0 -270 180l170 56q6 -101 110 -101q58 0 91.5 32t33.5 95q0 49 -24 76t-64 27q-49 0 -88 -39h-150z" />
    <glyph glyph-name="uni2076" unicode="&#x2076;" horiz-adv-x="714" 
d="M686 1098l-143 -97q-21 74 -103 74q-73 0 -128 -67.5t-70 -186.5h8q51 121 190 121q94 0 144.5 -57t50.5 -142q0 -127 -85 -200.5t-224 -73.5q-126 0 -194.5 73t-68.5 203q0 115 34 208t90.5 150.5t127 88.5t146.5 31q87 0 142.5 -30t82.5 -95zM254 692q0 -39 23 -63.5
t67 -24.5q53 0 90 34.5t37 94.5q0 38 -23.5 63t-66.5 25q-52 0 -89.5 -35.5t-37.5 -93.5z" />
    <glyph glyph-name="uni2077" unicode="&#x2077;" horiz-adv-x="651" 
d="M436 1055h-221l-20 -113h-154l47 264h588l-23 -125l-383 -598h-209z" />
    <glyph glyph-name="uni2078" unicode="&#x2078;" horiz-adv-x="720" 
d="M319 469q-137 0 -205.5 51.5t-68.5 138.5q0 82 55 133t142 62v8q-60 17 -90.5 57t-30.5 93q0 100 84.5 155.5t214.5 55.5q124 0 190 -50.5t66 -132.5q0 -78 -46.5 -123.5t-121.5 -58.5v-6q129 -40 129 -164q0 -100 -91 -159.5t-227 -59.5zM406 1096q-49 0 -81 -26
t-32 -71q0 -35 23 -56t63 -21q49 0 83 25.5t34 74.5q0 32 -22.5 53t-67.5 21zM360 793q-56 0 -93.5 -29t-37.5 -82q0 -40 26 -63t75 -23q56 0 93.5 29.5t37.5 81.5q0 40 -27 63t-74 23z" />
    <glyph glyph-name="uni2079" unicode="&#x2079;" horiz-adv-x="706" 
d="M0 594l143 94q10 -35 43.5 -53.5t79.5 -18.5q77 0 131.5 63t67.5 193h-8q-49 -122 -183 -122q-98 0 -151 56.5t-53 141.5q0 127 84.5 201t222.5 74q127 0 196.5 -74.5t69.5 -206.5q0 -228 -107 -350.5t-276 -122.5q-94 0 -163.5 31t-96.5 94zM451 1001q0 37 -24.5 61.5
t-68.5 24.5q-53 0 -89 -32.5t-36 -91.5q0 -40 23.5 -64.5t67.5 -24.5q50 0 88.5 35t38.5 92z" />
    <glyph glyph-name="uni207A" unicode="&#x207a;" horiz-adv-x="909" 
d="M104 918h297l52 288h120l-51 -288h305l-20 -121h-305l-58 -314h-118l55 314h-299z" />
    <glyph glyph-name="uni207B" unicode="&#x207b;" horiz-adv-x="911" 
d="M807 797h-725l22 121h725z" />
    <glyph glyph-name="uni207C" unicode="&#x207c;" horiz-adv-x="956" 
d="M807 676h-725l20 121h725zM854 938h-725l21 121h724z" />
    <glyph glyph-name="uni207D" unicode="&#x207d;" horiz-adv-x="485" 
d="M340 1303h145q-268 -282 -268 -588q0 -166 102 -342h-139q-45 76 -71.5 155.5t-26.5 186.5q0 161 66.5 312t191.5 276z" />
    <glyph glyph-name="uni207E" unicode="&#x207e;" horiz-adv-x="485" 
d="M145 373h-145q268 282 268 588q0 168 -104 342h141q45 -79 71.5 -157.5t26.5 -184.5q0 -161 -66.5 -312t-191.5 -276z" />
    <glyph glyph-name="n.superior" unicode="&#x207f;" horiz-adv-x="843" 
d="M754 1016l-47 -244q-11 -53 36 -53q19 0 52 8l-29 -131q-58 -14 -107 -14q-180 0 -149 168l45 233q18 104 -78 104q-57 0 -98 -39.5t-57 -125.5l-66 -334h-195l125 626h168l-2 -122q68 139 221 139q85 0 135 -43.5t50 -116.5q0 -35 -4 -55z" />
    <glyph glyph-name="uni2080" unicode="&#x2080;" horiz-adv-x="745" 
d="M328 -14q-133 0 -199 81.5t-66 219.5q0 84 23.5 164t67 144.5t112.5 104t152 39.5q126 0 195 -85t69 -224q0 -117 -39 -216t-121 -163.5t-194 -64.5zM399 580q-42 0 -73.5 -31t-48 -79t-24 -93.5t-7.5 -85.5q0 -69 26 -111.5t76 -42.5q41 0 73 32t48.5 80t24.5 94t8 85
q0 152 -103 152z" />
    <glyph glyph-name="uni2081" unicode="&#x2081;" horiz-adv-x="628" 
d="M559 0h-553l25 137h194l72 416l-213 -18l25 145l401 43l-102 -586h176z" />
    <glyph glyph-name="uni2082" unicode="&#x2082;" horiz-adv-x="667" 
d="M582 143l-27 -143h-561l22 123q88 52 144 86.5t113.5 75t88.5 72.5t50.5 66.5t19.5 68.5q0 94 -96 94q-104 0 -125 -131l-148 57q14 100 91 163.5t206 63.5q119 0 188.5 -57t69.5 -164q0 -60 -27.5 -114t-66 -90.5t-96.5 -70.5t-101 -52.5t-98 -38.5v-9h353z" />
    <glyph glyph-name="uni2083" unicode="&#x2083;" horiz-adv-x="645" 
d="M397 371l-2 -4q170 -20 170 -168q0 -103 -84.5 -158t-216.5 -55q-119 0 -186 50.5t-76 139.5l160 47q5 -52 28.5 -78t73.5 -26t80.5 22t30.5 64q0 22 -6 38t-23.5 31.5t-53.5 23t-91 7.5l20 111q193 5 193 106q0 34 -21.5 53t-56.5 19q-85 0 -109 -90l-139 57
q57 178 272 178q108 0 174 -46.5t66 -137.5q0 -76 -53 -123t-150 -61z" />
    <glyph glyph-name="uni2084" unicode="&#x2084;" horiz-adv-x="745" 
d="M348 0l27 154h-361l23 129l440 440h182l-75 -434h106l-24 -135h-107l-27 -154h-184zM403 285l25 145q6 34 15 70t15 56l5 19h-8q-29 -51 -82 -108l-88 -90q-25 -25 -54 -48.5t-45 -34.5l-16 -11v-9q41 11 117 11h116z" />
    <glyph glyph-name="uni2085" unicode="&#x2085;" horiz-adv-x="684" 
d="M102 311l88 412h459l-24 -152h-318l-41 -159q47 53 142 53q92 0 144 -54.5t52 -150.5q0 -137 -87 -205.5t-224 -68.5q-245 0 -270 180l170 55q6 -100 110 -100q58 0 91.5 32t33.5 95q0 49 -24 75.5t-64 26.5q-49 0 -88 -39h-150z" />
    <glyph glyph-name="uni2086" unicode="&#x2086;" horiz-adv-x="714" 
d="M686 614l-143 -96q-21 74 -103 74q-73 0 -127.5 -66.5t-74.5 -191.5h8q53 125 194 125q94 0 144.5 -57t50.5 -142q0 -127 -85 -200.5t-224 -73.5q-126 0 -194.5 72.5t-68.5 201.5q0 115 34 208.5t90.5 151.5t127 88.5t146.5 30.5q87 0 142.5 -30t82.5 -95zM254 209
q0 -39 23 -63.5t67 -24.5q54 0 91.5 34.5t37.5 94.5q0 38 -24 63t-68 25q-52 0 -89.5 -35.5t-37.5 -93.5z" />
    <glyph glyph-name="uni2087" unicode="&#x2087;" horiz-adv-x="663" 
d="M442 571h-221l-20 -112h-154l47 264h588l-23 -125l-383 -598h-208z" />
    <glyph glyph-name="uni2088" unicode="&#x2088;" horiz-adv-x="720" 
d="M319 -14q-137 0 -205.5 51.5t-68.5 138.5q0 82 55 133t142 62v8q-60 17 -90.5 56.5t-30.5 92.5q0 100 84.5 155.5t214.5 55.5q124 0 190 -50t66 -132q0 -78 -46.5 -123.5t-121.5 -58.5v-6q129 -41 129 -164q0 -100 -91 -159.5t-227 -59.5zM406 612q-49 0 -81 -26t-32 -70
q0 -35 23 -56.5t63 -21.5q48 0 82.5 26t34.5 75q0 32 -22.5 52.5t-67.5 20.5zM360 309q-56 0 -93.5 -28.5t-37.5 -81.5q0 -40 26 -63t75 -23q57 0 94 29t37 81q0 40 -27 63t-74 23z" />
    <glyph glyph-name="uni2089" unicode="&#x2089;" horiz-adv-x="706" 
d="M0 111l143 94q10 -36 44.5 -55t80.5 -19q76 0 130.5 63.5t68.5 196.5h-8q-50 -125 -185 -125q-98 0 -151 57t-53 142q0 127 84.5 200.5t222.5 73.5q127 0 196.5 -74.5t69.5 -205.5q0 -228 -107 -350.5t-276 -122.5q-94 0 -163.5 31t-96.5 94zM453 518q0 38 -24.5 63
t-68.5 25q-54 0 -91.5 -34.5t-37.5 -94.5q0 -38 24.5 -62t68.5 -24q52 0 90.5 35t38.5 92z" />
    <glyph glyph-name="uni208A" unicode="&#x208a;" horiz-adv-x="909" 
d="M104 434h297l52 289h120l-51 -289h305l-20 -121h-305l-58 -313h-118l55 313h-299z" />
    <glyph glyph-name="uni208B" unicode="&#x208b;" horiz-adv-x="911" 
d="M807 313h-725l22 121h725z" />
    <glyph glyph-name="uni208C" unicode="&#x208c;" horiz-adv-x="956" 
d="M807 193h-725l20 120h725zM854 455h-725l21 120h724z" />
    <glyph glyph-name="uni208D" unicode="&#x208d;" horiz-adv-x="485" 
d="M340 819h145q-268 -282 -268 -588q0 -166 102 -342h-139q-45 76 -71.5 155.5t-26.5 186.5q0 161 66.5 312t191.5 276z" />
    <glyph glyph-name="uni208E" unicode="&#x208e;" horiz-adv-x="485" 
d="M145 -111h-145q268 282 268 588q0 168 -104 342h141q45 -79 71.5 -157.5t26.5 -184.5q0 -161 -66.5 -312t-191.5 -276z" />
    <glyph glyph-name="uni20A1" unicode="&#x20a1;" horiz-adv-x="1044" 
d="M401 -190l62 167q-24 2 -84 15l-57 -164l-97 35l58 166q-92 51 -142.5 143.5t-50.5 222.5q0 126 35 235t101.5 192t171 132.5t235.5 53.5l59 168l96 -35l-51 -140q33 -4 82 -20l51 141l97 -35l-58 -157q86 -66 115 -195l-213 -78l-164 -467q85 31 139 144l172 -121
q-67 -112 -160.5 -169t-228.5 -64l-69 -203zM451 190q50 -16 81 -16l209 588q-26 33 -73 45zM326 414q0 -93 41 -152l192 545q-103 -23 -168 -132t-65 -261z" />
    <glyph glyph-name="uni20A2" unicode="&#x20a2;" horiz-adv-x="1036" 
d="M915 580l-38 -197q-37 14 -76 14t-74 -14.5t-61.5 -47.5t-34.5 -81l-19 -98q115 25 185 159l164 -108q-72 -121 -179.5 -176.5t-269.5 -55.5q-191 0 -306.5 110t-115.5 310q0 126 36 236t103.5 194.5t173.5 133.5t238 49q87 0 153 -19t110 -55t71 -83.5t41 -109.5
l-199 -86q-11 78 -57.5 123t-130.5 45q-133 0 -215 -116.5t-82 -296.5q0 -172 108 -230l68 387h156l-9 -168q36 94 108.5 146.5t151.5 34.5z" />
    <glyph glyph-name="franc" unicode="&#x20a3;" horiz-adv-x="964" 
d="M721 297h-283l-51 -297h-248l51 297h-149l20 106h148l16 99h-147l18 106h150l65 377h703l-35 -201h-455l-30 -176h282l-18 -106h-283l-18 -99h284z" />
    <glyph glyph-name="lira" unicode="&#x20a4;" horiz-adv-x="1024" 
d="M750 326h-265q-15 -45 -46 -79t-68 -46h295q27 0 47 3t43 12.5t43 30t35 52.5l153 -98q-33 -96 -117.5 -148.5t-197.5 -52.5h-645l34 203h91q50 0 87.5 35.5t45.5 87.5h-203l20 106h183q-2 10 -17 74h-149l18 106h109q-4 40 -4 74q0 81 33 144.5t89 101.5t125 57t146 19
q102 0 175.5 -25.5t120 -89.5t46.5 -164l-227 -37q-3 127 -140 127q-67 0 -107 -38t-40 -109q0 -44 6 -60h336l-19 -106h-292q8 -50 8 -74h268z" />
    <glyph glyph-name="uni20A6" unicode="&#x20a6;" horiz-adv-x="1433" 
d="M1360 526h-182l-19 -102h184l-18 -107h-184l-56 -317h-231l-242 449q-27 50 -50 107t-32 88l-10 32h-8q-8 -139 -37 -305l-65 -371h-246l55 317h-174l18 107h175l18 102h-174l20 107h170l64 352h266l223 -438q24 -47 43 -96.5t26 -74.5l7 -26h8q14 133 41 287l62 348h245
l-61 -352h182z" />
    <glyph glyph-name="peseta" unicode="&#x20a7;" horiz-adv-x="2332" 
d="M1442 248l200 61q4 -81 57.5 -125.5t127.5 -44.5q67 0 107 27.5t40 85.5q0 54 -32 84.5t-127 60.5q-111 32 -168.5 81t-75.5 122h-201l-104 -600h-248l104 600h-153q-12 -92 -53 -159.5t-104 -106.5t-139 -57.5t-167 -18.5h-152l-45 -258h-248l172 985h369
q292 0 356 -184h621q24 73 84 121t131.5 67t155.5 19q181 0 269.5 -70t88.5 -201l-213 -49q0 68 -41.5 107t-116.5 39q-67 0 -106 -29.5t-39 -81.5q0 -50 33 -76t143 -61q100 -32 156.5 -76t76 -95.5t19.5 -127.5q0 -157 -110 -234.5t-298 -77.5q-179 0 -272 70.5t-98 202.5
zM449 788l-60 -333h131q211 0 211 200q0 69 -37 101t-114 32h-131z" />
    <glyph glyph-name="uni20A8" unicode="&#x20a8;" horiz-adv-x="1679" 
d="M446 788l-47 -272h160q90 0 137 37.5t47 124.5q0 110 -127 110h-170zM1227 -25q-149 0 -256 38t-195 116l-104 92q-5 4 -23 22.5t-24 23.5t-23 18.5t-28.5 18t-31 12t-40.5 10t-47 2.5h-88l-58 -328h-248l172 985h422q170 0 253 -70t83 -200q0 -72 -23.5 -128
t-65.5 -90.5t-94 -53.5t-114 -23v-8q73 -4 119 -28.5t102 -74.5l103 -88q127 -108 227 -108q49 0 79 17.5t30 53.5q0 39 -21 63t-82 46q-109 40 -152.5 95.5t-43.5 143.5q0 51 17.5 92.5t46.5 69.5t68.5 46.5t81.5 27t87 8.5q137 0 205.5 -52.5t68.5 -150.5l-176 -41
q0 47 -29 73t-79 26q-46 0 -73.5 -21.5t-27.5 -56.5q0 -34 25.5 -54.5t109.5 -52.5q95 -36 138 -87t43 -134q0 -250 -334 -250z" />
    <glyph glyph-name="uni20A9" unicode="&#x20a9;" horiz-adv-x="1767" 
d="M1702 553h-211l-43 -104h238l-19 -105h-264l-143 -344h-302l-47 467q-7 69 -7.5 141t2.5 109l3 37h-8q-27 -144 -88 -289l-201 -465h-305l-18 344h-246l18 105h222l-7 104h-194l18 104h170l-18 328h246l20 -526q2 -63 0 -134t-5 -111l-3 -40h6q29 138 88 281l219 530h256
l43 -528q4 -75 3.5 -137.5t-3.5 -103.5l-4 -40h6q23 138 82 281l215 528h250l-137 -328h186z" />
    <glyph glyph-name="uni20AA" unicode="&#x20aa;" horiz-adv-x="1566" 
d="M1034 291h-215l68 383q24 127 -111 127h-327l-140 -801h-248l172 985h611q171 0 228 -80.5t32 -230.5zM1282 985h246l-119 -674q-13 -73 -37.5 -127.5t-66.5 -97t-108 -64.5t-155 -22h-608l123 692h213l-88 -508h332q64 0 101.5 33.5t47.5 89.5z" />
    <glyph glyph-name="Euro" unicode="&#x20ac;" horiz-adv-x="1130" 
d="M748 545h-306q-12 -49 -12 -105h285l-39 -106h-236q15 -76 66 -119t133 -43q75 0 126.5 42t94.5 124l195 -121q-73 -124 -179.5 -183t-265.5 -59q-174 0 -284.5 93.5t-128.5 265.5h-156l20 106h134q3 57 12 105h-129l20 106h138q57 163 185 260t320 97q173 0 262 -71.5
t119 -201.5l-223 -88q-11 72 -58.5 115t-123.5 43q-75 0 -137 -41t-99 -113h307z" />
    <glyph glyph-name="uni20AE" unicode="&#x20ae;" horiz-adv-x="983" 
d="M815 537l-215 -37l-18 -99l215 35l-19 -104l-215 -37l-51 -295h-250l45 252l-219 -35l18 105l220 36l16 99l-217 -35l18 104l217 37l39 221h-315l35 201h887l-35 -201h-322l-31 -178l216 35z" />
    <glyph glyph-name="uni20B1" unicode="&#x20b1;" horiz-adv-x="1220" 
d="M369 0h-248l98 567h-149l18 107h150l55 311h369q189 0 280.5 -77.5t91.5 -233.5h158l-18 -107h-150q-16 -83 -58.5 -144t-105 -96t-135.5 -52t-160 -17h-151zM578 442q75 0 126.5 31.5t71.5 93.5h-309l-21 -125h132zM508 799l-23 -125h306q-9 125 -152 125h-131z" />
    <glyph glyph-name="afii61289" unicode="&#x2113;" horiz-adv-x="768" 
d="M80 252l-62 108l154 107v483q0 222 77 321t230 99q252 0 252 -262q0 -403 -332 -680v-88q0 -90 30.5 -124t98.5 -34q63 0 127 29l-10 -205q-99 -31 -188 -31q-128 0 -206.5 62t-78.5 199v79zM399 997v-407q195 186 195 522q0 117 -90 117q-105 0 -105 -232z" />
    <glyph glyph-name="afii61352" unicode="&#x2116;" horiz-adv-x="2258" 
d="M1444 0l33 178h667l-30 -178h-670zM1905 975q135 0 214 -74t79 -203q0 -162 -97.5 -272.5t-271.5 -110.5q-133 0 -215 69.5t-82 197.5q0 165 98 279t275 114zM1886 821q-71 0 -112 -65.5t-41 -163.5q0 -64 27.5 -97.5t76.5 -33.5q71 0 112.5 65.5t41.5 165.5
q0 62 -27.5 95.5t-77.5 33.5zM1374 922l-160 -922h-231l-299 596q-25 53 -47 109.5t-31 86.5l-10 31h-8q-6 -116 -35 -284l-53 -303q-26 -145 -96 -203t-203 -58q-112 0 -189 50l54 196q52 -39 100 -39q39 0 60 20t30 68l162 936h239l291 -606q24 -50 44.5 -104.5
t29.5 -83.5l8 -29h8q12 122 39 276l53 312q25 143 98.5 201.5t201.5 58.5q112 0 188 -49l-55 -213q-52 41 -101 41q-39 0 -59 -19.5t-29 -68.5z" />
    <glyph glyph-name="published" unicode="&#x2117;" horiz-adv-x="1429" 
d="M711 840l-43 -258h88q162 0 162 155q0 54 -28 78.5t-87 24.5h-92zM606 227h-198l135 768h278q291 0 291 -239q0 -89 -28.5 -154t-80 -102t-115.5 -54.5t-143 -17.5h-106zM113 602q0 179 84 323.5t227 225t315 80.5q128 0 244 -47.5t200.5 -129.5t134.5 -200t50 -252
t-50 -251.5t-134.5 -199.5t-200.5 -129t-244 -47t-243.5 47t-199.5 129t-133.5 199.5t-49.5 251.5zM176 602q0 -163 77 -294t206 -202t284 -71q115 0 218.5 42t179.5 115.5t121 180t45 229.5q0 162 -76.5 293.5t-205 203.5t-282.5 72q-115 0 -219.5 -42.5t-181 -117
t-121.5 -181t-45 -228.5z" />
    <glyph glyph-name="servicemark" unicode="&#x2120;" horiz-adv-x="1316" 
d="M96 834l129 28q4 -39 30.5 -59.5t66.5 -20.5q77 0 77 52q0 23 -18 36.5t-72 30.5q-85 23 -119 59t-34 97q0 59 36 98t84.5 53.5t106.5 14.5q209 0 209 -146l-135 -24q0 34 -24 53.5t-62 19.5q-30 0 -49 -13.5t-19 -37.5q0 -22 19.5 -35t80.5 -32q81 -23 116.5 -59.5
t35.5 -94.5q0 -83 -66 -122.5t-176 -39.5q-211 0 -217 142zM1206 698h-141l59 299h-10l-125 -184h-94l-51 184h-10l-60 -299h-139l100 508h156l78 -235h4l168 235h164z" />
    <glyph glyph-name="trademark" unicode="&#x2122;" horiz-adv-x="1286" 
d="M350 698h-141l78 392h-144l23 116h428l-23 -116h-145zM1174 698h-140l60 299h-11l-125 -184h-94l-51 184h-10l-60 -299h-139l98 508h158l76 -235h6l168 235h164z" />
    <glyph glyph-name="estimated" unicode="&#x212e;" horiz-adv-x="1325" 
d="M662 1231q145 0 257.5 -53t179.5 -143t100.5 -199.5t33.5 -233.5v-53h-883v-346q119 -119 312 -119q266 0 376 213h136q-62 -149 -190.5 -235.5t-321.5 -86.5q-116 0 -211.5 35t-161 94.5t-111 140t-66 170.5t-20.5 187q0 98 21 188t66 171t110.5 140.5t161 94.5
t211.5 35zM662 1122q-197 0 -312 -118v-349h625v349q-115 118 -313 118z" />
    <glyph glyph-name="uni2153" unicode="&#x2153;" horiz-adv-x="1802" 
d="M592 483h-545l25 138h186l72 415l-213 -18l24 145l402 43l-103 -585h176zM401 0l838 1206h162l-842 -1206h-158zM1462 371l-2 -4q170 -20 170 -168q0 -103 -84.5 -158t-216.5 -55q-119 0 -186 50.5t-76 139.5l160 47q5 -52 28.5 -78t73.5 -26t80.5 22t30.5 64q0 22 -6 38
t-23.5 31.5t-53.5 23t-91 7.5l20 111q193 5 193 106q0 34 -21.5 53t-56.5 19q-85 0 -109 -90l-139 57q57 178 272 178q108 0 174 -46.5t66 -137.5q0 -76 -53 -123t-150 -61z" />
    <glyph glyph-name="uni2154" unicode="&#x2154;" horiz-adv-x="1802" 
d="M606 627l-26 -144h-562l23 123q88 52 144 86.5t113.5 75t88.5 72.5t50.5 66.5t19.5 68.5q0 94 -97 94q-103 0 -124 -131l-148 57q14 101 91 164.5t206 63.5q119 0 188.5 -57.5t69.5 -164.5q0 -60 -27.5 -114t-66 -90.5t-96.5 -70.5t-101 -52.5t-98 -38.5v-8h352zM401 0
l838 1206h162l-842 -1206h-158zM1462 371l-2 -4q170 -20 170 -168q0 -103 -84.5 -158t-216.5 -55q-119 0 -186 50.5t-76 139.5l160 47q5 -52 28.5 -78t73.5 -26t80.5 22t30.5 64q0 22 -6 38t-23.5 31.5t-53.5 23t-91 7.5l20 111q193 5 193 106q0 34 -21.5 53t-56.5 19
q-85 0 -109 -90l-139 57q57 178 272 178q108 0 174 -46.5t66 -137.5q0 -76 -53 -123t-150 -61z" />
    <glyph glyph-name="uni215B" unicode="&#x215b;" horiz-adv-x="1802" 
d="M592 483h-545l25 138h186l72 415l-213 -18l24 145l402 43l-103 -585h176zM401 0l838 1206h162l-842 -1206h-158zM1384 -14q-137 0 -205.5 51.5t-68.5 138.5q0 82 55 133t142 62v8q-60 17 -90.5 56.5t-30.5 92.5q0 100 84.5 155.5t214.5 55.5q124 0 190 -50t66 -132
q0 -78 -46.5 -123.5t-121.5 -58.5v-6q129 -41 129 -164q0 -100 -91 -159.5t-227 -59.5zM1470 612q-49 0 -80.5 -25.5t-31.5 -70.5q0 -35 23 -56.5t63 -21.5q48 0 82.5 26t34.5 75q0 31 -23 52t-68 21zM1425 309q-56 0 -93.5 -28.5t-37.5 -81.5q0 -40 26 -63t75 -23
q57 0 94 29t37 81q0 40 -27 63t-74 23z" />
    <glyph glyph-name="uni215C" unicode="&#x215c;" horiz-adv-x="1802" 
d="M442 854l-2 -4q170 -20 170 -168q0 -103 -84.5 -158t-216.5 -55q-119 0 -186 50.5t-76 139.5l160 48q5 -52 28.5 -78.5t73.5 -26.5t80.5 22t30.5 64q0 22 -6 38t-23.5 31.5t-53.5 23t-91 7.5l20 111q193 5 193 107q0 34 -21.5 52.5t-56.5 18.5q-85 0 -109 -90l-139 57
q57 179 273 179q108 0 173.5 -46.5t65.5 -138.5q0 -76 -53 -123t-150 -61zM401 0l838 1206h162l-842 -1206h-158zM1384 -14q-137 0 -205.5 51.5t-68.5 138.5q0 82 55 133t142 62v8q-60 17 -90.5 56.5t-30.5 92.5q0 100 84.5 155.5t214.5 55.5q124 0 190 -50t66 -132
q0 -78 -46.5 -123.5t-121.5 -58.5v-6q129 -41 129 -164q0 -100 -91 -159.5t-227 -59.5zM1470 612q-49 0 -80.5 -25.5t-31.5 -70.5q0 -35 23 -56.5t63 -21.5q48 0 82.5 26t34.5 75q0 31 -23 52t-68 21zM1425 309q-56 0 -93.5 -28.5t-37.5 -81.5q0 -40 26 -63t75 -23
q57 0 94 29t37 81q0 40 -27 63t-74 23z" />
    <glyph glyph-name="uni215D" unicode="&#x215d;" horiz-adv-x="1802" 
d="M121 795l88 411h459l-25 -151h-317l-41 -160q47 53 141 53q92 0 144.5 -55t52.5 -150q0 -137 -87.5 -205.5t-224.5 -68.5q-245 0 -270 180l170 56q6 -101 111 -101q57 0 90.5 32t33.5 95q0 49 -24 76t-64 27q-49 0 -88 -39h-149zM401 0l838 1206h162l-842 -1206h-158z
M1384 -14q-137 0 -205.5 51.5t-68.5 138.5q0 82 55 133t142 62v8q-60 17 -90.5 56.5t-30.5 92.5q0 100 84.5 155.5t214.5 55.5q124 0 190 -50t66 -132q0 -78 -46.5 -123.5t-121.5 -58.5v-6q129 -41 129 -164q0 -100 -91 -159.5t-227 -59.5zM1470 612q-49 0 -80.5 -25.5
t-31.5 -70.5q0 -35 23 -56.5t63 -21.5q48 0 82.5 26t34.5 75q0 31 -23 52t-68 21zM1425 309q-56 0 -93.5 -28.5t-37.5 -81.5q0 -40 26 -63t75 -23q57 0 94 29t37 81q0 40 -27 63t-74 23z" />
    <glyph glyph-name="uni215E" unicode="&#x215e;" horiz-adv-x="1683" 
d="M475 1055h-221l-21 -113h-153l47 264h588l-23 -125l-383 -598h-209zM283 0l837 1206h162l-842 -1206h-157zM1266 -14q-137 0 -206 51.5t-69 138.5q0 82 55 133t142 62v8q-60 17 -90.5 56.5t-30.5 92.5q0 100 84.5 155.5t214.5 55.5q124 0 190 -50t66 -132
q0 -78 -46.5 -123.5t-121.5 -58.5v-6q129 -41 129 -164q0 -100 -90.5 -159.5t-226.5 -59.5zM1352 612q-49 0 -81 -26t-32 -70q0 -35 23 -56.5t63 -21.5q48 0 82.5 26t34.5 75q0 32 -22.5 52.5t-67.5 20.5zM1307 309q-56 0 -93.5 -28.5t-37.5 -81.5q0 -40 25.5 -63t74.5 -23
q57 0 94 29t37 81q0 40 -26.5 63t-73.5 23z" />
    <glyph glyph-name="arrowleft" unicode="&#x2190;" horiz-adv-x="1423" 
d="M432 711h899v-213h-901l369 -373l-152 -150l-600 627l598 629l154 -150z" />
    </font>
</defs>
</svg>
