<?xml version="1.0" standalone="no"?>
<!DOCTYPE svg PUBLIC "-//W3C//DTD SVG 1.1//EN" "http://www.w3.org/Graphics/SVG/1.1/DTD/svg11.dtd" >
<svg xmlns="http://www.w3.org/2000/svg" xmlns:xlink="http://www.w3.org/1999/xlink" version="1.1">
<metadata>
Created by FontForge 20170731 at Fri Sep 17 22:21:30 2021
 By Aleksey,,,
Copyright (c) 2004-9 by Kris Sowersby. All rights reserved.
</metadata>
<defs>
<font id="National-RegularItalic" horiz-adv-x="1273" >
  <font-face 
    font-family="National Regular Italic"
    font-weight="510"
    font-style="italic"
    font-stretch="normal"
    units-per-em="2048"
    panose-1="2 0 5 3 0 0 0 2 0 4"
    ascent="1638"
    descent="-410"
    x-height="946"
    cap-height="1206"
    bbox="-344 -526 2433 1933"
    underline-thickness="116"
    underline-position="-173"
    unicode-range="U+0020-F778"
  />
<missing-glyph horiz-adv-x="1546" 
d="M170 0v1206h1206v-1206h-1206zM772 541l-453 -453h908zM319 1118l453 -454l455 454h-908zM834 602l454 -452v907zM711 602l-453 455v-907z" />
    <glyph glyph-name="f_b" unicode="fb" horiz-adv-x="1665" 
d="M930 535l-29 -173q-10 -61 6.5 -119t64.5 -97.5t118 -39.5q92 0 161.5 64t104.5 167.5t35 229.5q0 119 -49.5 186.5t-139.5 67.5q-98 0 -173.5 -78.5t-98.5 -207.5zM651 0l207 1192q-77 51 -176 51q-175 0 -211 -194l-18 -103h192l-27 -147h-192l-174 -998
q-25 -134 -86 -183.5t-172 -49.5t-174 51l41 141q56 -47 110 -47q42 0 64.5 20.5t32.5 73.5l176 992h-146l29 147h141l19 107q17 90 54 155.5t89 102.5t111 54t127 17q59 0 123.5 -14t97.5 -33l188 33l-106 -604q93 205 305 205q148 0 229.5 -100.5t81.5 -290.5
q0 -170 -56.5 -306t-165 -216.5t-251.5 -80.5q-101 0 -173 49.5t-87 127.5l-66 -152h-137z" />
    <glyph glyph-name="f_f_b" unicode="ffb" horiz-adv-x="2211" 
d="M1479 535l-31 -173q-10 -61 7 -119t65 -97.5t118 -39.5q92 0 161.5 64t104.5 167.5t35 229.5q0 120 -49 187t-139 67q-98 0 -173.5 -78.5t-98.5 -207.5zM1200 0l207 1192q-77 51 -176 51q-175 0 -211 -194l-19 -103h189l-27 -147h-188l-172 -971q-23 -134 -84.5 -184
t-171.5 -50q-109 0 -174 52l39 141q56 -47 110 -47q43 0 65 20t31 74l175 965h-367l-174 -998q-25 -134 -86 -183.5t-172 -49.5t-174 51l41 141q56 -47 110 -47q42 0 64.5 20.5t32.5 73.5l176 992h-146l29 147h141l23 129q28 153 104.5 223t198.5 70q106 0 194 -57l-69 -154
q-32 30 -56.5 42.5t-60.5 12.5q-56 0 -84.5 -33.5t-42.5 -107.5l-22 -125h364l19 107q17 90 54 155.5t89 102.5t111 54t127 17q59 0 123.5 -14t97.5 -33l188 33l-106 -604q93 205 303 205q149 0 230 -100.5t81 -290.5q0 -170 -56 -306t-164 -216.5t-251 -80.5
q-102 0 -174 50t-86 127l-68 -152h-135z" />
    <glyph glyph-name="f_f_h" unicode="ffh" horiz-adv-x="2183" 
d="M1198 0l209 1192q-77 51 -176 51q-175 0 -211 -194l-19 -103h189l-27 -147h-188l-172 -971q-23 -134 -84.5 -184t-171.5 -50q-109 0 -174 52l39 141q56 -47 110 -47q43 0 65 20t31 74l175 965h-367l-174 -998q-25 -134 -86 -183.5t-172 -49.5t-174 51l41 141
q56 -47 110 -47q42 0 64.5 20.5t32.5 73.5l176 992h-146l29 147h141l23 129q28 153 104.5 223t198.5 70q106 0 194 -57l-69 -154q-32 30 -56.5 42.5t-60.5 12.5q-56 0 -84.5 -33.5t-42.5 -107.5l-22 -125h364l19 107q17 90 54 155.5t89 102.5t111 54t127 17q59 0 123.5 -14
t97.5 -33l188 33l-110 -614q102 215 303 215q112 0 177.5 -59.5t65.5 -168.5q0 -35 -8 -90l-74 -424q-16 -92 56 -92q17 0 59 10l-27 -137q-50 -18 -110 -18q-206 0 -166 219l76 426q30 178 -123 178q-87 0 -165 -72t-105 -227l-91 -514h-186z" />
    <glyph glyph-name="f_f_j" unicode="ffj" horiz-adv-x="1597" 
d="M1341 799h-366l-172 -971q-23 -134 -84.5 -184t-171.5 -50q-109 0 -174 52l39 141q56 -47 110 -47q43 0 65 20t31 74l175 965h-367l-174 -998q-25 -134 -86 -183.5t-172 -49.5t-174 51l41 141q56 -47 110 -47q42 0 64.5 20.5t32.5 73.5l176 992h-146l29 147h141l23 129
q28 153 104.5 223t198.5 70q106 0 194 -57l-69 -154q-32 30 -56.5 42.5t-60.5 12.5q-56 0 -84.5 -33.5t-42.5 -107.5l-22 -125h364l19 105q63 331 368 331q137 0 236 -61l-68 -156q-43 33 -79 48.5t-87 15.5q-76 0 -121.5 -43t-66.5 -148l-17 -92h551l-196 -1118
q-25 -134 -87.5 -184t-172.5 -50q-108 0 -176 52l41 141q56 -47 110 -47q42 0 64.5 20.5t31.5 73.5z" />
    <glyph glyph-name="f_f_k" unicode="ffk" horiz-adv-x="2060" 
d="M1198 0l209 1192q-77 51 -176 51q-175 0 -211 -194l-19 -103h189l-27 -147h-188l-172 -971q-23 -134 -84.5 -184t-171.5 -50q-109 0 -174 52l39 141q56 -47 110 -47q43 0 65 20t31 74l175 965h-367l-174 -998q-25 -134 -86 -183.5t-172 -49.5t-174 51l41 141
q56 -47 110 -47q42 0 64.5 20.5t32.5 73.5l176 992h-146l29 147h141l23 129q28 153 104.5 223t198.5 70q106 0 194 -57l-69 -154q-32 30 -56.5 42.5t-60.5 12.5q-56 0 -84.5 -33.5t-42.5 -107.5l-22 -125h364l19 107q17 90 54 155.5t89 102.5t111 54t127 17q59 0 123.5 -14
t97.5 -33l188 33l-137 -778h45l336 356h227l-416 -420l156 -319q28 -56 66 -66.5t104 9.5l-29 -142q-56 -18 -116 -18q-59 0 -99.5 25t-68.5 85l-172 353h-58l-80 -453h-186z" />
    <glyph glyph-name="f_h" unicode="fh" horiz-adv-x="1634" 
d="M649 0l209 1192q-77 51 -176 51q-175 0 -211 -194l-18 -103h192l-27 -147h-192l-174 -998q-25 -134 -86 -183.5t-172 -49.5t-174 51l41 141q56 -47 110 -47q42 0 64.5 20.5t32.5 73.5l176 992h-146l29 147h141l19 107q17 90 54 155.5t89 102.5t111 54t127 17
q59 0 123.5 -14t97.5 -33l188 33l-110 -614q102 215 305 215q111 0 176 -60t65 -168q0 -49 -8 -90l-73 -424q-16 -92 55 -92q17 0 59 10l-26 -137q-50 -18 -111 -18q-104 0 -144.5 57t-21.5 162l76 426q16 83 -13.5 130.5t-109.5 47.5q-87 0 -165 -72t-105 -227l-90 -514
h-187z" />
    <glyph glyph-name="f_j" unicode="fj" horiz-adv-x="1048" 
d="M1004 946l-197 -1118q-25 -134 -87.5 -184t-172.5 -50q-109 0 -174 52l39 141q56 -47 110 -47q43 0 65 20t31 74l175 965h-367l-174 -998q-25 -134 -86 -183.5t-172 -49.5t-174 51l41 141q56 -47 110 -47q42 0 64.5 20.5t32.5 73.5l176 992h-146l29 147h141l21 105
q63 331 368 331q134 0 236 -61l-70 -156q-43 33 -79 48.5t-87 15.5q-76 0 -121.5 -43t-64.5 -148l-18 -92h551z" />
    <glyph glyph-name="f_k" unicode="fk" horiz-adv-x="1511" 
d="M649 0l209 1192q-77 51 -176 51q-175 0 -211 -194l-18 -103h188l-27 -147h-188l-174 -998q-25 -134 -86 -183.5t-172 -49.5t-174 51l41 141q56 -47 110 -47q42 0 64.5 20.5t32.5 73.5l176 992h-146l29 147h141l19 107q17 90 54 155.5t89 102.5t111 54t127 17
q59 0 123.5 -14t97.5 -33l188 33l-137 -778h45l336 356h227l-413 -420l153 -319q28 -56 66 -66.5t104 9.5l-28 -142q-56 -18 -117 -18q-59 0 -99.5 25t-68.5 85l-172 353h-58l-79 -453h-187z" />
    <glyph glyph-name="ff" unicode="ff" horiz-adv-x="1163" 
d="M975 799l-172 -971q-23 -134 -84.5 -184t-171.5 -50q-109 0 -174 52l39 141q56 -47 110 -47q43 0 65 20t31 74l175 965h-367l-174 -998q-25 -134 -86 -183.5t-172 -49.5t-174 51l41 141q56 -47 110 -47q42 0 64.5 20.5t32.5 73.5l176 992h-146l29 147h141l23 129
q28 153 104.5 223t198.5 70q106 0 194 -57l-69 -154q-32 30 -56.5 42.5t-60.5 12.5q-56 0 -84.5 -33.5t-42.5 -107.5l-22 -125h364l23 121q55 315 342 315q121 0 223 -57l-68 -154q-78 56 -149 56t-110 -36.5t-56 -123.5l-21 -121h238l-25 -147h-239z" />
    <glyph glyph-name="ffi" unicode="ffi" horiz-adv-x="1650" 
d="M1552 946l-127 -719q-16 -92 54 -92q17 0 59 10l-25 -137q-53 -18 -112 -18q-204 0 -164 219l102 590h-364l-172 -971q-23 -134 -84.5 -184t-171.5 -50q-109 0 -174 52l39 141q56 -47 110 -47q43 0 65 20t31 74l175 965h-367l-174 -998q-25 -134 -86 -183.5t-172 -49.5
t-174 51l41 141q56 -47 110 -47q42 0 64.5 20.5t32.5 73.5l176 992h-146l29 147h141l23 129q28 153 104.5 223t198.5 70q106 0 194 -57l-69 -154q-32 30 -56.5 42.5t-60.5 12.5q-56 0 -84.5 -33.5t-42.5 -107.5l-22 -125h364l19 105q63 331 368 331q137 0 236 -61l-68 -156
q-43 33 -79 48.5t-87 15.5q-76 0 -121.5 -43t-66.5 -148l-17 -92h551z" />
    <glyph glyph-name="ffl" unicode="ffl" horiz-adv-x="1646" 
d="M975 799l-172 -971q-23 -134 -84.5 -184t-171.5 -50q-109 0 -174 52l39 141q56 -47 110 -47q43 0 65 20t31 74l175 965h-367l-174 -998q-25 -134 -86 -183.5t-172 -49.5t-174 51l41 141q56 -47 110 -47q42 0 64.5 20.5t32.5 73.5l176 992h-146l29 147h141l23 129
q28 153 104.5 223t198.5 70q106 0 194 -57l-69 -154q-32 30 -56.5 42.5t-60.5 12.5q-56 0 -84.5 -33.5t-42.5 -107.5l-22 -125h364l19 107q17 90 54 155.5t89 102.5t111 54t127 17q59 0 123.5 -14t97.5 -33l188 33l-201 -1141q-16 -92 54 -92q17 0 59 10l-25 -137
q-53 -18 -112 -18q-204 0 -164 219l170 983q-77 51 -176 51q-175 0 -211 -194l-19 -103h191l-25 -147h-192z" />
    <glyph glyph-name="fi" unicode="fi" horiz-adv-x="1103" 
d="M1004 946l-127 -719q-16 -92 53 -92q19 0 61 10l-26 -137q-49 -18 -111 -18q-206 0 -166 219l103 590h-365l-174 -998q-25 -134 -86 -183.5t-172 -49.5t-174 51l41 141q56 -47 110 -47q42 0 64.5 20.5t32.5 73.5l176 992h-146l29 147h141l21 105q63 331 368 331
q134 0 236 -61l-70 -156q-43 33 -79 48.5t-87 15.5q-76 0 -121.5 -43t-64.5 -148l-18 -92h551z" />
    <glyph glyph-name="fl" unicode="fl" horiz-adv-x="1097" 
d="M426 799l-174 -998q-25 -134 -86 -183.5t-172 -49.5t-174 51l41 141q56 -47 110 -47q42 0 64.5 20.5t32.5 73.5l176 992h-146l29 147h141l19 107q17 90 54 155.5t89 102.5t111 54t127 17q59 0 123.5 -14t97.5 -33l188 33l-200 -1141q-16 -92 53 -92q19 0 61 10l-26 -137
q-49 -18 -111 -18q-206 0 -166 219l170 983q-77 51 -176 51q-175 0 -211 -194l-18 -103h192l-27 -147h-192z" />
    <glyph glyph-name=".notdef" horiz-adv-x="1546" 
d="M170 0v1206h1206v-1206h-1206zM772 541l-453 -453h908zM319 1118l453 -454l455 454h-908zM834 602l454 -452v907zM711 602l-453 455v-907z" />
    <glyph glyph-name=".null" horiz-adv-x="0" 
 />
    <glyph glyph-name="nonmarkingreturn" horiz-adv-x="682" 
 />
    <glyph glyph-name="space" unicode=" " horiz-adv-x="458" 
 />
    <glyph glyph-name="exclam" unicode="!" horiz-adv-x="462" 
d="M248 1206h239l-211 -850h-124zM47 115q0 55 37.5 91t93.5 36t93.5 -36t37.5 -91q0 -54 -37.5 -90.5t-93.5 -36.5t-93.5 36.5t-37.5 90.5z" />
    <glyph glyph-name="quotedbl" unicode="&#x22;" horiz-adv-x="624" 
d="M156 844l92 524h201l-179 -524h-114zM459 844l92 524h201l-179 -524h-114z" />
    <glyph glyph-name="numbersign" unicode="#" horiz-adv-x="1314" 
d="M1137 295h-324l-139 -295h-162l139 295h-198l-140 -295h-161l139 295h-213l24 137h254l84 178h-264l23 138h307l112 237h166l-114 -237h196l113 237h164l-115 -237h229l-24 -138h-270l-84 -178h282zM604 610l-86 -178h199l84 178h-197z" />
    <glyph glyph-name="dollar" unicode="$" horiz-adv-x="927" 
d="M29 250l157 41q0 -74 47 -123.5t119 -63.5l60 330q-33 11 -70 29q-94 42 -138 100t-44 146q0 75 28 133t78 93t111.5 53.5t134.5 21.5l31 166h102l-31 -170q134 -15 204.5 -82t70.5 -181l-164 -32q2 60 -33.5 103t-101.5 58l-55 -307l10 -2q138 -51 193 -117t55 -170
q0 -142 -99 -217.5t-262 -81.5l-33 -194h-102l35 197q-138 14 -220 85t-83 185zM621 254q0 52 -24.5 83.5t-90.5 61.5l-51 -297q76 6 121 43.5t45 108.5zM330 737q0 -46 24.5 -75.5t85.5 -57.5l49 273q-159 -15 -159 -140z" />
    <glyph glyph-name="percent" unicode="%" horiz-adv-x="1763" 
d="M334 469q-123 0 -186.5 80t-63.5 219q0 82 22 161.5t62.5 145.5t107 107t148.5 41q118 0 184 -84t66 -224q0 -66 -13 -129t-41 -120.5t-67 -101t-96 -69.5t-123 -26zM410 1094q-49 0 -86 -35t-56 -88.5t-28 -104t-9 -94.5q0 -83 30.5 -133.5t88.5 -50.5q48 0 85 36
t56 90.5t28 105.5t9 95q0 83 -29.5 131t-88.5 48zM397 0l840 1208h133l-838 -1208h-135zM1339 -14q-123 0 -186 80t-63 219q0 82 22 161t62.5 145.5t107 107t148.5 40.5q118 0 183.5 -83.5t65.5 -223.5q0 -66 -13 -129t-41 -120.5t-67 -101t-96 -69.5t-123 -26zM1415 610
q-49 0 -86 -35t-55.5 -88.5t-27.5 -103.5t-9 -94q0 -83 30.5 -134t88.5 -51q48 0 85 36t56 90.5t28 106t9 95.5q0 83 -29.5 130.5t-89.5 47.5z" />
    <glyph glyph-name="ampersand" unicode="&#x26;" horiz-adv-x="1146" 
d="M1063 94l-141 -112l-121 145q-180 -152 -418 -152q-166 0 -257 74t-91 217q0 133 89.5 222.5t262.5 154.5l-47 59q-94 116 -94 234q0 136 106 215.5t254 79.5q147 0 225 -70.5t78 -191.5q0 -216 -293 -336l211 -260q56 80 88 227l162 -45q-58 -186 -155 -297zM215 281
q0 -74 50 -120t136 -46q179 0 316 121l-258 317q-122 -69 -162 -103q-82 -70 -82 -169zM590 1102q-72 0 -120.5 -42.5t-49.5 -111.5q0 -65 53 -131l68 -92q100 48 148 104.5t48 131.5q0 141 -147 141z" />
    <glyph glyph-name="quotesingle" unicode="'" horiz-adv-x="321" 
d="M156 844l92 524h201l-179 -524h-114z" />
    <glyph glyph-name="parenleft" unicode="(" horiz-adv-x="694" 
d="M322 297q0 -191 51.5 -358.5t167.5 -352.5h-191q-211 324 -211 705q0 318 139.5 604.5t366.5 472.5h213q-93 -83 -167 -163.5t-145 -184t-118.5 -210t-76.5 -239t-29 -274.5z" />
    <glyph glyph-name="parenright" unicode=")" horiz-adv-x="694" 
d="M391 657q0 192 -51.5 359t-169.5 352h192q209 -326 209 -704q0 -318 -139 -605t-366 -473h-213q93 84 167 164t145.5 183.5t119.5 210t77 239t29 274.5z" />
    <glyph glyph-name="asterisk" unicode="*" horiz-adv-x="749" 
d="M584 1184l-80 -195l203 41l10 -147l-209 18l100 -188l-143 -56l-47 205l-144 -153l-92 120l178 111l-190 88l82 123l158 -135l26 207z" />
    <glyph glyph-name="plus" unicode="+" horiz-adv-x="1017" 
d="M100 563h357l61 348h117l-62 -348h363l-18 -110h-363l-68 -377h-116l65 377h-354z" />
    <glyph glyph-name="comma" unicode="," horiz-adv-x="585" 
d="M391 68q0 -74 -28 -131t-78 -92.5t-111.5 -54.5t-134.5 -23v88q87 10 152 49.5t65 103.5q-64 -12 -105.5 20.5t-41.5 92.5t37 93.5t98 33.5q66 0 106.5 -48.5t40.5 -131.5z" />
    <glyph glyph-name="hyphen" unicode="-" horiz-adv-x="776" 
d="M139 449l27 155h471l-27 -155h-471z" />
    <glyph glyph-name="period" unicode="." horiz-adv-x="585" 
d="M94 127q0 60 40 99.5t99 39.5t99.5 -39.5t40.5 -99.5q0 -58 -40.5 -98.5t-99.5 -40.5t-99 40t-40 99z" />
    <glyph glyph-name="slash" unicode="/" horiz-adv-x="761" 
d="M-174 -416l868 1786h172l-872 -1786h-168z" />
    <glyph glyph-name="zero" unicode="0" horiz-adv-x="1187" 
d="M543 -25q-114 0 -201.5 38t-139.5 103t-78 145.5t-26 172.5q0 131 43.5 240.5t117.5 182.5t173.5 113t210.5 40q116 0 204 -37.5t140 -103t77.5 -146.5t25.5 -176q0 -129 -43.5 -237.5t-118 -181t-174 -113t-211.5 -40.5zM283 440q0 -140 70.5 -224.5t199.5 -84.5
q152 0 251 117t99 293q0 139 -72 224t-200 85q-152 0 -250 -117t-98 -293z" />
    <glyph glyph-name="one" unicode="1" horiz-adv-x="733" 
d="M426 0h-190l143 809l-291 -51l29 153l485 90z" />
    <glyph glyph-name="two" unicode="2" horiz-adv-x="933" 
d="M784 156l-26 -156h-742l25 143q305 144 452.5 272t147.5 279q0 74 -41.5 115t-116.5 41q-80 0 -131.5 -48t-54.5 -153l-170 43q8 73 35.5 129.5t65 91.5t86 57.5t95 31t95.5 8.5q159 0 245.5 -78.5t86.5 -222.5q0 -85 -37 -164t-96.5 -138.5t-137 -109.5t-156.5 -82.5
t-157 -50.5v-8h532z" />
    <glyph glyph-name="three" unicode="3" horiz-adv-x="925" 
d="M438 385v-8q159 -12 237.5 -89.5t78.5 -203.5q0 -91 -35 -162.5t-95.5 -115.5t-138.5 -66.5t-168 -22.5q-178 0 -272.5 77.5t-97.5 209.5l178 47q0 -94 55.5 -142t155.5 -48q101 0 164 55.5t63 157.5q0 48 -13.5 84.5t-46 69.5t-95 54t-154.5 29l22 142
q204 21 291.5 82.5t87.5 173.5q0 73 -45.5 112t-122.5 39q-166 0 -198 -184l-172 41q29 138 126.5 215.5t264.5 77.5q154 0 247 -71.5t93 -207.5q0 -164 -110.5 -253.5t-299.5 -92.5z" />
    <glyph glyph-name="four" unicode="4" horiz-adv-x="1105" 
d="M535 -268l65 364h-584l23 123l717 766h186l-129 -743h199l-25 -146h-199l-65 -364h-188zM399 242h224l51 295q11 63 24 121t20 85l7 27h-8q-52 -71 -156 -190l-186 -209q-36 -40 -69.5 -72t-49.5 -45l-16 -12v-9q38 9 159 9z" />
    <glyph glyph-name="five" unicode="5" horiz-adv-x="937" 
d="M141 313l144 672h610l-27 -160h-450l-88 -391q63 53 166 53q142 0 221.5 -92.5t77.5 -232.5q0 -108 -37 -193.5t-101 -140t-148.5 -83t-182.5 -28.5q-168 0 -261.5 78t-93.5 209l174 47q0 -188 205 -188q107 0 182.5 69.5t75.5 204.5q0 101 -51.5 160t-142.5 59
q-77 0 -133 -43h-140z" />
    <glyph glyph-name="six" unicode="6" horiz-adv-x="1058" 
d="M1044 997l-155 -79q-40 165 -197 165q-160 0 -275 -146t-147 -396h9q27 77 81 129t117.5 74t136.5 22q159 0 250.5 -91.5t91.5 -244.5q0 -205 -122.5 -330t-331.5 -125q-197 0 -300.5 120t-103.5 354q0 113 24 224t74.5 211.5t120.5 178t169 123t214 45.5q283 0 344 -234
zM563 618q-116 0 -193 -75.5t-77 -202.5q0 -104 56 -161.5t155 -57.5q117 0 193.5 79t76.5 212q0 96 -56 151t-155 55z" />
    <glyph glyph-name="seven" unicode="7" horiz-adv-x="995" 
d="M608 823h-327l-29 -153h-168l55 315h832l-23 -127l-680 -1126h-198l573 950q31 51 58 87t38 46l11 10v9q-40 -11 -142 -11z" />
    <glyph glyph-name="eight" unicode="8" horiz-adv-x="1017" 
d="M449 -25q-178 0 -283 82t-105 215q0 134 78 223.5t207 116.5l2 11q-81 21 -126.5 84t-45.5 147q0 120 63 207.5t162.5 128.5t221.5 41q159 0 256.5 -82t97.5 -217q0 -121 -75 -207.5t-191 -110.5v-10q90 -28 143 -98t53 -166q0 -95 -38.5 -167.5t-104.5 -114.5
t-145.5 -62.5t-169.5 -20.5zM602 1090q-106 0 -170.5 -65.5t-64.5 -164.5q0 -85 49.5 -128.5t128.5 -43.5q107 0 172 65.5t65 168.5q0 75 -46 121.5t-134 46.5zM518 537q-113 0 -187.5 -65.5t-74.5 -172.5q0 -85 55.5 -134.5t147.5 -49.5q118 0 190 63t72 174q0 87 -57 136
t-146 49z" />
    <glyph glyph-name="nine" unicode="9" horiz-adv-x="1056" 
d="M6 -49l139 88q31 -80 91 -127t145 -47q163 0 266.5 141.5t138.5 433.5h-8q-39 -115 -126.5 -171t-196.5 -56q-162 0 -257.5 95t-95.5 253q0 199 123.5 324t331.5 125q195 0 298 -123.5t103 -356.5q0 -134 -23.5 -254.5t-72 -222.5t-117.5 -177t-165.5 -117t-210.5 -42
q-284 0 -363 234zM494 362q114 0 191 76.5t77 204.5q0 105 -57 163t-162 58q-109 0 -184.5 -80t-75.5 -211q0 -95 56.5 -153t154.5 -58z" />
    <glyph glyph-name="colon" unicode=":" horiz-adv-x="585" 
d="M94 127q0 60 40 99.5t99 39.5t99.5 -39.5t40.5 -99.5q0 -58 -40.5 -98.5t-99.5 -40.5t-99 40t-40 99zM221 848q0 58 40.5 98.5t98.5 40.5q60 0 100 -40t40 -99t-40 -99t-100 -40q-58 0 -98.5 40.5t-40.5 98.5z" />
    <glyph glyph-name="semicolon" unicode=";" horiz-adv-x="585" 
d="M391 68q0 -74 -28 -131t-78 -92.5t-111.5 -54.5t-134.5 -23v88q87 10 152 49.5t65 103.5q-64 -12 -105.5 20.5t-41.5 92.5t37 93.5t98 33.5q66 0 106.5 -48.5t40.5 -131.5zM233 848q0 59 40 99t98 40q60 0 100.5 -40t40.5 -99t-40.5 -99t-100.5 -40q-58 0 -98 40t-40 99z
" />
    <glyph glyph-name="less" unicode="&#x3c;" horiz-adv-x="845" 
d="M784 840l-477 -348l342 -334l-92 -90l-438 438l594 434z" />
    <glyph glyph-name="equal" unicode="=" horiz-adv-x="1064" 
d="M918 315h-836l18 109h836zM965 584h-836l18 108h836z" />
    <glyph glyph-name="greater" unicode="&#x3e;" horiz-adv-x="845" 
d="M66 168l479 346l-344 336l92 90l438 -438l-594 -434z" />
    <glyph glyph-name="question" unicode="?" horiz-adv-x="862" 
d="M285 881l-156 61q88 289 395 289q172 0 264.5 -87t92.5 -245q0 -97 -37.5 -174.5t-98.5 -124t-133 -70.5t-147 -24l-31 -168h-168l51 276h56q140 0 227.5 64.5t87.5 202.5q0 93 -48 142.5t-140 49.5q-166 0 -215 -192zM190 115q0 55 36.5 91t92.5 36t94 -36t38 -91
q0 -54 -38 -90.5t-94 -36.5q-55 0 -92 36.5t-37 90.5z" />
    <glyph glyph-name="at" unicode="@" horiz-adv-x="1800" 
d="M1053 371l14 86q19 104 -28.5 170.5t-125.5 66.5q-106 0 -173.5 -98.5t-67.5 -263.5q0 -211 145 -211q84 0 150.5 64t85.5 186zM1253 -25q-214 0 -219 189q-34 -106 -101.5 -147.5t-164.5 -41.5q-132 0 -206.5 92t-74.5 261q0 114 31.5 210t85.5 160t125 100t150 36
q90 0 154 -44t75 -131l70 162h137l-115 -588q-11 -71 12 -104t84 -33q117 0 193 120.5t76 309.5q0 143 -52 255.5t-141 181.5t-202 104t-242 35q-107 0 -206.5 -26.5t-187.5 -83t-153 -137t-103 -195.5t-38 -252q0 -141 38 -257.5t105.5 -197t161.5 -136t203 -81t233 -25.5
q202 0 377 62l31 -121q-195 -64 -410 -64q-145 1 -273.5 29t-242 91t-195 156.5t-129 232.5t-47.5 311q0 236 103 420.5t295 288.5t444 104q151 0 278.5 -35.5t218 -98.5t153.5 -148t93.5 -183.5t30.5 -206.5q0 -168 -49 -295.5t-153.5 -203t-252.5 -75.5z" />
    <glyph glyph-name="A" unicode="A" horiz-adv-x="1210" 
d="M885 0l-58 330h-493l-172 -330h-205l651 1206h248l225 -1206h-196zM557 758l-143 -273h385q-28 141 -50 288t-31 225.5t-7 78.5h-9q-45 -131 -145 -319z" />
    <glyph glyph-name="B" unicode="B" horiz-adv-x="1060" 
d="M729 616v-8q112 -10 170.5 -69.5t58.5 -161.5q0 -191 -125 -284t-339 -93h-416l211 1206h383q173 0 252.5 -69t79.5 -201q0 -139 -79 -223t-196 -97zM389 678h178q111 0 175.5 52.5t64.5 166.5q0 79 -45 115.5t-139 36.5h-168zM365 528l-66 -370h215q256 0 256 213
q0 76 -43.5 116.5t-148.5 40.5h-213z" />
    <glyph glyph-name="C" unicode="C" horiz-adv-x="1146" 
d="M899 319l154 -83q-143 -261 -471 -261q-222 0 -346.5 134t-124.5 358q0 176 49 322t134 242t197 148t238 52q344 0 410 -301l-193 -74q-17 105 -78.5 159t-154.5 54q-125 0 -219.5 -83.5t-140.5 -216t-46 -290.5q0 -159 76.5 -251.5t216.5 -92.5q101 0 170 39.5
t129 144.5z" />
    <glyph glyph-name="D" unicode="D" horiz-adv-x="1214" 
d="M299 158h176q98 0 180.5 33.5t147 101t101 179t36.5 257.5q0 320 -336 320h-149zM475 0h-397l211 1206h346q254 0 381 -119t127 -342q0 -158 -38 -285.5t-101.5 -212t-150.5 -141t-181 -81.5t-197 -25z" />
    <glyph glyph-name="E" unicode="E" horiz-adv-x="1003" 
d="M848 164l-27 -164h-743l211 1206h743l-28 -164h-551l-62 -356h486l-29 -164h-486l-63 -358h549z" />
    <glyph glyph-name="F" unicode="F" horiz-adv-x="944" 
d="M270 0h-192l211 1206h710l-30 -164h-516l-64 -368h453l-29 -164h-453z" />
    <glyph glyph-name="G" unicode="G" horiz-adv-x="1234" 
d="M659 623h480l-109 -623h-137l-8 152q-38 -83 -116.5 -130t-193.5 -47q-218 0 -341 134.5t-123 357.5q0 176 49.5 322t134.5 242t197.5 148t238.5 52q341 0 410 -301l-193 -74q-17 104 -78.5 158.5t-154.5 54.5q-125 0 -220 -83.5t-141.5 -215.5t-46.5 -289
q0 -163 76 -255.5t223 -92.5q120 0 200.5 62t104.5 196l13 68h-293z" />
    <glyph glyph-name="H" unicode="H" 
d="M270 0h-192l211 1206h192l-88 -512h570l90 512h192l-211 -1206h-192l92 530h-572z" />
    <glyph glyph-name="I" unicode="I" horiz-adv-x="509" 
d="M289 1206h192l-211 -1206h-192z" />
    <glyph glyph-name="J" unicode="J" horiz-adv-x="880" 
d="M670 1206h192l-155 -882q-32 -188 -127 -268.5t-275 -80.5q-140 0 -225.5 66.5t-114.5 181.5l156 103q44 -197 196 -197q51 0 85 12.5t56.5 42t35.5 68.5t24 102z" />
    <glyph glyph-name="K" unicode="K" horiz-adv-x="1075" 
d="M975 0h-217l-287 530h-109l-92 -530h-192l211 1206h192l-88 -514h88l443 514h229l-520 -588z" />
    <glyph glyph-name="L" unicode="L" horiz-adv-x="944" 
d="M289 1206h192l-182 -1042h535l-27 -164h-729z" />
    <glyph glyph-name="M" unicode="M" horiz-adv-x="1433" 
d="M756 295h-125l-148 405q-21 57 -34 112.5t-16 82.5l-3 27h-8q-4 -77 -27 -220l-125 -702h-192l211 1206h215l178 -534q16 -48 26 -92t12 -64l3 -20h8q18 66 92 170l367 540h215l-211 -1206h-195l125 702q10 64 22 119t18 78l7 23h-8q-35 -82 -125 -213z" />
    <glyph glyph-name="N" unicode="N" 
d="M481 1206l316 -678q27 -59 50.5 -122.5t33.5 -97.5l10 -34h8q14 139 41 291l113 641h192l-211 -1206h-186l-324 672q-27 58 -51.5 122t-35.5 99l-11 35h-8q-8 -133 -35 -289l-113 -639h-192l211 1206h192z" />
    <glyph glyph-name="O" unicode="O" 
d="M582 -25q-222 0 -346.5 134.5t-124.5 357.5q0 176 49 322t134 242t197 148t238 52q223 0 348 -135.5t125 -358.5q0 -176 -49.5 -322t-134.5 -241t-197 -147t-239 -52zM713 1067q-125 0 -219.5 -83t-140.5 -214.5t-46 -288.5q0 -161 76.5 -253.5t216.5 -92.5
q123 0 216.5 82.5t140.5 215t47 290.5q0 154 -72.5 249t-218.5 95z" />
    <glyph glyph-name="P" unicode="P" horiz-adv-x="1009" 
d="M455 1049l-80 -451h162q135 0 207.5 72.5t72.5 208.5q0 87 -48.5 128.5t-154.5 41.5h-159zM270 0h-192l211 1206h354q194 0 282.5 -76.5t88.5 -234.5q0 -145 -63.5 -249t-170 -154t-243.5 -50h-189z" />
    <glyph glyph-name="Q" unicode="Q" horiz-adv-x="1284" 
d="M1212 737q0 -170 -46 -311t-125 -235.5t-184.5 -149t-225.5 -61.5q28 -43 69 -70t85.5 -36t95 -12t96.5 3l-59 -170q-202 -3 -327.5 74.5t-152.5 226.5q-152 42 -234.5 166.5t-82.5 304.5q0 176 49 322t134 242t197 148t238 52q223 0 348 -135t125 -359zM723 1067
q-125 0 -219.5 -83t-140.5 -214.5t-46 -288.5q0 -161 76.5 -253.5t216.5 -92.5q123 0 216.5 82.5t140.5 215t47 290.5q0 154 -72.5 249t-218.5 95z" />
    <glyph glyph-name="R" unicode="R" horiz-adv-x="1120" 
d="M1001 0h-206q-32 34 -45 113l-35 209q-17 101 -59.5 134t-141.5 33h-158l-86 -489h-192l211 1206h413q190 0 272.5 -73t82.5 -220q0 -69 -20 -127t-52.5 -97t-76 -67.5t-89 -42.5t-92.5 -16v-8q85 -12 124 -53.5t56 -136.5l43 -238q13 -74 51 -127zM455 1049l-70 -402
h217q119 0 187.5 58t68.5 180q0 84 -44 124t-144 40h-215z" />
    <glyph glyph-name="S" unicode="S" horiz-adv-x="1001" 
d="M37 293l174 43q-1 -108 58.5 -162.5t170.5 -54.5q110 0 172 49t62 147q0 85 -45 133t-164 93q-69 24 -116 49.5t-87.5 63.5t-60 92t-19.5 126q0 78 26 141t67.5 102.5t97 66.5t111 38t112.5 11q185 0 279.5 -76t97.5 -246l-185 -30q3 99 -50.5 150.5t-155.5 51.5
q-99 0 -159.5 -49t-60.5 -135q0 -29 5 -50.5t19.5 -40t28 -31t44 -28t52.5 -24.5t67 -27q74 -30 124 -59.5t88 -71t56 -96t18 -127.5q0 -77 -23.5 -139t-64 -104t-97 -70t-121 -41t-138.5 -13q-377 0 -383 318z" />
    <glyph glyph-name="T" unicode="T" horiz-adv-x="985" 
d="M502 0h-193l180 1042h-350l29 164h899l-31 -164h-352z" />
    <glyph glyph-name="U" unicode="U" horiz-adv-x="1206" 
d="M1006 1206h192l-143 -817q-20 -116 -66.5 -198.5t-116.5 -128.5t-152 -66.5t-185 -20.5q-79 0 -146 16t-123.5 51.5t-90.5 92t-47.5 136.5t7.5 186l129 749h195l-135 -762q-27 -158 36 -234.5t199 -76.5q132 0 207 69t102 226z" />
    <glyph glyph-name="V" unicode="V" horiz-adv-x="1110" 
d="M354 1206l107 -764q12 -81 18.5 -157t6.5 -112l1 -36h9q37 121 125 303l376 766h205l-610 -1206h-248l-184 1206h194z" />
    <glyph glyph-name="W" unicode="W" horiz-adv-x="1705" 
d="M1079 1206l64 -755q7 -84 9.5 -165.5t1.5 -121.5l-1 -39h8q35 138 109 324l303 757h201l-504 -1206h-269l-61 711q-6 94 -5.5 165t3.5 112l4 42h-8q-29 -133 -109 -319l-305 -711h-264l-59 1206h190l31 -751q3 -83 3.5 -165.5t-0.5 -123.5l-1 -41h8q29 142 111 328
l323 753h217z" />
    <glyph glyph-name="X" unicode="X" horiz-adv-x="1118" 
d="M795 0l-172 330q-26 50 -40.5 88t-16.5 50l-1 13h-8q-8 -34 -106 -153l-275 -328h-225l526 616l-295 590h211l144 -297q26 -55 41.5 -96t17.5 -55l2 -13h6q7 33 111 162l239 299h222l-492 -588l311 -618h-200z" />
    <glyph glyph-name="Y" unicode="Y" horiz-adv-x="1036" 
d="M367 1206l127 -383q19 -61 31 -118t14 -84l2 -27h8q29 92 115 229l247 383h205l-495 -749l-80 -457h-193l78 457l-260 749h201z" />
    <glyph glyph-name="Z" unicode="Z" horiz-adv-x="1058" 
d="M23 113l665 788q43 50 82.5 86.5t57.5 48.5l18 11v8q-70 -13 -193 -13h-444l31 164h850l-25 -127l-659 -774q-43 -50 -82.5 -86.5t-57.5 -47.5l-18 -11v-8q69 12 192 12h471l-26 -164h-883z" />
    <glyph glyph-name="bracketleft" unicode="[" horiz-adv-x="677" 
d="M504 1231l-266 -1507h292l-24 -140h-471l313 1786h471l-22 -139h-293z" />
    <glyph glyph-name="backslash" unicode="\" horiz-adv-x="706" 
d="M352 1370l248 -1786h-154l-249 1786h155z" />
    <glyph glyph-name="bracketright" unicode="]" horiz-adv-x="677" 
d="M174 -276l264 1507h-293l25 139h471l-313 -1786h-471l24 140h293z" />
    <glyph glyph-name="asciicircum" unicode="^" horiz-adv-x="1038" 
d="M901 657l-108 328q-25 80 -38 143t-13 86l-1 23h-8q-18 -72 -141 -250l-232 -330h-184l508 711h152l256 -711h-191z" />
    <glyph glyph-name="underscore" unicode="_" horiz-adv-x="987" 
d="M-6 -190l26 145h781l-27 -145h-780z" />
    <glyph glyph-name="grave" unicode="`" horiz-adv-x="727" 
d="M563 1083h-164l-235 299h248z" />
    <glyph glyph-name="a" unicode="a" horiz-adv-x="1093" 
d="M709 395l28 160q12 69 -1 129t-56.5 100.5t-110.5 40.5q-134 0 -219.5 -126.5t-85.5 -317.5q0 -115 49.5 -185.5t141.5 -70.5q99 0 165.5 72t88.5 198zM993 946l-127 -719q-16 -92 54 -92q19 0 61 10l-27 -137q-50 -18 -110 -18q-172 0 -166 168q-40 -93 -114.5 -138
t-168.5 -45q-144 0 -230.5 102t-86.5 285q0 163 56 300.5t163 222t242 84.5q212 0 241 -183l54 160h159z" />
    <glyph glyph-name="b" unicode="b" horiz-adv-x="1091" 
d="M358 541l-30 -170q-10 -60 6.5 -116.5t64 -95t117.5 -38.5q93 0 163 62t105 163t35 225q0 118 -49 184t-139 66q-99 0 -175 -77t-98 -203zM281 152l-66 -152h-137l239 1368h187l-107 -604q96 205 305 205q148 0 230 -100.5t82 -290.5q0 -170 -56.5 -306t-165 -216.5
t-251.5 -80.5q-101 0 -173 49.5t-87 127.5z" />
    <glyph glyph-name="c" unicode="c" horiz-adv-x="921" 
d="M682 301l174 -35q-51 -148 -151 -219.5t-256 -71.5q-169 0 -270 105.5t-101 294.5q0 91 19.5 177t60 162t97.5 132.5t138 89.5t176 33q159 0 237.5 -82.5t78.5 -227.5l-176 -30q0 188 -160 188q-88 0 -154.5 -64t-98.5 -158.5t-32 -199.5q0 -136 54 -206t151 -70
q156 0 213 182z" />
    <glyph glyph-name="d" unicode="d" horiz-adv-x="1089" 
d="M711 393l30 162q19 106 -26 187t-146 81q-135 0 -221 -126.5t-86 -317.5q0 -113 49.5 -183.5t141.5 -70.5q101 0 168.5 70.5t89.5 197.5zM1069 1368l-201 -1141q-16 -92 56 -92q17 0 59 10l-27 -137q-50 -18 -110 -18q-169 0 -166 168q-35 -95 -111 -139t-174 -44
q-144 0 -230.5 102t-86.5 285q0 163 56 300.5t163.5 222t243.5 84.5q212 0 241 -183l103 582h184z" />
    <glyph glyph-name="e" unicode="e" horiz-adv-x="958" 
d="M469 119q92 0 140.5 37t72.5 116l172 -43q-49 -139 -146 -196.5t-255 -57.5q-176 0 -275.5 109.5t-99.5 294.5q0 139 40.5 253t107.5 186.5t151 111.5t174 39t159 -28t109.5 -76.5t61 -108t20.5 -127.5q0 -102 -41 -195h-600q-6 -61 3 -116t33 -100.5t68.5 -72
t104.5 -26.5zM281 567h428q10 25 10 66q0 84 -44 138t-132 54q-101 0 -167 -72.5t-95 -185.5z" />
    <glyph glyph-name="f" unicode="f" horiz-adv-x="616" 
d="M68 -193l176 992h-146l29 147h141l23 121q31 167 118.5 241t225.5 74q118 0 223 -57l-70 -154q-78 56 -149 56q-72 0 -110.5 -37t-53.5 -123l-22 -121h239l-26 -147h-240l-174 -998q-25 -134 -86 -183.5t-172 -49.5t-174 51l41 141q56 -47 110 -47q42 0 64.5 20.5
t32.5 73.5z" />
    <glyph glyph-name="g" unicode="g" horiz-adv-x="1042" 
d="M713 393l28 162q19 107 -24.5 188.5t-145.5 81.5q-136 0 -221.5 -126t-85.5 -316q0 -115 48 -184.5t143 -69.5q102 0 168.5 68.5t89.5 195.5zM995 946l-170 -971q-39 -210 -152.5 -308.5t-326.5 -98.5q-174 0 -266.5 69t-114.5 185l158 72q8 -81 70.5 -134t160.5 -53
q125 0 191 68.5t94 204.5l35 178q-75 -176 -275 -176q-145 0 -233 102t-88 285q0 162 57 298t165 219t245 83q206 0 239 -183l52 160h159z" />
    <glyph glyph-name="h" unicode="h" horiz-adv-x="1062" 
d="M934 651l-74 -424q-16 -92 55 -92q18 0 60 10l-27 -137q-50 -18 -110 -18q-104 0 -144.5 57t-21.5 162l76 426q16 83 -13.5 130.5t-109.5 47.5q-87 0 -165.5 -72t-105.5 -227l-90 -514h-186l237 1368h191l-111 -614q102 215 305 215q111 0 176.5 -60t65.5 -168
q0 -49 -8 -90z" />
    <glyph glyph-name="i" unicode="i" horiz-adv-x="518" 
d="M418 946l-127 -719q-16 -92 55 -92q18 0 60 10l-27 -137q-49 -18 -111 -18q-104 0 -144.5 57t-21.5 162l129 737h187zM248 1249q0 54 35.5 88.5t87.5 34.5q54 0 90.5 -34.5t36.5 -88.5q0 -52 -37 -87.5t-90 -35.5q-51 0 -87 35.5t-36 87.5z" />
    <glyph glyph-name="j" unicode="j" horiz-adv-x="462" 
d="M418 946l-191 -1085q-28 -161 -110 -227t-217 -66q-55 0 -108 15t-85 38l60 143q63 -51 137 -51q54 0 87.5 35t49.5 123l190 1075h187zM248 1249q0 54 35.5 88.5t87.5 34.5q54 0 90.5 -34.5t36.5 -88.5q0 -52 -37 -87.5t-90 -35.5q-51 0 -87 35.5t-36 87.5z" />
    <glyph glyph-name="k" unicode="k" horiz-adv-x="940" 
d="M571 100l-170 353h-57l-80 -453h-186l239 1368h189l-137 -778h45l336 356h227l-414 -420l154 -319q28 -56 66 -66.5t104 9.5l-29 -142q-56 -18 -117 -18q-58 0 -99.5 25t-70.5 85z" />
    <glyph glyph-name="l" unicode="l" horiz-adv-x="512" 
d="M492 1368l-201 -1141q-16 -92 55 -92q18 0 60 10l-27 -137q-49 -18 -111 -18q-104 0 -144.5 57t-21.5 162l203 1159h187z" />
    <glyph glyph-name="m" unicode="m" horiz-adv-x="1574" 
d="M799 0h-187l113 635q30 178 -121 178q-79 0 -151 -72t-99 -227l-90 -514h-186l166 946h162l-11 -192q53 111 118 163t175 52q105 0 167.5 -61t62.5 -169q47 116 119.5 173t185.5 57q104 0 166.5 -60t62.5 -168q0 -49 -6 -90l-74 -424q-16 -92 53 -92q20 0 62 10l-27 -137
q-50 -18 -110 -18q-206 0 -166 219l76 426q30 178 -121 178q-79 0 -151 -72t-99 -227z" />
    <glyph glyph-name="n" unicode="n" horiz-adv-x="1062" 
d="M934 651l-74 -424q-16 -92 55 -92q18 0 60 10l-27 -137q-50 -18 -110 -18q-104 0 -144.5 57t-21.5 162l76 426q16 83 -13.5 130.5t-109.5 47.5q-87 0 -165.5 -72t-105.5 -227l-90 -514h-186l166 946h162l-11 -192q102 215 305 215q111 0 176.5 -60t65.5 -168
q0 -49 -8 -90z" />
    <glyph glyph-name="o" unicode="o" horiz-adv-x="1024" 
d="M573 969q176 0 274.5 -109t98.5 -299q0 -118 -32.5 -223.5t-93.5 -186.5t-156 -128.5t-211 -47.5q-169 0 -272 105.5t-103 296.5q0 95 20 182t61 161.5t99.5 130t139 87t175.5 31.5zM551 817q-86 0 -152.5 -60t-100.5 -156t-34 -210q0 -132 55.5 -202t153.5 -70
q86 0 151.5 61.5t98.5 159.5t33 213q0 126 -53.5 195t-151.5 69z" />
    <glyph glyph-name="p" unicode="p" horiz-adv-x="1093" 
d="M358 541l-30 -170q-13 -60 4.5 -116.5t66.5 -95t119 -38.5q92 0 161.5 62t104.5 163.5t35 224.5q0 117 -49 182.5t-139 65.5q-98 0 -175 -76t-98 -202zM291 152l-101 -568h-184l240 1362h162l-13 -182q96 205 310 205q148 0 229.5 -100.5t81.5 -290.5q0 -170 -56.5 -306
t-165 -216.5t-251.5 -80.5q-101 0 -169 49.5t-83 127.5z" />
    <glyph glyph-name="q" unicode="q" horiz-adv-x="1034" 
d="M711 391l28 164q20 106 -24.5 187t-145.5 81q-134 0 -219.5 -127.5t-85.5 -318.5q0 -113 49.5 -183.5t141.5 -70.5q99 0 166.5 71t89.5 197zM756 -416h-187l101 568q-74 -177 -275 -177q-144 0 -230.5 102t-86.5 285q0 163 56 300.5t163.5 222t243.5 84.5q210 0 243 -183
l54 160h157z" />
    <glyph glyph-name="r" unicode="r" horiz-adv-x="708" 
d="M752 965l-47 -220q-51 17 -107.5 8.5t-106 -33t-86.5 -75.5t-49 -117l-92 -528h-186l166 946h162l-17 -223q52 121 152 191.5t211 50.5z" />
    <glyph glyph-name="s" unicode="s" horiz-adv-x="837" 
d="M33 250l164 41q0 -92 48.5 -138.5t129.5 -46.5q164 0 164 134q0 63 -36 100.5t-130 71.5q-116 41 -172 105t-56 167q0 137 95.5 211t244.5 74q150 0 225.5 -64t75.5 -188l-168 -27q0 70 -38 108t-109 38q-70 0 -112 -34t-42 -95q0 -51 35.5 -84.5t141.5 -75.5
q123 -49 173 -115.5t50 -175.5q0 -141 -93.5 -211t-254.5 -70q-157 0 -245 72t-91 203z" />
    <glyph glyph-name="t" unicode="t" horiz-adv-x="647" 
d="M539 180v-155q-86 -50 -203 -50q-132 0 -190.5 74.5t-30.5 229.5l90 520h-131l26 147h133l35 199l189 24l-39 -223h248l-27 -147h-246l-94 -533q-13 -68 10.5 -100.5t69.5 -32.5q76 0 160 47z" />
    <glyph glyph-name="u" unicode="u" horiz-adv-x="1058" 
d="M651 178q-42 -105 -116 -154t-183 -49q-149 0 -211 93t-32 264l106 614h186l-110 -637q-17 -94 15.5 -145t109.5 -51q89 0 162.5 70t95.5 194l98 569h186l-127 -719q-16 -92 56 -92q17 0 59 10l-26 -137q-50 -18 -111 -18q-95 0 -131 47t-27 141z" />
    <glyph glyph-name="v" unicode="v" horiz-adv-x="870" 
d="M221 0l-143 946h190l62 -520q10 -82 14.5 -157t3.5 -109v-35h8q29 121 121 301l262 520h201l-510 -946h-209z" />
    <glyph glyph-name="w" unicode="w" horiz-adv-x="1384" 
d="M858 946l45 -495q9 -84 10.5 -164t-1.5 -118l-3 -38h9q24 127 106 320l215 495h195l-424 -946h-222l-51 449q-7 80 -8.5 154.5t0.5 109.5l2 35h-8q-31 -117 -111 -299l-194 -449h-221l-99 946h191l41 -495q8 -84 10 -164t0 -118l-2 -38h8q29 134 111 322l221 493h180z
" />
    <glyph glyph-name="x" unicode="x" horiz-adv-x="899" 
d="M602 0l-104 219q-25 54 -38 92.5t-14 50.5v11h-8q-4 -31 -104 -154l-180 -219h-207l397 475l-215 471h199l86 -201q23 -56 36 -94.5t15 -49.5l2 -11h8q12 36 100 153l160 203h211l-379 -465l230 -481h-195z" />
    <glyph glyph-name="y" unicode="y" horiz-adv-x="882" 
d="M283 946l59 -530q10 -81 14 -154.5t3 -107.5l-1 -33h9q28 121 118 295l271 530h196l-563 -1055q-43 -82 -85 -140.5t-79.5 -94t-79.5 -55.5t-79 -26.5t-84 -6.5q-89 0 -154 37l45 143q58 -35 117 -35q74 0 131 53t121 179l-154 1001h195z" />
    <glyph glyph-name="z" unicode="z" horiz-adv-x="870" 
d="M8 100l479 549q44 50 82.5 87t54.5 49l17 12v8q-65 -14 -188 -14h-287l27 155h692l-21 -121l-477 -532q-44 -49 -83.5 -85.5t-57.5 -48.5l-17 -12v-8q70 13 193 13h311l-24 -152h-721z" />
    <glyph glyph-name="braceleft" unicode="{" horiz-adv-x="798" 
d="M313 477v-8q80 -10 116 -55t17 -152l-67 -393q-16 -81 3.5 -120.5t84.5 -39.5q63 0 131 33l8 -135q-96 -37 -207 -37q-137 0 -180 72t-18 208l67 396q18 93 -14 125t-98 32h-84l24 142h84q67 0 111.5 31.5t60.5 125.5l66 394q25 135 96.5 207.5t208.5 72.5q107 0 188 -37
l-55 -133q-57 31 -121 31q-65 0 -98 -38.5t-45 -121.5l-70 -393q-20 -110 -71 -152.5t-138 -54.5z" />
    <glyph glyph-name="bar" unicode="|" horiz-adv-x="475" 
d="M164 -416h-158l313 1786h158z" />
    <glyph glyph-name="braceright" unicode="}" horiz-adv-x="798" 
d="M477 469v8q-80 10 -116 55t-17 152l68 393q16 83 -3.5 121.5t-84.5 38.5q-60 0 -131 -31l-9 133q96 37 207 37q137 0 180.5 -72t18.5 -208l-68 -394q-5 -35 -6 -60t7.5 -42.5t18 -28t26.5 -16.5t32 -8t35 -2h84l-25 -142h-84q-66 0 -111 -32t-61 -125l-65 -396
q-25 -135 -96.5 -207.5t-208.5 -72.5q-108 0 -189 37l55 135q54 -33 121 -33q65 0 98 39.5t46 120.5l69 393q20 111 71.5 154t137.5 53z" />
    <glyph glyph-name="asciitilde" unicode="~" horiz-adv-x="745" 
d="M397 444l-100 52q-38 20 -66 20q-67 0 -77 -82l-74 33q-8 27 -8 55q0 66 47.5 109t116.5 43q50 0 110 -29l94 -53q34 -17 70 -17q68 0 76 89l82 -37q4 -14 4 -43q-3 -72 -49 -121t-117 -49q-47 0 -109 30z" />
    <glyph glyph-name="nbspace" unicode="&#xa0;" horiz-adv-x="313" 
 />
    <glyph glyph-name="exclamdown" unicode="&#xa1;" horiz-adv-x="462" 
d="M215 -260h-240l211 850h125zM414 831q0 -55 -36.5 -90.5t-92.5 -35.5t-93.5 35.5t-37.5 90.5q0 54 37.5 90.5t93.5 36.5q55 0 92 -36.5t37 -90.5z" />
    <glyph glyph-name="cent" unicode="&#xa2;" horiz-adv-x="1009" 
d="M786 299l142 -96q-72 -116 -170 -170.5t-242 -57.5l-33 -192h-102l35 201q-147 25 -232.5 132t-85.5 277q0 166 56 299.5t170 219t272 96.5l31 168h102l-31 -170q237 -22 295 -244l-178 -80q-24 140 -145 168l-127 -725q147 6 243 174zM289 412q0 -104 39.5 -175.5
t115.5 -97.5l125 715q-126 -20 -203 -143t-77 -299z" />
    <glyph glyph-name="sterling" unicode="&#xa3;" horiz-adv-x="1003" 
d="M723 422h-266q0 -33 -2 -47q-4 -82 -43.5 -141t-98.5 -78h346q27 0 48.5 3.5t45 13.5t42.5 30.5t32 52.5l123 -74q-33 -88 -109.5 -135t-183.5 -47h-637l27 160h96q57 0 104.5 53t47.5 121q0 46 -10 88h-195l19 113h151q-12 70 -12 145q0 70 22 127t58 94t84.5 62t99 36
t104.5 11q151 0 235.5 -68.5t84.5 -206.5l-174 -35q-3 162 -164 162q-82 0 -129 -45.5t-47 -140.5q0 -75 16 -141h303z" />
    <glyph glyph-name="currency" unicode="&#xa4;" horiz-adv-x="960" 
d="M37 272l172 148q-23 58 -23 121q0 155 84 264l-110 133l78 66l104 -132q89 60 201 60q119 0 190 -68l168 144l60 -72l-175 -148q27 -66 27 -131q0 -148 -82 -256l113 -133l-78 -65l-107 129q-82 -60 -200 -60q-127 0 -197 70l-166 -141zM528 815q-89 0 -141.5 -76.5
t-52.5 -187.5q0 -83 36 -125.5t101 -42.5q87 0 140 79.5t53 190.5q0 77 -36 119.5t-100 42.5z" />
    <glyph glyph-name="yen" unicode="&#xa5;" horiz-adv-x="1028" 
d="M901 496h-219l-72 -103h281l-8 -102h-322l-49 -291h-188l49 291h-297l8 102h276l-38 103h-228l8 102h181l-144 387h199l106 -313q19 -58 31 -108t15 -70l2 -21h8q22 70 110 197l213 315h209l-276 -387h153z" />
    <glyph glyph-name="brokenbar" unicode="&#xa6;" horiz-adv-x="475" 
d="M338 569h-158l139 801h158zM164 -416h-158l141 801h158z" />
    <glyph glyph-name="section" unicode="&#xa7;" horiz-adv-x="833" 
d="M51 487q0 109 61 175t160 90q-82 73 -82 188q0 75 30 132t81 89.5t110 48t124 15.5q299 0 299 -252l-166 -27q0 69 -41.5 106.5t-112.5 37.5q-64 0 -106.5 -34t-42.5 -93q0 -50 34.5 -83t149.5 -89q120 -56 171.5 -120t51.5 -159q0 -106 -59.5 -169.5t-163.5 -88.5
q86 -80 86 -193q0 -96 -50.5 -160.5t-130.5 -92t-186 -27.5q-316 0 -319 250l155 32q9 -155 177 -155q75 0 124.5 32.5t49.5 92.5q0 57 -34.5 92.5t-141.5 87.5q-121 56 -174.5 116t-53.5 158zM410 340l28 -12q65 6 111.5 50.5t46.5 102.5q0 57 -35.5 92.5t-142.5 88.5
q-6 3 -18 7t-17 7q-76 -13 -117 -57.5t-41 -104.5q0 -51 35 -84.5t150 -89.5z" />
    <glyph glyph-name="dieresis" unicode="&#xa8;" horiz-adv-x="972" 
d="M164 1219q0 53 35.5 87.5t85.5 34.5q52 0 87.5 -34.5t35.5 -87.5q0 -52 -35.5 -86.5t-87.5 -34.5q-50 0 -85.5 34.5t-35.5 86.5zM565 1217q0 53 35.5 87.5t85.5 34.5q53 0 88 -34t35 -88q0 -51 -35.5 -86t-87.5 -35q-50 0 -85.5 35t-35.5 86z" />
    <glyph glyph-name="copyright" unicode="&#xa9;" horiz-adv-x="1429" 
d="M911 463l117 -80q-56 -93 -135 -135.5t-197 -42.5q-141 0 -227 85t-86 236q0 99 28 185t79.5 150.5t131.5 102t179 37.5q227 0 278 -194l-147 -64q-9 63 -48 97t-102 34q-107 0 -175 -96t-68 -237q0 -97 46.5 -156t131.5 -59q118 0 194 137zM113 602q0 179 84 323.5
t227 225t315 80.5q128 0 244 -47.5t200.5 -129.5t134.5 -200t50 -252t-50 -251.5t-134.5 -199.5t-200.5 -129t-244 -47t-243.5 47t-199.5 129t-133.5 199.5t-49.5 251.5zM176 602q0 -122 44.5 -228.5t121 -180t180.5 -116t219 -42.5q155 0 284 71.5t205.5 202.5t76.5 293
t-76.5 293.5t-205.5 203.5t-284 72q-115 0 -219 -42.5t-180.5 -117t-121 -181t-44.5 -228.5z" />
    <glyph glyph-name="ordfeminine" unicode="&#xaa;" horiz-adv-x="825" 
d="M530 850l21 102q13 70 -17.5 120t-101.5 50q-96 0 -156.5 -80t-60.5 -204q0 -72 34.5 -117t98.5 -45q70 0 117.5 45.5t64.5 128.5zM756 1214l-94 -471q-8 -51 32 -51q10 0 51 8l-20 -106q-43 -12 -88 -12q-57 0 -91 25t-40 69q-33 -49 -88 -77t-115 -28q-109 0 -175.5 69
t-66.5 191q0 108 42.5 198.5t124 146t184.5 55.5q66 0 111.5 -30t64.5 -83l37 96h131z" />
    <glyph glyph-name="guillemotleft" unicode="&#xab;" horiz-adv-x="1058" 
d="M618 479v-8q24 -8 87 -98l169 -238l-116 -92l-303 436l456 436l88 -96l-243 -239q-34 -33 -68.5 -58t-51.5 -34zM223 479v-8q23 -8 86 -98l172 -238l-119 -92l-303 436l457 436l88 -96l-244 -239q-34 -33 -68 -58t-52 -34z" />
    <glyph glyph-name="logicalnot" unicode="&#xac;" horiz-adv-x="1017" 
d="M786 537h-704l18 108h836l-68 -387h-131z" />
    <glyph glyph-name="uni00AD" unicode="&#xad;" horiz-adv-x="763" 
d="M139 449l27 155h459l-27 -155h-459z" />
    <glyph glyph-name="registered" unicode="&#xae;" horiz-adv-x="1429" 
d="M1026 244h-162q-18 25 -24 82l-6 96q-5 54 -27.5 76t-83.5 22h-117l-49 -276h-149l131 741h295q237 0 237 -194q0 -106 -62.5 -159.5t-158.5 -58.5v-6q63 -3 95 -29.5t36 -82.5l12 -119q3 -55 33 -92zM666 866l-41 -233h135q162 0 162 141q0 43 -28 67.5t-81 24.5h-147z
M113 602q0 179 84 323.5t227 225t315 80.5q128 0 244 -47.5t200.5 -129.5t134.5 -200t50 -252t-50 -251.5t-134.5 -199.5t-200.5 -129t-244 -47t-243.5 47t-199.5 129t-133.5 199.5t-49.5 251.5zM176 602q0 -122 44.5 -228.5t121 -180t180.5 -116t219 -42.5q155 0 284 71.5
t205.5 202.5t76.5 293t-76.5 293.5t-205.5 203.5t-284 72q-115 0 -219 -42.5t-180.5 -117t-121 -181t-44.5 -228.5z" />
    <glyph glyph-name="macron" unicode="&#xaf;" horiz-adv-x="890" 
d="M700 1143h-536l26 149h537z" />
    <glyph glyph-name="degree" unicode="&#xb0;" horiz-adv-x="579" 
d="M109 977q0 106 72.5 180t187.5 74q98 0 157.5 -61t59.5 -152q0 -107 -73.5 -181.5t-184.5 -74.5q-104 0 -161.5 60.5t-57.5 154.5zM358 1141q-63 0 -104 -45.5t-41 -110.5q0 -60 34 -94.5t93 -34.5q60 0 100.5 44.5t40.5 107.5q0 61 -33.5 97t-89.5 36z" />
    <glyph glyph-name="plusminus" unicode="&#xb1;" horiz-adv-x="1105" 
d="M176 696h354l52 275h116l-49 -275h363l-19 -110h-362l-56 -303h-116l53 303h-354zM905 88h-835l18 109h836z" />
    <glyph glyph-name="twosuperior" unicode="&#xb2;" horiz-adv-x="657" 
d="M563 600l-22 -117h-543l20 107q216 122 324.5 214.5t108.5 180.5q0 115 -113 115q-60 0 -97 -38.5t-48 -105.5l-115 54q18 96 91 154.5t189 58.5q112 0 177 -55.5t65 -159.5q0 -61 -28.5 -118t-69 -97.5t-100.5 -79t-105.5 -60.5t-101.5 -45v-8h368z" />
    <glyph glyph-name="threesuperior" unicode="&#xb3;" horiz-adv-x="634" 
d="M381 860v-6q83 -9 124.5 -54t41.5 -116q0 -104 -83 -159.5t-206 -55.5q-120 0 -181.5 54t-68.5 139l129 34q12 -121 121 -121q61 0 100 28.5t39 82.5q0 57 -41 86.5t-153 30.5l18 96q215 9 215 125q0 38 -26 60t-72 22q-50 0 -80 -25.5t-45 -79.5l-115 48q56 174 256 174
q102 0 167 -45t65 -134q0 -77 -53.5 -125.5t-151.5 -58.5z" />
    <glyph glyph-name="acute" unicode="&#xb4;" horiz-adv-x="727" 
d="M326 1083h-162l151 299h248z" />
    <glyph glyph-name="mu" unicode="&#xb5;" horiz-adv-x="1058" 
d="M651 172q-42 -106 -108 -151.5t-168 -45.5q-51 0 -90 19t-45 47l-80 -457h-180l235 1362h186l-110 -637q-17 -94 15.5 -145t109.5 -51q89 0 162.5 70t95.5 194l98 569h186l-127 -719q-16 -92 56 -92q17 0 59 10l-26 -137q-50 -18 -111 -18q-95 0 -130.5 45t-27.5 137z
" />
    <glyph glyph-name="mu" unicode="&#x3bc;" horiz-adv-x="1058" 
d="M651 172q-42 -106 -108 -151.5t-168 -45.5q-51 0 -90 19t-45 47l-80 -457h-180l235 1362h186l-110 -637q-17 -94 15.5 -145t109.5 -51q89 0 162.5 70t95.5 194l98 569h186l-127 -719q-16 -92 56 -92q17 0 59 10l-26 -137q-50 -18 -111 -18q-95 0 -130.5 45t-27.5 137z
" />
    <glyph glyph-name="paragraph" unicode="&#xb6;" horiz-adv-x="1071" 
d="M1006 1059l-195 -1102q-25 -150 -115 -220.5t-227 -70.5q-115 0 -205 55l78 168q58 -61 147 -61q56 0 89.5 27.5t44.5 93.5l71 407h-98q-226 0 -329.5 102.5t-65.5 309.5q76 438 624 438h369l-27 -147h-161z" />
    <glyph glyph-name="periodcentered" unicode="&#xb7;" horiz-adv-x="585" 
d="M152 545q0 59 40 99t99 40t99 -40t40 -99t-40 -99t-99 -40t-99 40t-40 99z" />
    <glyph glyph-name="cedilla" unicode="&#xb8;" horiz-adv-x="731" 
d="M567 -254q0 -85 -62.5 -131.5t-156.5 -46.5q-125 0 -184 78l49 104q53 -74 127 -74q37 0 58.5 18t21.5 52q0 83 -131 86l71 184h91l-43 -100q83 -17 121 -57t38 -113z" />
    <glyph glyph-name="onesuperior" unicode="&#xb9;" horiz-adv-x="602" 
d="M532 483h-514l21 115h184l82 467l-219 -21l20 117l373 47l-106 -610h180z" />
    <glyph glyph-name="ordmasculine" unicode="&#xba;" horiz-adv-x="749" 
d="M420 1231q126 0 197 -73.5t71 -201.5q0 -162 -94.5 -273.5t-257.5 -111.5q-123 0 -199 71t-76 198q0 164 96 277.5t263 113.5zM403 1114q-89 0 -141.5 -76.5t-52.5 -187.5q0 -83 36 -125.5t101 -42.5q87 0 140 79.5t53 190.5q0 78 -35.5 120t-100.5 42z" />
    <glyph glyph-name="guillemotright" unicode="&#xbb;" horiz-adv-x="1058" 
d="M438 479v8q-23 9 -86 97l-170 239l119 92l303 -436l-457 -436l-88 96l244 238q34 34 67.5 59.5t50.5 33.5zM834 479v8q-23 9 -86 97l-170 239l116 92l305 -436l-458 -436l-86 96l243 238q34 34 68 59.5t51 33.5z" />
    <glyph glyph-name="onequarter" unicode="&#xbc;" horiz-adv-x="1759" 
d="M584 483h-514l20 115h184l82 467l-219 -21l21 117l372 47l-106 -610h180zM393 0l840 1208h133l-838 -1208h-135zM1376 0l31 176h-367l21 111l436 436h154l-76 -436h117l-21 -111h-117l-30 -176h-148zM1432 285l28 172q6 36 15 72.5t15 54.5l5 18h-8q-31 -53 -94 -121
l-103 -102q-27 -27 -55.5 -50.5t-43.5 -33.5l-15 -10l-2 -9q32 9 116 9h142z" />
    <glyph glyph-name="onehalf" unicode="&#xbd;" horiz-adv-x="1759" 
d="M584 483h-514l20 115h184l82 467l-219 -21l21 117l372 47l-106 -610h180zM393 0l840 1208h133l-838 -1208h-135zM1585 117l-22 -117h-543l20 106q215 122 324 214.5t109 181.5q0 114 -113 114q-60 0 -97.5 -38.5t-48.5 -104.5l-114 53q18 96 91 154.5t189 58.5
q112 0 177 -55.5t65 -159.5q0 -61 -28.5 -118t-69 -97t-100.5 -78.5t-105.5 -60.5t-101.5 -45v-8h368z" />
    <glyph glyph-name="threequarters" unicode="&#xbe;" horiz-adv-x="1759" 
d="M432 860v-6q83 -9 124.5 -54t41.5 -116q0 -104 -83 -159.5t-206 -55.5q-120 0 -181.5 54t-68.5 139l129 34q12 -121 121 -121q61 0 100.5 28.5t39.5 82.5q0 57 -41.5 86.5t-153.5 30.5l18 96q215 9 215 125q0 38 -26 60t-72 22q-50 0 -80 -25.5t-45 -79.5l-114 48
q56 174 256 174q102 0 166.5 -45t64.5 -134q0 -77 -53.5 -125.5t-151.5 -58.5zM393 0l840 1208h133l-838 -1208h-135zM1376 0l31 176h-367l21 111l436 436h154l-76 -436h117l-21 -111h-117l-30 -176h-148zM1432 285l28 172q6 36 15 72.5t15 54.5l5 18h-8q-31 -53 -94 -121
l-103 -102q-27 -27 -55.5 -50.5t-43.5 -33.5l-15 -10l-2 -9q32 9 116 9h142z" />
    <glyph glyph-name="questiondown" unicode="&#xbf;" horiz-adv-x="862" 
d="M627 66l155 -62q-88 -289 -395 -289q-172 0 -264 87t-92 245q0 97 37.5 174.5t98.5 124t132.5 70.5t146.5 24l31 168h166l-49 -276h-57q-66 0 -121 -14.5t-99.5 -45t-69 -83t-24.5 -123.5q0 -93 48.5 -143t140.5 -50q166 0 215 193zM721 831q0 -55 -37 -90.5t-92 -35.5
q-56 0 -93.5 35.5t-37.5 90.5q0 54 37.5 90.5t93.5 36.5q54 0 91.5 -36.5t37.5 -90.5z" />
    <glyph glyph-name="Agrave" unicode="&#xc0;" horiz-adv-x="1210" 
d="M885 0l-58 330h-493l-172 -330h-205l651 1206h248l225 -1206h-196zM836 1337h-170l-205 252h246zM557 758l-143 -273h385q-28 141 -50 288t-31 225.5t-7 78.5h-9q-45 -131 -145 -319z" />
    <glyph glyph-name="Aacute" unicode="&#xc1;" horiz-adv-x="1210" 
d="M885 0l-58 330h-493l-172 -330h-205l651 1206h248l225 -1206h-196zM817 1337h-170l129 252h246zM557 758l-143 -273h385q-28 141 -50 288t-31 225.5t-7 78.5h-9q-45 -131 -145 -319z" />
    <glyph glyph-name="Acircumflex" unicode="&#xc2;" horiz-adv-x="1210" 
d="M885 0l-58 330h-493l-172 -330h-205l651 1206h248l225 -1206h-196zM557 758l-143 -273h385q-28 141 -50 288t-31 225.5t-7 78.5h-9q-45 -131 -145 -319zM715 1602h114l207 -265h-192l-53 68q-13 18 -21.5 35.5t-11.5 25.5l-2 9h-4q1 -3 -18 -25t-53 -55t-67 -58h-200z
" />
    <glyph glyph-name="Atilde" unicode="&#xc3;" horiz-adv-x="1210" 
d="M885 0l-58 330h-493l-172 -330h-205l651 1206h248l225 -1206h-196zM870 1337q-44 0 -86 16.5t-68.5 36t-56.5 36t-53 16.5q-34 0 -55.5 -25.5t-24.5 -75.5h-112q-20 104 37.5 178t154.5 74q70 0 129 -39q7 -5 21.5 -14.5t19 -13t15.5 -10.5t15 -9t12.5 -6.5t13 -5.5
t11 -3t12.5 -2.5t13 -0.5q66 0 74 104h119q19 -113 -34.5 -184.5t-156.5 -71.5zM557 758l-143 -273h385q-28 141 -50 288t-31 225.5t-7 78.5h-9q-45 -131 -145 -319z" />
    <glyph glyph-name="Adieresis" unicode="&#xc4;" horiz-adv-x="1210" 
d="M885 0l-58 330h-493l-172 -330h-205l651 1206h248l225 -1206h-196zM834 1458q0 53 35 88t85 35q53 0 88 -34.5t35 -88.5q0 -51 -35.5 -86t-87.5 -35q-50 0 -85 35t-35 86zM432 1460q0 53 35.5 88t85.5 35q52 0 87.5 -35t35.5 -88q0 -52 -35.5 -86.5t-87.5 -34.5
q-50 0 -85.5 34.5t-35.5 86.5zM557 758l-143 -273h385q-28 141 -50 288t-31 225.5t-7 78.5h-9q-45 -131 -145 -319z" />
    <glyph glyph-name="Aring" unicode="&#xc5;" horiz-adv-x="1210" 
d="M885 0l-58 330h-493l-172 -330h-205l651 1206h248l225 -1206h-196zM571 1485q0 91 62 154t160 63q84 0 135 -51.5t51 -128.5q0 -93 -61 -156t-158 -63q-90 0 -139.5 51t-49.5 131zM557 758l-143 -273h385q-28 141 -50 288t-31 225.5t-7 78.5h-9q-45 -131 -145 -319z
M784 1614q-48 0 -80 -35t-32 -84q0 -48 26.5 -76t71.5 -28q48 0 79.5 35.5t31.5 84.5q0 46 -26 74.5t-71 28.5z" />
    <glyph glyph-name="AE" unicode="&#xc6;" horiz-adv-x="1740" 
d="M815 0l57 330h-450l-258 -330h-215l942 1206h878l-28 -164h-549l-64 -356h486l-29 -164h-485l-64 -358h549l-26 -164h-744zM1006 1077l-463 -592h356l64 361q16 84 28.5 141.5t17.5 73.5l5 16h-8z" />
    <glyph glyph-name="Ccedilla" unicode="&#xc7;" horiz-adv-x="1146" 
d="M676 -254q0 -85 -62.5 -131.5t-156.5 -46.5q-126 0 -185 78l47 104q56 -74 130 -74q36 0 57.5 18t21.5 52q0 83 -131 86l60 156q-165 35 -255.5 162t-90.5 317q0 176 49 322t134 242t197 148t238 52q344 0 410 -301l-193 -74q-17 105 -78.5 159t-154.5 54
q-125 0 -219.5 -83.5t-140.5 -216t-46 -290.5q0 -159 76.5 -251.5t216.5 -92.5q101 0 170 39.5t129 144.5l154 -83q-143 -261 -471 -261q-27 0 -41 2l-25 -61q83 -18 121.5 -57.5t38.5 -112.5z" />
    <glyph glyph-name="Egrave" unicode="&#xc8;" horiz-adv-x="1003" 
d="M848 164l-27 -164h-743l211 1206h743l-28 -164h-551l-62 -356h486l-29 -164h-486l-63 -358h549zM750 1337h-170l-205 252h246z" />
    <glyph glyph-name="Eacute" unicode="&#xc9;" horiz-adv-x="1003" 
d="M848 164l-27 -164h-743l211 1206h743l-28 -164h-551l-62 -356h486l-29 -164h-486l-63 -358h549zM729 1337h-168l129 252h246z" />
    <glyph glyph-name="Ecircumflex" unicode="&#xca;" horiz-adv-x="1003" 
d="M848 164l-27 -164h-743l211 1206h743l-28 -164h-551l-62 -356h486l-29 -164h-486l-63 -358h549zM629 1602h112l209 -265h-192l-53 68q-14 18 -22.5 35.5t-10.5 25.5l-2 9h-6q-13 -29 -60 -70l-76 -68h-202z" />
    <glyph glyph-name="Edieresis" unicode="&#xcb;" horiz-adv-x="1003" 
d="M848 164l-27 -164h-743l211 1206h743l-28 -164h-551l-62 -356h486l-29 -164h-486l-63 -358h549zM346 1460q0 53 35.5 88t85.5 35q51 0 86 -34.5t35 -88.5q0 -52 -35 -86.5t-86 -34.5q-50 0 -85.5 34.5t-35.5 86.5zM748 1458q0 53 35 88t85 35q52 0 87.5 -35t35.5 -88
q0 -51 -36 -86t-87 -35q-50 0 -85 35t-35 86z" />
    <glyph glyph-name="Igrave" unicode="&#xcc;" horiz-adv-x="509" 
d="M289 1206h192l-211 -1206h-192zM500 1337h-170l-205 252h246z" />
    <glyph glyph-name="Iacute" unicode="&#xcd;" horiz-adv-x="509" 
d="M289 1206h192l-211 -1206h-192zM479 1337h-168l129 252h246z" />
    <glyph glyph-name="Icircumflex" unicode="&#xce;" horiz-adv-x="509" 
d="M289 1206h192l-211 -1206h-192zM381 1602h113l208 -265h-192l-53 68q-14 18 -22.5 35.5t-10.5 25.5l-2 9h-6q-13 -29 -60 -70l-75 -68h-203z" />
    <glyph glyph-name="Idieresis" unicode="&#xcf;" horiz-adv-x="509" 
d="M289 1206h192l-211 -1206h-192zM96 1460q0 53 35.5 88t85.5 35q51 0 86 -34.5t35 -88.5q0 -52 -35 -86.5t-86 -34.5q-50 0 -85.5 34.5t-35.5 86.5zM498 1458q0 53 35 88t85 35q52 0 87.5 -35t35.5 -88q0 -51 -36 -86t-87 -35q-50 0 -85 35t-35 86z" />
    <glyph glyph-name="Eth" unicode="&#xd0;" horiz-adv-x="1222" 
d="M475 0h-397l90 524h-133l28 160h134l92 522h346q254 0 381 -119t127 -342q0 -158 -38 -285.5t-101.5 -212t-150.5 -141t-181 -81.5t-197 -25zM299 158h176q98 0 180.5 33.5t147 101t101 179t36.5 257.5q0 320 -336 320h-149l-66 -365h252l-29 -160h-250z" />
    <glyph glyph-name="Ntilde" unicode="&#xd1;" 
d="M481 1206l316 -678q27 -59 50.5 -122.5t33.5 -97.5l10 -34h8q14 139 41 291l113 641h192l-211 -1206h-186l-324 672q-27 58 -51.5 122t-35.5 99l-11 35h-8q-8 -133 -35 -289l-113 -639h-192l211 1206h192zM893 1337q-21 0 -38 2t-35.5 10t-24.5 10.5t-28 16.5t-24 15
q-33 23 -44 29.5t-30 14t-38 7.5q-34 0 -56.5 -25.5t-23.5 -75.5h-113q-22 103 36.5 177.5t156.5 74.5q35 0 65 -9.5t43 -17t47 -30.5q60 -39 80 -44q12 -3 27 -3q66 0 74 104h118q19 -113 -34.5 -184.5t-157.5 -71.5z" />
    <glyph glyph-name="Ograve" unicode="&#xd2;" 
d="M582 -25q-222 0 -346.5 134.5t-124.5 357.5q0 176 49 322t134 242t197 148t238 52q223 0 348 -135.5t125 -358.5q0 -176 -49.5 -322t-134.5 -241t-197 -147t-239 -52zM713 1067q-125 0 -219.5 -83t-140.5 -214.5t-46 -288.5q0 -161 76.5 -253.5t216.5 -92.5
q123 0 216.5 82.5t140.5 215t47 290.5q0 154 -72.5 249t-218.5 95zM856 1337h-170l-205 252h246z" />
    <glyph glyph-name="Oacute" unicode="&#xd3;" 
d="M582 -25q-222 0 -346.5 134.5t-124.5 357.5q0 176 49 322t134 242t197 148t238 52q223 0 348 -135.5t125 -358.5q0 -176 -49.5 -322t-134.5 -241t-197 -147t-239 -52zM713 1067q-125 0 -219.5 -83t-140.5 -214.5t-46 -288.5q0 -161 76.5 -253.5t216.5 -92.5
q123 0 216.5 82.5t140.5 215t47 290.5q0 154 -72.5 249t-218.5 95zM836 1337h-168l129 252h245z" />
    <glyph glyph-name="Ocircumflex" unicode="&#xd4;" 
d="M582 -25q-222 0 -346.5 134.5t-124.5 357.5q0 176 49 322t134 242t197 148t238 52q223 0 348 -135.5t125 -358.5q0 -176 -49.5 -322t-134.5 -241t-197 -147t-239 -52zM713 1067q-125 0 -219.5 -83t-140.5 -214.5t-46 -288.5q0 -161 76.5 -253.5t216.5 -92.5
q123 0 216.5 82.5t140.5 215t47 290.5q0 154 -72.5 249t-218.5 95zM737 1602h113l209 -265h-193l-53 68q-14 18 -22.5 35.5t-10.5 25.5l-2 9h-6q-12 -29 -59 -70l-76 -68h-203z" />
    <glyph glyph-name="Otilde" unicode="&#xd5;" 
d="M582 -25q-222 0 -346.5 134.5t-124.5 357.5q0 176 49 322t134 242t197 148t238 52q223 0 348 -135.5t125 -358.5q0 -176 -49.5 -322t-134.5 -241t-197 -147t-239 -52zM713 1067q-125 0 -219.5 -83t-140.5 -214.5t-46 -288.5q0 -161 76.5 -253.5t216.5 -92.5
q123 0 216.5 82.5t140.5 215t47 290.5q0 154 -72.5 249t-218.5 95zM891 1337q-21 0 -38 2t-35.5 10t-24.5 10.5t-28 16.5t-24 15q-5 3 -19.5 12.5t-18.5 12t-15 9t-15.5 8l-13.5 4.5t-16 4t-16 1q-33 0 -55 -25.5t-25 -75.5h-111q-22 103 36 177.5t157 74.5q35 0 65 -9.5
t43 -17t47 -30.5q60 -39 80 -44q12 -3 27 -3q66 0 74 104h118q17 -113 -36.5 -184.5t-155.5 -71.5z" />
    <glyph glyph-name="Odieresis" unicode="&#xd6;" 
d="M582 -25q-222 0 -346.5 134.5t-124.5 357.5q0 176 49 322t134 242t197 148t238 52q223 0 348 -135.5t125 -358.5q0 -176 -49.5 -322t-134.5 -241t-197 -147t-239 -52zM713 1067q-125 0 -219.5 -83t-140.5 -214.5t-46 -288.5q0 -161 76.5 -253.5t216.5 -92.5
q123 0 216.5 82.5t140.5 215t47 290.5q0 154 -72.5 249t-218.5 95zM453 1460q0 53 35 88t85 35q51 0 86 -34.5t35 -88.5q0 -52 -35 -86.5t-86 -34.5q-50 0 -85 34.5t-35 86.5zM854 1458q0 53 35.5 88t85.5 35q52 0 87.5 -35t35.5 -88q0 -51 -36 -86t-87 -35q-50 0 -85.5 35
t-35.5 86z" />
    <glyph glyph-name="multiply" unicode="&#xd7;" horiz-adv-x="980" 
d="M76 233l327 279l-217 270l90 78l220 -270l335 284l74 -88l-336 -284l238 -285l-90 -76l-238 283l-329 -281z" />
    <glyph glyph-name="Oslash" unicode="&#xd8;" 
d="M127 -29l-88 82l135 140q-63 111 -63 274q0 176 49 322t134 242t197 148t238 52q205 0 332 -121l117 121l94 -84l-133 -137q63 -120 63 -273q0 -176 -49.5 -322t-134.5 -241t-197 -147t-239 -52q-207 0 -334 121zM1004 723q0 66 -19 131l-606 -625q81 -94 221 -94
q123 0 216.5 82.5t140.5 215t47 290.5zM713 1067q-125 0 -219.5 -83t-140.5 -214.5t-46 -288.5q0 -78 17 -133l606 625q-78 94 -217 94z" />
    <glyph glyph-name="Ugrave" unicode="&#xd9;" horiz-adv-x="1206" 
d="M1006 1206h192l-143 -817q-20 -116 -66.5 -198.5t-116.5 -128.5t-152 -66.5t-185 -20.5q-79 0 -146 16t-123.5 51.5t-90.5 92t-47.5 136.5t7.5 186l129 749h195l-135 -762q-27 -158 36 -234.5t199 -76.5q132 0 207 69t102 226zM836 1337h-168l-205 252h246z" />
    <glyph glyph-name="Uacute" unicode="&#xda;" horiz-adv-x="1206" 
d="M1006 1206h192l-143 -817q-20 -116 -66.5 -198.5t-116.5 -128.5t-152 -66.5t-185 -20.5q-79 0 -146 16t-123.5 51.5t-90.5 92t-47.5 136.5t7.5 186l129 749h195l-135 -762q-27 -158 36 -234.5t199 -76.5q132 0 207 69t102 226zM819 1337h-170l129 252h246z" />
    <glyph glyph-name="Ucircumflex" unicode="&#xdb;" horiz-adv-x="1206" 
d="M1006 1206h192l-143 -817q-20 -116 -66.5 -198.5t-116.5 -128.5t-152 -66.5t-185 -20.5q-79 0 -146 16t-123.5 51.5t-90.5 92t-47.5 136.5t7.5 186l129 749h195l-135 -762q-27 -158 36 -234.5t199 -76.5q132 0 207 69t102 226zM717 1602h114l207 -265h-192l-51 68
q-14 18 -23 35.5t-12 25.5l-2 9h-4q-15 -29 -60 -70l-78 -68h-200z" />
    <glyph glyph-name="Udieresis" unicode="&#xdc;" horiz-adv-x="1206" 
d="M1006 1206h192l-143 -817q-20 -116 -66.5 -198.5t-116.5 -128.5t-152 -66.5t-185 -20.5q-79 0 -146 16t-123.5 51.5t-90.5 92t-47.5 136.5t7.5 186l129 749h195l-135 -762q-27 -158 36 -234.5t199 -76.5q132 0 207 69t102 226zM432 1460q0 53 36 88t85 35q53 0 88 -34.5
t35 -88.5q0 -52 -35 -86.5t-88 -34.5q-48 0 -84.5 35t-36.5 86zM836 1458q0 53 35 88t85 35q52 0 86.5 -34.5t34.5 -88.5q0 -51 -35 -86t-86 -35q-50 0 -85 35t-35 86z" />
    <glyph glyph-name="Yacute" unicode="&#xdd;" horiz-adv-x="1036" 
d="M367 1206l127 -383q19 -61 31 -118t14 -84l2 -27h8q29 92 115 229l247 383h205l-495 -749l-80 -457h-193l78 457l-260 749h201zM741 1337h-168l129 252h246z" />
    <glyph glyph-name="Thorn" unicode="&#xde;" horiz-adv-x="1017" 
d="M416 831l-74 -428h162q280 0 280 261q0 86 -49.5 126.5t-156.5 40.5h-162zM270 0h-192l211 1206h192l-39 -215h164q191 0 282 -78t91 -235q0 -145 -63.5 -243.5t-168 -142.5t-243.5 -44h-189z" />
    <glyph glyph-name="germandbls" unicode="&#xdf;" horiz-adv-x="1099" 
d="M41 -193l199 1127q21 120 66.5 208t110.5 139.5t142 76t168 24.5q165 0 248.5 -79.5t83.5 -204.5q0 -75 -24.5 -135t-66.5 -97.5t-92 -59.5t-108 -30v-8q126 -17 190 -102.5t64 -219.5q0 -225 -117.5 -348t-300.5 -123q-201 0 -256 140l107 123q35 -119 155 -119
q94 0 159 78.5t65 240.5q0 258 -248 258h-88l26 148h84q124 0 196.5 57t72.5 168q0 76 -41 122t-131 46q-107 0 -179 -69t-102 -240l-197 -1127q-23 -134 -85.5 -183.5t-174.5 -49.5q-111 0 -174 51l41 141q56 -47 111 -47q42 0 64 20t32 74z" />
    <glyph glyph-name="agrave" unicode="&#xe0;" horiz-adv-x="1093" 
d="M709 395l28 160q12 69 -1 129t-56.5 100.5t-110.5 40.5q-134 0 -219.5 -126.5t-85.5 -317.5q0 -115 49.5 -185.5t141.5 -70.5q99 0 165.5 72t88.5 198zM993 946l-127 -719q-16 -92 54 -92q19 0 61 10l-27 -137q-50 -18 -110 -18q-172 0 -166 168q-40 -93 -114.5 -138
t-168.5 -45q-144 0 -230.5 102t-86.5 285q0 163 56 300.5t163 222t242 84.5q212 0 241 -183l54 160h159zM711 1083h-162l-238 299h248z" />
    <glyph glyph-name="aacute" unicode="&#xe1;" horiz-adv-x="1093" 
d="M709 395l28 160q12 69 -1 129t-56.5 100.5t-110.5 40.5q-134 0 -219.5 -126.5t-85.5 -317.5q0 -115 49.5 -185.5t141.5 -70.5q99 0 165.5 72t88.5 198zM993 946l-127 -719q-16 -92 54 -92q19 0 61 10l-27 -137q-50 -18 -110 -18q-172 0 -166 168q-40 -93 -114.5 -138
t-168.5 -45q-144 0 -230.5 102t-86.5 285q0 163 56 300.5t163 222t242 84.5q212 0 241 -183l54 160h159zM680 1083h-162l152 299h245z" />
    <glyph glyph-name="acircumflex" unicode="&#xe2;" horiz-adv-x="1093" 
d="M709 395l28 160q12 69 -1 129t-56.5 100.5t-110.5 40.5q-134 0 -219.5 -126.5t-85.5 -317.5q0 -115 49.5 -185.5t141.5 -70.5q99 0 165.5 72t88.5 198zM993 946l-127 -719q-16 -92 54 -92q19 0 61 10l-27 -137q-50 -18 -110 -18q-172 0 -166 168q-40 -93 -114.5 -138
t-168.5 -45q-144 0 -230.5 102t-86.5 285q0 163 56 300.5t163 222t242 84.5q212 0 241 -183l54 160h159zM596 1382h109l202 -301h-182l-57 86q-14 21 -22 40.5t-10 28.5l-1 9h-8q-15 -31 -62 -78l-86 -86h-192z" />
    <glyph glyph-name="atilde" unicode="&#xe3;" horiz-adv-x="1093" 
d="M709 395l28 160q12 69 -1 129t-56.5 100.5t-110.5 40.5q-134 0 -219.5 -126.5t-85.5 -317.5q0 -115 49.5 -185.5t141.5 -70.5q99 0 165.5 72t88.5 198zM993 946l-127 -719q-16 -92 54 -92q19 0 61 10l-27 -137q-50 -18 -110 -18q-172 0 -166 168q-40 -93 -114.5 -138
t-168.5 -45q-144 0 -230.5 102t-86.5 285q0 163 56 300.5t163 222t242 84.5q212 0 241 -183l54 160h159zM760 1083q-18 0 -34.5 2.5t-26 4.5t-26 9.5t-20 9t-23 13.5t-20.5 13q-5 3 -19.5 12.5t-18.5 12t-15 9t-15.5 8l-13.5 4.5t-16 4t-16 1q-34 0 -55.5 -25.5t-24.5 -75.5
h-111q-22 105 36 179.5t157 74.5q14 0 26.5 -1.5t22 -3t21 -6t17.5 -7t18 -9.5t16 -9.5t17.5 -11.5l16.5 -11q42 -28 61.5 -37.5t43.5 -9.5q65 0 76 104h116q19 -111 -34.5 -182.5t-155.5 -71.5z" />
    <glyph glyph-name="adieresis" unicode="&#xe4;" horiz-adv-x="1093" 
d="M709 395l28 160q12 69 -1 129t-56.5 100.5t-110.5 40.5q-134 0 -219.5 -126.5t-85.5 -317.5q0 -115 49.5 -185.5t141.5 -70.5q99 0 165.5 72t88.5 198zM993 946l-127 -719q-16 -92 54 -92q19 0 61 10l-27 -137q-50 -18 -110 -18q-172 0 -166 168q-40 -93 -114.5 -138
t-168.5 -45q-144 0 -230.5 102t-86.5 285q0 163 56 300.5t163 222t242 84.5q212 0 241 -183l54 160h159zM309 1219q0 53 35.5 87.5t85.5 34.5q52 0 86.5 -34.5t34.5 -87.5q0 -52 -35 -86.5t-86 -34.5q-50 0 -85.5 34.5t-35.5 86.5zM711 1217q0 53 35 87.5t85 34.5
q52 0 87.5 -34.5t35.5 -87.5q0 -51 -36 -86t-87 -35q-50 0 -85 35t-35 86z" />
    <glyph glyph-name="aring" unicode="&#xe5;" horiz-adv-x="1093" 
d="M709 395l28 160q12 69 -1 129t-56.5 100.5t-110.5 40.5q-134 0 -219.5 -126.5t-85.5 -317.5q0 -115 49.5 -185.5t141.5 -70.5q99 0 165.5 72t88.5 198zM993 946l-127 -719q-16 -92 54 -92q19 0 61 10l-27 -137q-50 -18 -110 -18q-172 0 -166 168q-40 -93 -114.5 -138
t-168.5 -45q-144 0 -230.5 102t-86.5 285q0 163 56 300.5t163 222t242 84.5q212 0 241 -183l54 160h159zM438 1249q0 91 63 154t161 63q84 0 134 -51.5t50 -128.5q0 -93 -61 -156t-158 -63q-90 0 -139.5 51t-49.5 131zM651 1380q-47 0 -79.5 -36t-32.5 -84t26.5 -75.5
t73.5 -27.5t79 35.5t32 83.5q0 46 -27 75t-72 29z" />
    <glyph glyph-name="ae" unicode="&#xe6;" horiz-adv-x="1513" 
d="M1024 119q92 0 140.5 37t72.5 116l172 -43q-49 -139 -146 -196.5t-255 -57.5q-104 0 -184 40.5t-128 115.5q-108 -156 -340 -156q-144 0 -217 64.5t-73 183.5q0 333 585 336q14 49 33 98q10 83 -29.5 124.5t-117.5 41.5q-77 0 -128.5 -39.5t-68.5 -113.5l-174 26
q17 73 57 127.5t95 85.5t115.5 45.5t127.5 14.5q204 0 266 -111q120 111 279 111q90 0 159.5 -28t110 -76.5t60.5 -108t20 -127.5q0 -118 -41 -201h-600q-8 -82 10 -150.5t69.5 -113.5t129.5 -45zM647 250q-14 52 -14 129q0 33 2 47q-179 -2 -281 -47.5t-102 -142.5
q0 -59 35 -91t102 -32q83 0 146.5 31t111.5 106zM836 559h430q8 27 8 74q0 84 -44 138t-132 54q-100 0 -166.5 -76t-95.5 -190z" />
    <glyph glyph-name="ccedilla" unicode="&#xe7;" horiz-adv-x="921" 
d="M557 -254q0 -85 -62.5 -131.5t-156.5 -46.5q-125 0 -184 78l47 104q56 -74 129 -74q37 0 58.5 18t21.5 52q0 83 -131 86l59 158q-122 30 -191 129.5t-69 255.5q0 91 19.5 177t60 162t97.5 132.5t138 89.5t176 33q159 0 237.5 -82.5t78.5 -227.5l-176 -30q0 188 -160 188
q-88 0 -154.5 -64t-98.5 -158.5t-32 -199.5q0 -136 54 -206t151 -70q156 0 213 182l174 -35q-51 -148 -151 -219.5t-256 -71.5q-5 0 -14 1t-13 1l-25 -61q83 -18 121.5 -57.5t38.5 -112.5z" />
    <glyph glyph-name="egrave" unicode="&#xe8;" horiz-adv-x="958" 
d="M469 119q92 0 140.5 37t72.5 116l172 -43q-49 -139 -146 -196.5t-255 -57.5q-176 0 -275.5 109.5t-99.5 294.5q0 139 40.5 253t107.5 186.5t151 111.5t174 39t159 -28t109.5 -76.5t61 -108t20.5 -127.5q0 -102 -41 -195h-600q-6 -61 3 -116t33 -100.5t68.5 -72
t104.5 -26.5zM281 567h428q10 25 10 66q0 84 -44 138t-132 54q-101 0 -167 -72.5t-95 -185.5zM653 1083h-161l-236 299h248z" />
    <glyph glyph-name="eacute" unicode="&#xe9;" horiz-adv-x="958" 
d="M469 119q92 0 140.5 37t72.5 116l172 -43q-49 -139 -146 -196.5t-255 -57.5q-176 0 -275.5 109.5t-99.5 294.5q0 139 40.5 253t107.5 186.5t151 111.5t174 39t159 -28t109.5 -76.5t61 -108t20.5 -127.5q0 -102 -41 -195h-600q-6 -61 3 -116t33 -100.5t68.5 -72
t104.5 -26.5zM281 567h428q10 25 10 66q0 84 -44 138t-132 54q-101 0 -167 -72.5t-95 -185.5zM623 1083h-162l151 299h248z" />
    <glyph glyph-name="ecircumflex" unicode="&#xea;" horiz-adv-x="958" 
d="M469 119q92 0 140.5 37t72.5 116l172 -43q-49 -139 -146 -196.5t-255 -57.5q-176 0 -275.5 109.5t-99.5 294.5q0 139 40.5 253t107.5 186.5t151 111.5t174 39t159 -28t109.5 -76.5t61 -108t20.5 -127.5q0 -102 -41 -195h-600q-6 -61 3 -116t33 -100.5t68.5 -72
t104.5 -26.5zM281 567h428q10 25 10 66q0 84 -44 138t-132 54q-101 0 -167 -72.5t-95 -185.5zM539 1382h108l205 -301h-184l-56 86q-14 21 -22 40.5t-9 28.5l-1 9h-11q-12 -31 -59 -78l-88 -86h-191z" />
    <glyph glyph-name="edieresis" unicode="&#xeb;" horiz-adv-x="958" 
d="M469 119q92 0 140.5 37t72.5 116l172 -43q-49 -139 -146 -196.5t-255 -57.5q-176 0 -275.5 109.5t-99.5 294.5q0 139 40.5 253t107.5 186.5t151 111.5t174 39t159 -28t109.5 -76.5t61 -108t20.5 -127.5q0 -102 -41 -195h-600q-6 -61 3 -116t33 -100.5t68.5 -72
t104.5 -26.5zM281 567h428q10 25 10 66q0 84 -44 138t-132 54q-101 0 -167 -72.5t-95 -185.5zM252 1219q0 53 35.5 87.5t85.5 34.5q53 0 88 -34t35 -88q0 -52 -35 -86.5t-88 -34.5q-50 0 -85.5 34.5t-35.5 86.5zM653 1217q0 53 36 87.5t85 34.5q53 0 88 -34t35 -88
q0 -51 -35.5 -86t-87.5 -35q-48 0 -84.5 35.5t-36.5 85.5z" />
    <glyph glyph-name="igrave" unicode="&#xec;" horiz-adv-x="518" 
d="M451 1083h-162l-236 299h248zM418 946l-127 -719q-16 -92 55 -92q18 0 60 10l-27 -137q-49 -18 -111 -18q-104 0 -144.5 57t-21.5 162l129 737h187z" />
    <glyph glyph-name="iacute" unicode="&#xed;" horiz-adv-x="518" 
d="M420 1083h-164l152 299h247zM418 946l-127 -719q-16 -92 55 -92q18 0 60 10l-27 -137q-49 -18 -111 -18q-104 0 -144.5 57t-21.5 162l129 737h187z" />
    <glyph glyph-name="icircumflex" unicode="&#xee;" horiz-adv-x="518" 
d="M418 946l-127 -719q-16 -92 55 -92q18 0 60 10l-27 -137q-49 -18 -111 -18q-104 0 -144.5 57t-21.5 162l129 737h187zM336 1382h108l205 -301h-184l-55 86q-14 21 -22 40.5t-10 28.5l-1 9h-10q-13 -31 -60 -78l-88 -86h-190z" />
    <glyph glyph-name="idieresis" unicode="&#xef;" horiz-adv-x="518" 
d="M49 1219q0 53 35.5 87.5t85.5 34.5q53 0 88 -34t35 -88q0 -52 -35 -86.5t-88 -34.5q-50 0 -85.5 34.5t-35.5 86.5zM451 1217q0 53 35.5 87.5t84.5 34.5q53 0 88 -34t35 -88q0 -51 -35.5 -86t-87.5 -35q-48 0 -84 35.5t-36 85.5zM418 946l-127 -719q-16 -92 55 -92
q18 0 60 10l-27 -137q-49 -18 -111 -18q-104 0 -144.5 57t-21.5 162l129 737h187z" />
    <glyph glyph-name="eth" unicode="&#xf0;" horiz-adv-x="1017" 
d="M270 1001l-24 86l270 72q-125 85 -297 123l148 96q209 -53 335 -166l185 54l24 -90l-137 -37q166 -206 166 -549q0 -179 -54.5 -316.5t-166 -218t-266.5 -80.5q-169 0 -272 104t-103 294q0 115 32.5 219t90.5 182.5t145.5 125t190.5 46.5q74 0 133 -33t84 -96h8
q-44 165 -158 273zM549 799q-85 0 -151 -58t-100 -152t-34 -206q0 -129 55 -197.5t152 -68.5q128 0 205.5 125.5t77.5 300.5q0 256 -205 256z" />
    <glyph glyph-name="ntilde" unicode="&#xf1;" horiz-adv-x="1062" 
d="M934 651l-74 -424q-16 -92 55 -92q18 0 60 10l-27 -137q-50 -18 -110 -18q-104 0 -144.5 57t-21.5 162l76 426q16 83 -13.5 130.5t-109.5 47.5q-87 0 -165.5 -72t-105.5 -227l-90 -514h-186l166 946h162l-11 -192q102 215 305 215q111 0 176.5 -60t65.5 -168
q0 -49 -8 -90zM768 1083q-18 0 -34.5 2.5t-27 4.5t-25.5 9t-20.5 10t-22.5 13t-22 13t-15.5 10t-14 9.5t-12 8t-12 7.5t-10.5 5.5t-11.5 4.5t-11 3t-12.5 2.5t-13 0.5q-34 0 -55.5 -25.5t-24.5 -75.5h-113q-20 105 37.5 179.5t155.5 74.5q11 0 21.5 -1t19 -2t18 -4
t15.5 -4.5t15.5 -6.5t13.5 -6.5t13.5 -8t12 -8.5t13.5 -9t13 -9q60 -39 80 -44q12 -3 27 -3q65 0 76 104h116q19 -111 -34.5 -182.5t-155.5 -71.5z" />
    <glyph glyph-name="ograve" unicode="&#xf2;" horiz-adv-x="1024" 
d="M573 969q176 0 274.5 -109t98.5 -299q0 -118 -32.5 -223.5t-93.5 -186.5t-156 -128.5t-211 -47.5q-169 0 -272 105.5t-103 296.5q0 95 20 182t61 161.5t99.5 130t139 87t175.5 31.5zM551 817q-86 0 -152.5 -60t-100.5 -156t-34 -210q0 -132 55.5 -202t153.5 -70
q86 0 151.5 61.5t98.5 159.5t33 213q0 126 -53.5 195t-151.5 69zM686 1083h-164l-235 299h248z" />
    <glyph glyph-name="oacute" unicode="&#xf3;" horiz-adv-x="1024" 
d="M573 969q176 0 274.5 -109t98.5 -299q0 -118 -32.5 -223.5t-93.5 -186.5t-156 -128.5t-211 -47.5q-169 0 -272 105.5t-103 296.5q0 95 20 182t61 161.5t99.5 130t139 87t175.5 31.5zM551 817q-86 0 -152.5 -60t-100.5 -156t-34 -210q0 -132 55.5 -202t153.5 -70
q86 0 151.5 61.5t98.5 159.5t33 213q0 126 -53.5 195t-151.5 69zM655 1083h-163l151 299h248z" />
    <glyph glyph-name="ocircumflex" unicode="&#xf4;" horiz-adv-x="1024" 
d="M573 969q176 0 274.5 -109t98.5 -299q0 -118 -32.5 -223.5t-93.5 -186.5t-156 -128.5t-211 -47.5q-169 0 -272 105.5t-103 296.5q0 95 20 182t61 161.5t99.5 130t139 87t175.5 31.5zM551 817q-86 0 -152.5 -60t-100.5 -156t-34 -210q0 -132 55.5 -202t153.5 -70
q86 0 151.5 61.5t98.5 159.5t33 213q0 126 -53.5 195t-151.5 69zM571 1382h107l205 -301h-185l-55 86q-14 21 -22 40.5t-9 28.5l-2 9h-8q-14 -31 -61 -78l-86 -86h-193z" />
    <glyph glyph-name="otilde" unicode="&#xf5;" horiz-adv-x="1024" 
d="M573 969q176 0 274.5 -109t98.5 -299q0 -118 -32.5 -223.5t-93.5 -186.5t-156 -128.5t-211 -47.5q-169 0 -272 105.5t-103 296.5q0 95 20 182t61 161.5t99.5 130t139 87t175.5 31.5zM551 817q-86 0 -152.5 -60t-100.5 -156t-34 -210q0 -132 55.5 -202t153.5 -70
q86 0 151.5 61.5t98.5 159.5t33 213q0 126 -53.5 195t-151.5 69zM735 1083q-18 0 -34 2.5t-27 5t-25.5 9t-20.5 10t-22 13t-22 12.5l-13.5 9t-13 9t-11.5 7.5t-11.5 7t-9.5 5.5t-10.5 5t-10 3t-11 3t-10.5 1.5t-12 0.5q-34 0 -55.5 -25.5t-24.5 -75.5h-112q-20 105 37 179.5
t155 74.5q33 0 62 -8.5t43 -16.5t42 -28l9 -6q4 -3 14 -9.5t13 -8.5t11 -7t11 -6t9 -4.5t9.5 -4.5t9 -3t9.5 -2.5t9 -1t11 -0.5q65 0 76 104h117q19 -111 -35 -182.5t-156 -71.5z" />
    <glyph glyph-name="odieresis" unicode="&#xf6;" horiz-adv-x="1024" 
d="M573 969q176 0 274.5 -109t98.5 -299q0 -118 -32.5 -223.5t-93.5 -186.5t-156 -128.5t-211 -47.5q-169 0 -272 105.5t-103 296.5q0 95 20 182t61 161.5t99.5 130t139 87t175.5 31.5zM551 817q-86 0 -152.5 -60t-100.5 -156t-34 -210q0 -132 55.5 -202t153.5 -70
q86 0 151.5 61.5t98.5 159.5t33 213q0 126 -53.5 195t-151.5 69zM283 1219q0 53 35.5 87.5t84.5 34.5q53 0 88 -34t35 -88q0 -52 -35 -86.5t-88 -34.5q-48 0 -84 35t-36 86zM686 1217q0 53 35.5 87.5t85.5 34.5q52 0 86.5 -34.5t34.5 -87.5q0 -51 -35 -86t-86 -35
q-50 0 -85.5 35t-35.5 86z" />
    <glyph glyph-name="divide" unicode="&#xf7;" horiz-adv-x="1017" 
d="M918 453h-836l18 110h836zM328 152q0 39 27.5 66.5t66.5 27.5t67.5 -27.5t28.5 -66.5q0 -38 -28.5 -65.5t-67.5 -27.5q-38 0 -66 27.5t-28 65.5zM483 850q0 40 28.5 69t66.5 29t67 -29t29 -69q0 -37 -29 -64.5t-67 -27.5t-66.5 27.5t-28.5 64.5z" />
    <glyph glyph-name="oslash" unicode="&#xf8;" horiz-adv-x="1024" 
d="M573 969q178 0 273 -109l112 107l84 -88l-131 -125q35 -84 35 -193q0 -118 -32.5 -223.5t-93.5 -186.5t-156 -128.5t-211 -47.5q-157 0 -254 88l-99 -92l-86 82l109 107q-45 92 -45 217q0 95 20 182t61 161.5t99.5 130t139 87t175.5 31.5zM551 817q-84 0 -149.5 -56.5
t-99.5 -147.5t-36 -199q0 -65 8 -109l439 428q-55 84 -162 84zM473 119q83 0 147.5 58.5t98 151t35.5 201.5v72l-430 -418q51 -65 149 -65z" />
    <glyph glyph-name="ugrave" unicode="&#xf9;" horiz-adv-x="1058" 
d="M651 178q-42 -105 -116 -154t-183 -49q-149 0 -211 93t-32 264l106 614h186l-110 -637q-17 -94 15.5 -145t109.5 -51q89 0 162.5 70t95.5 194l98 569h186l-127 -719q-16 -92 56 -92q17 0 59 10l-26 -137q-50 -18 -111 -18q-95 0 -131 47t-27 141zM700 1083h-161l-236 299
h246z" />
    <glyph glyph-name="uacute" unicode="&#xfa;" horiz-adv-x="1058" 
d="M651 178q-42 -105 -116 -154t-183 -49q-149 0 -211 93t-32 264l106 614h186l-110 -637q-17 -94 15.5 -145t109.5 -51q89 0 162.5 70t95.5 194l98 569h186l-127 -719q-16 -92 56 -92q17 0 59 10l-26 -137q-50 -18 -111 -18q-95 0 -131 47t-27 141zM670 1083h-162l151 299
h248z" />
    <glyph glyph-name="ucircumflex" unicode="&#xfb;" horiz-adv-x="1058" 
d="M651 178q-42 -105 -116 -154t-183 -49q-149 0 -211 93t-32 264l106 614h186l-110 -637q-17 -94 15.5 -145t109.5 -51q89 0 162.5 70t95.5 194l98 569h186l-127 -719q-16 -92 56 -92q17 0 59 10l-26 -137q-50 -18 -111 -18q-95 0 -131 47t-27 141zM586 1382h108l203 -301
h-182l-56 86q-14 21 -22.5 40.5t-10.5 28.5l-1 9h-9q-14 -31 -61 -78l-86 -86h-193z" />
    <glyph glyph-name="udieresis" unicode="&#xfc;" horiz-adv-x="1058" 
d="M651 178q-42 -105 -116 -154t-183 -49q-149 0 -211 93t-32 264l106 614h186l-110 -637q-17 -94 15.5 -145t109.5 -51q89 0 162.5 70t95.5 194l98 569h186l-127 -719q-16 -92 56 -92q17 0 59 10l-26 -137q-50 -18 -111 -18q-95 0 -131 47t-27 141zM299 1219
q0 53 35.5 87.5t85.5 34.5q52 0 86.5 -34.5t34.5 -87.5q0 -52 -35 -86.5t-86 -34.5q-50 0 -85.5 34.5t-35.5 86.5zM700 1217q0 53 35.5 87.5t85.5 34.5q52 0 87.5 -34.5t35.5 -87.5q0 -51 -36 -86t-87 -35q-50 0 -85.5 35t-35.5 86z" />
    <glyph glyph-name="yacute" unicode="&#xfd;" horiz-adv-x="882" 
d="M283 946l59 -530q10 -81 14 -154.5t3 -107.5l-1 -33h9q28 121 118 295l271 530h196l-563 -1055q-43 -82 -85 -140.5t-79.5 -94t-79.5 -55.5t-79 -26.5t-84 -6.5q-89 0 -154 37l45 143q58 -35 117 -35q74 0 131 53t121 179l-154 1001h195zM580 1083h-162l151 299h248z" />
    <glyph glyph-name="thorn" unicode="&#xfe;" horiz-adv-x="1093" 
d="M358 535l-30 -173q-13 -61 4.5 -119t66.5 -97.5t119 -39.5q92 0 161.5 64t104.5 167.5t35 229.5q0 120 -49 187t-139 67q-98 0 -175 -78.5t-98 -207.5zM291 152l-101 -568h-184l311 1784h185l-107 -604q96 205 310 205q148 0 229.5 -100.5t81.5 -290.5q0 -170 -56.5 -306
t-165 -216.5t-251.5 -80.5q-101 0 -169 49.5t-83 127.5z" />
    <glyph glyph-name="ydieresis" unicode="&#xff;" horiz-adv-x="882" 
d="M283 946l59 -530q10 -81 14 -154.5t3 -107.5l-1 -33h9q28 121 118 295l271 530h196l-563 -1055q-43 -82 -85 -140.5t-79.5 -94t-79.5 -55.5t-79 -26.5t-84 -6.5q-89 0 -154 37l45 143q58 -35 117 -35q74 0 131 53t121 179l-154 1001h195zM209 1219q0 53 35.5 87.5
t85.5 34.5q52 0 87.5 -34.5t35.5 -87.5q0 -52 -35.5 -86.5t-87.5 -34.5q-50 0 -85.5 34.5t-35.5 86.5zM610 1217q0 53 35.5 87.5t85.5 34.5q53 0 88 -34t35 -88q0 -51 -35.5 -86t-87.5 -35q-50 0 -85.5 35t-35.5 86z" />
    <glyph glyph-name="Amacron" unicode="&#x100;" horiz-adv-x="1210" 
d="M885 0l-58 330h-493l-172 -330h-205l651 1206h248l225 -1206h-196zM1022 1380h-539l25 146h539zM557 758l-143 -273h385q-28 141 -50 288t-31 225.5t-7 78.5h-9q-45 -131 -145 -319z" />
    <glyph glyph-name="amacron" unicode="&#x101;" horiz-adv-x="1093" 
d="M709 395l28 160q12 69 -1 129t-56.5 100.5t-110.5 40.5q-134 0 -219.5 -126.5t-85.5 -317.5q0 -115 49.5 -185.5t141.5 -70.5q99 0 165.5 72t88.5 198zM993 946l-127 -719q-16 -92 54 -92q19 0 61 10l-27 -137q-50 -18 -110 -18q-172 0 -166 168q-40 -93 -114.5 -138
t-168.5 -45q-144 0 -230.5 102t-86.5 285q0 163 56 300.5t163 222t242 84.5q212 0 241 -183l54 160h159zM887 1143h-537l27 149h536z" />
    <glyph glyph-name="Abreve" unicode="&#x102;" horiz-adv-x="1210" 
d="M885 0l-58 330h-493l-172 -330h-205l651 1206h248l225 -1206h-196zM737 1331q-132 0 -190.5 71.5t-36.5 196.5h145q-8 -66 16.5 -99.5t92.5 -33.5t104 33.5t52 99.5h145q-24 -125 -109.5 -196.5t-218.5 -71.5zM557 758l-143 -273h385q-28 141 -50 288t-31 225.5t-7 78.5
h-9q-45 -131 -145 -319z" />
    <glyph glyph-name="abreve" unicode="&#x103;" horiz-adv-x="1093" 
d="M709 395l28 160q12 69 -1 129t-56.5 100.5t-110.5 40.5q-134 0 -219.5 -126.5t-85.5 -317.5q0 -115 49.5 -185.5t141.5 -70.5q99 0 165.5 72t88.5 198zM993 946l-127 -719q-16 -92 54 -92q19 0 61 10l-27 -137q-50 -18 -110 -18q-172 0 -166 168q-40 -93 -114.5 -138
t-168.5 -45q-144 0 -230.5 102t-86.5 285q0 163 56 300.5t163 222t242 84.5q212 0 241 -183l54 160h159zM594 1079q-133 0 -192 78.5t-35 210.5h145q-8 -76 12.5 -113.5t93.5 -37.5q71 0 106 38t54 113h146q-24 -132 -111 -210.5t-219 -78.5z" />
    <glyph glyph-name="Aogonek" unicode="&#x104;" horiz-adv-x="1210" 
d="M526 -238q0 70 32.5 131.5t84.5 102t110 66t115 32.5l-41 236h-493l-172 -330h-205l651 1206h248l225 -1206h-92q-129 0 -218 -56.5t-89 -156.5q0 -43 25.5 -68.5t66.5 -25.5q46 0 76 20t55 60l60 -88q-72 -117 -224 -117q-103 0 -159 51t-56 143zM557 758l-143 -273h385
q-28 141 -50 288t-31 225.5t-7 78.5h-9q-45 -131 -145 -319z" />
    <glyph glyph-name="aogonek" unicode="&#x105;" horiz-adv-x="1093" 
d="M500 -238q0 95 63 167.5t150 107.5q-38 57 -35 121q-39 -87 -115.5 -135t-167.5 -48q-144 0 -230.5 102t-86.5 285q0 163 56 300.5t163 222t242 84.5q212 0 241 -183l54 160h159l-127 -719q-16 -92 54 -92q19 0 61 10l-27 -137q-299 -43 -299 -221q0 -43 25.5 -68.5
t67.5 -25.5q46 0 74.5 19.5t54.5 60.5l59 -88q-69 -117 -223 -117q-101 0 -157 51t-56 143zM709 395l28 160q12 69 -1 129t-56.5 100.5t-110.5 40.5q-134 0 -219.5 -126.5t-85.5 -317.5q0 -115 49.5 -185.5t141.5 -70.5q99 0 165.5 72t88.5 198z" />
    <glyph glyph-name="Cacute" unicode="&#x106;" horiz-adv-x="1146" 
d="M899 319l154 -83q-143 -261 -471 -261q-222 0 -346.5 134t-124.5 358q0 176 49 322t134 242t197 148t238 52q344 0 410 -301l-193 -74q-17 105 -78.5 159t-154.5 54q-125 0 -219.5 -83.5t-140.5 -216t-46 -290.5q0 -159 76.5 -251.5t216.5 -92.5q101 0 170 39.5
t129 144.5zM821 1337h-168l127 252h246z" />
    <glyph glyph-name="cacute" unicode="&#x107;" horiz-adv-x="921" 
d="M682 301l174 -35q-51 -148 -151 -219.5t-256 -71.5q-169 0 -270 105.5t-101 294.5q0 91 19.5 177t60 162t97.5 132.5t138 89.5t176 33q159 0 237.5 -82.5t78.5 -227.5l-176 -30q0 188 -160 188q-88 0 -154.5 -64t-98.5 -158.5t-32 -199.5q0 -136 54 -206t151 -70
q156 0 213 182zM657 1083h-161l151 299h248z" />
    <glyph glyph-name="Ccircumflex" unicode="&#x108;" horiz-adv-x="1146" 
d="M899 319l154 -83q-143 -261 -471 -261q-222 0 -346.5 134t-124.5 358q0 176 49 322t134 242t197 148t238 52q344 0 410 -301l-193 -74q-17 105 -78.5 159t-154.5 54q-125 0 -219.5 -83.5t-140.5 -216t-46 -290.5q0 -159 76.5 -251.5t216.5 -92.5q101 0 170 39.5
t129 144.5zM721 1602h115l208 -265h-194l-51 68q-14 18 -22.5 35.5t-10.5 25.5l-2 9h-6q-13 -29 -60 -70l-75 -68h-203z" />
    <glyph glyph-name="ccircumflex" unicode="&#x109;" horiz-adv-x="921" 
d="M682 301l174 -35q-51 -148 -151 -219.5t-256 -71.5q-169 0 -270 105.5t-101 294.5q0 91 19.5 177t60 162t97.5 132.5t138 89.5t176 33q159 0 237.5 -82.5t78.5 -227.5l-176 -30q0 188 -160 188q-88 0 -154.5 -64t-98.5 -158.5t-32 -199.5q0 -136 54 -206t151 -70
q156 0 213 182zM573 1382h109l205 -301h-185l-55 86q-14 21 -22 40.5t-9 28.5l-2 9h-10q-12 -31 -59 -78l-88 -86h-191z" />
    <glyph glyph-name="Cdotaccent" unicode="&#x10a;" horiz-adv-x="1146" 
d="M899 319l154 -83q-143 -261 -471 -261q-222 0 -346.5 134t-124.5 358q0 176 49 322t134 242t197 148t238 52q344 0 410 -301l-193 -74q-17 105 -78.5 159t-154.5 54q-125 0 -219.5 -83.5t-140.5 -216t-46 -290.5q0 -159 76.5 -251.5t216.5 -92.5q101 0 170 39.5
t129 144.5zM641 1489q0 54 35.5 88.5t87.5 34.5q56 0 92.5 -34t36.5 -89q0 -53 -37 -88t-92 -35q-51 0 -87 35.5t-36 87.5z" />
    <glyph glyph-name="cdotaccent" unicode="&#x10b;" horiz-adv-x="921" 
d="M682 301l174 -35q-51 -148 -151 -219.5t-256 -71.5q-169 0 -270 105.5t-101 294.5q0 91 19.5 177t60 162t97.5 132.5t138 89.5t176 33q159 0 237.5 -82.5t78.5 -227.5l-176 -30q0 188 -160 188q-88 0 -154.5 -64t-98.5 -158.5t-32 -199.5q0 -136 54 -206t151 -70
q156 0 213 182zM479 1247q0 53 36 88t87 35q56 0 92.5 -34.5t36.5 -88.5q0 -53 -37 -88t-92 -35q-50 0 -86.5 35.5t-36.5 87.5z" />
    <glyph glyph-name="Ccaron" unicode="&#x10c;" horiz-adv-x="1146" 
d="M899 319l154 -83q-143 -261 -471 -261q-222 0 -346.5 134t-124.5 358q0 176 49 322t134 242t197 148t238 52q344 0 410 -301l-193 -74q-17 105 -78.5 159t-154.5 54q-125 0 -219.5 -83.5t-140.5 -216t-46 -290.5q0 -159 76.5 -251.5t216.5 -92.5q101 0 170 39.5
t129 144.5zM797 1337h-113l-209 265h193l53 -68q14 -18 22.5 -35.5t10.5 -26.5l2 -8h6q12 29 59 70l76 68h203z" />
    <glyph glyph-name="ccaron" unicode="&#x10d;" horiz-adv-x="921" 
d="M682 301l174 -35q-51 -148 -151 -219.5t-256 -71.5q-169 0 -270 105.5t-101 294.5q0 91 19.5 177t60 162t97.5 132.5t138 89.5t176 33q159 0 237.5 -82.5t78.5 -227.5l-176 -30q0 188 -160 188q-88 0 -154.5 -64t-98.5 -158.5t-32 -199.5q0 -136 54 -206t151 -70
q156 0 213 182zM637 1081h-109l-202 301h182l57 -84q14 -21 22 -40t9 -28l2 -9h8q15 30 62 77l86 84h192z" />
    <glyph glyph-name="Dcaron" unicode="&#x10e;" horiz-adv-x="1222" 
d="M299 158h176q98 0 180.5 33.5t147 101t101 179t36.5 257.5q0 320 -336 320h-149zM475 0h-397l211 1206h346q254 0 381 -119t127 -342q0 -158 -38 -285.5t-101.5 -212t-150.5 -141t-181 -81.5t-197 -25zM717 1337h-115l-209 265h195l51 -68q14 -18 22.5 -35.5t10.5 -26.5
l2 -8h6q12 29 59 70l76 68h203z" />
    <glyph glyph-name="dcaron" unicode="&#x10f;" horiz-adv-x="1089" 
d="M1395 1380l-109 -360h-133l33 360h209zM711 393l30 162q19 106 -26 187t-146 81q-135 0 -221 -126.5t-86 -317.5q0 -113 49.5 -183.5t141.5 -70.5q101 0 168.5 70.5t89.5 197.5zM1069 1368l-201 -1141q-16 -92 56 -92q17 0 59 10l-27 -137q-50 -18 -110 -18
q-169 0 -166 168q-35 -95 -111 -139t-174 -44q-144 0 -230.5 102t-86.5 285q0 163 56 300.5t163.5 222t243.5 84.5q212 0 241 -183l103 582h184z" />
    <glyph glyph-name="Dcroat" unicode="&#x110;" horiz-adv-x="1222" 
d="M475 0h-397l90 524h-133l28 160h134l92 522h346q254 0 381 -119t127 -342q0 -158 -38 -285.5t-101.5 -212t-150.5 -141t-181 -81.5t-197 -25zM299 158h176q98 0 180.5 33.5t147 101t101 179t36.5 257.5q0 320 -336 320h-149l-66 -365h252l-29 -160h-250z" />
    <glyph glyph-name="dcroat" unicode="&#x111;" horiz-adv-x="1089" 
d="M1069 1368l-29 -151h154l-25 -134h-151l-150 -856q-16 -92 56 -92q17 0 59 10l-27 -137q-50 -18 -110 -18q-169 0 -166 168q-35 -95 -111 -139t-174 -44q-144 0 -230.5 102t-86.5 285q0 163 56 300.5t163.5 222t243.5 84.5q212 0 241 -183l52 297h-285l24 134h283l29 151
h184zM711 393l30 162q19 106 -26 187t-146 81q-135 0 -221 -126.5t-86 -317.5q0 -113 49.5 -183.5t141.5 -70.5q101 0 168.5 70.5t89.5 197.5z" />
    <glyph glyph-name="Emacron" unicode="&#x112;" horiz-adv-x="1003" 
d="M848 164l-27 -164h-743l211 1206h743l-28 -164h-551l-62 -356h486l-29 -164h-486l-63 -358h549zM936 1380h-541l27 146h539z" />
    <glyph glyph-name="emacron" unicode="&#x113;" horiz-adv-x="958" 
d="M469 119q92 0 140.5 37t72.5 116l172 -43q-49 -139 -146 -196.5t-255 -57.5q-176 0 -275.5 109.5t-99.5 294.5q0 139 40.5 253t107.5 186.5t151 111.5t174 39t159 -28t109.5 -76.5t61 -108t20.5 -127.5q0 -102 -41 -195h-600q-6 -61 3 -116t33 -100.5t68.5 -72
t104.5 -26.5zM281 567h428q10 25 10 66q0 84 -44 138t-132 54q-101 0 -167 -72.5t-95 -185.5zM829 1143h-536l29 149h534z" />
    <glyph glyph-name="Ebreve" unicode="&#x114;" horiz-adv-x="1003" 
d="M848 164l-27 -164h-743l211 1206h743l-28 -164h-551l-62 -356h486l-29 -164h-486l-63 -358h549zM651 1331q-132 0 -191.5 72t-35.5 196h143q-6 -66 18.5 -99.5t90.5 -33.5q68 0 104 33t54 100h145q-24 -125 -109.5 -196.5t-218.5 -71.5z" />
    <glyph glyph-name="ebreve" unicode="&#x115;" horiz-adv-x="958" 
d="M469 119q92 0 140.5 37t72.5 116l172 -43q-49 -139 -146 -196.5t-255 -57.5q-176 0 -275.5 109.5t-99.5 294.5q0 139 40.5 253t107.5 186.5t151 111.5t174 39t159 -28t109.5 -76.5t61 -108t20.5 -127.5q0 -102 -41 -195h-600q-6 -61 3 -116t33 -100.5t68.5 -72
t104.5 -26.5zM281 567h428q10 25 10 66q0 84 -44 138t-132 54q-101 0 -167 -72.5t-95 -185.5zM537 1079q-132 0 -191.5 79t-34.5 210h144q-7 -76 14 -113.5t92 -37.5t107 38t55 113h143q-24 -132 -110.5 -210.5t-218.5 -78.5z" />
    <glyph glyph-name="Edotaccent" unicode="&#x116;" horiz-adv-x="1003" 
d="M848 164l-27 -164h-743l211 1206h743l-28 -164h-551l-62 -356h486l-29 -164h-486l-63 -358h549zM549 1489q0 54 35.5 88.5t87.5 34.5q55 0 91 -34t36 -89q0 -52 -36.5 -87.5t-90.5 -35.5q-51 0 -87 35.5t-36 87.5z" />
    <glyph glyph-name="edotaccent" unicode="&#x117;" horiz-adv-x="958" 
d="M469 119q92 0 140.5 37t72.5 116l172 -43q-49 -139 -146 -196.5t-255 -57.5q-176 0 -275.5 109.5t-99.5 294.5q0 139 40.5 253t107.5 186.5t151 111.5t174 39t159 -28t109.5 -76.5t61 -108t20.5 -127.5q0 -102 -41 -195h-600q-6 -61 3 -116t33 -100.5t68.5 -72
t104.5 -26.5zM281 567h428q10 25 10 66q0 84 -44 138t-132 54q-101 0 -167 -72.5t-95 -185.5zM444 1247q0 53 36 88t87 35q56 0 92.5 -34.5t36.5 -88.5q0 -53 -37 -88t-92 -35q-50 0 -86.5 35.5t-36.5 87.5z" />
    <glyph glyph-name="Eogonek" unicode="&#x118;" horiz-adv-x="1003" 
d="M344 -238q0 74 43.5 139.5t110.5 98.5h-420l211 1206h743l-28 -164h-551l-62 -356h486l-29 -164h-486l-63 -358h549l-27 -164h-53q-111 0 -189.5 -60t-78.5 -153q0 -43 25.5 -68.5t66.5 -25.5q47 0 76 20t53 60l59 -88q-69 -117 -221 -117q-103 0 -159 51t-56 143z" />
    <glyph glyph-name="eogonek" unicode="&#x119;" horiz-adv-x="958" 
d="M295 -238q0 128 104 218q-153 17 -237 123t-84 276q0 139 40.5 253t107.5 186.5t151 111.5t174 39t159 -28t109.5 -76.5t61 -108t20.5 -127.5q0 -102 -41 -195h-600q-6 -61 3 -116t33 -100.5t68.5 -72t104.5 -26.5q92 0 140.5 37t72.5 116l172 -43q-18 -53 -44.5 -91.5
t-63 -66t-71 -45t-85.5 -36.5q-65 -26 -102 -80t-37 -121q0 -44 25 -70t67 -26q47 0 76 20t53 60l59 -88q-69 -117 -221 -117q-103 0 -159 51t-56 143zM281 567h428q10 25 10 66q0 84 -44 138t-132 54q-101 0 -167 -72.5t-95 -185.5z" />
    <glyph glyph-name="Ecaron" unicode="&#x11a;" horiz-adv-x="1003" 
d="M848 164l-27 -164h-743l211 1206h743l-28 -164h-551l-62 -356h486l-29 -164h-486l-63 -358h549zM705 1337h-115l-209 265h194l52 -68q14 -18 22.5 -35.5t10.5 -26.5l2 -8h6q12 29 59 70l76 68h203z" />
    <glyph glyph-name="ecaron" unicode="&#x11b;" horiz-adv-x="958" 
d="M469 119q92 0 140.5 37t72.5 116l172 -43q-49 -139 -146 -196.5t-255 -57.5q-176 0 -275.5 109.5t-99.5 294.5q0 139 40.5 253t107.5 186.5t151 111.5t174 39t159 -28t109.5 -76.5t61 -108t20.5 -127.5q0 -102 -41 -195h-600q-6 -61 3 -116t33 -100.5t68.5 -72
t104.5 -26.5zM281 567h428q10 25 10 66q0 84 -44 138t-132 54q-101 0 -167 -72.5t-95 -185.5zM602 1081h-108l-203 301h182l57 -84q14 -21 22 -40t10 -28l1 -9h8q15 30 62 77l86 84h192z" />
    <glyph glyph-name="Gcircumflex" unicode="&#x11c;" horiz-adv-x="1234" 
d="M659 623h480l-109 -623h-137l-8 152q-38 -83 -116.5 -130t-193.5 -47q-218 0 -341 134.5t-123 357.5q0 176 49.5 322t134.5 242t197.5 148t238.5 52q341 0 410 -301l-193 -74q-17 104 -78.5 158.5t-154.5 54.5q-125 0 -220 -83.5t-141.5 -215.5t-46.5 -289
q0 -163 76 -255.5t223 -92.5q120 0 200.5 62t104.5 196l13 68h-293zM727 1602h115l207 -265h-193l-51 68q-14 18 -23 35.5t-12 25.5l-2 9h-4q-14 -29 -59 -70l-78 -68h-201z" />
    <glyph glyph-name="gcircumflex" unicode="&#x11d;" horiz-adv-x="1042" 
d="M713 393l28 162q19 107 -24.5 188.5t-145.5 81.5q-136 0 -221.5 -126t-85.5 -316q0 -115 48 -184.5t143 -69.5q102 0 168.5 68.5t89.5 195.5zM995 946l-170 -971q-39 -210 -152.5 -308.5t-326.5 -98.5q-174 0 -266.5 69t-114.5 185l158 72q8 -81 70.5 -134t160.5 -53
q125 0 191 68.5t94 204.5l35 178q-75 -176 -275 -176q-145 0 -233 102t-88 285q0 162 57 298t165 219t245 83q206 0 239 -183l52 160h159zM588 1382h106l205 -301h-182l-58 86q-14 21 -22 40.5t-9 28.5l-1 9h-9q-14 -31 -61 -78l-86 -86h-192z" />
    <glyph glyph-name="Gbreve" unicode="&#x11e;" horiz-adv-x="1234" 
d="M659 623h480l-109 -623h-137l-8 152q-38 -83 -116.5 -130t-193.5 -47q-218 0 -341 134.5t-123 357.5q0 176 49.5 322t134.5 242t197.5 148t238.5 52q341 0 410 -301l-193 -74q-17 104 -78.5 158.5t-154.5 54.5q-125 0 -220 -83.5t-141.5 -215.5t-46.5 -289
q0 -163 76 -255.5t223 -92.5q120 0 200.5 62t104.5 196l13 68h-293zM750 1331q-132 0 -191.5 72t-36.5 196h144q-6 -67 18 -100t90 -33q68 0 104 33t54 100h143q-22 -124 -107.5 -196t-217.5 -72z" />
    <glyph glyph-name="gbreve" unicode="&#x11f;" horiz-adv-x="1042" 
d="M713 393l28 162q19 107 -24.5 188.5t-145.5 81.5q-136 0 -221.5 -126t-85.5 -316q0 -115 48 -184.5t143 -69.5q102 0 168.5 68.5t89.5 195.5zM995 946l-170 -971q-39 -210 -152.5 -308.5t-326.5 -98.5q-174 0 -266.5 69t-114.5 185l158 72q8 -81 70.5 -134t160.5 -53
q125 0 191 68.5t94 204.5l35 178q-75 -176 -275 -176q-145 0 -233 102t-88 285q0 162 57 298t165 219t245 83q206 0 239 -183l52 160h159zM586 1079q-133 0 -192.5 78.5t-35.5 210.5h146q-8 -76 12.5 -113.5t93.5 -37.5q71 0 106 38t54 113h145q-24 -132 -110.5 -210.5
t-218.5 -78.5z" />
    <glyph glyph-name="Gdotaccent" unicode="&#x120;" horiz-adv-x="1234" 
d="M659 623h480l-109 -623h-137l-8 152q-38 -83 -116.5 -130t-193.5 -47q-218 0 -341 134.5t-123 357.5q0 176 49.5 322t134.5 242t197.5 148t238.5 52q341 0 410 -301l-193 -74q-17 104 -78.5 158.5t-154.5 54.5q-125 0 -220 -83.5t-141.5 -215.5t-46.5 -289
q0 -163 76 -255.5t223 -92.5q120 0 200.5 62t104.5 196l13 68h-293zM647 1489q0 54 35.5 88.5t87.5 34.5q55 0 91 -34t36 -89q0 -52 -36.5 -87.5t-90.5 -35.5q-51 0 -87 35.5t-36 87.5z" />
    <glyph glyph-name="gdotaccent" unicode="&#x121;" horiz-adv-x="1042" 
d="M713 393l28 162q19 107 -24.5 188.5t-145.5 81.5q-136 0 -221.5 -126t-85.5 -316q0 -115 48 -184.5t143 -69.5q102 0 168.5 68.5t89.5 195.5zM995 946l-170 -971q-39 -210 -152.5 -308.5t-326.5 -98.5q-174 0 -266.5 69t-114.5 185l158 72q8 -81 70.5 -134t160.5 -53
q125 0 191 68.5t94 204.5l35 178q-75 -176 -275 -176q-145 0 -233 102t-88 285q0 162 57 298t165 219t245 83q206 0 239 -183l52 160h159zM494 1247q0 53 35 88t87 35q54 0 90.5 -34.5t36.5 -88.5q0 -52 -36.5 -87.5t-90.5 -35.5q-51 0 -86.5 35.5t-35.5 87.5z" />
    <glyph glyph-name="Gcommaaccent" unicode="&#x122;" horiz-adv-x="1234" 
d="M659 623h480l-109 -623h-137l-8 152q-38 -83 -116.5 -130t-193.5 -47q-218 0 -341 134.5t-123 357.5q0 176 49.5 322t134.5 242t197.5 148t238.5 52q341 0 410 -301l-193 -74q-17 104 -78.5 158.5t-154.5 54.5q-125 0 -220 -83.5t-141.5 -215.5t-46.5 -289
q0 -163 76 -255.5t223 -92.5q120 0 200.5 62t104.5 196l13 68h-293zM614 -285q0 -110 -76 -166.5t-200 -56.5v76q69 4 109 22.5t40 65.5q-54 -10 -88 16.5t-34 79.5q0 51 32 80t84 29q57 0 95 -38.5t38 -107.5z" />
    <glyph glyph-name="gcommaaccent" unicode="&#x123;" horiz-adv-x="1042" 
d="M713 393l28 162q19 107 -24.5 188.5t-145.5 81.5q-136 0 -221.5 -126t-85.5 -316q0 -115 48 -184.5t143 -69.5q102 0 168.5 68.5t89.5 195.5zM995 946l-170 -971q-39 -210 -152.5 -308.5t-326.5 -98.5q-174 0 -266.5 69t-114.5 185l158 72q8 -81 70.5 -134t160.5 -53
q125 0 191 68.5t94 204.5l35 178q-75 -176 -275 -176q-145 0 -233 102t-88 285q0 162 57 298t165 219t245 83q206 0 239 -183l52 160h159zM514 1235q0 109 76 165t201 56v-76q-150 -4 -150 -86q54 10 88.5 -17.5t34.5 -78.5t-32.5 -79.5t-84.5 -28.5q-57 0 -95 37.5
t-38 107.5z" />
    <glyph glyph-name="Hcircumflex" unicode="&#x124;" 
d="M270 0h-192l211 1206h192l-88 -512h570l90 512h192l-211 -1206h-192l92 530h-572zM762 1602h115l206 -265h-192l-53 68q-13 18 -21.5 35.5t-10.5 25.5l-3 9h-4q-15 -29 -60 -70l-77 -68h-201z" />
    <glyph glyph-name="hcircumflex" unicode="&#x125;" horiz-adv-x="1062" 
d="M934 651l-74 -424q-16 -92 55 -92q18 0 60 10l-27 -137q-50 -18 -110 -18q-104 0 -144.5 57t-21.5 162l76 426q16 83 -13.5 130.5t-109.5 47.5q-87 0 -165.5 -72t-105.5 -227l-90 -514h-186l237 1368h191l-111 -614q102 215 305 215q111 0 176.5 -60t65.5 -168
q0 -49 -8 -90zM414 1692h114l209 -265h-194l-51 68q-14 18 -22.5 35.5t-10.5 25.5l-2 9h-6q-13 -29 -60 -70l-76 -68h-202z" />
    <glyph glyph-name="Hbar" unicode="&#x126;" horiz-adv-x="1323" 
d="M289 0h-193l148 858h-174l28 154h174l35 194h193l-35 -194h571l33 194h195l-35 -194h188l-28 -154h-189l-147 -858h-195l92 526h-569zM410 686h569l29 172h-570z" />
    <glyph glyph-name="hbar" unicode="&#x127;" horiz-adv-x="1062" 
d="M111 1083l24 134h154l26 151h191l-29 -151h279l-25 -134h-276l-60 -329q102 215 305 215q111 0 176.5 -60t65.5 -168q0 -49 -8 -90l-74 -424q-16 -92 55 -92q18 0 60 10l-27 -137q-50 -18 -110 -18q-104 0 -144.5 57t-21.5 162l76 426q16 83 -13.5 130.5t-109.5 47.5
q-87 0 -165.5 -72t-105.5 -227l-90 -514h-186l188 1083h-155z" />
    <glyph glyph-name="Itilde" unicode="&#x128;" horiz-adv-x="509" 
d="M289 1206h192l-211 -1206h-192zM535 1337q-21 0 -38 2t-35.5 10t-24.5 10.5t-28 16.5t-24 15q-4 3 -17.5 11.5t-16.5 10.5t-13.5 8.5t-14 8t-12 5t-14 4.5t-12.5 2t-15 1q-33 0 -55 -25.5t-25 -75.5h-110q-22 104 35.5 178t156.5 74q35 0 65 -9.5t43.5 -17.5t47.5 -30
q60 -39 80 -44q12 -3 27 -3q65 0 73 104h119q17 -113 -36.5 -184.5t-155.5 -71.5z" />
    <glyph glyph-name="itilde" unicode="&#x129;" horiz-adv-x="518" 
d="M500 1083q-18 0 -34.5 2.5t-27 4.5t-25.5 9t-20.5 10t-22.5 13t-22 13t-15.5 10t-14 9.5t-12 8t-12 7.5t-10.5 5.5t-11.5 4.5t-11 3t-12.5 2.5t-13 0.5q-34 0 -55.5 -25.5t-24.5 -75.5h-113q-20 105 37.5 179.5t155.5 74.5q11 0 21.5 -1t19 -2t18 -4t15.5 -4.5t15.5 -6.5
t13.5 -6.5t13.5 -8t12 -8.5t13.5 -9t13 -9q60 -39 80 -44q12 -3 27 -3q64 0 75 104h117q19 -111 -34.5 -182.5t-155.5 -71.5zM418 946l-127 -719q-16 -92 55 -92q18 0 60 10l-27 -137q-49 -18 -111 -18q-104 0 -144.5 57t-21.5 162l129 737h187z" />
    <glyph glyph-name="Imacron" unicode="&#x12a;" horiz-adv-x="509" 
d="M289 1206h192l-211 -1206h-192zM688 1380h-541l25 146h541z" />
    <glyph glyph-name="imacron" unicode="&#x12b;" horiz-adv-x="518" 
d="M627 1143h-537l29 149h534zM418 946l-127 -719q-16 -92 55 -92q18 0 60 10l-27 -137q-49 -18 -111 -18q-104 0 -144.5 57t-21.5 162l129 737h187z" />
    <glyph glyph-name="Ibreve" unicode="&#x12c;" horiz-adv-x="509" 
d="M289 1206h192l-211 -1206h-192zM401 1331q-132 0 -191.5 72t-35.5 196h145q-8 -66 16.5 -99.5t92.5 -33.5q67 0 102.5 33t53.5 100h145q-24 -125 -109.5 -196.5t-218.5 -71.5z" />
    <glyph glyph-name="ibreve" unicode="&#x12d;" horiz-adv-x="518" 
d="M334 1079q-133 0 -192.5 78.5t-35.5 210.5h144q-7 -76 14 -113.5t92 -37.5q73 0 108 37.5t54 113.5h144q-24 -132 -110.5 -210.5t-217.5 -78.5zM418 946l-127 -719q-16 -92 55 -92q18 0 60 10l-27 -137q-49 -18 -111 -18q-104 0 -144.5 57t-21.5 162l129 737h187z" />
    <glyph glyph-name="Iogonek" unicode="&#x12e;" horiz-adv-x="509" 
d="M-166 -238q0 57 22.5 109t60.5 90.5t81.5 66t91.5 44.5l199 1134h192l-211 -1206q-114 0 -197 -59t-83 -154q0 -43 25.5 -68.5t66.5 -25.5q47 0 76 20t53 60l59 -88q-69 -117 -221 -117q-103 0 -159 51t-56 143z" />
    <glyph glyph-name="iogonek" unicode="&#x12f;" horiz-adv-x="518" 
d="M-47 -229q0 88 49.5 160t128.5 106q-50 56 -29 172l129 737h187l-127 -719q-16 -92 55 -92q18 0 60 10l-27 -137q-268 -23 -268 -221q0 -42 25 -68t65 -26q48 0 76.5 19.5t54.5 60.5l59 -88q-69 -117 -223 -117q-102 0 -158.5 52.5t-56.5 150.5zM248 1249q0 54 35.5 88.5
t87.5 34.5q54 0 90.5 -34.5t36.5 -88.5q0 -52 -37 -87.5t-90 -35.5q-51 0 -87 35.5t-36 87.5z" />
    <glyph glyph-name="Idotaccent" unicode="&#x130;" horiz-adv-x="509" 
d="M289 1206h192l-211 -1206h-192zM301 1489q0 54 35.5 88.5t87.5 34.5q55 0 91 -34t36 -89q0 -52 -36.5 -87.5t-90.5 -35.5q-51 0 -87 35.5t-36 87.5z" />
    <glyph glyph-name="dotlessi" unicode="&#x131;" horiz-adv-x="518" 
d="M418 946l-127 -719q-16 -92 55 -92q18 0 60 10l-27 -137q-49 -18 -111 -18q-104 0 -144.5 57t-21.5 162l129 737h187z" />
    <glyph glyph-name="IJ" unicode="&#x132;" horiz-adv-x="1415" 
d="M289 1206h192l-211 -1206h-192zM1202 1206h195l-158 -882q-32 -188 -126.5 -268.5t-272.5 -80.5q-141 0 -227 66.5t-115 181.5l155 103q44 -197 197 -197q51 0 85 12.5t56.5 42t35.5 68.5t24 102z" />
    <glyph glyph-name="ij" unicode="&#x133;" horiz-adv-x="980" 
d="M418 946l-127 -719q-16 -92 55 -92q18 0 60 10l-27 -137q-49 -18 -111 -18q-104 0 -144.5 57t-21.5 162l129 737h187zM248 1249q0 54 35.5 88.5t87.5 34.5q54 0 90.5 -34.5t36.5 -88.5q0 -52 -37 -87.5t-90 -35.5q-51 0 -87 35.5t-36 87.5zM936 946l-191 -1085
q-28 -161 -110 -227t-217 -66q-55 0 -108 15t-85 38l60 143q63 -51 137 -51q54 0 87.5 35t49.5 123l191 1075h186zM766 1249q0 54 35.5 88.5t87.5 34.5q54 0 90.5 -34.5t36.5 -88.5q0 -52 -37 -87.5t-90 -35.5q-51 0 -87 35.5t-36 87.5z" />
    <glyph glyph-name="Jcircumflex" unicode="&#x134;" horiz-adv-x="880" 
d="M670 1206h192l-155 -882q-32 -188 -127 -268.5t-275 -80.5q-140 0 -225.5 66.5t-114.5 181.5l156 103q44 -197 196 -197q51 0 85 12.5t56.5 42t35.5 68.5t24 102zM760 1602h114l209 -265h-194l-51 68q-14 18 -22.5 35.5t-10.5 25.5l-2 9h-6q-13 -29 -60 -70l-75 -68h-203
z" />
    <glyph glyph-name="jcircumflex" unicode="&#x135;" horiz-adv-x="462" 
d="M418 946l-191 -1085q-28 -161 -110 -227t-217 -66q-55 0 -108 15t-85 38l60 143q63 -51 137 -51q54 0 87.5 35t49.5 123l190 1075h187zM336 1382h106l205 -301h-182l-57 86q-14 21 -22 40.5t-10 28.5l-1 9h-8q-15 -31 -62 -78l-86 -86h-192z" />
    <glyph glyph-name="Kcommaaccent" unicode="&#x136;" horiz-adv-x="1075" 
d="M975 0h-217l-287 530h-109l-92 -530h-192l211 1206h192l-88 -514h88l443 514h229l-520 -588zM526 -285q0 -110 -75.5 -166.5t-200.5 -56.5v76q70 4 110.5 22.5t40.5 65.5q-55 -10 -88.5 16.5t-33.5 79.5q0 52 31.5 80.5t84.5 28.5q57 0 94 -38.5t37 -107.5z" />
    <glyph glyph-name="kcommaaccent" unicode="&#x137;" horiz-adv-x="940" 
d="M571 100l-170 353h-57l-80 -453h-186l239 1368h189l-137 -778h45l336 356h227l-414 -420l154 -319q28 -56 66 -66.5t104 9.5l-29 -142q-56 -18 -117 -18q-58 0 -99.5 25t-70.5 85zM502 -285q0 -110 -76 -166.5t-201 -56.5v76q71 4 111.5 22.5t40.5 65.5q-55 -10 -89 16.5
t-34 79.5q0 52 32 80.5t85 28.5q57 0 94 -38.5t37 -107.5z" />
    <glyph glyph-name="kgreenlandic" unicode="&#x138;" horiz-adv-x="940" 
d="M573 100l-172 353h-57l-80 -453h-186l166 946h188l-63 -356h45l336 356h227l-414 -420l154 -319q28 -56 66 -66.5t104 9.5l-29 -142q-56 -18 -117 -18q-59 0 -99.5 25t-68.5 85z" />
    <glyph glyph-name="Lacute" unicode="&#x139;" horiz-adv-x="944" 
d="M289 1206h192l-182 -1042h535l-27 -164h-729zM485 1337h-168l127 252h246z" />
    <glyph glyph-name="lacute" unicode="&#x13a;" horiz-adv-x="512" 
d="M492 1368l-201 -1141q-16 -92 55 -92q18 0 60 10l-27 -137q-49 -18 -111 -18q-104 0 -144.5 57t-21.5 162l203 1159h187zM492 1427h-168l127 250h245z" />
    <glyph glyph-name="Lcommaaccent" unicode="&#x13b;" horiz-adv-x="944" 
d="M289 1206h192l-182 -1042h535l-27 -164h-729zM547 -285q0 -110 -76.5 -166.5t-200.5 -56.5v76q69 4 109.5 22.5t40.5 65.5q-54 -10 -88.5 16.5t-34.5 79.5q0 51 32.5 80t84.5 29q57 0 95 -38.5t38 -107.5z" />
    <glyph glyph-name="lcommaaccent" unicode="&#x13c;" horiz-adv-x="512" 
d="M492 1368l-201 -1141q-16 -92 55 -92q18 0 60 10l-27 -137q-49 -18 -111 -18q-104 0 -144.5 57t-21.5 162l203 1159h187zM299 -285q0 -110 -75.5 -166.5t-200.5 -56.5v76q70 4 110.5 22.5t40.5 65.5q-54 -10 -88.5 16.5t-34.5 79.5q0 51 32.5 80t84.5 29q57 0 94 -38.5
t37 -107.5z" />
    <glyph glyph-name="Lcaron" unicode="&#x13d;" horiz-adv-x="944" 
d="M289 1206h192l-182 -1042h535l-27 -164h-729zM831 1368l-106 -369h-135l33 369h208z" />
    <glyph glyph-name="lcaron" unicode="&#x13e;" horiz-adv-x="512" 
d="M817 1380l-108 -360h-134l33 360h209zM492 1368l-201 -1141q-16 -92 55 -92q18 0 60 10l-27 -137q-49 -18 -111 -18q-104 0 -144.5 57t-21.5 162l203 1159h187z" />
    <glyph glyph-name="Ldot" unicode="&#x13f;" horiz-adv-x="944" 
d="M289 1206h192l-182 -1042h535l-27 -164h-729zM651 629q0 60 40.5 100.5t99.5 40.5t99 -40.5t40 -100.5q0 -58 -40 -97.5t-99 -39.5t-99.5 39.5t-40.5 97.5z" />
    <glyph glyph-name="ldot" unicode="&#x140;" horiz-adv-x="694" 
d="M492 1368l-201 -1141q-16 -92 55 -92q18 0 60 10l-27 -137q-49 -18 -111 -18q-104 0 -144.5 57t-21.5 162l203 1159h187zM481 649q0 60 39 99.5t98 39.5q60 0 101 -39.5t41 -99.5q0 -59 -41 -99t-101 -40q-58 0 -97.5 40t-39.5 99z" />
    <glyph glyph-name="Lslash" unicode="&#x141;" horiz-adv-x="956" 
d="M301 1206h193l-86 -495l297 104l-27 -153l-297 -103l-72 -395h537l-29 -164h-727l86 492l-139 -48l26 148l140 47z" />
    <glyph glyph-name="lslash" unicode="&#x142;" horiz-adv-x="528" 
d="M498 1368l-88 -504l163 78l-28 -160l-164 -75l-84 -480q-16 -92 53 -92q20 0 62 10l-27 -137q-49 -18 -111 -18q-205 0 -165 219l69 403l-131 -61l27 154l131 63l106 600h187z" />
    <glyph glyph-name="Nacute" unicode="&#x143;" 
d="M481 1206l316 -678q27 -59 50.5 -122.5t33.5 -97.5l10 -34h8q14 139 41 291l113 641h192l-211 -1206h-186l-324 672q-27 58 -51.5 122t-35.5 99l-11 35h-8q-8 -133 -35 -289l-113 -639h-192l211 1206h192zM840 1337h-170l129 252h245z" />
    <glyph glyph-name="nacute" unicode="&#x144;" horiz-adv-x="1062" 
d="M934 651l-74 -424q-16 -92 55 -92q18 0 60 10l-27 -137q-50 -18 -110 -18q-104 0 -144.5 57t-21.5 162l76 426q16 83 -13.5 130.5t-109.5 47.5q-87 0 -165.5 -72t-105.5 -227l-90 -514h-186l166 946h162l-11 -192q102 215 305 215q111 0 176.5 -60t65.5 -168
q0 -49 -8 -90zM688 1083h-164l152 299h248z" />
    <glyph glyph-name="Ncommaaccent" unicode="&#x145;" 
d="M481 1206l316 -678q27 -59 50.5 -122.5t33.5 -97.5l10 -34h8q14 139 41 291l113 641h192l-211 -1206h-186l-324 672q-27 58 -51.5 122t-35.5 99l-11 35h-8q-8 -133 -35 -289l-113 -639h-192l211 1206h192zM625 -285q0 -110 -76 -166.5t-201 -56.5v76q71 4 111.5 22.5
t40.5 65.5q-55 -10 -89 16.5t-34 79.5q0 52 32 80.5t85 28.5q57 0 94 -38.5t37 -107.5z" />
    <glyph glyph-name="ncommaaccent" unicode="&#x146;" horiz-adv-x="1062" 
d="M934 651l-74 -424q-16 -92 55 -92q18 0 60 10l-27 -137q-50 -18 -110 -18q-104 0 -144.5 57t-21.5 162l76 426q16 83 -13.5 130.5t-109.5 47.5q-87 0 -165.5 -72t-105.5 -227l-90 -514h-186l166 946h162l-11 -192q102 215 305 215q111 0 176.5 -60t65.5 -168
q0 -49 -8 -90zM520 -285q0 -110 -75.5 -166.5t-200.5 -56.5v76q69 4 110 22.5t41 65.5q-55 -10 -89 16.5t-34 79.5q0 52 32 80.5t85 28.5q56 0 93.5 -38.5t37.5 -107.5z" />
    <glyph glyph-name="Ncaron" unicode="&#x147;" 
d="M481 1206l316 -678q27 -59 50.5 -122.5t33.5 -97.5l10 -34h8q14 139 41 291l113 641h192l-211 -1206h-186l-324 672q-27 58 -51.5 122t-35.5 99l-11 35h-8q-8 -133 -35 -289l-113 -639h-192l211 1206h192zM815 1337h-115l-206 265h192l51 -68q14 -18 23 -35.5t12 -26.5
l2 -8h4q15 29 60 70l77 68h201z" />
    <glyph glyph-name="ncaron" unicode="&#x148;" horiz-adv-x="1062" 
d="M934 651l-74 -424q-16 -92 55 -92q18 0 60 10l-27 -137q-50 -18 -110 -18q-104 0 -144.5 57t-21.5 162l76 426q16 83 -13.5 130.5t-109.5 47.5q-87 0 -165.5 -72t-105.5 -227l-90 -514h-186l166 946h162l-11 -192q102 215 305 215q111 0 176.5 -60t65.5 -168
q0 -49 -8 -90zM668 1081h-109l-203 301h183l57 -84q14 -21 22 -40t10 -28l1 -9h8q14 30 61 77l86 84h193z" />
    <glyph glyph-name="Eng" unicode="&#x14a;" 
d="M1245 1206l-225 -1290q-33 -187 -130.5 -267.5t-277.5 -80.5q-221 0 -321 160l133 137q30 -61 81.5 -100t117.5 -39q100 0 144 53.5t67 179.5l8 51l-318 662q-27 58 -51.5 122t-35.5 99l-11 35h-8q-8 -133 -35 -289l-113 -639h-192l211 1206h192l316 -678
q27 -59 50.5 -122.5t33.5 -97.5l10 -34h8q14 139 41 291l113 641h192z" />
    <glyph glyph-name="eng" unicode="&#x14b;" horiz-adv-x="1032" 
d="M934 651l-137 -790q-28 -162 -109.5 -227.5t-216.5 -65.5q-117 0 -192 53l57 143q66 -51 139 -51q54 0 87.5 35t49.5 123l136 764q16 83 -13.5 130.5t-109.5 47.5q-87 0 -165.5 -72t-105.5 -227l-90 -514h-186l166 946h162l-11 -192q102 215 305 215q111 0 176.5 -60
t65.5 -168q0 -49 -8 -90z" />
    <glyph glyph-name="Omacron" unicode="&#x14c;" 
d="M582 -25q-222 0 -346.5 134.5t-124.5 357.5q0 176 49 322t134 242t197 148t238 52q223 0 348 -135.5t125 -358.5q0 -176 -49.5 -322t-134.5 -241t-197 -147t-239 -52zM713 1067q-125 0 -219.5 -83t-140.5 -214.5t-46 -288.5q0 -161 76.5 -253.5t216.5 -92.5
q123 0 216.5 82.5t140.5 215t47 290.5q0 154 -72.5 249t-218.5 95zM1044 1380h-540l24 146h541z" />
    <glyph glyph-name="omacron" unicode="&#x14d;" horiz-adv-x="1024" 
d="M573 969q176 0 274.5 -109t98.5 -299q0 -118 -32.5 -223.5t-93.5 -186.5t-156 -128.5t-211 -47.5q-169 0 -272 105.5t-103 296.5q0 95 20 182t61 161.5t99.5 130t139 87t175.5 31.5zM551 817q-86 0 -152.5 -60t-100.5 -156t-34 -210q0 -132 55.5 -202t153.5 -70
q86 0 151.5 61.5t98.5 159.5t33 213q0 126 -53.5 195t-151.5 69zM860 1143h-534l26 149h537z" />
    <glyph glyph-name="Obreve" unicode="&#x14e;" 
d="M582 -25q-222 0 -346.5 134.5t-124.5 357.5q0 176 49 322t134 242t197 148t238 52q223 0 348 -135.5t125 -358.5q0 -176 -49.5 -322t-134.5 -241t-197 -147t-239 -52zM713 1067q-125 0 -219.5 -83t-140.5 -214.5t-46 -288.5q0 -161 76.5 -253.5t216.5 -92.5
q123 0 216.5 82.5t140.5 215t47 290.5q0 154 -72.5 249t-218.5 95zM758 1331q-132 0 -191.5 72t-36.5 196h146q-8 -66 16 -99.5t92 -33.5q67 0 102.5 33t53.5 100h145q-24 -125 -109 -196.5t-218 -71.5z" />
    <glyph glyph-name="obreve" unicode="&#x14f;" horiz-adv-x="1024" 
d="M573 969q176 0 274.5 -109t98.5 -299q0 -118 -32.5 -223.5t-93.5 -186.5t-156 -128.5t-211 -47.5q-169 0 -272 105.5t-103 296.5q0 95 20 182t61 161.5t99.5 130t139 87t175.5 31.5zM551 817q-86 0 -152.5 -60t-100.5 -156t-34 -210q0 -132 55.5 -202t153.5 -70
q86 0 151.5 61.5t98.5 159.5t33 213q0 126 -53.5 195t-151.5 69zM569 1079q-133 0 -192 78.5t-35 210.5h143q-7 -76 14.5 -113.5t92.5 -37.5q73 0 108 37.5t54 113.5h143q-24 -132 -110.5 -210.5t-217.5 -78.5z" />
    <glyph glyph-name="Ohungarumlaut" unicode="&#x150;" 
d="M582 -25q-222 0 -346.5 134.5t-124.5 357.5q0 176 49 322t134 242t197 148t238 52q223 0 348 -135.5t125 -358.5q0 -176 -49.5 -322t-134.5 -241t-197 -147t-239 -52zM713 1067q-125 0 -219.5 -83t-140.5 -214.5t-46 -288.5q0 -161 76.5 -253.5t216.5 -92.5
q123 0 216.5 82.5t140.5 215t47 290.5q0 154 -72.5 249t-218.5 95zM670 1337h-138l127 252h224zM977 1337h-146l152 252h231z" />
    <glyph glyph-name="ohungarumlaut" unicode="&#x151;" horiz-adv-x="1024" 
d="M573 969q176 0 274.5 -109t98.5 -299q0 -118 -32.5 -223.5t-93.5 -186.5t-156 -128.5t-211 -47.5q-169 0 -272 105.5t-103 296.5q0 95 20 182t61 161.5t99.5 130t139 87t175.5 31.5zM551 817q-86 0 -152.5 -60t-100.5 -156t-34 -210q0 -132 55.5 -202t153.5 -70
q86 0 151.5 61.5t98.5 159.5t33 213q0 126 -53.5 195t-151.5 69zM512 1083h-137l127 299h223zM819 1083h-145l151 299h232z" />
    <glyph glyph-name="OE" unicode="&#x152;" horiz-adv-x="1722" 
d="M582 -25q-222 0 -346.5 134.5t-124.5 357.5q0 176 49 322t134 242t197 148t238 52q90 0 170 -25h852l-31 -164h-606q83 -115 86 -282v-74h395l-28 -164h-387q-43 -222 -176 -358h563l-27 -164h-790q-83 -25 -168 -25zM713 1067q-125 0 -219.5 -83t-140.5 -214.5
t-46 -288.5q0 -161 76.5 -253.5t216.5 -92.5q123 0 216.5 82.5t140.5 215t47 290.5q0 154 -72.5 249t-218.5 95z" />
    <glyph glyph-name="oe" unicode="&#x153;" horiz-adv-x="1634" 
d="M1139 119q91 0 140 38t75 115l170 -43q-47 -138 -146 -196t-254 -58q-109 0 -195 52t-120 135q-59 -87 -150.5 -137t-205.5 -50q-169 0 -272 105.5t-103 296.5q0 95 20 182t61 161.5t99.5 130t139 87t175.5 31.5q108 0 188.5 -50t119.5 -137q57 87 148.5 137t193.5 50
q90 0 158.5 -28t109 -76.5t60.5 -108t20 -127.5q0 -109 -41 -195h-594q-5 -61 3.5 -115.5t31 -100t66 -72.5t102.5 -27zM551 817q-86 0 -152.5 -60t-100.5 -156t-34 -210q0 -132 55.5 -202t153.5 -70q86 0 151.5 61.5t98.5 159.5t33 213q0 126 -53.5 195t-151.5 69zM956 567
h424q9 30 9 66q0 84 -44.5 138t-132.5 54q-93 0 -158 -71t-98 -187z" />
    <glyph glyph-name="Racute" unicode="&#x154;" horiz-adv-x="1120" 
d="M1001 0h-206q-32 34 -45 113l-35 209q-17 101 -59.5 134t-141.5 33h-158l-86 -489h-192l211 1206h413q190 0 272.5 -73t82.5 -220q0 -69 -20 -127t-52.5 -97t-76 -67.5t-89 -42.5t-92.5 -16v-8q85 -12 124 -53.5t56 -136.5l43 -238q13 -74 51 -127zM455 1049l-70 -402
h217q119 0 187.5 58t68.5 180q0 84 -44 124t-144 40h-215zM750 1337h-170l129 252h245z" />
    <glyph glyph-name="racute" unicode="&#x155;" horiz-adv-x="708" 
d="M752 965l-47 -220q-51 17 -107.5 8.5t-106 -33t-86.5 -75.5t-49 -117l-92 -528h-186l166 946h162l-17 -223q52 121 152 191.5t211 50.5zM580 1083h-162l151 299h248z" />
    <glyph glyph-name="Rcommaaccent" unicode="&#x156;" horiz-adv-x="1120" 
d="M1001 0h-206q-32 34 -45 113l-35 209q-17 101 -59.5 134t-141.5 33h-158l-86 -489h-192l211 1206h413q190 0 272.5 -73t82.5 -220q0 -69 -20 -127t-52.5 -97t-76 -67.5t-89 -42.5t-92.5 -16v-8q85 -12 124 -53.5t56 -136.5l43 -238q13 -74 51 -127zM455 1049l-70 -402
h217q119 0 187.5 58t68.5 180q0 84 -44 124t-144 40h-215zM584 -285q0 -110 -76 -166.5t-201 -56.5v76q71 4 111.5 22.5t40.5 65.5q-55 -10 -89 16.5t-34 79.5q0 52 32 80.5t85 28.5q57 0 94 -38.5t37 -107.5z" />
    <glyph glyph-name="rcommaaccent" unicode="&#x157;" horiz-adv-x="708" 
d="M752 965l-47 -220q-51 17 -107.5 8.5t-106 -33t-86.5 -75.5t-49 -117l-92 -528h-186l166 946h162l-17 -223q52 121 152 191.5t211 50.5zM268 -285q0 -110 -75.5 -166.5t-200.5 -56.5v76q69 4 110 22.5t41 65.5q-55 -10 -89 16.5t-34 79.5q0 52 32 80.5t85 28.5
q56 0 93.5 -38.5t37.5 -107.5z" />
    <glyph glyph-name="Rcaron" unicode="&#x158;" horiz-adv-x="1120" 
d="M1001 0h-206q-32 34 -45 113l-35 209q-17 101 -59.5 134t-141.5 33h-158l-86 -489h-192l211 1206h413q190 0 272.5 -73t82.5 -220q0 -69 -20 -127t-52.5 -97t-76 -67.5t-89 -42.5t-92.5 -16v-8q85 -12 124 -53.5t56 -136.5l43 -238q13 -74 51 -127zM455 1049l-70 -402
h217q119 0 187.5 58t68.5 180q0 84 -44 124t-144 40h-215zM725 1337h-115l-207 265h193l51 -68q14 -18 23 -35.5t12 -26.5l2 -8h4q15 29 60 70l77 68h201z" />
    <glyph glyph-name="rcaron" unicode="&#x159;" horiz-adv-x="708" 
d="M752 965l-47 -220q-51 17 -107.5 8.5t-106 -33t-86.5 -75.5t-49 -117l-92 -528h-186l166 946h162l-17 -223q52 121 152 191.5t211 50.5zM559 1081h-108l-203 301h182l55 -84q14 -21 22.5 -40t10.5 -28l2 -9h8q15 30 62 77l86 84h192z" />
    <glyph glyph-name="Sacute" unicode="&#x15a;" horiz-adv-x="1001" 
d="M37 293l174 43q-1 -108 58.5 -162.5t170.5 -54.5q110 0 172 49t62 147q0 85 -45 133t-164 93q-69 24 -116 49.5t-87.5 63.5t-60 92t-19.5 126q0 78 26 141t67.5 102.5t97 66.5t111 38t112.5 11q185 0 279.5 -76t97.5 -246l-185 -30q3 99 -50.5 150.5t-155.5 51.5
q-99 0 -159.5 -49t-60.5 -135q0 -29 5 -50.5t19.5 -40t28 -31t44 -28t52.5 -24.5t67 -27q74 -30 124 -59.5t88 -71t56 -96t18 -127.5q0 -77 -23.5 -139t-64 -104t-97 -70t-121 -41t-138.5 -13q-377 0 -383 318zM707 1337h-170l129 252h245z" />
    <glyph glyph-name="sacute" unicode="&#x15b;" horiz-adv-x="837" 
d="M33 250l164 41q0 -92 48.5 -138.5t129.5 -46.5q164 0 164 134q0 63 -36 100.5t-130 71.5q-116 41 -172 105t-56 167q0 137 95.5 211t244.5 74q150 0 225.5 -64t75.5 -188l-168 -27q0 70 -38 108t-109 38q-70 0 -112 -34t-42 -95q0 -51 35.5 -84.5t141.5 -75.5
q123 -49 173 -115.5t50 -175.5q0 -141 -93.5 -211t-254.5 -70q-157 0 -245 72t-91 203zM590 1083h-162l150 299h247z" />
    <glyph glyph-name="Scircumflex" unicode="&#x15c;" horiz-adv-x="1001" 
d="M37 293l174 43q-1 -108 58.5 -162.5t170.5 -54.5q110 0 172 49t62 147q0 85 -45 133t-164 93q-69 24 -116 49.5t-87.5 63.5t-60 92t-19.5 126q0 78 26 141t67.5 102.5t97 66.5t111 38t112.5 11q185 0 279.5 -76t97.5 -246l-185 -30q3 99 -50.5 150.5t-155.5 51.5
q-99 0 -159.5 -49t-60.5 -135q0 -29 5 -50.5t19.5 -40t28 -31t44 -28t52.5 -24.5t67 -27q74 -30 124 -59.5t88 -71t56 -96t18 -127.5q0 -77 -23.5 -139t-64 -104t-97 -70t-121 -41t-138.5 -13q-377 0 -383 318zM606 1602h115l207 -265h-193l-53 68q-14 18 -22.5 35.5
t-10.5 25.5l-2 9h-6q-12 -29 -57 -70l-78 -68h-203z" />
    <glyph glyph-name="scircumflex" unicode="&#x15d;" horiz-adv-x="837" 
d="M33 250l164 41q0 -92 48.5 -138.5t129.5 -46.5q164 0 164 134q0 63 -36 100.5t-130 71.5q-116 41 -172 105t-56 167q0 137 95.5 211t244.5 74q150 0 225.5 -64t75.5 -188l-168 -27q0 70 -38 108t-109 38q-70 0 -112 -34t-42 -95q0 -51 35.5 -84.5t141.5 -75.5
q123 -49 173 -115.5t50 -175.5q0 -141 -93.5 -211t-254.5 -70q-157 0 -245 72t-91 203zM506 1382h106l205 -301h-182l-57 86q-14 21 -22 40.5t-10 28.5l-1 9h-8q-15 -31 -62 -78l-86 -86h-192z" />
    <glyph glyph-name="Scedilla" unicode="&#x15e;" horiz-adv-x="1001" 
d="M559 -254q0 -85 -62.5 -131.5t-156.5 -46.5q-125 0 -184 78l49 104q53 -74 127 -74q37 0 58.5 18t21.5 52q0 83 -131 86l57 148q-295 31 -301 313l174 43q-1 -108 58.5 -162.5t170.5 -54.5q110 0 172 49t62 147q0 85 -45 133t-164 93q-69 24 -116 49.5t-87.5 63.5t-60 92
t-19.5 126q0 78 26 141t67.5 102.5t97 66.5t111 38t112.5 11q185 0 279.5 -76t97.5 -246l-185 -30q3 99 -50.5 150.5t-155.5 51.5q-99 0 -159.5 -49t-60.5 -135q0 -29 5 -50.5t19.5 -40t28 -31t44 -28t52.5 -24.5t67 -27q74 -30 124 -59.5t88 -71t56 -96t18 -127.5
q0 -94 -35 -166t-97 -114.5t-139.5 -64t-168.5 -22.5l-25 -59q83 -18 121.5 -57.5t38.5 -112.5z" />
    <glyph glyph-name="scedilla" unicode="&#x15f;" horiz-adv-x="837" 
d="M487 -254q0 -85 -62.5 -131.5t-156.5 -46.5q-125 0 -184 78l49 104q53 -74 127 -74q37 0 58.5 18t21.5 52q0 83 -131 86l57 152q-110 22 -170 90t-63 176l164 41q0 -92 48.5 -138.5t129.5 -46.5q164 0 164 134q0 63 -36 100.5t-130 71.5q-116 41 -172 105t-56 167
q0 137 95.5 211t244.5 74q150 0 225.5 -64t75.5 -188l-168 -27q0 70 -38 108t-109 38q-68 0 -111 -34t-43 -95q0 -51 35.5 -84.5t141.5 -75.5q123 -49 173 -115.5t50 -175.5q0 -135 -87 -205.5t-239 -73.5h-39l-24 -61q83 -17 121 -57t38 -113z" />
    <glyph glyph-name="Scaron" unicode="&#x160;" horiz-adv-x="1001" 
d="M37 293l174 43q-1 -108 58.5 -162.5t170.5 -54.5q110 0 172 49t62 147q0 85 -45 133t-164 93q-69 24 -116 49.5t-87.5 63.5t-60 92t-19.5 126q0 78 26 141t67.5 102.5t97 66.5t111 38t112.5 11q185 0 279.5 -76t97.5 -246l-185 -30q3 99 -50.5 150.5t-155.5 51.5
q-99 0 -159.5 -49t-60.5 -135q0 -29 5 -50.5t19.5 -40t28 -31t44 -28t52.5 -24.5t67 -27q74 -30 124 -59.5t88 -71t56 -96t18 -127.5q0 -77 -23.5 -139t-64 -104t-97 -70t-121 -41t-138.5 -13q-377 0 -383 318zM682 1337h-115l-207 265h193l51 -68q14 -18 23 -35.5t11 -26.5
l3 -8h4q15 29 60 70l77 68h201z" />
    <glyph glyph-name="scaron" unicode="&#x161;" horiz-adv-x="837" 
d="M33 250l164 41q0 -92 48.5 -138.5t129.5 -46.5q164 0 164 134q0 63 -36 100.5t-130 71.5q-116 41 -172 105t-56 167q0 137 95.5 211t244.5 74q150 0 225.5 -64t75.5 -188l-168 -27q0 70 -38 108t-109 38q-70 0 -112 -34t-42 -95q0 -51 35.5 -84.5t141.5 -75.5
q123 -49 173 -115.5t50 -175.5q0 -141 -93.5 -211t-254.5 -70q-157 0 -245 72t-91 203zM567 1081h-106l-205 301h184l56 -84q14 -21 22 -40t9 -28l1 -9h9q14 30 61 77l86 84h193z" />
    <glyph glyph-name="Tcommaaccent" unicode="&#x162;" horiz-adv-x="985" 
d="M502 0h-193l180 1042h-350l29 164h899l-31 -164h-352zM500 -285q0 -110 -76 -166.5t-201 -56.5v76q71 4 111.5 22.5t40.5 65.5q-55 -10 -89 16.5t-34 79.5q0 52 32 80.5t85 28.5q57 0 94 -38.5t37 -107.5z" />
    <glyph glyph-name="tcommaaccent" unicode="&#x163;" horiz-adv-x="647" 
d="M539 180v-155q-86 -50 -203 -50q-132 0 -190.5 74.5t-30.5 229.5l90 520h-131l26 147h133l35 199l189 24l-39 -223h248l-27 -147h-246l-94 -533q-13 -68 10.5 -100.5t69.5 -32.5q76 0 160 47zM375 -285q0 -110 -76 -166.5t-201 -56.5v76q70 4 111 23t41 65
q-55 -10 -89 16.5t-34 79.5q0 52 32 80.5t85 28.5q56 0 93.5 -38.5t37.5 -107.5z" />
    <glyph glyph-name="Tcaron" unicode="&#x164;" horiz-adv-x="985" 
d="M502 0h-193l180 1042h-350l29 164h899l-31 -164h-352zM688 1337h-115l-206 265h192l51 -68q14 -18 23 -35.5t11 -26.5l3 -8h4q15 29 60 70l77 68h201z" />
    <glyph glyph-name="tcaron" unicode="&#x165;" horiz-adv-x="647" 
d="M539 180v-155q-86 -50 -203 -50q-132 0 -190.5 74.5t-30.5 229.5l90 520h-131l26 147h133l35 199l189 24l-39 -223h248l-27 -147h-246l-94 -533q-13 -68 10.5 -100.5t69.5 -32.5q76 0 160 47zM766 1384l-107 -366h-133l31 366h209z" />
    <glyph glyph-name="Tbar" unicode="&#x166;" horiz-adv-x="985" 
d="M502 0h-193l90 518h-221l27 156h221l63 368h-350l29 164h899l-31 -164h-352l-66 -368h238l-27 -156h-237z" />
    <glyph glyph-name="tbar" unicode="&#x167;" horiz-adv-x="700" 
d="M55 483l27 142h125l33 174h-134l27 147h135l35 199l189 24l-39 -223h247l-26 -147h-246l-33 -174h252l-26 -142h-250l-39 -217q-11 -68 12 -100.5t68 -32.5q74 0 161 47v-155q-86 -50 -202 -50q-132 0 -192 74.5t-32 229.5l37 204h-129z" />
    <glyph glyph-name="Utilde" unicode="&#x168;" horiz-adv-x="1206" 
d="M1006 1206h192l-143 -817q-20 -116 -66.5 -198.5t-116.5 -128.5t-152 -66.5t-185 -20.5q-79 0 -146 16t-123.5 51.5t-90.5 92t-47.5 136.5t7.5 186l129 749h195l-135 -762q-27 -158 36 -234.5t199 -76.5q132 0 207 69t102 226zM872 1337q-22 0 -39.5 2t-35 10t-24.5 11
t-28 16t-24 15l-13.5 9t-13 9t-11.5 7.5t-11.5 7t-9.5 5.5t-10.5 5t-10 3t-11 3t-10.5 1.5t-12 0.5q-34 0 -55.5 -25.5t-24.5 -75.5h-112q-20 104 37.5 178t154.5 74q36 0 66 -9t44.5 -18t45.5 -30q4 -3 14 -9.5t13 -8.5t11 -7t11 -6t9 -4.5t9.5 -4.5t9 -3t9.5 -2.5t9 -1
t11 -0.5q66 0 74 104h119q19 -113 -34.5 -184.5t-156.5 -71.5z" />
    <glyph glyph-name="utilde" unicode="&#x169;" horiz-adv-x="1058" 
d="M651 178q-42 -105 -116 -154t-183 -49q-149 0 -211 93t-32 264l106 614h186l-110 -637q-17 -94 15.5 -145t109.5 -51q89 0 162.5 70t95.5 194l98 569h186l-127 -719q-16 -92 56 -92q17 0 59 10l-26 -137q-50 -18 -111 -18q-95 0 -131 47t-27 141zM750 1083
q-18 0 -34.5 2.5t-26 4.5t-26 9.5t-20 9t-23 13.5t-20.5 13q-4 3 -17.5 11.5t-16.5 10.5t-13.5 8.5t-14 8t-12 5t-14 4.5t-12.5 2t-15 1q-33 0 -54.5 -25.5t-24.5 -75.5h-111q-22 105 35.5 179.5t156.5 74.5q12 0 23 -1t21.5 -3.5t18 -4t18 -6t15.5 -7t15.5 -9t14 -8.5
t15.5 -10l15 -10q60 -39 80 -44q12 -3 27 -3q65 0 73 104h119q17 -111 -36.5 -182.5t-155.5 -71.5z" />
    <glyph glyph-name="Umacron" unicode="&#x16a;" horiz-adv-x="1206" 
d="M1006 1206h192l-143 -817q-20 -116 -66.5 -198.5t-116.5 -128.5t-152 -66.5t-185 -20.5q-79 0 -146 16t-123.5 51.5t-90.5 92t-47.5 136.5t7.5 186l129 749h195l-135 -762q-27 -158 36 -234.5t199 -76.5q132 0 207 69t102 226zM1024 1380h-539l25 146h541z" />
    <glyph glyph-name="umacron" unicode="&#x16b;" horiz-adv-x="1058" 
d="M651 178q-42 -105 -116 -154t-183 -49q-149 0 -211 93t-32 264l106 614h186l-110 -637q-17 -94 15.5 -145t109.5 -51q89 0 162.5 70t95.5 194l98 569h186l-127 -719q-16 -92 56 -92q17 0 59 10l-26 -137q-50 -18 -111 -18q-95 0 -131 47t-27 141zM877 1143h-537l27 149
h536z" />
    <glyph glyph-name="Ubreve" unicode="&#x16c;" horiz-adv-x="1206" 
d="M1006 1206h192l-143 -817q-20 -116 -66.5 -198.5t-116.5 -128.5t-152 -66.5t-185 -20.5q-79 0 -146 16t-123.5 51.5t-90.5 92t-47.5 136.5t7.5 186l129 749h195l-135 -762q-27 -158 36 -234.5t199 -76.5q132 0 207 69t102 226zM737 1331q-132 0 -190.5 71.5t-36.5 196.5
h145q-6 -67 18 -100t91 -33t103.5 33t54.5 100h143q-22 -124 -108 -196t-220 -72z" />
    <glyph glyph-name="ubreve" unicode="&#x16d;" horiz-adv-x="1058" 
d="M651 178q-42 -105 -116 -154t-183 -49q-149 0 -211 93t-32 264l106 614h186l-110 -637q-17 -94 15.5 -145t109.5 -51q89 0 162.5 70t95.5 194l98 569h186l-127 -719q-16 -92 56 -92q17 0 59 10l-26 -137q-50 -18 -111 -18q-95 0 -131 47t-27 141zM584 1079
q-133 0 -192.5 78.5t-35.5 210.5h146q-8 -76 12.5 -113.5t93.5 -37.5q71 0 106 38t54 113h145q-24 -132 -110.5 -210.5t-218.5 -78.5z" />
    <glyph glyph-name="Uring" unicode="&#x16e;" horiz-adv-x="1206" 
d="M1006 1206h192l-143 -817q-20 -116 -66.5 -198.5t-116.5 -128.5t-152 -66.5t-185 -20.5q-79 0 -146 16t-123.5 51.5t-90.5 92t-47.5 136.5t7.5 186l129 749h195l-135 -762q-27 -158 36 -234.5t199 -76.5q132 0 207 69t102 226zM571 1485q0 91 63 154t161 63
q84 0 134 -51.5t50 -128.5q0 -93 -61 -156t-158 -63q-90 0 -139.5 51t-49.5 131zM784 1614q-47 0 -79.5 -35.5t-32.5 -83.5t26.5 -76t73.5 -28q46 0 78.5 36t32.5 84q0 46 -27 74.5t-72 28.5z" />
    <glyph glyph-name="uring" unicode="&#x16f;" horiz-adv-x="1058" 
d="M651 178q-42 -105 -116 -154t-183 -49q-149 0 -211 93t-32 264l106 614h186l-110 -637q-17 -94 15.5 -145t109.5 -51q89 0 162.5 70t95.5 194l98 569h186l-127 -719q-16 -92 56 -92q17 0 59 10l-26 -137q-50 -18 -111 -18q-95 0 -131 47t-27 141zM428 1249q0 91 61.5 154
t159.5 63q84 0 135.5 -51.5t51.5 -128.5q0 -92 -61.5 -155.5t-158.5 -63.5q-90 0 -139 51t-49 131zM641 1380q-48 0 -80.5 -35.5t-32.5 -84.5q0 -47 26.5 -75t72.5 -28t78 35.5t32 83.5q0 47 -25.5 75.5t-70.5 28.5z" />
    <glyph glyph-name="Uhungarumlaut" unicode="&#x170;" horiz-adv-x="1206" 
d="M1006 1206h192l-143 -817q-20 -116 -66.5 -198.5t-116.5 -128.5t-152 -66.5t-185 -20.5q-79 0 -146 16t-123.5 51.5t-90.5 92t-47.5 136.5t7.5 186l129 749h195l-135 -762q-27 -158 36 -234.5t199 -76.5q132 0 207 69t102 226zM651 1337h-137l125 252h223zM958 1337h-145
l152 252h229z" />
    <glyph glyph-name="uhungarumlaut" unicode="&#x171;" horiz-adv-x="1058" 
d="M651 178q-42 -105 -116 -154t-183 -49q-149 0 -211 93t-32 264l106 614h186l-110 -637q-17 -94 15.5 -145t109.5 -51q89 0 162.5 70t95.5 194l98 569h186l-127 -719q-16 -92 56 -92q17 0 59 10l-26 -137q-50 -18 -111 -18q-95 0 -131 47t-27 141zM528 1083h-137l125 299
h223zM836 1083h-146l152 299h229z" />
    <glyph glyph-name="Uogonek" unicode="&#x172;" horiz-adv-x="1208" 
d="M311 -238q0 129 105 224q-77 14 -134.5 47t-99.5 91t-53 139.5t6 193.5l131 749h193l-133 -762q-28 -157 34.5 -234t198.5 -77q133 0 208.5 69t102.5 226l136 778h194l-145 -817q-18 -107 -58.5 -185t-101 -124.5t-131.5 -71t-160 -31.5q-62 -29 -99.5 -78.5
t-37.5 -111.5q0 -43 25.5 -68.5t66.5 -25.5q46 0 74.5 19.5t54.5 60.5l60 -88q-69 -117 -224 -117q-101 0 -157 51t-56 143z" />
    <glyph glyph-name="uogonek" unicode="&#x173;" horiz-adv-x="1058" 
d="M958 946l-127 -719q-16 -92 56 -92q17 0 59 10l-26 -137q-299 -43 -299 -221q0 -43 25.5 -68.5t66.5 -25.5q46 0 76 20t55 60l59 -88q-72 -117 -223 -117q-103 0 -159 51t-56 143q0 95 64.5 167.5t152.5 107.5q-19 17 -28 58t-3 83q-42 -105 -116 -154t-183 -49
q-149 0 -211 93t-32 264l106 614h186l-110 -637q-17 -94 15.5 -145t109.5 -51q89 0 162.5 70t95.5 194l98 569h186z" />
    <glyph glyph-name="Wcircumflex" unicode="&#x174;" horiz-adv-x="1705" 
d="M1079 1206l64 -755q7 -84 9.5 -165.5t1.5 -121.5l-1 -39h8q35 138 109 324l303 757h201l-504 -1206h-269l-61 711q-6 94 -5.5 165t3.5 112l4 42h-8q-29 -133 -109 -319l-305 -711h-264l-59 1206h190l31 -751q3 -83 3.5 -165.5t-0.5 -123.5l-1 -41h8q29 142 111 328
l323 753h217zM956 1602h115l209 -265h-195l-51 68q-14 18 -22.5 35.5t-10.5 25.5l-2 9h-6q-12 -29 -59 -70l-76 -68h-203z" />
    <glyph glyph-name="wcircumflex" unicode="&#x175;" horiz-adv-x="1384" 
d="M858 946l45 -495q9 -84 10.5 -164t-1.5 -118l-3 -38h9q24 127 106 320l215 495h195l-424 -946h-222l-51 449q-7 80 -8.5 154.5t0.5 109.5l2 35h-8q-31 -117 -111 -299l-194 -449h-221l-99 946h191l41 -495q8 -84 10 -164t0 -118l-2 -38h8q29 134 111 322l221 493h180z
M760 1382h108l203 -301h-182l-55 86q-14 21 -22.5 40.5t-10.5 28.5l-2 9h-8q-15 -31 -62 -78l-86 -86h-192z" />
    <glyph glyph-name="Ycircumflex" unicode="&#x176;" horiz-adv-x="1036" 
d="M367 1206l127 -383q19 -61 31 -118t14 -84l2 -27h8q29 92 115 229l247 383h205l-495 -749l-80 -457h-193l78 457l-260 749h201zM641 1602h115l207 -265h-193l-53 68q-14 18 -22.5 35.5t-10.5 25.5l-2 9h-6q-13 -29 -58 -70l-77 -68h-203z" />
    <glyph glyph-name="ycircumflex" unicode="&#x177;" horiz-adv-x="882" 
d="M283 946l59 -530q10 -81 14 -154.5t3 -107.5l-1 -33h9q28 121 118 295l271 530h196l-563 -1055q-43 -82 -85 -140.5t-79.5 -94t-79.5 -55.5t-79 -26.5t-84 -6.5q-89 0 -154 37l45 143q58 -35 117 -35q74 0 131 53t121 179l-154 1001h195zM496 1382h108l203 -301h-182
l-56 86q-14 21 -22.5 40.5t-10.5 28.5l-1 9h-9q-14 -31 -61 -78l-86 -86h-193z" />
    <glyph glyph-name="Ydieresis" unicode="&#x178;" horiz-adv-x="1036" 
d="M367 1206l127 -383q19 -61 31 -118t14 -84l2 -27h8q29 92 115 229l247 383h205l-495 -749l-80 -457h-193l78 457l-260 749h201zM358 1460q0 53 35.5 88t85.5 35q51 0 86 -34.5t35 -88.5q0 -52 -35 -86.5t-86 -34.5q-50 0 -85.5 34.5t-35.5 86.5zM760 1458q0 53 35.5 88
t85.5 35q52 0 87.5 -35t35.5 -88q0 -51 -36 -86t-87 -35q-50 0 -85.5 35t-35.5 86z" />
    <glyph glyph-name="Zacute" unicode="&#x179;" horiz-adv-x="1058" 
d="M23 113l665 788q43 50 82.5 86.5t57.5 48.5l18 11v8q-70 -13 -193 -13h-444l31 164h850l-25 -127l-659 -774q-43 -50 -82.5 -86.5t-57.5 -47.5l-18 -11v-8q69 12 192 12h471l-26 -164h-883zM748 1337h-168l127 252h245z" />
    <glyph glyph-name="zacute" unicode="&#x17a;" horiz-adv-x="870" 
d="M8 100l479 549q44 50 82.5 87t54.5 49l17 12v8q-65 -14 -188 -14h-287l27 155h692l-21 -121l-477 -532q-44 -49 -83.5 -85.5t-57.5 -48.5l-17 -12v-8q70 13 193 13h311l-24 -152h-721zM592 1083h-164l152 299h247z" />
    <glyph glyph-name="Zdotaccent" unicode="&#x17b;" horiz-adv-x="1058" 
d="M23 113l665 788q43 50 82.5 86.5t57.5 48.5l18 11v8q-70 -13 -193 -13h-444l31 164h850l-25 -127l-659 -774q-43 -50 -82.5 -86.5t-57.5 -47.5l-18 -11v-8q69 12 192 12h471l-26 -164h-883zM565 1489q0 54 35.5 88.5t87.5 34.5q56 0 92.5 -34t36.5 -89q0 -53 -37 -88
t-92 -35q-51 0 -87 35.5t-36 87.5z" />
    <glyph glyph-name="zdotaccent" unicode="&#x17c;" horiz-adv-x="870" 
d="M8 100l479 549q44 50 82.5 87t54.5 49l17 12v8q-65 -14 -188 -14h-287l27 155h692l-21 -121l-477 -532q-44 -49 -83.5 -85.5t-57.5 -48.5l-17 -12v-8q70 13 193 13h311l-24 -152h-721zM414 1247q0 53 35.5 88t87.5 35q54 0 90.5 -34.5t36.5 -88.5q0 -52 -36.5 -87.5
t-90.5 -35.5q-51 0 -87 35.5t-36 87.5z" />
    <glyph glyph-name="Zcaron" unicode="&#x17d;" horiz-adv-x="1058" 
d="M23 113l665 788q43 50 82.5 86.5t57.5 48.5l18 11v8q-70 -13 -193 -13h-444l31 164h850l-25 -127l-659 -774q-43 -50 -82.5 -86.5t-57.5 -47.5l-18 -11v-8q69 12 192 12h471l-26 -164h-883zM721 1337h-115l-207 265h193l53 -68q14 -18 22.5 -35.5t10.5 -26.5l2 -8h6
q12 29 57 70l78 68h203z" />
    <glyph glyph-name="zcaron" unicode="&#x17e;" horiz-adv-x="870" 
d="M8 100l479 549q44 50 82.5 87t54.5 49l17 12v8q-65 -14 -188 -14h-287l27 155h692l-21 -121l-477 -532q-44 -49 -83.5 -85.5t-57.5 -48.5l-17 -12v-8q70 13 193 13h311l-24 -152h-721zM569 1081h-106l-205 301h182l58 -84q14 -21 22 -40t9 -28l1 -9h9q14 30 61 77l86 84
h193z" />
    <glyph glyph-name="Schwa" unicode="&#x18f;" horiz-adv-x="1206" 
d="M635 1067q-113 0 -184 -50.5t-113 -154.5l-164 47q61 170 181.5 246t301.5 76q226 0 352 -138t126 -372q0 -141 -32.5 -262.5t-89 -209t-131.5 -150.5t-161 -93.5t-176 -30.5q-112 0 -198 35.5t-136 97t-75 136.5t-25 162q0 132 51 243h778q7 84 -8.5 158t-51.5 132.5
t-99.5 93t-145.5 34.5zM915 502h-606q-16 -40 -16 -109q0 -113 63.5 -188.5t184.5 -75.5q135 0 235 103t139 270z" />
    <glyph glyph-name="florin" unicode="&#x192;" horiz-adv-x="843" 
d="M37 -248l162 590h-140l41 156h140l57 198q82 314 369 314q80 0 145 -29t96 -80l-119 -139q-28 48 -61 69t-82 21q-63 0 -101.5 -39t-62.5 -121l-57 -194h242l-41 -156h-242l-162 -590h-184z" />
    <glyph glyph-name="Khook" unicode="&#x198;" horiz-adv-x="1075" 
d="M633 618l342 -618h-217l-287 530h-109l-92 -530h-192l211 1206h192l-88 -514h88l185 301q72 123 140 180.5t167 57.5q69 0 116 -34.5t68 -92.5l-115 -121q-26 66 -81 66q-35 0 -63.5 -28t-72.5 -99z" />
    <glyph glyph-name="khook" unicode="&#x199;" horiz-adv-x="940" 
d="M453 1067l-84 -477h45l336 356h227l-414 -420l154 -319q28 -56 66 -66.5t104 9.5l-29 -142q-56 -18 -117 -18q-59 0 -99.5 25t-68.5 85l-172 353h-57l-80 -453h-186l186 1067q55 315 344 315q118 0 223 -57l-69 -154q-78 56 -150 56q-71 0 -107.5 -36.5t-51.5 -123.5z
" />
    <glyph glyph-name="Ezh" unicode="&#x1b7;" horiz-adv-x="1021" 
d="M584 1042h-406l29 164h819l-22 -127l-500 -542l-2 -11q92 -2 162.5 -33t112.5 -83t63.5 -117t21.5 -141q0 -123 -43 -224t-115.5 -164.5t-164.5 -98t-193 -34.5q-197 0 -304.5 97.5t-107.5 275.5l158 55q0 -143 68 -213.5t188 -70.5q144 0 237 95t93 273q0 127 -95 201.5
t-292 73.5l24 135l303 348q43 49 82.5 85.5t57.5 48.5l18 12v8q-69 -13 -192 -13z" />
    <glyph glyph-name="Acaron" unicode="&#x1cd;" horiz-adv-x="1210" 
d="M885 0l-58 330h-493l-172 -330h-205l651 1206h248l225 -1206h-196zM791 1337h-115l-207 265h193l53 -68q13 -18 21.5 -35.5t11.5 -26.5l2 -8h4q-5 -1 13 21t53.5 56.5t70.5 60.5h201zM557 758l-143 -273h385q-28 141 -50 288t-31 225.5t-7 78.5h-9q-45 -131 -145 -319z
" />
    <glyph glyph-name="acaron" unicode="&#x1ce;" horiz-adv-x="1093" 
d="M709 395l28 160q12 69 -1 129t-56.5 100.5t-110.5 40.5q-134 0 -219.5 -126.5t-85.5 -317.5q0 -115 49.5 -185.5t141.5 -70.5q99 0 165.5 72t88.5 198zM993 946l-127 -719q-16 -92 54 -92q19 0 61 10l-27 -137q-50 -18 -110 -18q-172 0 -166 168q-40 -93 -114.5 -138
t-168.5 -45q-144 0 -230.5 102t-86.5 285q0 163 56 300.5t163 222t242 84.5q212 0 241 -183l54 160h159zM659 1081h-108l-205 301h184l56 -84q14 -21 22 -40t9 -28l1 -9h11q12 30 59 77l88 84h191z" />
    <glyph glyph-name="Icaron" unicode="&#x1cf;" horiz-adv-x="509" 
d="M289 1206h192l-211 -1206h-192zM457 1337h-115l-209 265h195l51 -68q14 -18 22.5 -35.5t10.5 -26.5l2 -8h6q12 29 59 70l76 68h203z" />
    <glyph glyph-name="icaron" unicode="&#x1d0;" horiz-adv-x="518" 
d="M399 1081h-108l-203 301h182l58 -84q14 -21 22 -40t9 -28l1 -9h9q14 30 61 77l86 84h193zM418 946l-127 -719q-16 -92 55 -92q18 0 60 10l-27 -137q-49 -18 -111 -18q-104 0 -144.5 57t-21.5 162l129 737h187z" />
    <glyph glyph-name="Ocaron" unicode="&#x1d1;" 
d="M582 -25q-222 0 -346.5 134.5t-124.5 357.5q0 176 49 322t134 242t197 148t238 52q223 0 348 -135.5t125 -358.5q0 -176 -49.5 -322t-134.5 -241t-197 -147t-239 -52zM713 1067q-125 0 -219.5 -83t-140.5 -214.5t-46 -288.5q0 -161 76.5 -253.5t216.5 -92.5
q123 0 216.5 82.5t140.5 215t47 290.5q0 154 -72.5 249t-218.5 95zM813 1337h-115l-209 265h195l51 -68q14 -18 22.5 -35.5t10.5 -26.5l2 -8h6q13 29 60 70l75 68h203z" />
    <glyph glyph-name="ocaron" unicode="&#x1d2;" horiz-adv-x="1024" 
d="M573 969q176 0 274.5 -109t98.5 -299q0 -118 -32.5 -223.5t-93.5 -186.5t-156 -128.5t-211 -47.5q-169 0 -272 105.5t-103 296.5q0 95 20 182t61 161.5t99.5 130t139 87t175.5 31.5zM551 817q-86 0 -152.5 -60t-100.5 -156t-34 -210q0 -132 55.5 -202t153.5 -70
q86 0 151.5 61.5t98.5 159.5t33 213q0 126 -53.5 195t-151.5 69zM633 1081h-107l-204 301h182l57 -84q14 -21 22 -40t9 -28l2 -9h8q15 30 62 77l86 84h192z" />
    <glyph glyph-name="Ucaron" unicode="&#x1d3;" horiz-adv-x="1206" 
d="M1006 1206h192l-143 -817q-20 -116 -66.5 -198.5t-116.5 -128.5t-152 -66.5t-185 -20.5q-79 0 -146 16t-123.5 51.5t-90.5 92t-47.5 136.5t7.5 186l129 749h195l-135 -762q-27 -158 36 -234.5t199 -76.5q132 0 207 69t102 226zM793 1337h-115l-207 265h193l53 -68
q14 -18 22.5 -35.5t10.5 -26.5l2 -8h6q12 29 57 70l78 68h203z" />
    <glyph glyph-name="ucaron" unicode="&#x1d4;" horiz-adv-x="1058" 
d="M651 178q-42 -105 -116 -154t-183 -49q-149 0 -211 93t-32 264l106 614h186l-110 -637q-17 -94 15.5 -145t109.5 -51q89 0 162.5 70t95.5 194l98 569h186l-127 -719q-16 -92 56 -92q17 0 59 10l-26 -137q-50 -18 -111 -18q-95 0 -131 47t-27 141zM649 1081h-108l-203 301
h182l55 -84q14 -21 22.5 -40t10.5 -28l2 -9h8q15 30 62 77l86 84h192z" />
    <glyph glyph-name="uni01D9" unicode="&#x1d9;" horiz-adv-x="1206" 
d="M1006 1206h192l-143 -817q-20 -116 -66.5 -198.5t-116.5 -128.5t-152 -66.5t-185 -20.5q-79 0 -146 16t-123.5 51.5t-90.5 92t-47.5 136.5t7.5 186l129 749h195l-135 -762q-27 -158 36 -234.5t199 -76.5q132 0 207 69t102 226zM432 1399q0 53 36 88t85 35q53 0 88 -34.5
t35 -88.5q0 -52 -35 -86.5t-88 -34.5q-48 0 -84.5 35t-36.5 86zM836 1397q0 53 35 88t85 35q52 0 86.5 -35t34.5 -88q0 -51 -35 -86t-86 -35q-50 0 -85 35t-35 86zM834 1548h-113l-209 264h193l53 -67q14 -18 22.5 -35.5t10.5 -25.5l2 -9h6q12 29 59 70l76 67h203z" />
    <glyph glyph-name="uni01DA" unicode="&#x1da;" horiz-adv-x="1058" 
d="M651 178q-42 -105 -116 -154t-183 -49q-149 0 -211 93t-32 264l106 614h186l-110 -637q-17 -94 15.5 -145t109.5 -51q89 0 162.5 70t95.5 194l98 569h186l-127 -719q-16 -92 56 -92q17 0 59 10l-26 -137q-50 -18 -111 -18q-95 0 -131 47t-27 141zM293 1145q0 52 36 86.5
t85 34.5q53 0 88 -34t35 -87q0 -52 -35 -86.5t-88 -34.5q-48 0 -84.5 35t-36.5 86zM696 1143q0 53 35.5 88t85.5 35q51 0 86 -35t35 -88q0 -52 -35 -86.5t-86 -34.5q-50 0 -85.5 34.5t-35.5 86.5zM694 1294h-112l-209 265h192l53 -68q14 -18 22.5 -35.5t10.5 -25.5l2 -9h6
q13 29 60 70l76 68h202z" />
    <glyph glyph-name="uni004100A800AF" unicode="&#x1de;" horiz-adv-x="1210" 
d="M885 0l-58 330h-493l-172 -330h-205l651 1206h248l225 -1206h-196zM1055 1589h-541l25 146h540zM426 1399q0 53 35 87t86 34q53 0 88 -34t35 -87q0 -52 -35 -86.5t-88 -34.5q-50 0 -85.5 34.5t-35.5 86.5zM827 1397q0 52 36 86.5t85 34.5q53 0 88 -34t35 -87
q0 -52 -35 -86.5t-88 -34.5q-48 0 -84.5 35t-36.5 86zM557 758l-143 -273h385q-28 141 -50 288t-31 225.5t-7 78.5h-9q-45 -131 -145 -319z" />
    <glyph glyph-name="adieresismacron" unicode="&#x1df;" horiz-adv-x="1093" 
d="M709 395l28 160q12 69 -1 129t-56.5 100.5t-110.5 40.5q-134 0 -219.5 -126.5t-85.5 -317.5q0 -115 49.5 -185.5t141.5 -70.5q99 0 165.5 72t88.5 198zM993 946l-127 -719q-16 -92 54 -92q19 0 61 10l-27 -137q-50 -18 -110 -18q-172 0 -166 168q-40 -93 -114.5 -138
t-168.5 -45q-144 0 -230.5 102t-86.5 285q0 163 56 300.5t163 222t242 84.5q212 0 241 -183l54 160h159zM934 1378h-537l27 150h537zM303 1165q0 52 36 86.5t85 34.5q53 0 88 -34t35 -87q0 -52 -35 -86.5t-88 -34.5q-48 0 -84.5 35t-36.5 86zM707 1163q0 53 35 87t85 34
q52 0 86.5 -34t34.5 -87q0 -52 -35 -86.5t-86 -34.5q-50 0 -85 34.5t-35 86.5z" />
    <glyph glyph-name="AEmacron" unicode="&#x1e2;" horiz-adv-x="1748" 
d="M823 0l58 330h-451l-258 -330h-215l942 1206h879l-29 -164h-549l-63 -356h485l-29 -164h-485l-64 -358h549l-26 -164h-744zM1569 1380h-539l25 146h540zM1014 1077l-463 -592h356l64 361q16 84 28.5 141.5t17.5 73.5l5 16h-8z" />
    <glyph glyph-name="aemacron" unicode="&#x1e3;" horiz-adv-x="1492" 
d="M1004 119q91 0 139.5 38t73.5 115l172 -43q-49 -139 -145.5 -196.5t-250.5 -57.5q-217 0 -319 158q-44 -76 -131 -117t-199 -41q-132 0 -205 65.5t-73 180.5q0 163 147.5 247.5t417.5 86.5q14 62 39 119q4 74 -37 111.5t-115 37.5q-77 0 -127 -39.5t-65 -113.5l-174 26
q23 96 85 159t138.5 88.5t167.5 25.5q192 0 256 -117q123 117 286 117q90 0 159.5 -28t110.5 -76.5t61 -108t20 -127.5q0 -105 -41 -195h-594q-5 -61 3.5 -115.5t31 -100t66 -72.5t102.5 -27zM1137 1143h-537l27 149h536zM819 555h424q10 29 10 78q0 84 -44 138t-132 54
q-97 0 -164 -72t-94 -198zM612 377q0 37 2 55q-171 -5 -268.5 -52.5t-97.5 -143.5q0 -59 34 -91t99 -32q77 0 147 40t99 103q-15 55 -15 121z" />
    <glyph glyph-name="Gstroke" unicode="&#x1e4;" horiz-adv-x="1263" 
d="M664 649h481l-43 -233h121l-23 -129h-119l-51 -287h-137l-8 152q-38 -83 -116.5 -130t-193.5 -47q-218 0 -341 134.5t-123 357.5q0 176 49.5 322t134.5 242t197.5 148t238.5 52q341 0 410 -301l-193 -74q-17 104 -78.5 158.5t-154.5 54.5q-125 0 -220 -83.5
t-141.5 -215.5t-46.5 -289q0 -163 76.5 -256.5t224.5 -93.5q207 0 279 156h-289l23 129h294l19 94h-293z" />
    <glyph glyph-name="gstroke" unicode="&#x1e5;" horiz-adv-x="1042" 
d="M995 946l-170 -971l-18 -73h141l-12 -72h-152q-54 -133 -161 -197.5t-277 -64.5q-174 0 -266.5 69t-114.5 185l158 72q8 -81 70.5 -134t160.5 -53q158 0 232 123h-299l12 72h319q12 38 21 78l35 178q-75 -176 -275 -176q-145 0 -233 102t-88 285q0 162 57 298t165 219
t245 83q206 0 239 -183l52 160h159zM713 393l28 162q19 107 -24.5 188.5t-145.5 81.5q-136 0 -221.5 -126t-85.5 -316q0 -115 48 -184.5t143 -69.5q102 0 168.5 68.5t89.5 195.5z" />
    <glyph glyph-name="Gcaron" unicode="&#x1e6;" horiz-adv-x="1234" 
d="M659 623h480l-109 -623h-137l-8 152q-38 -83 -116.5 -130t-193.5 -47q-218 0 -341 134.5t-123 357.5q0 176 49.5 322t134.5 242t197.5 148t238.5 52q341 0 410 -301l-193 -74q-17 104 -78.5 158.5t-154.5 54.5q-125 0 -220 -83.5t-141.5 -215.5t-46.5 -289
q0 -163 76 -255.5t223 -92.5q120 0 200.5 62t104.5 196l13 68h-293zM803 1337h-115l-207 265h193l53 -68q14 -18 22.5 -35.5t10.5 -26.5l2 -8h6q12 29 57 70l78 68h203z" />
    <glyph glyph-name="gcaron" unicode="&#x1e7;" horiz-adv-x="1042" 
d="M713 393l28 162q19 107 -24.5 188.5t-145.5 81.5q-136 0 -221.5 -126t-85.5 -316q0 -115 48 -184.5t143 -69.5q102 0 168.5 68.5t89.5 195.5zM995 946l-170 -971q-39 -210 -152.5 -308.5t-326.5 -98.5q-174 0 -266.5 69t-114.5 185l158 72q8 -81 70.5 -134t160.5 -53
q125 0 191 68.5t94 204.5l35 178q-75 -176 -275 -176q-145 0 -233 102t-88 285q0 162 57 298t165 219t245 83q206 0 239 -183l52 160h159zM649 1081h-106l-205 301h184l56 -84q14 -21 22 -40t9 -28l1 -9h8q15 30 62 77l86 84h192z" />
    <glyph glyph-name="Kcaron" unicode="&#x1e8;" horiz-adv-x="1075" 
d="M975 0h-217l-287 530h-109l-92 -530h-192l211 1206h192l-88 -514h88l443 514h229l-520 -588zM715 1337h-113l-209 265h193l53 -68q14 -18 22.5 -35.5t10.5 -26.5l2 -8h6q12 29 59 70l76 68h203z" />
    <glyph glyph-name="kcaron" unicode="&#x1e9;" horiz-adv-x="940" 
d="M571 100l-170 353h-57l-80 -453h-186l239 1368h189l-137 -778h45l336 356h227l-414 -420l154 -319q28 -56 66 -66.5t104 9.5l-29 -142q-56 -18 -117 -18q-58 0 -99.5 25t-70.5 85zM473 1430h-113l-208 264h192l53 -68q14 -18 22.5 -35.5t10.5 -26.5l2 -8h6q13 29 60 70
l75 68h203z" />
    <glyph glyph-name="Oogonek" unicode="&#x1ea;" 
d="M322 -238q0 139 112 232q-154 41 -238.5 166.5t-84.5 306.5q0 176 49 322t134 242t197 148t238 52q223 0 348 -135.5t125 -358.5q0 -171 -46.5 -313t-127 -237t-187 -149.5t-227.5 -60.5q-63 -28 -100 -78t-37 -112q0 -43 25.5 -68.5t66.5 -25.5q46 0 76 20t55 60l60 -88
q-72 -117 -223 -117q-103 0 -159 51t-56 143zM713 1067q-125 0 -219.5 -83t-140.5 -214.5t-46 -288.5q0 -161 76.5 -253.5t216.5 -92.5q123 0 216.5 82.5t140.5 215t47 290.5q0 154 -72.5 249t-218.5 95z" />
    <glyph glyph-name="oogonek" unicode="&#x1eb;" horiz-adv-x="1021" 
d="M211 -238q0 133 115 232q-115 33 -181.5 132t-66.5 251q0 95 20 182t61 161.5t99.5 130t139 87t175.5 31.5q176 0 274.5 -109t98.5 -299q0 -150 -49 -275t-150 -208.5t-239 -97.5q-141 -67 -141 -193q0 -43 25.5 -68.5t66.5 -25.5q46 0 76 20t55 60l59 -88
q-72 -117 -223 -117q-103 0 -159 51t-56 143zM551 817q-86 0 -152.5 -60t-100.5 -156t-34 -210q0 -132 55.5 -202t153.5 -70q86 0 151.5 61.5t98.5 159.5t33 213q0 126 -53.5 195t-151.5 69z" />
    <glyph glyph-name="uni004F02DB00AF" unicode="&#x1ec;" 
d="M1044 1380h-540l24 146h541zM322 -238q0 139 112 232q-154 41 -238.5 166.5t-84.5 306.5q0 176 49 322t134 242t197 148t238 52q223 0 348 -135.5t125 -358.5q0 -171 -46.5 -313t-127 -237t-187 -149.5t-227.5 -60.5q-63 -28 -100 -78t-37 -112q0 -43 25.5 -68.5
t66.5 -25.5q46 0 76 20t55 60l60 -88q-72 -117 -223 -117q-103 0 -159 51t-56 143zM713 1067q-125 0 -219.5 -83t-140.5 -214.5t-46 -288.5q0 -161 76.5 -253.5t216.5 -92.5q123 0 216.5 82.5t140.5 215t47 290.5q0 154 -72.5 249t-218.5 95z" />
    <glyph glyph-name="oogonekmacron" unicode="&#x1ed;" horiz-adv-x="1021" 
d="M860 1143h-534l26 149h537zM211 -238q0 133 115 232q-115 33 -181.5 132t-66.5 251q0 95 20 182t61 161.5t99.5 130t139 87t175.5 31.5q176 0 274.5 -109t98.5 -299q0 -150 -49 -275t-150 -208.5t-239 -97.5q-141 -67 -141 -193q0 -43 25.5 -68.5t66.5 -25.5q46 0 76 20
t55 60l59 -88q-72 -117 -223 -117q-103 0 -159 51t-56 143zM551 817q-86 0 -152.5 -60t-100.5 -156t-34 -210q0 -132 55.5 -202t153.5 -70q86 0 151.5 61.5t98.5 159.5t33 213q0 126 -53.5 195t-151.5 69z" />
    <glyph glyph-name="Ezhcaron" unicode="&#x1ee;" horiz-adv-x="1021" 
d="M584 1042h-406l29 164h819l-22 -127l-500 -542l-2 -11q92 -2 162.5 -33t112.5 -83t63.5 -117t21.5 -141q0 -123 -43 -224t-115.5 -164.5t-164.5 -98t-193 -34.5q-197 0 -304.5 97.5t-107.5 275.5l158 55q0 -143 68 -213.5t188 -70.5q144 0 237 95t93 273q0 127 -95 201.5
t-292 73.5l24 135l303 348q43 49 82.5 85.5t57.5 48.5l18 12v8q-69 -13 -192 -13zM686 1337h-113l-208 265h192l53 -68q14 -18 22.5 -35.5t10.5 -26.5l2 -8h6q13 29 60 70l75 68h203z" />
    <glyph glyph-name="ezhcaron" unicode="&#x1ef;" horiz-adv-x="856" 
d="M240 436l188 203q41 43 80.5 80t58.5 53l19 16l2 9q-70 -6 -193 -6h-260l29 155h676l-23 -123l-414 -413v-7q77 -4 135.5 -31t93.5 -72.5t52.5 -101t17.5 -120.5q0 -95 -38.5 -172t-102 -124t-140 -72t-157.5 -25q-165 0 -248 77t-86 209l158 47q-3 -93 50 -144.5
t136 -51.5q111 0 180.5 66t69.5 182q0 108 -68.5 170.5t-238.5 76.5zM569 1081h-106l-205 301h184l56 -84q14 -21 22 -40t9 -28l1 -9h9q14 30 61 77l86 84h193z" />
    <glyph glyph-name="jcaron" unicode="&#x1f0;" horiz-adv-x="462" 
d="M397 1081h-106l-205 301h184l56 -84q14 -21 22 -40t9 -28l1 -9h9q14 30 61 77l86 84h193zM418 946l-191 -1085q-28 -161 -110 -227t-217 -66q-55 0 -108 15t-85 38l60 143q63 -51 137 -51q54 0 87.5 35t49.5 123l190 1075h187z" />
    <glyph glyph-name="jcaron" unicode="&#xe10c;" horiz-adv-x="462" 
d="M397 1081h-106l-205 301h184l56 -84q14 -21 22 -40t9 -28l1 -9h9q14 30 61 77l86 84h193zM418 946l-191 -1085q-28 -161 -110 -227t-217 -66q-55 0 -108 15t-85 38l60 143q63 -51 137 -51q54 0 87.5 35t49.5 123l190 1075h187z" />
    <glyph glyph-name="Gacute" unicode="&#x1f4;" horiz-adv-x="1234" 
d="M659 623h480l-109 -623h-137l-8 152q-38 -83 -116.5 -130t-193.5 -47q-218 0 -341 134.5t-123 357.5q0 176 49.5 322t134.5 242t197.5 148t238.5 52q341 0 410 -301l-193 -74q-17 104 -78.5 158.5t-154.5 54.5q-125 0 -220 -83.5t-141.5 -215.5t-46.5 -289
q0 -163 76 -255.5t223 -92.5q120 0 200.5 62t104.5 196l13 68h-293zM827 1337h-168l127 252h246z" />
    <glyph glyph-name="gacute" unicode="&#x1f5;" horiz-adv-x="1042" 
d="M713 393l28 162q19 107 -24.5 188.5t-145.5 81.5q-136 0 -221.5 -126t-85.5 -316q0 -115 48 -184.5t143 -69.5q102 0 168.5 68.5t89.5 195.5zM995 946l-170 -971q-39 -210 -152.5 -308.5t-326.5 -98.5q-174 0 -266.5 69t-114.5 185l158 72q8 -81 70.5 -134t160.5 -53
q125 0 191 68.5t94 204.5l35 178q-75 -176 -275 -176q-145 0 -233 102t-88 285q0 162 57 298t165 219t245 83q206 0 239 -183l52 160h159zM672 1083h-162l149 299h248z" />
    <glyph glyph-name="Ngrave" unicode="&#x1f8;" 
d="M481 1206l316 -678q27 -59 50.5 -122.5t33.5 -97.5l10 -34h8q14 139 41 291l113 641h192l-211 -1206h-186l-324 672q-27 58 -51.5 122t-35.5 99l-11 35h-8q-8 -133 -35 -289l-113 -639h-192l211 1206h192zM858 1337h-170l-205 252h246z" />
    <glyph glyph-name="ngrave" unicode="&#x1f9;" horiz-adv-x="1062" 
d="M934 651l-74 -424q-16 -92 55 -92q18 0 60 10l-27 -137q-50 -18 -110 -18q-104 0 -144.5 57t-21.5 162l76 426q16 83 -13.5 130.5t-109.5 47.5q-87 0 -165.5 -72t-105.5 -227l-90 -514h-186l166 946h162l-11 -192q102 215 305 215q111 0 176.5 -60t65.5 -168
q0 -49 -8 -90zM719 1083h-162l-235 299h247z" />
    <glyph glyph-name="uni004102DA00B4" unicode="&#x1fa;" horiz-adv-x="1210" 
d="M885 0l-58 330h-493l-172 -330h-205l651 1206h248l225 -1206h-196zM565 1421q0 91 61.5 154t159.5 63q84 0 135.5 -51.5t51.5 -128.5q0 -93 -61 -156t-158 -63q-90 0 -139.5 51t-49.5 131zM895 1681h-168l129 252h246zM557 758l-143 -273h385q-28 141 -50 288t-31 225.5
t-7 78.5h-9q-45 -131 -145 -319zM778 1552q-47 0 -79.5 -36t-32.5 -84t26.5 -75.5t73.5 -27.5q46 0 77 35.5t31 83.5q0 47 -25.5 75.5t-70.5 28.5z" />
    <glyph glyph-name="aringacute" unicode="&#x1fb;" horiz-adv-x="1093" 
d="M709 395l28 160q12 69 -1 129t-56.5 100.5t-110.5 40.5q-134 0 -219.5 -126.5t-85.5 -317.5q0 -115 49.5 -185.5t141.5 -70.5q99 0 165.5 72t88.5 198zM993 946l-127 -719q-16 -92 54 -92q19 0 61 10l-27 -137q-50 -18 -110 -18q-172 0 -166 168q-40 -93 -114.5 -138
t-168.5 -45q-144 0 -230.5 102t-86.5 285q0 163 56 300.5t163 222t242 84.5q212 0 241 -183l54 160h159zM428 1206q0 91 61.5 154t159.5 63q84 0 135.5 -51.5t51.5 -128.5q0 -92 -61.5 -155.5t-158.5 -63.5q-90 0 -139 51t-49 131zM641 1335q-49 0 -81 -35t-32 -83t27 -76.5
t72 -28.5q46 0 78 36.5t32 84.5q0 46 -25.5 74t-70.5 28zM756 1483h-170l129 252h246z" />
    <glyph glyph-name="AEacute" unicode="&#x1fc;" horiz-adv-x="1748" 
d="M823 0l58 330h-451l-258 -330h-215l942 1206h879l-29 -164h-549l-63 -356h485l-29 -164h-485l-64 -358h549l-26 -164h-744zM1364 1337h-170l129 252h246zM1014 1077l-463 -592h356l64 361q16 84 28.5 141.5t17.5 73.5l5 16h-8z" />
    <glyph glyph-name="aeacute" unicode="&#x1fd;" horiz-adv-x="1492" 
d="M1004 119q91 0 139.5 38t73.5 115l172 -43q-49 -139 -145.5 -196.5t-250.5 -57.5q-217 0 -319 158q-44 -76 -131 -117t-199 -41q-132 0 -205 65.5t-73 180.5q0 163 147.5 247.5t417.5 86.5q14 62 39 119q4 74 -37 111.5t-115 37.5q-77 0 -127 -39.5t-65 -113.5l-174 26
q23 96 85 159t138.5 88.5t167.5 25.5q192 0 256 -117q123 117 286 117q90 0 159.5 -28t110.5 -76.5t61 -108t20 -127.5q0 -105 -41 -195h-594q-5 -61 3.5 -115.5t31 -100t66 -72.5t102.5 -27zM930 1083h-162l152 299h245zM819 555h424q10 29 10 78q0 84 -44 138t-132 54
q-97 0 -164 -72t-94 -198zM612 377q0 37 2 55q-171 -5 -268.5 -52.5t-97.5 -143.5q0 -59 34 -91t99 -32q77 0 147 40t99 103q-15 55 -15 121z" />
    <glyph glyph-name="Oslashacute" unicode="&#x1fe;" 
d="M127 -29l-88 82l135 140q-63 111 -63 274q0 176 49 322t134 242t197 148t238 52q205 0 332 -121l117 121l94 -84l-133 -137q63 -120 63 -273q0 -176 -49.5 -322t-134.5 -241t-197 -147t-239 -52q-207 0 -334 121zM1004 723q0 66 -19 131l-606 -625q81 -94 221 -94
q123 0 216.5 82.5t140.5 215t47 290.5zM858 1337h-170l129 252h246zM713 1067q-125 0 -219.5 -83t-140.5 -214.5t-46 -288.5q0 -78 17 -133l606 625q-78 94 -217 94z" />
    <glyph glyph-name="oslashacute" unicode="&#x1ff;" horiz-adv-x="1024" 
d="M573 969q178 0 273 -109l112 107l84 -88l-131 -125q35 -84 35 -193q0 -118 -32.5 -223.5t-93.5 -186.5t-156 -128.5t-211 -47.5q-157 0 -254 88l-99 -92l-86 82l109 107q-45 92 -45 217q0 95 20 182t61 161.5t99.5 130t139 87t175.5 31.5zM668 1083h-162l149 299h248z
M551 817q-84 0 -149.5 -56.5t-99.5 -147.5t-36 -199q0 -65 8 -109l439 428q-55 84 -162 84zM473 119q83 0 147.5 58.5t98 151t35.5 201.5v72l-430 -418q51 -65 149 -65z" />
    <glyph glyph-name="Adoublegrave" unicode="&#x200;" horiz-adv-x="1210" 
d="M885 0l-58 330h-493l-172 -330h-205l651 1206h248l225 -1206h-196zM670 1337h-146l-235 252h229zM971 1337h-140l-210 252h223zM557 758l-143 -273h385q-28 141 -50 288t-31 225.5t-7 78.5h-9q-45 -131 -145 -319z" />
    <glyph glyph-name="edoublegrave" unicode="&#x201;" horiz-adv-x="958" 
d="M469 119q92 0 140.5 37t72.5 116l172 -43q-49 -139 -146 -196.5t-255 -57.5q-176 0 -275.5 109.5t-99.5 294.5q0 139 40.5 253t107.5 186.5t151 111.5t174 39t159 -28t109.5 -76.5t61 -108t20.5 -127.5q0 -102 -41 -195h-600q-6 -61 3 -116t33 -100.5t68.5 -72
t104.5 -26.5zM281 567h428q10 25 10 66q0 84 -44 138t-132 54q-101 0 -167 -72.5t-95 -185.5zM782 1083h-139l-211 299h223zM481 1083h-145l-236 299h230z" />
    <glyph glyph-name="edoublegrave" unicode="&#x205;" horiz-adv-x="958" 
d="M469 119q92 0 140.5 37t72.5 116l172 -43q-49 -139 -146 -196.5t-255 -57.5q-176 0 -275.5 109.5t-99.5 294.5q0 139 40.5 253t107.5 186.5t151 111.5t174 39t159 -28t109.5 -76.5t61 -108t20.5 -127.5q0 -102 -41 -195h-600q-6 -61 3 -116t33 -100.5t68.5 -72
t104.5 -26.5zM281 567h428q10 25 10 66q0 84 -44 138t-132 54q-101 0 -167 -72.5t-95 -185.5zM782 1083h-139l-211 299h223zM481 1083h-145l-236 299h230z" />
    <glyph glyph-name="Ainvertedbreve" unicode="&#x202;" horiz-adv-x="1210" 
d="M885 0l-58 330h-493l-172 -330h-205l651 1206h248l225 -1206h-196zM797 1612q132 0 191.5 -73t35.5 -198h-143q6 67 -18.5 101.5t-90.5 34.5q-68 0 -103.5 -34t-54.5 -102h-145q24 125 109.5 198t218.5 73zM557 758l-143 -273h385q-28 141 -50 288t-31 225.5t-7 78.5h-9
q-45 -131 -145 -319z" />
    <glyph glyph-name="ainvertedbreve" unicode="&#x203;" horiz-adv-x="1093" 
d="M709 395l28 160q12 69 -1 129t-56.5 100.5t-110.5 40.5q-134 0 -219.5 -126.5t-85.5 -317.5q0 -115 49.5 -185.5t141.5 -70.5q99 0 165.5 72t88.5 198zM993 946l-127 -719q-16 -92 54 -92q19 0 61 10l-27 -137q-50 -18 -110 -18q-172 0 -166 168q-40 -93 -114.5 -138
t-168.5 -45q-144 0 -230.5 102t-86.5 285q0 163 56 300.5t163 222t242 84.5q212 0 241 -183l54 160h159zM651 1376q133 0 192.5 -78.5t35.5 -210.5h-146q8 76 -13 114t-93 38q-71 0 -106 -38t-54 -114h-145q24 132 110.5 210.5t218.5 78.5z" />
    <glyph glyph-name="Edoublegrave" unicode="&#x204;" horiz-adv-x="1003" 
d="M848 164l-27 -164h-743l211 1206h743l-28 -164h-551l-62 -356h486l-29 -164h-486l-63 -358h549zM885 1337h-137l-213 252h223zM586 1337h-146l-237 252h231z" />
    <glyph glyph-name="Einvertedbreve" unicode="&#x206;" horiz-adv-x="1003" 
d="M848 164l-27 -164h-743l211 1206h743l-28 -164h-551l-62 -356h486l-29 -164h-486l-63 -358h549zM711 1612q131 0 190 -73t37 -198h-145q8 67 -17 101.5t-92 34.5t-103.5 -34.5t-52.5 -101.5h-145q24 125 109.5 198t218.5 73z" />
    <glyph glyph-name="einvertedbreve" unicode="&#x207;" horiz-adv-x="958" 
d="M469 119q92 0 140.5 37t72.5 116l172 -43q-49 -139 -146 -196.5t-255 -57.5q-176 0 -275.5 109.5t-99.5 294.5q0 139 40.5 253t107.5 186.5t151 111.5t174 39t159 -28t109.5 -76.5t61 -108t20.5 -127.5q0 -102 -41 -195h-600q-6 -61 3 -116t33 -100.5t68.5 -72
t104.5 -26.5zM281 567h428q10 25 10 66q0 84 -44 138t-132 54q-101 0 -167 -72.5t-95 -185.5zM594 1376q133 0 192 -78.5t35 -210.5h-143q7 76 -14.5 114t-92.5 38q-72 0 -107 -38t-54 -114h-144q24 132 110.5 210.5t217.5 78.5z" />
    <glyph glyph-name="Idoublegrave" unicode="&#x208;" horiz-adv-x="509" 
d="M289 1206h192l-211 -1206h-192zM635 1337h-137l-211 252h221zM336 1337h-146l-237 252h231z" />
    <glyph glyph-name="idoublegrave" unicode="&#x209;" horiz-adv-x="518" 
d="M418 946l-127 -719q-16 -92 55 -92q18 0 60 10l-27 -137q-49 -18 -111 -18q-104 0 -144.5 57t-21.5 162l129 737h187zM578 1083h-138l-213 299h224zM276 1083h-145l-235 299h231z" />
    <glyph glyph-name="Iinvertedbreve" unicode="&#x20a;" horiz-adv-x="509" 
d="M289 1206h192l-211 -1206h-192zM461 1612q132 0 191.5 -73t35.5 -198h-145q8 67 -17 101.5t-92 34.5t-101.5 -34t-53.5 -102h-146q24 125 109.5 198t218.5 73z" />
    <glyph glyph-name="iinvertedbreve" unicode="&#x20b;" horiz-adv-x="518" 
d="M418 946l-127 -719q-16 -92 55 -92q18 0 60 10l-27 -137q-49 -18 -111 -18q-104 0 -144.5 57t-21.5 162l129 737h187zM391 1376q133 0 192 -78.5t35 -210.5h-143q7 76 -14 114t-92 38q-72 0 -107.5 -38t-54.5 -114h-144q24 132 110.5 210.5t217.5 78.5z" />
    <glyph glyph-name="Odoublegrave" unicode="&#x20c;" 
d="M582 -25q-222 0 -346.5 134.5t-124.5 357.5q0 176 49 322t134 242t197 148t238 52q223 0 348 -135.5t125 -358.5q0 -176 -49.5 -322t-134.5 -241t-197 -147t-239 -52zM713 1067q-125 0 -219.5 -83t-140.5 -214.5t-46 -288.5q0 -161 76.5 -253.5t216.5 -92.5
q123 0 216.5 82.5t140.5 215t47 290.5q0 154 -72.5 249t-218.5 95zM991 1337h-137l-211 252h221zM692 1337h-145l-238 252h232z" />
    <glyph glyph-name="odoublegrave" unicode="&#x20d;" horiz-adv-x="1024" 
d="M573 969q176 0 274.5 -109t98.5 -299q0 -118 -32.5 -223.5t-93.5 -186.5t-156 -128.5t-211 -47.5q-169 0 -272 105.5t-103 296.5q0 95 20 182t61 161.5t99.5 130t139 87t175.5 31.5zM551 817q-86 0 -152.5 -60t-100.5 -156t-34 -210q0 -132 55.5 -202t153.5 -70
q86 0 151.5 61.5t98.5 159.5t33 213q0 126 -53.5 195t-151.5 69zM813 1083h-137l-213 299h223zM512 1083h-145l-236 299h231z" />
    <glyph glyph-name="Oinvertedbreve" unicode="&#x20e;" 
d="M582 -25q-222 0 -346.5 134.5t-124.5 357.5q0 176 49 322t134 242t197 148t238 52q223 0 348 -135.5t125 -358.5q0 -176 -49.5 -322t-134.5 -241t-197 -147t-239 -52zM713 1067q-125 0 -219.5 -83t-140.5 -214.5t-46 -288.5q0 -161 76.5 -253.5t216.5 -92.5
q123 0 216.5 82.5t140.5 215t47 290.5q0 154 -72.5 249t-218.5 95zM817 1612q132 0 191.5 -73t35.5 -198h-145q8 67 -16.5 101.5t-91.5 34.5t-102 -34t-54 -102h-146q24 125 109.5 198t218.5 73z" />
    <glyph glyph-name="oinvertedbreve" unicode="&#x20f;" horiz-adv-x="1024" 
d="M573 969q176 0 274.5 -109t98.5 -299q0 -118 -32.5 -223.5t-93.5 -186.5t-156 -128.5t-211 -47.5q-169 0 -272 105.5t-103 296.5q0 95 20 182t61 161.5t99.5 130t139 87t175.5 31.5zM551 817q-86 0 -152.5 -60t-100.5 -156t-34 -210q0 -132 55.5 -202t153.5 -70
q86 0 151.5 61.5t98.5 159.5t33 213q0 126 -53.5 195t-151.5 69zM627 1376q132 0 191 -79t34 -210h-143q7 76 -14.5 114t-92.5 38t-107 -38.5t-55 -113.5h-143q24 132 111 210.5t219 78.5z" />
    <glyph glyph-name="Rinvertedbreve" unicode="&#x212;" horiz-adv-x="1120" 
d="M1001 0h-206q-32 34 -45 113l-35 209q-17 101 -59.5 134t-141.5 33h-158l-86 -489h-192l211 1206h413q190 0 272.5 -73t82.5 -220q0 -69 -20 -127t-52.5 -97t-76 -67.5t-89 -42.5t-92.5 -16v-8q85 -12 124 -53.5t56 -136.5l43 -238q13 -74 51 -127zM455 1049l-70 -402
h217q119 0 187.5 58t68.5 180q0 84 -44 124t-144 40h-215zM729 1612q132 0 191.5 -73t35.5 -198h-143q6 67 -18 101.5t-90 34.5q-68 0 -103.5 -34t-54.5 -102h-146q24 125 109.5 198t218.5 73z" />
    <glyph glyph-name="rinvertedbreve" unicode="&#x213;" horiz-adv-x="708" 
d="M752 965l-47 -220q-51 17 -107.5 8.5t-106 -33t-86.5 -75.5t-49 -117l-92 -528h-186l166 946h162l-17 -223q52 121 152 191.5t211 50.5zM551 1376q133 0 192 -78.5t35 -210.5h-145q8 76 -13 114t-94 38q-71 0 -105.5 -38t-53.5 -114h-146q24 132 111 210.5t219 78.5z" />
    <glyph glyph-name="Udoublegrave" unicode="&#x214;" horiz-adv-x="1206" 
d="M1006 1206h192l-143 -817q-20 -116 -66.5 -198.5t-116.5 -128.5t-152 -66.5t-185 -20.5q-79 0 -146 16t-123.5 51.5t-90.5 92t-47.5 136.5t7.5 186l129 749h195l-135 -762q-27 -158 36 -234.5t199 -76.5q132 0 207 69t102 226zM973 1337h-139l-211 252h223zM672 1337
h-146l-235 252h229z" />
    <glyph glyph-name="udoublegrave" unicode="&#x215;" horiz-adv-x="1058" 
d="M651 178q-42 -105 -116 -154t-183 -49q-149 0 -211 93t-32 264l106 614h186l-110 -637q-17 -94 15.5 -145t109.5 -51q89 0 162.5 70t95.5 194l98 569h186l-127 -719q-16 -92 56 -92q17 0 59 10l-26 -137q-50 -18 -111 -18q-95 0 -131 47t-27 141zM827 1083h-137l-211 299
h223zM528 1083h-145l-236 299h230z" />
    <glyph glyph-name="Uinvertedbreve" unicode="&#x216;" horiz-adv-x="1206" 
d="M1006 1206h192l-143 -817q-20 -116 -66.5 -198.5t-116.5 -128.5t-152 -66.5t-185 -20.5q-79 0 -146 16t-123.5 51.5t-90.5 92t-47.5 136.5t7.5 186l129 749h195l-135 -762q-27 -158 36 -234.5t199 -76.5q132 0 207 69t102 226zM799 1612q131 0 190 -73t37 -198h-145
q6 67 -18 101.5t-91 34.5t-103.5 -34.5t-54.5 -101.5h-143q22 125 108.5 198t219.5 73z" />
    <glyph glyph-name="uinvertedbreve" unicode="&#x217;" horiz-adv-x="1058" 
d="M651 178q-42 -105 -116 -154t-183 -49q-149 0 -211 93t-32 264l106 614h186l-110 -637q-17 -94 15.5 -145t109.5 -51q89 0 162.5 70t95.5 194l98 569h186l-127 -719q-16 -92 56 -92q17 0 59 10l-26 -137q-50 -18 -111 -18q-95 0 -131 47t-27 141zM641 1376
q133 0 192 -78.5t35 -210.5h-145q8 75 -13 113.5t-92 38.5q-72 0 -107 -38t-54 -114h-146q25 132 111.5 210.5t218.5 78.5z" />
    <glyph glyph-name="Scommaaccent" unicode="&#x218;" horiz-adv-x="1001" 
d="M37 293l174 43q-1 -108 58.5 -162.5t170.5 -54.5q110 0 172 49t62 147q0 85 -45 133t-164 93q-69 24 -116 49.5t-87.5 63.5t-60 92t-19.5 126q0 78 26 141t67.5 102.5t97 66.5t111 38t112.5 11q185 0 279.5 -76t97.5 -246l-185 -30q3 99 -50.5 150.5t-155.5 51.5
q-99 0 -159.5 -49t-60.5 -135q0 -29 5 -50.5t19.5 -40t28 -31t44 -28t52.5 -24.5t67 -27q74 -30 124 -59.5t88 -71t56 -96t18 -127.5q0 -77 -23.5 -139t-64 -104t-97 -70t-121 -41t-138.5 -13q-377 0 -383 318zM492 -285q0 -110 -76 -166.5t-201 -56.5v76q71 4 111.5 22.5
t40.5 65.5q-55 -10 -89 16.5t-34 79.5q0 52 31.5 80.5t84.5 28.5q57 0 94.5 -38.5t37.5 -107.5z" />
    <glyph glyph-name="scommaaccent" unicode="&#x219;" horiz-adv-x="837" 
d="M33 250l164 41q0 -92 48.5 -138.5t129.5 -46.5q164 0 164 134q0 63 -36 100.5t-130 71.5q-116 41 -172 105t-56 167q0 137 95.5 211t244.5 74q150 0 225.5 -64t75.5 -188l-168 -27q0 70 -38 108t-109 38q-70 0 -112 -34t-42 -95q0 -51 35.5 -84.5t141.5 -75.5
q123 -49 173 -115.5t50 -175.5q0 -141 -93.5 -211t-254.5 -70q-157 0 -245 72t-91 203zM422 -285q0 -110 -76 -166.5t-201 -56.5v76q71 4 111.5 22.5t40.5 65.5q-55 -10 -89 16.5t-34 79.5q0 52 32 80.5t85 28.5q57 0 94 -38.5t37 -107.5z" />
    <glyph glyph-name="Hcaron" unicode="&#x21e;" 
d="M270 0h-192l211 1206h192l-88 -512h570l90 512h192l-211 -1206h-192l92 530h-572zM838 1337h-115l-207 265h193l53 -68q13 -18 21.5 -35.5t10.5 -26.5l3 -8h4q14 29 59 70l78 68h201z" />
    <glyph glyph-name="hcaron" unicode="&#x21f;" horiz-adv-x="1062" 
d="M934 651l-74 -424q-16 -92 55 -92q18 0 60 10l-27 -137q-50 -18 -110 -18q-104 0 -144.5 57t-21.5 162l76 426q16 83 -13.5 130.5t-109.5 47.5q-87 0 -165.5 -72t-105.5 -227l-90 -514h-186l237 1368h191l-111 -614q102 215 305 215q111 0 176.5 -60t65.5 -168
q0 -49 -8 -90zM473 1444h-113l-208 266h192l53 -70q14 -18 22.5 -35t10.5 -25l2 -7h6q13 26 60 67l75 70h203z" />
    <glyph glyph-name="Adotabove" unicode="&#x226;" horiz-adv-x="1210" 
d="M885 0l-58 330h-493l-172 -330h-205l651 1206h248l225 -1206h-196zM635 1489q0 54 35.5 88.5t87.5 34.5q55 0 91 -34t36 -89q0 -52 -36.5 -87.5t-90.5 -35.5q-51 0 -87 35.5t-36 87.5zM557 758l-143 -273h385q-28 141 -50 288t-31 225.5t-7 78.5h-9q-45 -131 -145 -319z
" />
    <glyph glyph-name="adotabove" unicode="&#x227;" horiz-adv-x="1093" 
d="M709 395l28 160q12 69 -1 129t-56.5 100.5t-110.5 40.5q-134 0 -219.5 -126.5t-85.5 -317.5q0 -115 49.5 -185.5t141.5 -70.5q99 0 165.5 72t88.5 198zM993 946l-127 -719q-16 -92 54 -92q19 0 61 10l-27 -137q-50 -18 -110 -18q-172 0 -166 168q-40 -93 -114.5 -138
t-168.5 -45q-144 0 -230.5 102t-86.5 285q0 163 56 300.5t163 222t242 84.5q212 0 241 -183l54 160h159zM502 1247q0 53 35.5 88t87.5 35q54 0 90.5 -34.5t36.5 -88.5q0 -52 -36.5 -87.5t-90.5 -35.5q-51 0 -87 35.5t-36 87.5z" />
    <glyph glyph-name="Otildemacron" unicode="&#x22c;" 
d="M582 -25q-222 0 -346.5 134.5t-124.5 357.5q0 176 49 322t134 242t197 148t238 52q223 0 348 -135.5t125 -358.5q0 -176 -49.5 -322t-134.5 -241t-197 -147t-239 -52zM713 1067q-125 0 -219.5 -83t-140.5 -214.5t-46 -288.5q0 -161 76.5 -253.5t216.5 -92.5
q123 0 216.5 82.5t140.5 215t47 290.5q0 154 -72.5 249t-218.5 95zM881 1262q-35 0 -64.5 9t-40.5 15.5t-45 28.5q-6 4 -19 12.5t-18.5 11.5t-15 9t-15.5 8t-14 5t-15.5 4t-15.5 1q-34 0 -56 -26t-23 -76h-113q-22 105 36 179.5t156 74.5q11 0 21.5 -1t18.5 -2t18 -4t15 -4
t15.5 -6.5t13.5 -6.5t14 -8t12.5 -8t14 -9t13.5 -9q32 -22 44 -29.5t28.5 -13.5t34.5 -6q64 0 73 105h119q19 -111 -34.5 -182.5t-157.5 -71.5zM1069 1571h-541l25 145h541z" />
    <glyph glyph-name="otildemacron" unicode="&#x22d;" horiz-adv-x="1024" 
d="M573 969q176 0 274.5 -109t98.5 -299q0 -118 -32.5 -223.5t-93.5 -186.5t-156 -128.5t-211 -47.5q-169 0 -272 105.5t-103 296.5q0 95 20 182t61 161.5t99.5 130t139 87t175.5 31.5zM551 817q-86 0 -152.5 -60t-100.5 -156t-34 -210q0 -132 55.5 -202t153.5 -70
q86 0 151.5 61.5t98.5 159.5t33 213q0 126 -53.5 195t-151.5 69zM727 1016q-15 0 -28.5 1t-26 4.5t-20.5 5.5t-20.5 9t-16.5 9t-19 11t-18 11q-4 3 -17.5 11.5t-16.5 10.5t-13.5 8.5t-14 8t-12 5t-14 4.5t-12.5 2t-15 1q-33 0 -55 -25t-25 -75h-111q-22 105 36 179.5
t157 74.5q15 0 28.5 -1t27.5 -5.5t21 -6.5t22 -10.5t18 -10.5t20.5 -13.5t18.5 -12.5q4 -3 14 -9.5t13 -8.5t11 -7t11 -6t9 -4.5t9.5 -4.5t9 -3t9.5 -2.5t9 -1t11 -0.5q66 0 74 105h119q17 -111 -37 -182.5t-156 -71.5zM905 1335h-536l26 150h537z" />
    <glyph glyph-name="Odotabove" unicode="&#x22e;" 
d="M582 -25q-222 0 -346.5 134.5t-124.5 357.5q0 176 49 322t134 242t197 148t238 52q223 0 348 -135.5t125 -358.5q0 -176 -49.5 -322t-134.5 -241t-197 -147t-239 -52zM713 1067q-125 0 -219.5 -83t-140.5 -214.5t-46 -288.5q0 -161 76.5 -253.5t216.5 -92.5
q123 0 216.5 82.5t140.5 215t47 290.5q0 154 -72.5 249t-218.5 95zM657 1489q0 54 35.5 88.5t87.5 34.5q55 0 91 -34t36 -89q0 -52 -36.5 -87.5t-90.5 -35.5q-51 0 -87 35.5t-36 87.5z" />
    <glyph glyph-name="odotabove" unicode="&#x22f;" horiz-adv-x="1024" 
d="M573 969q176 0 274.5 -109t98.5 -299q0 -118 -32.5 -223.5t-93.5 -186.5t-156 -128.5t-211 -47.5q-169 0 -272 105.5t-103 296.5q0 95 20 182t61 161.5t99.5 130t139 87t175.5 31.5zM551 817q-86 0 -152.5 -60t-100.5 -156t-34 -210q0 -132 55.5 -202t153.5 -70
q86 0 151.5 61.5t98.5 159.5t33 213q0 126 -53.5 195t-151.5 69zM553 1247q0 53 35.5 88t87.5 35q54 0 90.5 -34.5t36.5 -88.5q0 -52 -36.5 -87.5t-90.5 -35.5q-51 0 -87 35.5t-36 87.5z" />
    <glyph glyph-name="odotabovemacron" unicode="&#x231;" horiz-adv-x="1024" 
d="M573 969q176 0 274.5 -109t98.5 -299q0 -118 -32.5 -223.5t-93.5 -186.5t-156 -128.5t-211 -47.5q-169 0 -272 105.5t-103 296.5q0 95 20 182t61 161.5t99.5 130t139 87t175.5 31.5zM551 817q-86 0 -152.5 -60t-100.5 -156t-34 -210q0 -132 55.5 -202t153.5 -70
q86 0 151.5 61.5t98.5 159.5t33 213q0 126 -53.5 195t-151.5 69zM924 1327h-537l27 150h536zM496 1137q0 53 35 88t87 35q54 0 90.5 -34.5t36.5 -88.5q0 -52 -36.5 -87.5t-90.5 -35.5q-51 0 -86.5 35.5t-35.5 87.5z" />
    <glyph glyph-name="odotabovemacron" unicode="&#xe11e;" horiz-adv-x="1024" 
d="M573 969q176 0 274.5 -109t98.5 -299q0 -118 -32.5 -223.5t-93.5 -186.5t-156 -128.5t-211 -47.5q-169 0 -272 105.5t-103 296.5q0 95 20 182t61 161.5t99.5 130t139 87t175.5 31.5zM551 817q-86 0 -152.5 -60t-100.5 -156t-34 -210q0 -132 55.5 -202t153.5 -70
q86 0 151.5 61.5t98.5 159.5t33 213q0 126 -53.5 195t-151.5 69zM924 1327h-537l27 150h536zM496 1137q0 53 35 88t87 35q54 0 90.5 -34.5t36.5 -88.5q0 -52 -36.5 -87.5t-90.5 -35.5q-51 0 -86.5 35.5t-35.5 87.5z" />
    <glyph glyph-name="Ymacron" unicode="&#x232;" horiz-adv-x="1036" 
d="M367 1206l127 -383q19 -61 31 -118t14 -84l2 -27h8q29 92 115 229l247 383h205l-495 -749l-80 -457h-193l78 457l-260 749h201zM948 1380h-540l26 146h539z" />
    <glyph glyph-name="ymacron" unicode="&#x233;" horiz-adv-x="882" 
d="M283 946l59 -530q10 -81 14 -154.5t3 -107.5l-1 -33h9q28 121 118 295l271 530h196l-563 -1055q-43 -82 -85 -140.5t-79.5 -94t-79.5 -55.5t-79 -26.5t-84 -6.5q-89 0 -154 37l45 143q58 -35 117 -35q74 0 131 53t121 179l-154 1001h195zM786 1143h-536l29 149h534z" />
    <glyph glyph-name="dotlessj" unicode="&#x237;" horiz-adv-x="462" 
d="M418 946l-191 -1085q-28 -161 -110 -227t-217 -66q-55 0 -108 15t-85 38l60 143q63 -51 137 -51q54 0 87.5 35t49.5 123l190 1075h187z" />
    <glyph glyph-name="schwa" unicode="&#x259;" horiz-adv-x="978" 
d="M510 825q-81 0 -133.5 -39t-87.5 -116l-164 45q104 254 401 254q175 0 275 -109t100 -293q0 -144 -40.5 -259.5t-108 -186.5t-151.5 -108.5t-175 -37.5q-90 0 -158.5 28t-109 76.5t-60.5 108t-20 127.5q0 109 41 195h594q5 61 -3.5 115.5t-31 100t-66 72.5t-102.5 27z
M692 377h-424q-8 -27 -8 -66q0 -84 44 -138t132 -54q191 0 256 258z" />
    <glyph glyph-name="ezh" unicode="&#x292;" horiz-adv-x="856" 
d="M240 436l188 203q41 43 80.5 80t58.5 53l19 16l2 9q-70 -6 -193 -6h-260l29 155h676l-23 -123l-414 -413v-7q77 -4 135.5 -31t93.5 -72.5t52.5 -101t17.5 -120.5q0 -95 -38.5 -172t-102 -124t-140 -72t-157.5 -25q-165 0 -248 77t-86 209l158 47q-3 -93 50 -144.5
t136 -51.5q111 0 180.5 66t69.5 182q0 108 -68.5 170.5t-238.5 76.5z" />
    <glyph glyph-name="circumflex" unicode="&#x2c6;" horiz-adv-x="948" 
d="M473 1382h107l204 -301h-182l-57 86q-14 21 -22 40.5t-9 28.5l-2 9h-8q-15 -31 -62 -78l-86 -86h-192z" />
    <glyph glyph-name="caron" unicode="&#x2c7;" horiz-adv-x="948" 
d="M475 1081h-106l-205 301h182l57 -84q14 -21 22 -40t9 -28l2 -9h8q15 30 62 77l86 84h192z" />
    <glyph glyph-name="breve" unicode="&#x2d8;" horiz-adv-x="892" 
d="M399 1079q-133 0 -192 78.5t-35 210.5h145q-8 -75 13 -113t92 -38q73 0 108 37.5t54 113.5h145q-25 -132 -111.5 -210.5t-218.5 -78.5z" />
    <glyph glyph-name="dotaccent" unicode="&#x2d9;" horiz-adv-x="577" 
d="M164 1247q0 53 35.5 88t87.5 35q54 0 90.5 -34.5t36.5 -88.5q0 -52 -36.5 -87.5t-90.5 -35.5q-51 0 -87 35.5t-36 87.5z" />
    <glyph glyph-name="ring" unicode="&#x2da;" horiz-adv-x="735" 
d="M164 1249q0 91 61.5 154t159.5 63q84 0 135 -51.5t51 -128.5q0 -93 -61 -156t-158 -63q-90 0 -139 51t-49 131zM377 1380q-47 0 -80 -36t-33 -84q0 -47 27 -75t74 -28q46 0 77 35.5t31 83.5q0 47 -25.5 75.5t-70.5 28.5z" />
    <glyph glyph-name="ogonek" unicode="&#x2db;" horiz-adv-x="765" 
d="M164 -238q0 75 37.5 140t95 106t121.5 64.5t121 25.5l63 -98q-116 0 -199.5 -59.5t-83.5 -153.5q0 -43 25.5 -68.5t67.5 -25.5q46 0 76 20t55 60l59 -88q-72 -117 -223 -117q-103 0 -159 51t-56 143z" />
    <glyph glyph-name="tilde" unicode="&#x2dc;" horiz-adv-x="987" 
d="M625 1083q-18 0 -34.5 2.5t-26 4.5t-26 9.5t-20 9t-23 13.5t-20.5 13q-4 3 -17.5 11.5t-16.5 10.5t-13.5 8.5t-14 8t-12 5t-14 4.5t-12.5 2t-15 1q-33 0 -54.5 -25.5t-24.5 -75.5h-111q-22 105 35.5 179.5t156.5 74.5q12 0 23 -1t21.5 -3.5t18 -4t18 -6t15.5 -7t15.5 -9
t14 -8.5t15.5 -10l15 -10q60 -39 80 -44q12 -3 27 -3q65 0 73 104h119q17 -111 -36.5 -182.5t-155.5 -71.5z" />
    <glyph glyph-name="hungarumlaut" unicode="&#x2dd;" horiz-adv-x="1009" 
d="M301 1083h-137l127 299h223zM608 1083h-145l151 299h232z" />
    <glyph glyph-name="uni0312" unicode="&#x312;" horiz-adv-x="649" 
d="M164 1479q0 111 75 167t201 56v-76q-45 -2 -75.5 -9t-53 -26.5t-22.5 -50.5q55 9 89 -18t34 -78q0 -52 -32 -80.5t-85 -28.5q-57 0 -94 37.5t-37 106.5z" />
    <glyph glyph-name="uni0320" unicode="&#x320;" horiz-adv-x="890" 
d="M700 -375h-536l26 150h537z" />
    <glyph glyph-name="uni0323" unicode="&#x323;" horiz-adv-x="577" 
d="M164 -244q0 54 35.5 88.5t87.5 34.5q54 0 90.5 -34.5t36.5 -88.5q0 -52 -37 -87.5t-90 -35.5q-51 0 -87 35.5t-36 87.5z" />
    <glyph glyph-name="uni0329" unicode="&#x329;" horiz-adv-x="495" 
d="M164 -403v294h168v-284z" />
    <glyph glyph-name="pi" unicode="&#x3c0;" horiz-adv-x="1280" 
d="M428 985h844l-27 -147h-217l-117 -613q-20 -116 52 -116q35 0 56.5 22t53.5 74l103 -82q-44 -82 -105 -115t-151 -33q-116 0 -163.5 67t-25.5 185l121 611h-254l-244 -838h-184l250 838h-27q-85 0 -136.5 -47.5t-57.5 -139.5h-152q7 164 107 249t274 85z" />
    <glyph glyph-name="pi" unicode="&#x3d6;" horiz-adv-x="1280" 
d="M428 985h844l-27 -147h-217l-117 -613q-20 -116 52 -116q35 0 56.5 22t53.5 74l103 -82q-44 -82 -105 -115t-151 -33q-116 0 -163.5 67t-25.5 185l121 611h-254l-244 -838h-184l250 838h-27q-85 0 -136.5 -47.5t-57.5 -139.5h-152q7 164 107 249t274 85z" />
    <glyph glyph-name="uni0E3F" unicode="&#xe3f;" horiz-adv-x="1024" 
d="M729 508v-6q98 -6 150.5 -61t52.5 -138q0 -80 -30 -139.5t-85.5 -94.5t-128 -52t-164.5 -17h-43l-37 -217h-102l37 217h-318l172 985h320l35 191h102l-35 -191q303 0 303 -223q0 -225 -229 -254zM594 430h-35l-51 -285h20q105 0 163.5 36t58.5 124q0 125 -156 125z
M350 565h131l47 277h-131zM326 430l-50 -285h130l51 285h-131zM774 729q0 107 -143 113l-47 -277q87 0 138.5 40t51.5 124z" />
    <glyph glyph-name="Ddotbelow" unicode="&#x1e0c;" horiz-adv-x="1222" 
d="M299 158h176q98 0 180.5 33.5t147 101t101 179t36.5 257.5q0 320 -336 320h-149zM475 0h-397l211 1206h346q254 0 381 -119t127 -342q0 -158 -38 -285.5t-101.5 -212t-150.5 -141t-181 -81.5t-197 -25zM258 -285q0 53 35.5 88t87.5 35q54 0 90.5 -34.5t36.5 -88.5
q0 -52 -36.5 -87.5t-90.5 -35.5q-51 0 -87 35.5t-36 87.5z" />
    <glyph glyph-name="ddotbelow" unicode="&#x1e0d;" horiz-adv-x="1089" 
d="M711 393l30 162q19 106 -26 187t-146 81q-135 0 -221 -126.5t-86 -317.5q0 -113 49.5 -183.5t141.5 -70.5q101 0 168.5 70.5t89.5 197.5zM1069 1368l-201 -1141q-16 -92 56 -92q17 0 59 10l-27 -137q-50 -18 -110 -18q-169 0 -166 168q-35 -95 -111 -139t-174 -44
q-144 0 -230.5 102t-86.5 285q0 163 56 300.5t163.5 222t243.5 84.5q212 0 241 -183l103 582h184zM279 -285q0 53 35 88t87 35q54 0 90.5 -34.5t36.5 -88.5q0 -52 -36.5 -87.5t-90.5 -35.5q-51 0 -86.5 35.5t-35.5 87.5z" />
    <glyph glyph-name="Dcedilla" unicode="&#x1e10;" horiz-adv-x="1222" 
d="M594 -254q0 -85 -62.5 -131.5t-156.5 -46.5q-126 0 -185 78l50 104q53 -74 127 -74q36 0 57.5 18t21.5 52q0 83 -131 86l66 168h-303l211 1206h346q254 0 381 -119t127 -342q0 -160 -38.5 -288.5t-102.5 -212t-152 -139.5t-182 -80t-199 -25l-35 -84q83 -18 121.5 -57.5
t38.5 -112.5zM299 158h176q98 0 180.5 33.5t147 101t101 179t36.5 257.5q0 320 -336 320h-149z" />
    <glyph glyph-name="dcedilla" unicode="&#x1e11;" horiz-adv-x="1089" 
d="M614 -254q0 -85 -62.5 -131.5t-156.5 -46.5q-122 0 -184 78l49 104q53 -74 127 -74q37 0 58.5 18t21.5 52q0 83 -129 86l53 143q-35 3 -65 9q-116 22 -182 120.5t-66 257.5q0 229 109.5 400.5t289.5 200.5q44 7 82 4q93 -3 150.5 -48.5t72.5 -132.5l103 582h184
l-201 -1141q-16 -92 56 -92q17 0 59 10l-27 -137q-50 -18 -110 -18q-169 0 -166 168q-51 -137 -195 -168l-30 -74q83 -17 121 -57t38 -113zM711 393l30 162q19 106 -26 187t-146 81q-135 0 -221 -126.5t-86 -317.5q0 -113 49.5 -183.5t141.5 -70.5q101 0 168.5 70.5
t89.5 197.5z" />
    <glyph glyph-name="Hdotbelow" unicode="&#x1e24;" 
d="M270 0h-192l211 1206h192l-88 -512h570l90 512h192l-211 -1206h-192l92 530h-572zM379 -285q0 53 35.5 88t87.5 35q54 0 90.5 -34.5t36.5 -88.5q0 -52 -36.5 -87.5t-90.5 -35.5q-51 0 -87 35.5t-36 87.5z" />
    <glyph glyph-name="hdotbelow" unicode="&#x1e25;" horiz-adv-x="1062" 
d="M934 651l-74 -424q-16 -92 55 -92q18 0 60 10l-27 -137q-50 -18 -110 -18q-104 0 -144.5 57t-21.5 162l76 426q16 83 -13.5 130.5t-109.5 47.5q-87 0 -165.5 -72t-105.5 -227l-90 -514h-186l237 1368h191l-111 -614q102 215 305 215q111 0 176.5 -60t65.5 -168
q0 -49 -8 -90zM297 -285q0 53 35.5 88t87.5 35q54 0 90.5 -34.5t36.5 -88.5q0 -52 -36.5 -87.5t-90.5 -35.5q-51 0 -87 35.5t-36 87.5z" />
    <glyph glyph-name="Ldotbelow" unicode="&#x1e36;" horiz-adv-x="944" 
d="M289 1206h192l-182 -1042h535l-27 -164h-729zM276 -285q0 53 35.5 88t87.5 35q54 0 90.5 -34.5t36.5 -88.5q0 -52 -36.5 -87.5t-90.5 -35.5q-51 0 -87 35.5t-36 87.5z" />
    <glyph glyph-name="ldotbelow" unicode="&#x1e37;" horiz-adv-x="512" 
d="M492 1368l-201 -1141q-16 -92 55 -92q18 0 60 10l-27 -137q-49 -18 -111 -18q-104 0 -144.5 57t-21.5 162l203 1159h187zM29 -285q0 53 35.5 88t87.5 35q54 0 90.5 -34.5t36.5 -88.5q0 -52 -36.5 -87.5t-90.5 -35.5q-51 0 -87 35.5t-36 87.5z" />
    <glyph glyph-name="uni004C032300AF" unicode="&#x1e38;" horiz-adv-x="944" 
d="M289 1206h192l-182 -1042h535l-27 -164h-729zM276 -285q0 53 35.5 88t87.5 35q54 0 90.5 -34.5t36.5 -88.5q0 -52 -36.5 -87.5t-90.5 -35.5q-51 0 -87 35.5t-36 87.5zM700 1380h-540l24 146h541z" />
    <glyph glyph-name="ldotbelowmacron" unicode="&#x1e39;" horiz-adv-x="512" 
d="M492 1368l-201 -1141q-16 -92 55 -92q18 0 60 10l-27 -137q-49 -18 -111 -18q-104 0 -144.5 57t-21.5 162l203 1159h187zM29 -285q0 53 35.5 88t87.5 35q54 0 90.5 -34.5t36.5 -88.5q0 -52 -36.5 -87.5t-90.5 -35.5q-51 0 -87 35.5t-36 87.5zM696 1452h-540l24 145h541z
" />
    <glyph glyph-name="Mdotbelow" unicode="&#x1e42;" horiz-adv-x="1433" 
d="M756 295h-125l-148 405q-21 57 -34 112.5t-16 82.5l-3 27h-8q-4 -77 -27 -220l-125 -702h-192l211 1206h215l178 -534q16 -48 26 -92t12 -64l3 -20h8q18 66 92 170l367 540h215l-211 -1206h-195l125 702q10 64 22 119t18 78l7 23h-8q-35 -82 -125 -213zM457 -285
q0 53 35.5 88t87.5 35q54 0 90.5 -34.5t36.5 -88.5q0 -52 -36.5 -87.5t-90.5 -35.5q-51 0 -87 35.5t-36 87.5z" />
    <glyph glyph-name="mdotbelow" unicode="&#x1e43;" horiz-adv-x="1574" 
d="M799 0h-187l113 635q30 178 -121 178q-79 0 -151 -72t-99 -227l-90 -514h-186l166 946h162l-11 -192q53 111 118 163t175 52q105 0 167.5 -61t62.5 -169q47 116 119.5 173t185.5 57q104 0 166.5 -60t62.5 -168q0 -49 -6 -90l-74 -424q-16 -92 53 -92q20 0 62 10l-27 -137
q-50 -18 -110 -18q-206 0 -166 219l76 426q30 178 -121 178q-79 0 -151 -72t-99 -227zM522 -285q0 53 35.5 88t87.5 35q54 0 90.5 -34.5t36.5 -88.5q0 -52 -36.5 -87.5t-90.5 -35.5q-51 0 -87 35.5t-36 87.5z" />
    <glyph glyph-name="Ndotaccent" unicode="&#x1e44;" 
d="M481 1206l316 -678q27 -59 50.5 -122.5t33.5 -97.5l10 -34h8q14 139 41 291l113 641h192l-211 -1206h-186l-324 672q-27 58 -51.5 122t-35.5 99l-11 35h-8q-8 -133 -35 -289l-113 -639h-192l211 1206h192zM659 1489q0 54 35.5 88.5t87.5 34.5q55 0 91 -34t36 -89
q0 -52 -36.5 -87.5t-90.5 -35.5q-51 0 -87 35.5t-36 87.5z" />
    <glyph glyph-name="ndotaccent" unicode="&#x1e45;" horiz-adv-x="1062" 
d="M934 651l-74 -424q-16 -92 55 -92q18 0 60 10l-27 -137q-50 -18 -110 -18q-104 0 -144.5 57t-21.5 162l76 426q16 83 -13.5 130.5t-109.5 47.5q-87 0 -165.5 -72t-105.5 -227l-90 -514h-186l166 946h162l-11 -192q102 215 305 215q111 0 176.5 -60t65.5 -168
q0 -49 -8 -90zM512 1247q0 53 35.5 88t87.5 35q54 0 90.5 -34.5t36.5 -88.5q0 -52 -36.5 -87.5t-90.5 -35.5q-51 0 -87 35.5t-36 87.5z" />
    <glyph glyph-name="Ndotbelow" unicode="&#x1e46;" 
d="M481 1206l316 -678q27 -59 50.5 -122.5t33.5 -97.5l10 -34h8q14 139 41 291l113 641h192l-211 -1206h-186l-324 672q-27 58 -51.5 122t-35.5 99l-11 35h-8q-8 -133 -35 -289l-113 -639h-192l211 1206h192zM356 -285q0 53 35.5 88t87.5 35q54 0 90.5 -34.5t36.5 -88.5
q0 -52 -36.5 -87.5t-90.5 -35.5q-51 0 -87 35.5t-36 87.5z" />
    <glyph glyph-name="ndotbelow" unicode="&#x1e47;" horiz-adv-x="1062" 
d="M934 651l-74 -424q-16 -92 55 -92q18 0 60 10l-27 -137q-50 -18 -110 -18q-104 0 -144.5 57t-21.5 162l76 426q16 83 -13.5 130.5t-109.5 47.5q-87 0 -165.5 -72t-105.5 -227l-90 -514h-186l166 946h162l-11 -192q102 215 305 215q111 0 176.5 -60t65.5 -168
q0 -49 -8 -90zM250 -285q0 53 35.5 88t87.5 35q56 0 92.5 -34.5t36.5 -88.5q0 -53 -37 -88t-92 -35q-51 0 -87 35.5t-36 87.5z" />
    <glyph glyph-name="Rdotbelow" unicode="&#x1e5a;" horiz-adv-x="1120" 
d="M1001 0h-206q-32 34 -45 113l-35 209q-17 101 -59.5 134t-141.5 33h-158l-86 -489h-192l211 1206h413q190 0 272.5 -73t82.5 -220q0 -69 -20 -127t-52.5 -97t-76 -67.5t-89 -42.5t-92.5 -16v-8q85 -12 124 -53.5t56 -136.5l43 -238q13 -74 51 -127zM455 1049l-70 -402
h217q119 0 187.5 58t68.5 180q0 84 -44 124t-144 40h-215zM328 -285q0 53 35.5 88t87.5 35q54 0 90.5 -34.5t36.5 -88.5q0 -52 -36.5 -87.5t-90.5 -35.5q-51 0 -87 35.5t-36 87.5z" />
    <glyph glyph-name="rdotbelow" unicode="&#x1e5b;" horiz-adv-x="708" 
d="M752 965l-47 -220q-51 17 -107.5 8.5t-106 -33t-86.5 -75.5t-49 -117l-92 -528h-186l166 946h162l-17 -223q52 121 152 191.5t211 50.5zM8 -285q0 53 35.5 88t87.5 35q54 0 90.5 -34.5t36.5 -88.5q0 -52 -36.5 -87.5t-90.5 -35.5q-51 0 -87 35.5t-36 87.5z" />
    <glyph glyph-name="Rdotbelowmacron" unicode="&#x1e5c;" horiz-adv-x="1120" 
d="M1001 0h-206q-32 34 -45 113l-35 209q-17 101 -59.5 134t-141.5 33h-158l-86 -489h-192l211 1206h413q190 0 272.5 -73t82.5 -220q0 -69 -20 -127t-52.5 -97t-76 -67.5t-89 -42.5t-92.5 -16v-8q85 -12 124 -53.5t56 -136.5l43 -238q13 -74 51 -127zM455 1049l-70 -402
h217q119 0 187.5 58t68.5 180q0 84 -44 124t-144 40h-215zM328 -285q0 53 35.5 88t87.5 35q54 0 90.5 -34.5t36.5 -88.5q0 -52 -36.5 -87.5t-90.5 -35.5q-51 0 -87 35.5t-36 87.5zM956 1380h-540l26 146h539z" />
    <glyph glyph-name="rdotbelowmacron" unicode="&#x1e5d;" horiz-adv-x="708" 
d="M752 965l-47 -220q-51 17 -107.5 8.5t-106 -33t-86.5 -75.5t-49 -117l-92 -528h-186l166 946h162l-17 -223q52 121 152 191.5t211 50.5zM786 1143h-536l26 149h537zM8 -285q0 53 35.5 88t87.5 35q54 0 90.5 -34.5t36.5 -88.5q0 -52 -36.5 -87.5t-90.5 -35.5
q-51 0 -87 35.5t-36 87.5z" />
    <glyph glyph-name="Sdotbelow" unicode="&#x1e62;" horiz-adv-x="1001" 
d="M37 293l174 43q-1 -108 58.5 -162.5t170.5 -54.5q110 0 172 49t62 147q0 85 -45 133t-164 93q-69 24 -116 49.5t-87.5 63.5t-60 92t-19.5 126q0 78 26 141t67.5 102.5t97 66.5t111 38t112.5 11q185 0 279.5 -76t97.5 -246l-185 -30q3 99 -50.5 150.5t-155.5 51.5
q-99 0 -159.5 -49t-60.5 -135q0 -29 5 -50.5t19.5 -40t28 -31t44 -28t52.5 -24.5t67 -27q74 -30 124 -59.5t88 -71t56 -96t18 -127.5q0 -77 -23.5 -139t-64 -104t-97 -70t-121 -41t-138.5 -13q-377 0 -383 318zM223 -285q0 53 35.5 88t87.5 35q54 0 90.5 -34.5t36.5 -88.5
q0 -52 -36.5 -87.5t-90.5 -35.5q-51 0 -87 35.5t-36 87.5z" />
    <glyph glyph-name="sdotbelow" unicode="&#x1e63;" horiz-adv-x="837" 
d="M33 250l164 41q0 -92 48.5 -138.5t129.5 -46.5q164 0 164 134q0 63 -36 100.5t-130 71.5q-116 41 -172 105t-56 167q0 137 95.5 211t244.5 74q150 0 225.5 -64t75.5 -188l-168 -27q0 70 -38 108t-109 38q-70 0 -112 -34t-42 -95q0 -51 35.5 -84.5t141.5 -75.5
q123 -49 173 -115.5t50 -175.5q0 -141 -93.5 -211t-254.5 -70q-157 0 -245 72t-91 203zM152 -285q0 53 35 88t87 35q54 0 90.5 -34.5t36.5 -88.5q0 -52 -36.5 -87.5t-90.5 -35.5q-51 0 -86.5 35.5t-35.5 87.5z" />
    <glyph glyph-name="Tdotbelow" unicode="&#x1e6c;" horiz-adv-x="985" 
d="M502 0h-193l180 1042h-350l29 164h899l-31 -164h-352zM231 -285q0 53 35.5 88t87.5 35q54 0 90.5 -34.5t36.5 -88.5q0 -52 -36.5 -87.5t-90.5 -35.5q-51 0 -87 35.5t-36 87.5z" />
    <glyph glyph-name="tdotbelow" unicode="&#x1e6d;" horiz-adv-x="647" 
d="M539 180v-155q-86 -50 -203 -50q-132 0 -190.5 74.5t-30.5 229.5l90 520h-131l26 147h133l35 199l189 24l-39 -223h248l-27 -147h-246l-94 -533q-13 -68 10.5 -100.5t69.5 -32.5q76 0 160 47zM106 -285q0 53 35.5 88t87.5 35q54 0 90.5 -34.5t36.5 -88.5
q0 -52 -36.5 -87.5t-90.5 -35.5q-51 0 -87 35.5t-36 87.5z" />
    <glyph glyph-name="Wgrave" unicode="&#x1e80;" horiz-adv-x="1705" 
d="M1079 1206l64 -755q7 -84 9.5 -165.5t1.5 -121.5l-1 -39h8q35 138 109 324l303 757h201l-504 -1206h-269l-61 711q-6 94 -5.5 165t3.5 112l4 42h-8q-29 -133 -109 -319l-305 -711h-264l-59 1206h190l31 -751q3 -83 3.5 -165.5t-0.5 -123.5l-1 -41h8q29 142 111 328
l323 753h217zM1075 1337h-168l-205 252h246z" />
    <glyph glyph-name="wgrave" unicode="&#x1e81;" horiz-adv-x="1384" 
d="M858 946l45 -495q9 -84 10.5 -164t-1.5 -118l-3 -38h9q24 127 106 320l215 495h195l-424 -946h-222l-51 449q-7 80 -8.5 154.5t0.5 109.5l2 35h-8q-31 -117 -111 -299l-194 -449h-221l-99 946h191l41 -495q8 -84 10 -164t0 -118l-2 -38h8q29 134 111 322l221 493h180z
M874 1083h-161l-236 299h246z" />
    <glyph glyph-name="Wacute" unicode="&#x1e82;" horiz-adv-x="1705" 
d="M1079 1206l64 -755q7 -84 9.5 -165.5t1.5 -121.5l-1 -39h8q35 138 109 324l303 757h201l-504 -1206h-269l-61 711q-6 94 -5.5 165t3.5 112l4 42h-8q-29 -133 -109 -319l-305 -711h-264l-59 1206h190l31 -751q3 -83 3.5 -165.5t-0.5 -123.5l-1 -41h8q29 142 111 328
l323 753h217zM1057 1337h-168l127 252h246z" />
    <glyph glyph-name="wacute" unicode="&#x1e83;" horiz-adv-x="1384" 
d="M858 946l45 -495q9 -84 10.5 -164t-1.5 -118l-3 -38h9q24 127 106 320l215 495h195l-424 -946h-222l-51 449q-7 80 -8.5 154.5t0.5 109.5l2 35h-8q-31 -117 -111 -299l-194 -449h-221l-99 946h191l41 -495q8 -84 10 -164t0 -118l-2 -38h8q29 134 111 322l221 493h180z
M844 1083h-162l152 299h247z" />
    <glyph glyph-name="Wdieresis" unicode="&#x1e84;" horiz-adv-x="1705" 
d="M1079 1206l64 -755q7 -84 9.5 -165.5t1.5 -121.5l-1 -39h8q35 138 109 324l303 757h201l-504 -1206h-269l-61 711q-6 94 -5.5 165t3.5 112l4 42h-8q-29 -133 -109 -319l-305 -711h-264l-59 1206h190l31 -751q3 -83 3.5 -165.5t-0.5 -123.5l-1 -41h8q29 142 111 328
l323 753h217zM674 1460q0 53 35.5 88t85.5 35q51 0 85.5 -34.5t34.5 -88.5q0 -52 -34.5 -86.5t-85.5 -34.5q-50 0 -85.5 34.5t-35.5 86.5zM1075 1458q0 53 35.5 88t85.5 35q52 0 86.5 -34.5t34.5 -88.5q0 -51 -35 -86t-86 -35q-50 0 -85.5 35t-35.5 86z" />
    <glyph glyph-name="wdieresis" unicode="&#x1e85;" horiz-adv-x="1384" 
d="M858 946l45 -495q9 -84 10.5 -164t-1.5 -118l-3 -38h9q24 127 106 320l215 495h195l-424 -946h-222l-51 449q-7 80 -8.5 154.5t0.5 109.5l2 35h-8q-31 -117 -111 -299l-194 -449h-221l-99 946h191l41 -495q8 -84 10 -164t0 -118l-2 -38h8q29 134 111 322l221 493h180z
M473 1219q0 53 35.5 87.5t85.5 34.5q52 0 86.5 -34.5t34.5 -87.5q0 -52 -35 -86.5t-86 -34.5q-50 0 -85.5 34.5t-35.5 86.5zM874 1217q0 53 35.5 87.5t85.5 34.5q52 0 87.5 -34.5t35.5 -87.5q0 -51 -36 -86t-87 -35q-50 0 -85.5 35t-35.5 86z" />
    <glyph glyph-name="Idotbelow" unicode="&#x1eca;" horiz-adv-x="509" 
d="M289 1206h192l-211 -1206h-192zM-2 -285q0 53 35.5 88t87.5 35q54 0 90.5 -34.5t36.5 -88.5q0 -52 -36.5 -87.5t-90.5 -35.5q-51 0 -87 35.5t-36 87.5z" />
    <glyph glyph-name="idotbelow" unicode="&#x1ecb;" horiz-adv-x="518" 
d="M418 946l-127 -719q-16 -92 55 -92q18 0 60 10l-27 -137q-49 -18 -111 -18q-104 0 -144.5 57t-21.5 162l129 737h187zM248 1249q0 54 35.5 88.5t87.5 34.5q54 0 90.5 -34.5t36.5 -88.5q0 -52 -37 -87.5t-90 -35.5q-51 0 -87 35.5t-36 87.5zM12 -285q0 53 35.5 88t87.5 35
q56 0 92.5 -34.5t36.5 -88.5q0 -53 -37 -88t-92 -35q-51 0 -87 35.5t-36 87.5z" />
    <glyph glyph-name="Odotbelow" unicode="&#x1ecc;" 
d="M582 -25q-222 0 -346.5 134.5t-124.5 357.5q0 176 49 322t134 242t197 148t238 52q223 0 348 -135.5t125 -358.5q0 -176 -49.5 -322t-134.5 -241t-197 -147t-239 -52zM713 1067q-125 0 -219.5 -83t-140.5 -214.5t-46 -288.5q0 -161 76.5 -253.5t216.5 -92.5
q123 0 216.5 82.5t140.5 215t47 290.5q0 154 -72.5 249t-218.5 95zM354 -285q0 53 35.5 88t87.5 35q54 0 90.5 -34.5t36.5 -88.5q0 -52 -36.5 -87.5t-90.5 -35.5q-51 0 -87 35.5t-36 87.5z" />
    <glyph glyph-name="odotbelow" unicode="&#x1ecd;" horiz-adv-x="1024" 
d="M573 969q176 0 274.5 -109t98.5 -299q0 -118 -32.5 -223.5t-93.5 -186.5t-156 -128.5t-211 -47.5q-169 0 -272 105.5t-103 296.5q0 95 20 182t61 161.5t99.5 130t139 87t175.5 31.5zM551 817q-86 0 -152.5 -60t-100.5 -156t-34 -210q0 -132 55.5 -202t153.5 -70
q86 0 151.5 61.5t98.5 159.5t33 213q0 126 -53.5 195t-151.5 69zM217 -285q0 53 35.5 88t87.5 35q54 0 90.5 -34.5t36.5 -88.5q0 -52 -36.5 -87.5t-90.5 -35.5q-51 0 -87 35.5t-36 87.5z" />
    <glyph glyph-name="Udotbelow" unicode="&#x1ee4;" horiz-adv-x="1206" 
d="M1006 1206h192l-143 -817q-20 -116 -66.5 -198.5t-116.5 -128.5t-152 -66.5t-185 -20.5q-79 0 -146 16t-123.5 51.5t-90.5 92t-47.5 136.5t7.5 186l129 749h195l-135 -762q-27 -158 36 -234.5t199 -76.5q132 0 207 69t102 226zM334 -285q0 53 35.5 88t87.5 35
q54 0 90.5 -34.5t36.5 -88.5q0 -52 -36.5 -87.5t-90.5 -35.5q-51 0 -87 35.5t-36 87.5z" />
    <glyph glyph-name="udotbelow" unicode="&#x1ee5;" horiz-adv-x="1058" 
d="M651 178q-42 -105 -116 -154t-183 -49q-149 0 -211 93t-32 264l106 614h186l-110 -637q-17 -94 15.5 -145t109.5 -51q89 0 162.5 70t95.5 194l98 569h186l-127 -719q-16 -92 56 -92q17 0 59 10l-26 -137q-50 -18 -111 -18q-95 0 -131 47t-27 141zM231 -285q0 53 35.5 88
t87.5 35q54 0 90.5 -34.5t36.5 -88.5q0 -52 -36.5 -87.5t-90.5 -35.5q-51 0 -87 35.5t-36 87.5z" />
    <glyph glyph-name="Ygrave" unicode="&#x1ef2;" horiz-adv-x="1036" 
d="M367 1206l127 -383q19 -61 31 -118t14 -84l2 -27h8q29 92 115 229l247 383h205l-495 -749l-80 -457h-193l78 457l-260 749h201zM762 1337h-170l-205 252h246z" />
    <glyph glyph-name="ygrave" unicode="&#x1ef3;" horiz-adv-x="882" 
d="M283 946l59 -530q10 -81 14 -154.5t3 -107.5l-1 -33h9q28 121 118 295l271 530h196l-563 -1055q-43 -82 -85 -140.5t-79.5 -94t-79.5 -55.5t-79 -26.5t-84 -6.5q-89 0 -154 37l45 143q58 -35 117 -35q74 0 131 53t121 179l-154 1001h195zM610 1083h-161l-236 299h246z
" />
    <glyph glyph-name="Ytilde" unicode="&#x1ef8;" horiz-adv-x="1036" 
d="M367 1206l127 -383q19 -61 31 -118t14 -84l2 -27h8q29 92 115 229l247 383h205l-495 -749l-80 -457h-193l78 457l-260 749h201zM795 1337q-21 0 -38 2t-35.5 10t-24.5 10.5t-28 16.5t-24 15q-32 22 -44 29.5t-31 14.5t-38 7q-34 0 -56 -25.5t-23 -75.5h-113
q-22 103 36 177.5t156 74.5q35 0 65 -9.5t43.5 -17.5t47.5 -30q60 -39 80 -44q12 -3 27 -3q65 0 73 104h119q19 -113 -34.5 -184.5t-157.5 -71.5z" />
    <glyph glyph-name="ytilde" unicode="&#x1ef9;" horiz-adv-x="882" 
d="M283 946l59 -530q10 -81 14 -154.5t3 -107.5l-1 -33h9q28 121 118 295l271 530h196l-563 -1055q-43 -82 -85 -140.5t-79.5 -94t-79.5 -55.5t-79 -26.5t-84 -6.5q-89 0 -154 37l45 143q58 -35 117 -35q74 0 131 53t121 179l-154 1001h195zM659 1083q-18 0 -34.5 2.5
t-26.5 4.5t-25 9.5t-20 9.5t-22.5 13t-20.5 13q-32 22 -44 29.5t-31 14.5t-38 7q-34 0 -56.5 -25.5t-23.5 -75.5h-112q-22 105 36 179.5t156 74.5q12 0 23 -1t21.5 -3.5t18 -4t18 -6t15.5 -7t15.5 -9t14 -8.5t15.5 -10l15 -10q4 -3 14 -9.5t13 -8.5t11 -7t11 -6t9 -4.5
t9.5 -4.5t9 -3t9.5 -2.5t9 -1t11 -0.5q66 0 74 104h119q19 -111 -35 -182.5t-158 -71.5z" />
    <glyph glyph-name="enspace" unicode="&#x2002;" horiz-adv-x="921" 
 />
    <glyph glyph-name="emspace" unicode="&#x2003;" horiz-adv-x="1843" 
 />
    <glyph glyph-name="threeperemspace" unicode="&#x2004;" horiz-adv-x="614" 
 />
    <glyph glyph-name="fourperemspace" unicode="&#x2005;" horiz-adv-x="460" 
 />
    <glyph glyph-name="sixperemspace" unicode="&#x2006;" horiz-adv-x="307" 
 />
    <glyph glyph-name="figurespace" unicode="&#x2007;" horiz-adv-x="1050" 
 />
    <glyph glyph-name="punctuationspace" unicode="&#x2008;" horiz-adv-x="350" 
 />
    <glyph glyph-name="thinspace" unicode="&#x2009;" horiz-adv-x="184" 
 />
    <glyph glyph-name="hairspace" unicode="&#x200a;" horiz-adv-x="92" 
 />
    <glyph glyph-name="zerowidthspace" unicode="&#x200b;" horiz-adv-x="0" 
 />
    <glyph glyph-name="figuredash" unicode="&#x2012;" horiz-adv-x="1167" 
d="M139 451l23 131h866l-22 -131h-867z" />
    <glyph glyph-name="endash" unicode="&#x2013;" horiz-adv-x="1046" 
d="M139 451l23 131h745l-22 -131h-746z" />
    <glyph glyph-name="emdash" unicode="&#x2014;" horiz-adv-x="2070" 
d="M139 451l23 131h1769l-22 -131h-1770z" />
    <glyph glyph-name="uni2015" unicode="&#x2015;" horiz-adv-x="2560" 
d="M143 451l23 131h2251l-23 -131h-2251z" />
    <glyph glyph-name="doublebar" unicode="&#x2016;" horiz-adv-x="804" 
d="M164 -416h-158l313 1786h158zM494 -416h-158l313 1786h158z" />
    <glyph glyph-name="quoteleft" unicode="&#x2018;" horiz-adv-x="464" 
d="M203 1087q0 74 28.5 131.5t78.5 93t111.5 54.5t133.5 23v-89q-87 -10 -151 -49.5t-64 -103.5q63 12 105 -20t42 -93q0 -59 -38 -93t-99 -34q-64 0 -105.5 49t-41.5 131z" />
    <glyph glyph-name="quoteright" unicode="&#x2019;" horiz-adv-x="464" 
d="M506 1208q0 -74 -28 -131t-78 -92.5t-111.5 -54.5t-134.5 -23v88q87 10 152 50t65 104q-64 -12 -106 20.5t-42 92.5t37 93.5t98 33.5q66 0 107 -49t41 -132z" />
    <glyph glyph-name="quotesinglbase" unicode="&#x201a;" horiz-adv-x="464" 
d="M322 55q0 -74 -28.5 -130.5t-78 -91.5t-111.5 -54t-135 -23v88q87 10 152 49t65 103q-65 -11 -106 21.5t-41 93.5q0 59 37 92t98 33q66 0 107 -49t41 -132z" />
    <glyph glyph-name="reversequoteleft" unicode="&#x201b;" horiz-adv-x="385" 
d="M172 1210q0 82 41.5 131.5t105.5 49.5q62 0 100 -33.5t38 -93.5t-42.5 -92.5t-105.5 -20.5q0 -64 64 -104t151 -50v-88q-72 4 -134 23t-111.5 54.5t-78 92.5t-28.5 131z" />
    <glyph glyph-name="quotedblleft" unicode="&#x201c;" horiz-adv-x="849" 
d="M203 1087q0 74 28.5 131.5t78.5 93t111.5 54.5t133.5 23v-89q-87 -10 -151 -49.5t-64 -103.5q63 12 105 -20t42 -93q0 -59 -38 -93t-99 -34q-64 0 -105.5 49t-41.5 131zM588 1087q0 74 28.5 131.5t78.5 93t111.5 54.5t133.5 23v-89q-87 -10 -151 -49.5t-64 -103.5
q63 12 105 -20t42 -93q0 -59 -38 -93t-99 -34q-64 0 -105.5 49t-41.5 131z" />
    <glyph glyph-name="quotedblright" unicode="&#x201d;" horiz-adv-x="849" 
d="M506 1208q0 -74 -28 -131t-78 -92.5t-111.5 -54.5t-134.5 -23v88q87 10 152 50t65 104q-64 -12 -106 20.5t-42 92.5t37 93.5t98 33.5q66 0 107 -49t41 -132zM891 1208q0 -74 -28 -131t-78 -92.5t-111.5 -54.5t-134.5 -23v88q87 10 152 50t65 104q-64 -12 -106 20.5
t-42 92.5t37 93.5t98 33.5q66 0 107 -49t41 -132z" />
    <glyph glyph-name="quotedblbase" unicode="&#x201e;" horiz-adv-x="849" 
d="M322 63q0 -74 -28.5 -131t-78 -92.5t-111.5 -54.5t-135 -23v88q87 10 152 50t65 104q-64 -12 -105.5 20.5t-41.5 92.5t37 93.5t98 33.5q66 0 107 -49t41 -132zM707 63q0 -74 -28.5 -131t-78 -92.5t-111.5 -54.5t-135 -23v88q87 10 152 50t65 104q-64 -12 -105.5 20.5
t-41.5 92.5t37 93.5t98 33.5q66 0 107 -49t41 -132z" />
    <glyph glyph-name="reversequotedblleft" unicode="&#x201f;" horiz-adv-x="722" 
d="M172 1212q0 82 41.5 131.5t105.5 49.5q61 0 99.5 -34t38.5 -93q0 -61 -42.5 -93t-105.5 -20q0 -64 64 -104t151 -50v-88q-72 4 -133.5 23t-111.5 54t-78.5 92.5t-28.5 131.5zM512 1212q0 82 41 131.5t106 49.5q61 0 98.5 -34t37.5 -93q0 -61 -41.5 -93t-106.5 -20
q0 -64 65 -104t152 -50v-88q-154 8 -253 82.5t-99 218.5z" />
    <glyph glyph-name="dagger" unicode="&#x2020;" horiz-adv-x="1118" 
d="M586 590l-389 -23l32 183l381 -21l64 477h194l-104 -477l387 21l-33 -183l-379 23l-137 -895h-194z" />
    <glyph glyph-name="daggerdbl" unicode="&#x2021;" horiz-adv-x="1118" 
d="M745 627l-63 -346l389 22l-31 -180l-378 22l-60 -452h-194l102 452l-391 -22l31 180l380 -22l62 346l-389 -23l33 178l380 -22l58 446h194l-100 -446l387 22l-31 -178z" />
    <glyph glyph-name="bullet" unicode="&#x2022;" horiz-adv-x="661" 
d="M145 498q0 72 51.5 124t122.5 52q73 0 126 -52t53 -124q0 -71 -53 -122.5t-126 -51.5q-71 0 -122.5 52t-51.5 122z" />
    <glyph glyph-name="ellipsis" unicode="&#x2026;" horiz-adv-x="1757" 
d="M94 127q0 60 40 99.5t99 39.5t99.5 -39.5t40.5 -99.5q0 -58 -40.5 -98.5t-99.5 -40.5t-99 40t-40 99zM680 127q0 60 40 99.5t99 39.5t99 -39.5t40 -99.5q0 -59 -40 -99t-99 -40t-99 40t-40 99zM1266 127q0 60 40 99.5t99 39.5t99 -39.5t40 -99.5q0 -59 -40 -99t-99 -40
t-99 40t-40 99z" />
    <glyph glyph-name="perthousand" unicode="&#x2030;" horiz-adv-x="2500" 
d="M334 469q-123 0 -186.5 80t-63.5 219q0 82 22 161.5t62.5 145.5t107 107t148.5 41q118 0 184 -84t66 -224q0 -66 -13 -129t-41 -120.5t-67 -101t-96 -69.5t-123 -26zM410 1094q-49 0 -86 -35t-56 -88.5t-28 -104t-9 -94.5q0 -83 30.5 -133.5t88.5 -50.5q48 0 85 36
t56 90.5t28 105.5t9 95q0 83 -29.5 131t-88.5 48zM397 0l840 1208h133l-838 -1208h-135zM1339 -14q-123 0 -186 80t-63 219q0 82 22 161t62.5 145.5t107 107t148.5 40.5q118 0 183.5 -83.5t65.5 -223.5q0 -66 -13 -129t-41 -120.5t-67 -101t-96 -69.5t-123 -26zM1415 610
q-49 0 -86 -35t-55.5 -88.5t-27.5 -103.5t-9 -94q0 -83 30.5 -134t88.5 -51q48 0 85 36t56 90.5t28 106t9 95.5q0 83 -29.5 130.5t-89.5 47.5zM2077 -14q-123 0 -186.5 80t-63.5 219q0 82 22 161t62.5 145.5t107 107t148.5 40.5q118 0 184 -83.5t66 -223.5q0 -66 -13 -129
t-41 -120.5t-67 -101t-96 -69.5t-123 -26zM2152 610q-49 0 -86 -35t-55.5 -88.5t-27.5 -103.5t-9 -94q0 -83 30.5 -134t88.5 -51q48 0 85 36t56 90.5t28 106t9 95.5q0 83 -29.5 130.5t-89.5 47.5z" />
    <glyph glyph-name="tripleprime" unicode="&#x2034;" horiz-adv-x="976" 
d="M156 844l92 524h201l-179 -524h-114zM459 844l92 524h201l-179 -524h-114zM762 844l92 524h201l-178 -524h-115z" />
    <glyph glyph-name="guilsinglleft" unicode="&#x2039;" horiz-adv-x="663" 
d="M223 479v-8q23 -8 86 -98l172 -238l-119 -92l-303 436l457 436l88 -96l-244 -239q-34 -33 -68 -58t-52 -34z" />
    <glyph glyph-name="guilsinglright" unicode="&#x203a;" horiz-adv-x="663" 
d="M438 479v8q-23 9 -86 97l-170 239l119 92l303 -436l-457 -436l-88 96l244 238q34 34 67.5 59.5t50.5 33.5z" />
    <glyph glyph-name="fraction" unicode="&#x2044;" horiz-adv-x="284" 
d="M-344 0l840 1208h133l-838 -1208h-135z" />
    <glyph glyph-name="uni2070" unicode="&#x2070;" horiz-adv-x="741" 
d="M326 469q-123 0 -186.5 80t-63.5 219q0 82 22 161.5t62.5 145.5t107 107t148.5 41q118 0 184 -84t66 -224q0 -66 -13 -129t-41 -120.5t-67 -101t-96 -69.5t-123 -26zM401 1094q-49 0 -86 -35t-55.5 -88.5t-27.5 -104t-9 -94.5q0 -83 30.5 -133.5t88.5 -50.5q48 0 85 36
t56 90.5t28 105.5t9 95q0 83 -30 131t-89 48z" />
    <glyph glyph-name="uni2074" unicode="&#x2074;" horiz-adv-x="729" 
d="M354 483l31 176h-367l21 111l436 436h154l-76 -436h117l-21 -111h-117l-30 -176h-148zM410 768l28 172q6 36 15 72.5t15 54.5l5 18h-8q-31 -52 -94 -120l-103 -103q-27 -27 -55.5 -50.5t-43.5 -33.5l-15 -10l-2 -8q32 8 116 8h142z" />
    <glyph glyph-name="uni2075" unicode="&#x2075;" horiz-adv-x="673" 
d="M117 801l88 405h430l-21 -121h-313l-45 -192q43 53 133 53q92 0 144.5 -56t52.5 -153q0 -130 -81 -199t-212 -69q-118 0 -182.5 47t-75.5 135l135 43q11 -116 127 -116q69 0 107 38.5t38 112.5q0 56 -28.5 87.5t-71.5 31.5q-37 0 -59.5 -12t-44.5 -35h-121z" />
    <glyph glyph-name="uni2076" unicode="&#x2076;" horiz-adv-x="712" 
d="M676 1083l-121 -61q-18 82 -111 82q-86 0 -151 -82.5t-82 -216.5h8q53 141 207 141q96 0 147.5 -57.5t51.5 -138.5q0 -126 -83.5 -203.5t-217.5 -77.5q-119 0 -183.5 70t-64.5 204q0 142 54.5 253t142.5 169t190 58q175 0 213 -140zM231 682q0 -47 28 -77t79 -30
q61 0 106 42t45 120q0 46 -28.5 74.5t-79.5 28.5q-62 0 -106 -43.5t-44 -114.5z" />
    <glyph glyph-name="uni2077" unicode="&#x2077;" horiz-adv-x="620" 
d="M453 1081h-265l-20 -108h-127l41 233h567l-14 -82l-404 -641h-163z" />
    <glyph glyph-name="uni2078" unicode="&#x2078;" horiz-adv-x="700" 
d="M305 469q-125 0 -190.5 49.5t-65.5 134.5q0 79 53.5 134t133.5 69v8q-111 43 -111 144t84.5 158t204.5 57q114 0 175.5 -47.5t61.5 -126.5q0 -80 -46 -128.5t-122 -64.5v-6q64 -21 95.5 -60t31.5 -102q0 -100 -87.5 -159.5t-217.5 -59.5zM399 1118q-58 0 -95.5 -31.5
t-37.5 -89.5q0 -41 28.5 -65.5t74.5 -24.5q57 0 97 30.5t40 90.5q0 39 -27.5 64.5t-79.5 25.5zM350 803q-60 0 -104.5 -35t-44.5 -96q0 -48 28.5 -75.5t85.5 -27.5q64 0 108 34t44 97q0 47 -30 75t-87 28z" />
    <glyph glyph-name="uni2079" unicode="&#x2079;" horiz-adv-x="712" 
d="M20 608l121 58q17 -80 127 -80q91 0 154.5 76t77.5 229h-8q-46 -146 -195 -146q-103 0 -158 58.5t-55 142.5q0 123 82.5 200t216.5 77q118 0 186 -74t68 -209q0 -217 -103.5 -344t-275.5 -127q-94 0 -157.5 35.5t-80.5 103.5zM477 1010q0 46 -28.5 74t-79.5 28
q-61 0 -105.5 -40.5t-44.5 -113.5q0 -47 27.5 -75.5t79.5 -28.5q63 0 107 42.5t44 113.5z" />
    <glyph glyph-name="uni207A" unicode="&#x207a;" horiz-adv-x="907" 
d="M98 905h314l53 303h94l-55 -303h321l-16 -94h-322l-57 -328h-94l59 328h-313z" />
    <glyph glyph-name="uni207B" unicode="&#x207b;" horiz-adv-x="909" 
d="M809 811h-727l16 94h729z" />
    <glyph glyph-name="uni207C" unicode="&#x207c;" horiz-adv-x="952" 
d="M809 696h-727l16 95h727zM854 944h-727l16 94h727z" />
    <glyph glyph-name="uni207D" unicode="&#x207d;" horiz-adv-x="471" 
d="M350 1303h121q-135 -130 -208 -272.5t-73 -313.5q0 -95 28.5 -174.5t86.5 -169.5h-115q-108 167 -108 344q0 336 268 586z" />
    <glyph glyph-name="uni207E" unicode="&#x207e;" horiz-adv-x="471" 
d="M119 373h-119q135 131 208 272.5t73 312.5q0 95 -29 175.5t-86 169.5h113q110 -164 110 -345q0 -336 -270 -585z" />
    <glyph glyph-name="n.superior" unicode="&#x207f;" horiz-adv-x="800" 
d="M711 1014l-54 -271q-11 -51 31 -51q11 0 55 8l-20 -106q-43 -12 -90 -12q-161 0 -129 153l53 271q17 106 -84 106q-69 0 -120 -44.5t-70 -143.5l-66 -336h-156l125 626h133l-6 -116q65 133 217 133q86 0 135.5 -41t49.5 -117q0 -34 -4 -59z" />
    <glyph glyph-name="uni2080" unicode="&#x2080;" horiz-adv-x="741" 
d="M326 -14q-123 0 -186.5 80t-63.5 219q0 82 22 161t62.5 145.5t107 107t148.5 40.5q118 0 184 -83.5t66 -223.5q0 -66 -13 -129t-41 -120.5t-67 -101t-96 -69.5t-123 -26zM401 610q-49 0 -86 -35t-55.5 -88.5t-27.5 -103.5t-9 -94q0 -83 30.5 -134t88.5 -51q48 0 85 36
t56 90.5t28 106t9 95.5q0 83 -29.5 130.5t-89.5 47.5z" />
    <glyph glyph-name="uni2081" unicode="&#x2081;" horiz-adv-x="602" 
d="M532 0h-530l21 115h200l82 467l-219 -21l20 117l373 47l-106 -610h180z" />
    <glyph glyph-name="uni2082" unicode="&#x2082;" horiz-adv-x="657" 
d="M563 117l-22 -117h-543l20 106q215 122 324 214.5t109 181.5q0 114 -113 114q-60 0 -97 -38.5t-48 -104.5l-115 53q18 96 91 154.5t189 58.5q112 0 177 -55.5t65 -159.5q0 -61 -28.5 -118t-69 -97t-100.5 -78.5t-105.5 -60.5t-101.5 -45v-8h368z" />
    <glyph glyph-name="uni2083" unicode="&#x2083;" horiz-adv-x="634" 
d="M381 377v-6q83 -9 124.5 -54t41.5 -116q0 -104 -83 -159.5t-206 -55.5q-120 0 -181.5 53.5t-68.5 138.5l129 35q12 -121 121 -121q61 0 100 28.5t39 82.5q0 56 -41 85.5t-153 30.5l18 97q215 9 215 125q0 38 -26 60t-72 22q-50 0 -80 -25.5t-45 -79.5l-115 47
q56 174 256 174q102 0 167 -44.5t65 -133.5q0 -77 -53.5 -125.5t-151.5 -58.5z" />
    <glyph glyph-name="uni2084" unicode="&#x2084;" horiz-adv-x="729" 
d="M354 0l31 176h-367l21 111l436 436h154l-76 -436h117l-21 -111h-117l-30 -176h-148zM410 285l28 172q6 36 15 72.5t15 54.5l5 18h-8q-31 -53 -94 -121l-103 -102q-27 -27 -55.5 -50.5t-43.5 -33.5l-15 -10l-2 -9q32 9 116 9h142z" />
    <glyph glyph-name="uni2085" unicode="&#x2085;" horiz-adv-x="673" 
d="M117 317l88 406h430l-21 -121h-313l-45 -192q43 53 133 53q92 0 144.5 -56t52.5 -153q0 -130 -81 -199t-212 -69q-118 0 -182.5 47t-75.5 135l135 43q11 -117 127 -117q69 0 107 39t38 113q0 56 -28.5 87.5t-71.5 31.5q-60 0 -104 -48h-121z" />
    <glyph glyph-name="uni2086" unicode="&#x2086;" horiz-adv-x="712" 
d="M676 600l-121 -61q-18 82 -111 82q-86 0 -150.5 -80.5t-88.5 -227.5h8q24 69 78.5 109.5t134.5 40.5q96 0 147.5 -58t51.5 -139q0 -126 -83.5 -203t-217.5 -77q-119 0 -183.5 69t-64.5 199q0 109 32 201.5t85.5 153.5t123.5 95.5t146 34.5q175 0 213 -139zM227 199
q0 -48 28.5 -77.5t82.5 -29.5q63 0 109.5 42t46.5 120q0 46 -28.5 74t-82.5 28q-64 0 -110 -43t-46 -114z" />
    <glyph glyph-name="uni2087" unicode="&#x2087;" horiz-adv-x="624" 
d="M455 598h-265l-20 -109h-127l41 234h567l-14 -82l-404 -641h-163z" />
    <glyph glyph-name="uni2088" unicode="&#x2088;" horiz-adv-x="700" 
d="M305 -14q-125 0 -190.5 49.5t-65.5 134.5q0 79 53.5 134t133.5 69v8q-111 43 -111 143q0 101 84.5 158t204.5 57q114 0 175.5 -47.5t61.5 -126.5q0 -80 -46 -128t-122 -64v-6q64 -21 95.5 -60t31.5 -102q0 -100 -87.5 -159.5t-217.5 -59.5zM399 635q-58 0 -95.5 -31.5
t-37.5 -89.5q0 -41 28.5 -65.5t74.5 -24.5q57 0 97 30.5t40 90.5q0 39 -27.5 64.5t-79.5 25.5zM350 319q-60 0 -104.5 -35t-44.5 -96q0 -47 28.5 -74.5t85.5 -27.5q64 0 108 34t44 97q0 47 -30 74.5t-87 27.5z" />
    <glyph glyph-name="uni2089" unicode="&#x2089;" horiz-adv-x="712" 
d="M20 125l121 57q9 -41 44 -61.5t85 -20.5q91 0 153.5 76.5t80.5 233.5h-8q-47 -148 -199 -148q-103 0 -158 58.5t-55 142.5q0 123 82 199.5t217 76.5q118 0 186 -73.5t68 -208.5q0 -217 -103.5 -344t-275.5 -127q-94 0 -157.5 35.5t-80.5 103.5zM483 528q0 47 -29.5 76
t-82.5 29q-63 0 -108.5 -41.5t-45.5 -120.5q0 -45 29 -73.5t82 -28.5q63 0 109 43.5t46 115.5z" />
    <glyph glyph-name="uni208A" unicode="&#x208a;" horiz-adv-x="907" 
d="M98 422h314l53 303h94l-55 -303h321l-16 -94h-322l-57 -328h-94l59 328h-313z" />
    <glyph glyph-name="uni208B" unicode="&#x208b;" horiz-adv-x="909" 
d="M809 328h-727l16 94h729z" />
    <glyph glyph-name="uni208C" unicode="&#x208c;" horiz-adv-x="952" 
d="M809 213h-727l16 94h727zM854 461h-727l16 94h727z" />
    <glyph glyph-name="uni208D" unicode="&#x208d;" horiz-adv-x="471" 
d="M350 819h121q-135 -130 -208 -272.5t-73 -313.5q0 -95 28.5 -174.5t86.5 -169.5h-115q-108 167 -108 344q0 336 268 586z" />
    <glyph glyph-name="uni208E" unicode="&#x208e;" horiz-adv-x="471" 
d="M119 -111h-119q135 130 208 272.5t73 313.5q0 95 -28.5 174.5t-86.5 169.5h113q110 -164 110 -344q0 -337 -270 -586z" />
    <glyph glyph-name="uni20A1" unicode="&#x20a1;" horiz-adv-x="1013" 
d="M416 -188l57 163q-41 3 -94 17l-55 -162l-97 35l56 166q-88 51 -136.5 143t-48.5 219q0 172 59 306.5t177.5 217t283.5 93.5l60 172l96 -33l-51 -145q32 -4 94 -25l51 149l97 -32l-62 -176q64 -55 90 -158l-170 -74l-184 -545q96 31 160 148l133 -96
q-63 -101 -147 -151.5t-203 -61.5l-68 -203zM432 143q40 -18 92 -18l234 680q-35 35 -86 47zM283 412q0 -125 61 -205l221 647q-124 -22 -203 -146t-79 -296z" />
    <glyph glyph-name="uni20A2" unicode="&#x20a2;" horiz-adv-x="1011" 
d="M893 565l-35 -155q-52 13 -105 0t-95.5 -55.5t-53.5 -106.5l-22 -127q133 22 217 172l131 -92q-74 -119 -175 -172.5t-253 -53.5q-182 0 -293 111.5t-111 306.5q0 130 36 242t103.5 195.5t171 131.5t230.5 48q289 0 352 -246l-168 -78q-13 86 -66 131t-139 45
q-146 0 -239.5 -129t-93.5 -321q0 -103 38.5 -174.5t110.5 -100.5l72 414h135l-12 -162q37 88 109.5 139.5t154.5 36.5z" />
    <glyph glyph-name="franc" unicode="&#x20a3;" horiz-adv-x="921" 
d="M698 307h-315l-51 -307h-191l54 307h-154l18 103h154l18 102h-153l18 102h152l65 371h666l-27 -156h-475l-39 -215h316l-19 -102h-315l-19 -102h316z" />
    <glyph glyph-name="lira" unicode="&#x20a4;" horiz-adv-x="1005" 
d="M735 315h-284q-15 -59 -52.5 -102t-83.5 -57h347q37 0 64 6t56.5 29.5t46.5 64.5l123 -74q-33 -88 -109.5 -135t-183.5 -47h-636l26 160h96q52 0 98 46.5t52 108.5h-213l18 105h187q-1 11 -21 92h-147l18 104h115q-2 18 -2 64q0 70 22 127t58 94t84.5 62t99 36t104.5 11
q151 0 235.5 -68.5t84.5 -206.5l-174 -28q-3 155 -164 155q-82 0 -129 -45.5t-47 -140.5q0 -42 2 -60h365l-19 -104h-326q1 -9 7 -41.5t6 -50.5h295z" />
    <glyph glyph-name="uni20A6" unicode="&#x20a6;" horiz-adv-x="1386" 
d="M1309 520h-189l-16 -90h188l-18 -102h-189l-55 -328h-190l-254 498q-29 55 -56.5 119.5t-39.5 101.5l-13 37h-8q-12 -164 -39 -322l-76 -434h-188l57 328h-174l19 102h174l16 90h-174l18 103h172l64 362h205l252 -510q27 -55 49 -111t30 -85l9 -29h8q22 155 49 307
l74 428h188l-65 -362h190z" />
    <glyph glyph-name="peseta" unicode="&#x20a7;" horiz-adv-x="2224" 
d="M1391 250l155 41q1 -90 59 -139.5t142 -49.5q192 0 192 152q0 65 -35.5 102.5t-144.5 75.5q-108 35 -164 86t-69 127h-223l-113 -645h-191l113 645h-188q-8 -97 -47 -167.5t-102 -111t-139.5 -59t-170.5 -18.5h-164l-51 -289h-189l172 985h334q291 0 348 -184h619
q16 53 50.5 94t81.5 65.5t100.5 37t111.5 12.5q169 0 253.5 -68.5t84.5 -198.5l-166 -32q2 76 -42.5 119.5t-135.5 43.5q-82 0 -131 -37.5t-49 -103.5q0 -61 37 -93t155 -75q135 -50 184.5 -116t49.5 -173q0 -151 -103 -226t-278 -75q-164 0 -254 73t-92 202zM397 834
l-69 -394h149q127 0 193.5 57.5t66.5 184.5q0 152 -180 152h-160z" />
    <glyph glyph-name="uni20A8" unicode="&#x20a8;" horiz-adv-x="1611" 
d="M395 834l-55 -316h184q109 0 164 44.5t55 146.5q0 125 -147 125h-201zM1163 -25q-134 0 -227 43t-174 129l-88 97q-4 4 -19.5 22t-20 22.5t-18.5 19t-21.5 19t-22 15t-26.5 14t-28.5 9t-34.5 7t-39 1.5h-129l-65 -373h-189l172 985h392q311 0 311 -256q0 -72 -24 -127.5
t-66 -89t-93 -51t-110 -19.5v-8q22 -1 40.5 -4.5t36 -12.5t28 -14t28 -21.5t23.5 -22.5t27.5 -29.5t27.5 -30.5l92 -96q107 -113 228 -113q145 0 145 92q0 47 -25.5 75t-93.5 54q-102 41 -145 93.5t-43 136.5q0 77 42.5 132t105 79t136.5 24q258 0 258 -196l-155 -29
q0 102 -115 102q-56 0 -87.5 -26t-31.5 -70q0 -41 27.5 -66t116.5 -63q93 -39 132.5 -89t39.5 -132q0 -119 -87 -175.5t-231 -56.5z" />
    <glyph glyph-name="uni20A9" unicode="&#x20a9;" horiz-adv-x="1703" 
d="M1642 555h-219l-37 -88h240l-16 -105h-269l-153 -362h-227l-56 535q-7 69 -8 138.5t1 104.5l3 35h-6q-22 -124 -92 -278l-238 -535h-231l-21 362h-258l17 105h235l-4 88h-215l18 104h191l-18 326h184l24 -582q2 -75 0.5 -136.5t-5.5 -101.5l-3 -40h6q29 118 97 270
l256 590h192l53 -590q6 -68 7 -135.5t-1 -101.5l-2 -33h7q16 120 82 272l245 588h187l-140 -326h193z" />
    <glyph glyph-name="uni20AA" unicode="&#x20aa;" horiz-adv-x="1413" 
d="M913 254h-178l76 440q12 67 -13.5 105.5t-109.5 38.5h-291l-147 -838h-189l172 985h515q88 0 143.5 -22.5t78 -64t27 -98.5t-9.5 -126zM1178 985h188l-119 -674q-13 -75 -34.5 -128t-60 -96.5t-101.5 -65t-152 -21.5h-516l127 729h178l-102 -582h299q147 0 172 142z" />
    <glyph glyph-name="Euro" unicode="&#x20ac;" horiz-adv-x="1114" 
d="M743 559h-340q-14 -68 -14 -123h320l-39 -104h-273q15 -97 76.5 -152t159.5 -55q80 0 143 42t115 132l141 -96q-74 -118 -175.5 -173t-250.5 -55q-166 0 -273 95t-126 262h-166l18 104h146q3 68 14 123h-139l20 103h150q57 161 184 254.5t309 93.5q291 0 355 -248
l-176 -80q-13 85 -66 129.5t-137 44.5q-91 0 -163 -51.5t-114 -142.5h340z" />
    <glyph glyph-name="uni20AE" unicode="&#x20ae;" horiz-adv-x="940" 
d="M784 559l-227 -37l-18 -102l227 39l-18 -105l-228 -37l-55 -317h-189l50 285l-224 -37l19 104l223 37l16 100l-221 -36l19 104l221 37l43 235h-332l27 156h858l-27 -156h-338l-35 -204l228 39z" />
    <glyph glyph-name="uni20B1" unicode="&#x20b1;" horiz-adv-x="1185" 
d="M317 0h-188l100 582h-151l18 104h152l53 299h334q184 0 272 -73t88 -226h174l-18 -104h-170q-16 -79 -57.5 -137t-102.5 -91.5t-132.5 -49t-156.5 -15.5h-163zM545 436q202 0 246 146h-371l-25 -146h150zM465 838l-27 -152h367q-3 152 -180 152h-160z" />
    <glyph glyph-name="afii61289" unicode="&#x2113;" horiz-adv-x="688" 
d="M80 262l-62 100l136 95v491q0 219 71 320.5t211 101.5q215 0 215 -260q0 -115 -28 -224t-76.5 -197.5t-104 -158t-118.5 -124.5v-119q0 -89 32 -123.5t105 -34.5q60 0 119 25l-2 -154q-77 -25 -156 -25q-268 0 -268 261v81zM324 985v-426q90 86 150.5 234.5t60.5 328.5
q0 129 -91 129q-57 0 -88.5 -66.5t-31.5 -199.5z" />
    <glyph glyph-name="afii61352" unicode="&#x2116;" horiz-adv-x="2183" 
d="M1391 0l26 143h664l-27 -143h-663zM1853 973q126 0 197.5 -73.5t71.5 -199.5q0 -106 -40.5 -193t-122 -140.5t-190.5 -53.5q-123 0 -198.5 70.5t-75.5 198.5q0 164 95.5 277.5t262.5 113.5zM1835 844q-83 0 -132.5 -73t-49.5 -177q0 -77 34 -116.5t95 -39.5
q82 0 130 73.5t48 178.5q0 74 -32.5 114t-92.5 40zM1339 967l-168 -967h-188l-321 672q-27 58 -52.5 122t-37.5 99l-11 35h-8q-6 -133 -35 -289l-74 -430q-25 -133 -89 -183.5t-177 -50.5q-109 0 -174 52l43 155q56 -47 111 -47q42 0 64.5 19.5t31.5 72.5l170 979h194
l314 -678q27 -59 50.5 -122.5t33.5 -97.5l10 -34h8q14 139 41 291l76 432q23 132 89 183t175 51q110 0 176 -51l-47 -168q-55 49 -108 49q-43 0 -65.5 -20.5t-31.5 -73.5z" />
    <glyph glyph-name="published" unicode="&#x2117;" horiz-adv-x="1429" 
d="M688 870l-51 -299h108q96 0 146.5 43.5t50.5 141.5q0 114 -137 114h-117zM578 229h-156l135 764h260q281 0 281 -223q0 -87 -28 -150.5t-79 -99.5t-114 -52.5t-142 -16.5h-119zM113 602q0 179 84 323.5t227 225t315 80.5q128 0 244 -47.5t200.5 -129.5t134.5 -200
t50 -252t-50 -251.5t-134.5 -199.5t-200.5 -129t-244 -47t-243.5 47t-199.5 129t-133.5 199.5t-49.5 251.5zM176 602q0 -122 44.5 -228.5t121 -180t180.5 -116t219 -42.5q155 0 284 71.5t205.5 202.5t76.5 293t-76.5 293.5t-205.5 203.5t-284 72q-115 0 -219 -42.5
t-180.5 -117t-121 -181t-44.5 -228.5z" />
    <glyph glyph-name="servicemark" unicode="&#x2120;" horiz-adv-x="1265" 
d="M100 836l107 20q1 -41 28.5 -62.5t71.5 -21.5q94 0 94 64q0 29 -20.5 46.5t-77.5 37.5q-76 24 -107.5 56t-31.5 91q0 42 18.5 73.5t49.5 49.5t66.5 26.5t74.5 8.5q188 0 188 -148l-115 -14q0 38 -23 58t-63 20q-34 0 -56.5 -16.5t-22.5 -47.5q0 -25 21 -40.5t83 -35.5
q70 -22 104.5 -57.5t34.5 -89.5q0 -82 -62 -121t-163 -39q-196 0 -199 142zM1163 698h-114l65 334h-10l-146 -231h-94l-59 231h-10l-64 -334h-115l97 508h143l74 -274h8l176 274h148z" />
    <glyph glyph-name="trademark" unicode="&#x2122;" horiz-adv-x="1239" 
d="M328 698h-115l80 410h-150l19 98h413l-18 -98h-149zM1139 698h-115l63 334h-10l-143 -231h-96l-58 231h-10l-65 -334h-115l98 508h141l76 -274h6l179 274h145z" />
    <glyph glyph-name="estimated" unicode="&#x212e;" horiz-adv-x="1325" 
d="M662 1231q145 0 257.5 -53t179.5 -143t100.5 -199.5t33.5 -233.5v-53h-883v-346q122 -119 312 -119q264 0 376 213h136q-62 -149 -190.5 -235.5t-321.5 -86.5q-116 0 -211.5 35t-161 94.5t-111 140t-66 170.5t-20.5 187q0 98 21 188t66 171t110.5 140.5t161 94.5
t211.5 35zM662 1122q-194 0 -312 -118v-349h623v349q-118 118 -311 118z" />
    <glyph glyph-name="uni2153" unicode="&#x2153;" horiz-adv-x="1759" 
d="M584 483h-514l20 115h184l82 467l-219 -21l21 117l372 47l-106 -610h180zM393 0l840 1208h133l-838 -1208h-135zM1403 377v-6q83 -9 124.5 -54t41.5 -116q0 -104 -83 -159.5t-206 -55.5q-120 0 -181.5 53.5t-68.5 138.5l129 35q12 -121 121 -121q61 0 100 28.5t39 82.5
q0 56 -41 85.5t-153 30.5l18 97q215 9 215 125q0 38 -26 60t-72 22q-50 0 -80 -25.5t-45 -79.5l-115 47q56 174 256 174q102 0 167 -44.5t65 -133.5q0 -77 -53.5 -125.5t-151.5 -58.5z" />
    <glyph glyph-name="uni2154" unicode="&#x2154;" horiz-adv-x="1759" 
d="M588 600l-23 -117h-542l20 107q105 59 177 106t133.5 97.5t91.5 98t30 93.5q0 115 -113 115q-60 0 -97 -38.5t-48 -105.5l-115 54q18 96 91.5 154.5t189.5 58.5q112 0 177 -55.5t65 -159.5q0 -45 -15 -87t-38.5 -75.5t-59 -65.5t-69.5 -55.5t-77.5 -47t-75.5 -38.5
t-71 -31v-8h369zM393 0l840 1208h133l-838 -1208h-135zM1403 377v-6q83 -9 124.5 -54t41.5 -116q0 -104 -83 -159.5t-206 -55.5q-120 0 -181.5 53.5t-68.5 138.5l129 35q12 -121 121 -121q61 0 100 28.5t39 82.5q0 56 -41 85.5t-153 30.5l18 97q215 9 215 125q0 38 -26 60
t-72 22q-50 0 -80 -25.5t-45 -79.5l-115 47q56 174 256 174q102 0 167 -44.5t65 -133.5q0 -77 -53.5 -125.5t-151.5 -58.5z" />
    <glyph glyph-name="uni215B" unicode="&#x215b;" horiz-adv-x="1759" 
d="M584 483h-514l20 115h184l82 467l-219 -21l21 117l372 47l-106 -610h180zM393 0l840 1208h133l-838 -1208h-135zM1327 -14q-125 0 -190.5 49.5t-65.5 134.5q0 79 53 134t133 69v8q-110 42 -110 143t84.5 158t204.5 57q114 0 175.5 -47.5t61.5 -126.5q0 -80 -46 -128
t-122 -64v-6q64 -21 95.5 -60t31.5 -102q0 -100 -87.5 -159.5t-217.5 -59.5zM1421 635q-58 0 -95.5 -31.5t-37.5 -89.5q0 -41 28.5 -65.5t74.5 -24.5q57 0 97 30.5t40 90.5q0 39 -27.5 64.5t-79.5 25.5zM1372 319q-60 0 -104.5 -35t-44.5 -96q0 -47 28.5 -74.5t85.5 -27.5
q64 0 108 34t44 97q0 47 -30 74.5t-87 27.5z" />
    </font>
</defs>
</svg>
