<?xml version="1.0" standalone="no"?>
<!DOCTYPE svg PUBLIC "-//W3C//DTD SVG 1.1//EN" "http://www.w3.org/Graphics/SVG/1.1/DTD/svg11.dtd" >
<svg xmlns="http://www.w3.org/2000/svg" xmlns:xlink="http://www.w3.org/1999/xlink" version="1.1">
<metadata>
Created by FontForge 20170731 at Fri Sep 17 22:21:31 2021
 By Aleksey,,,
Copyright (c) 2004-9 by Kris Sowersby. All rights reserved.
</metadata>
<defs>
<font id="National-Medium" horiz-adv-x="1110" >
  <font-face 
    font-family="National Medium"
    font-weight="600"
    font-stretch="normal"
    units-per-em="2048"
    panose-1="2 0 5 3 0 0 0 2 0 4"
    ascent="1638"
    descent="-410"
    x-height="946"
    cap-height="1206"
    bbox="-217 -526 2433 2019"
    underline-thickness="116"
    underline-position="-173"
    unicode-range="U+0020-F778"
  />
<missing-glyph horiz-adv-x="1546" 
d="M170 0v1206h1206v-1206h-1206zM772 541l-453 -453h908zM319 1118l453 -454l455 454h-908zM834 602l454 -452v907zM711 602l-453 455v-907z" />
    <glyph glyph-name="f_b" unicode="fb" horiz-adv-x="1665" 
d="M842 0h-144v1169q-76 45 -157 45q-162 0 -162 -174v-94h194v-168h-194v-778h-215v778h-137v168h137v90q0 75 20.5 135.5t54.5 99t80.5 64.5t96 36.5t104.5 10.5q117 0 207 -41l184 27v-600q35 101 117.5 151t188.5 50q174 0 271 -123.5t97 -349.5q0 -229 -108 -375
t-295 -146q-116 0 -187 45t-98 117zM911 541v-168q0 -62 19 -110t51 -75.5t68 -41t75 -13.5q106 0 175 88.5t69 255.5q0 159 -58.5 238.5t-164.5 79.5q-98 0 -166 -69t-68 -185z" />
    <glyph glyph-name="f_f_b" unicode="ffb" horiz-adv-x="2197" 
d="M1444 541v-168q0 -120 65 -180t148 -60q106 0 175 88.5t69 255.5q0 159 -59 238.5t-165 79.5q-98 0 -165.5 -69t-67.5 -185zM1446 1368v-600q34 101 115.5 151t187.5 50q174 0 271.5 -123.5t97.5 -349.5q0 -149 -47 -266.5t-139.5 -186t-217.5 -68.5q-116 0 -186.5 45
t-97.5 117l-54 -137h-145v1169q-76 45 -158 45q-162 0 -162 -174v-94h197v-168h-197v-778h-213v778h-319v-778h-215v778h-137v168h137v88q0 91 27.5 157.5t74.5 102.5t101 53t116 17t99 -8t80 -29l-37 -182q-58 39 -123 39q-123 0 -123 -150v-88h319v90q0 93 30.5 163
t82.5 108.5t112.5 56.5t129.5 18q120 0 207 -41z" />
    <glyph glyph-name="f_f_h" unicode="ffh" horiz-adv-x="2150" 
d="M1446 1368v-602q67 203 289 203q124 0 204 -73.5t80 -221.5v-674h-215v604q0 182 -153 182q-90 0 -147.5 -57.5t-57.5 -191.5v-537h-215v1169q-76 45 -158 45q-162 0 -162 -174v-94h197v-168h-197v-778h-213v778h-319v-778h-215v778h-137v168h137v88q0 91 27.5 157.5
t74.5 102.5t101 53t116 17t99 -8t80 -29l-37 -182q-58 39 -123 39q-123 0 -123 -150v-88h319v90q0 93 30.5 163t82.5 108.5t112.5 56.5t129.5 18q120 0 207 -41z" />
    <glyph glyph-name="f_f_j" unicode="ffj" horiz-adv-x="1587" 
d="M911 778v-778h-213v778h-319v-778h-215v778h-137v168h137v88q0 91 27.5 157.5t74.5 102.5t101 53t116 17t99 -8t80 -29l-37 -182q-58 39 -123 39q-123 0 -123 -150v-88h319v82q0 79 22.5 141t58.5 101.5t86 65t101 36t107 10.5q159 0 270 -67l-75 -174q-82 61 -187 61
q-170 0 -170 -180v-76h535v-952q0 -433 -481 -410v183q138 -15 202 38.5t64 196.5v776h-320z" />
    <glyph glyph-name="f_f_k" unicode="ffk" horiz-adv-x="2082" 
d="M1446 1368v-788h47l289 366h256l-363 -440l393 -506h-258l-309 412h-55v-412h-215v1169q-76 45 -158 45q-162 0 -162 -174v-94h197v-168h-197v-778h-213v778h-319v-778h-215v778h-137v168h137v88q0 91 27.5 157.5t74.5 102.5t101 53t116 17t99 -8t80 -29l-37 -182
q-58 39 -123 39q-123 0 -123 -150v-88h319v90q0 93 30.5 163t82.5 108.5t112.5 56.5t129.5 18q120 0 207 -41z" />
    <glyph glyph-name="f_h" unicode="fh" horiz-adv-x="1615" 
d="M911 1368v-602q70 203 291 203q123 0 203 -73.5t80 -221.5v-674h-213v604q0 182 -154 182q-42 0 -77.5 -12t-65.5 -39.5t-47 -77.5t-17 -120v-537h-213v1169q-76 45 -157 45q-162 0 -162 -174v-94h194v-168h-194v-778h-215v778h-137v168h137v90q0 75 20.5 135.5t54.5 99
t80.5 64.5t96 36.5t104.5 10.5q117 0 207 -41z" />
    <glyph glyph-name="f_j" unicode="fj" horiz-adv-x="1052" 
d="M698 2v776h-319v-778h-215v778h-137v168h137v82q0 97 33.5 169t90 110.5t119.5 56.5t134 18q160 0 268 -67l-74 -174q-82 61 -186 61q-170 0 -170 -180v-76h532v-952q0 -433 -479 -410v183q138 -15 202 38.5t64 196.5z" />
    <glyph glyph-name="f_k" unicode="fk" horiz-adv-x="1550" 
d="M911 1368v-788h50l288 366h256l-364 -440l395 -506h-258l-309 412h-58v-412h-213v1169q-76 45 -157 45q-162 0 -162 -174v-94h194v-168h-194v-778h-215v778h-137v168h137v90q0 75 20.5 135.5t54.5 99t80.5 64.5t96 36.5t104.5 10.5q117 0 207 -41z" />
    <glyph glyph-name="ff" unicode="ff" horiz-adv-x="1138" 
d="M698 778h-319v-778h-215v778h-137v168h137v88q0 91 27.5 157.5t74.5 102.5t101 53t116 17t99 -8t80 -29l-37 -182q-58 39 -123 39q-123 0 -123 -150v-88h319v94q0 92 28.5 160.5t78 107t108 56.5t127.5 18q114 0 209 -36l-39 -193q-73 45 -149 45q-150 0 -150 -170v-82
h242v-168h-242v-778h-213v778z" />
    <glyph glyph-name="ffi" unicode="ffi" horiz-adv-x="1587" 
d="M698 946v82q0 79 22.5 141t58.5 101.5t86 65t101 36t107 10.5q159 0 270 -67l-75 -174q-82 61 -187 61q-170 0 -170 -180v-76h535v-946h-215v778h-320v-778h-213v778h-319v-778h-215v778h-137v168h137v88q0 91 27.5 157.5t74.5 102.5t101 53t116 17t99 -8t80 -29
l-37 -182q-58 39 -123 39q-123 0 -123 -150v-88h319z" />
    <glyph glyph-name="ffl" unicode="ffl" horiz-adv-x="1656" 
d="M698 946v90q0 93 30.5 163t82.5 108.5t112.5 56.5t129.5 18q120 0 207 -41l186 27v-1116q0 -82 84 -82q29 0 67 10l-6 -178q-77 -18 -129 -18q-101 0 -166 54t-65 163v968q-76 45 -158 45q-162 0 -162 -174v-94h197v-168h-197v-778h-213v778h-319v-778h-215v778h-137v168
h137v88q0 91 27.5 157.5t74.5 102.5t101 53t116 17t99 -8t80 -29l-37 -182q-58 39 -123 39q-123 0 -123 -150v-88h319z" />
    <glyph glyph-name="fi" unicode="fi" horiz-adv-x="1052" 
d="M164 778h-137v168h137v82q0 97 33.5 169t90 110.5t119.5 56.5t134 18q160 0 268 -67l-74 -174q-82 61 -186 61q-170 0 -170 -180v-76h532v-946h-213v778h-319v-778h-215v778z" />
    <glyph glyph-name="fl" unicode="fl" horiz-adv-x="1124" 
d="M1065 180l-6 -178q-77 -18 -129 -18q-101 0 -166.5 54t-65.5 163v968q-76 45 -157 45q-162 0 -162 -174v-94h194v-168h-194v-778h-215v778h-137v168h137v90q0 75 20.5 135.5t54.5 99t80.5 64.5t96 36.5t104.5 10.5q117 0 207 -41l184 27v-1116q0 -82 86 -82q30 0 68 10z
" />
    <glyph glyph-name=".notdef" horiz-adv-x="1546" 
d="M170 0v1206h1206v-1206h-1206zM772 541l-453 -453h908zM319 1118l453 -454l455 454h-908zM834 602l454 -452v907zM711 602l-453 455v-907z" />
    <glyph glyph-name=".null" horiz-adv-x="0" 
 />
    <glyph glyph-name="nonmarkingreturn" horiz-adv-x="682" 
 />
    <glyph glyph-name="space" unicode=" " horiz-adv-x="452" 
 />
    <glyph glyph-name="exclam" unicode="!" horiz-adv-x="479" 
d="M104 1206h269l-62 -833h-143zM96 125q0 61 41.5 100t102.5 39q62 0 102.5 -39t40.5 -100q0 -60 -40.5 -98.5t-102.5 -38.5q-61 0 -102.5 39t-41.5 98z" />
    <glyph glyph-name="quotedbl" unicode="&#x22;" horiz-adv-x="757" 
d="M127 844v524h223l-92 -524h-131zM449 844v524h223l-92 -524h-131z" />
    <glyph glyph-name="numbersign" unicode="#" horiz-adv-x="1273" 
d="M1159 279h-332l-84 -279h-161l84 279h-203l-84 -279h-162l84 279h-227v155h274l51 168h-284v156h331l70 227h162l-70 -227h203l70 227h163l-69 -227h225v-156h-274l-52 -168h285v-155zM561 602l-51 -168h203l51 168h-203z" />
    <glyph glyph-name="dollar" unicode="$" horiz-adv-x="952" 
d="M440 -217v192q-325 12 -364 256l186 56q12 -70 58 -110t120 -48v272l-75 17q-254 57 -254 289q0 76 26.5 133t73.5 91t103.5 52.5t125.5 24.5v168h103v-168q299 -19 319 -269l-200 -22q-9 111 -119 135v-272l47 -9q280 -56 280 -303q0 -135 -88 -206.5t-239 -84.5v-194
h-103zM309 731q0 -57 30.5 -89t100.5 -44v258q-63 -7 -97 -40.5t-34 -84.5zM668 248q0 54 -27.5 84.5t-97.5 48.5v-250q125 17 125 117z" />
    <glyph glyph-name="percent" unicode="%" horiz-adv-x="1781" 
d="M360 469q-145 0 -221 103t-76 274q0 167 80 272t217 105t217 -105t80 -272q0 -171 -75.5 -274t-221.5 -103zM360 1079q-63 0 -98 -64t-35 -171q0 -105 35.5 -171.5t97.5 -66.5q63 0 99.5 66.5t36.5 171.5q0 107 -35.5 171t-100.5 64zM506 0l627 1208h139l-627 -1208h-139
zM1419 -14q-145 0 -221 103t-76 273q0 167 80 272t217 105t217 -105t80 -272q0 -171 -75.5 -273.5t-221.5 -102.5zM1419 596q-63 0 -98 -64.5t-35 -171.5q0 -105 35.5 -171t97.5 -66q63 0 99 66t36 171q0 107 -35.5 171.5t-99.5 64.5z" />
    <glyph glyph-name="ampersand" unicode="&#x26;" horiz-adv-x="1148" 
d="M1133 113l-152 -140l-147 150q-157 -148 -406 -148q-81 0 -150 19t-123 57t-85 101t-31 145q0 119 68 207.5t208 132.5l-57 59q-117 117 -117 250t96.5 209t251.5 76q152 0 246 -76.5t94 -206.5q0 -209 -247 -295l254 -254q40 76 47 211l182 -55q-25 -177 -102 -281z
M252 317q0 -82 57 -131t146 -49q165 0 260 105l-307 305q-78 -39 -117 -92t-39 -138zM487 1081q-62 0 -98.5 -34t-36.5 -91q0 -39 17.5 -71.5t56.5 -73.5l70 -74q71 38 103 88t32 119q0 65 -37.5 101t-106.5 36z" />
    <glyph glyph-name="quotesingle" unicode="'" horiz-adv-x="436" 
d="M127 844v524h223l-92 -524h-131z" />
    <glyph glyph-name="parenleft" unicode="(" horiz-adv-x="706" 
d="M338 477q0 -139 24.5 -260.5t75.5 -231t109 -199t145 -200.5h-231q-73 90 -127 174.5t-104 194.5t-76.5 242t-26.5 280t26.5 280t76.5 242t104 194.5t127 174.5h231q-87 -110 -145 -199t-109 -198.5t-75.5 -231.5t-24.5 -262z" />
    <glyph glyph-name="parenright" unicode=")" horiz-adv-x="706" 
d="M371 477q-1 140 -26 262t-76.5 231.5t-109.5 198.5t-145 199h234q73 -90 126.5 -174.5t103.5 -194.5t76 -242t26 -280t-26 -280t-76 -242t-103.5 -194.5t-126.5 -174.5h-234q87 111 145 200t109.5 199t76.5 231.5t26 260.5z" />
    <glyph glyph-name="asterisk" unicode="*" horiz-adv-x="776" 
d="M475 1217l-31 -211l191 94l49 -156l-209 -37l150 -157l-138 -99l-98 191l-98 -193l-135 103l149 155l-213 37l53 154l189 -92l-29 211h170z" />
    <glyph glyph-name="plus" unicode="+" horiz-adv-x="1019" 
d="M92 569h352v342h123v-342h361v-123h-361v-370h-123v370h-352v123z" />
    <glyph glyph-name="comma" unicode="," horiz-adv-x="583" 
d="M444 80q0 -158 -88 -235.5t-245 -82.5v97q176 20 176 151q-67 -12 -113.5 24t-46.5 103q0 66 41 101.5t108 35.5q72 0 120 -53.5t48 -140.5z" />
    <glyph glyph-name="hyphen" unicode="-" horiz-adv-x="753" 
d="M135 436v182h483v-182h-483z" />
    <glyph glyph-name="period" unicode="." horiz-adv-x="589" 
d="M143 139q0 64 43.5 108t106.5 44q66 0 109.5 -43.5t43.5 -108.5q0 -63 -44 -107t-109 -44q-63 0 -106.5 44t-43.5 107z" />
    <glyph glyph-name="slash" unicode="/" horiz-adv-x="833" 
d="M20 -416l562 1786h190l-563 -1786h-189z" />
    <glyph glyph-name="zero" unicode="0" horiz-adv-x="1198" 
d="M600 -25q-158 0 -274 69.5t-174 185.5t-58 262q0 223 135.5 370.5t370.5 147.5q156 0 272 -70t174 -186.5t58 -261.5q0 -146 -58 -262t-173.5 -185.5t-272.5 -69.5zM600 823q-140 0 -217.5 -93t-77.5 -241q0 -150 77 -240.5t218 -90.5q139 0 216 90.5t77 240.5
q0 147 -77.5 240.5t-215.5 93.5z" />
    <glyph glyph-name="one" unicode="1" horiz-adv-x="729" 
d="M528 0h-206v784l-281 -45v179l487 83v-1001z" />
    <glyph glyph-name="two" unicode="2" horiz-adv-x="937" 
d="M856 178v-178h-780v160q282 137 403 255.5t121 248.5q0 78 -43.5 120.5t-118.5 42.5q-72 0 -116.5 -47.5t-53.5 -142.5l-196 45q22 167 128.5 247.5t260.5 80.5q73 0 136 -20t112 -59.5t77.5 -103.5t28.5 -147q0 -92 -36.5 -173.5t-101.5 -142.5t-148 -105.5t-181 -72.5
v-8h508z" />
    <glyph glyph-name="three" unicode="3" horiz-adv-x="937" 
d="M496 393v-10q155 -13 243 -102.5t88 -225.5q0 -157 -117 -247.5t-300 -90.5q-172 0 -279 76t-127 211l205 62q27 -187 211 -187q89 0 141.5 48.5t52.5 135.5q0 105 -79 166.5t-259 71.5v158q97 9 161 29.5t96.5 52t44.5 66t12 81.5q0 68 -46.5 108t-115.5 40
q-68 0 -114 -40.5t-58 -123.5l-203 51q27 133 128 210t259 77q159 0 262 -79t103 -231q0 -127 -80 -209.5t-229 -97.5z" />
    <glyph glyph-name="four" unicode="4" horiz-adv-x="1087" 
d="M618 -268v350h-583v143l590 760h206v-739h201v-164h-201v-350h-213zM395 246h223v280q0 56 2 110.5t4 81.5l3 27h-9q-34 -69 -106 -167l-154 -207q-28 -37 -56.5 -68.5t-43.5 -44.5l-14 -12v-8q42 8 151 8z" />
    <glyph glyph-name="five" unicode="5" horiz-adv-x="942" 
d="M152 299l26 686h627v-188h-453l-14 -351q70 54 176 54q155 0 249.5 -99t94.5 -278q0 -197 -120.5 -302.5t-311.5 -105.5q-173 0 -278 76t-125 211l190 66q13 -96 71.5 -145.5t149.5 -49.5q100 0 161.5 60.5t61.5 183.5q0 111 -57 170t-154 59q-73 0 -135 -47h-159z" />
    <glyph glyph-name="six" unicode="6" horiz-adv-x="1064" 
d="M958 1008l-163 -101q-57 150 -205 150q-143 0 -221.5 -138.5t-79.5 -394.5h8q26 117 107 179.5t192 62.5q176 0 278.5 -109.5t102.5 -273.5q0 -179 -115 -293.5t-317 -114.5q-206 0 -325.5 152t-119.5 436q0 167 39.5 297t108.5 210t157 120.5t191 40.5
q127 0 220.5 -58.5t141.5 -164.5zM342 369q0 -101 62 -163.5t155 -62.5q94 0 156.5 62.5t62.5 163.5q0 105 -62 167t-157 62q-93 0 -155 -62t-62 -167z" />
    <glyph glyph-name="seven" unicode="7" horiz-adv-x="962" 
d="M651 797h-409v-152h-187v340h822v-149l-445 -1104h-213z" />
    <glyph glyph-name="eight" unicode="8" horiz-adv-x="1042" 
d="M522 -25q-200 0 -314 89.5t-114 240.5q0 114 65.5 193.5t172.5 111.5v8q-107 31 -160 106t-53 179q0 146 110 237t293 91q182 0 292 -91t110 -237q0 -104 -53 -179t-160 -106v-8q107 -32 172 -111t65 -194q0 -151 -113 -240.5t-313 -89.5zM522 1079q-91 0 -142.5 -51
t-51.5 -133q0 -98 54.5 -148.5t139.5 -50.5t139 50.5t54 148.5q0 82 -51.5 133t-141.5 51zM522 532q-93 0 -156 -52t-63 -146q0 -91 59 -146t160 -55q99 0 158 55t59 146q0 94 -62.5 146t-154.5 52z" />
    <glyph glyph-name="nine" unicode="9" horiz-adv-x="1054" 
d="M47 -57l162 96q61 -156 227 -156q74 0 132 32.5t94.5 87t59.5 131.5t32.5 158.5t9.5 176.5h-8q-23 -125 -102 -189.5t-195 -64.5q-176 0 -279.5 109t-103.5 274q0 178 112 295t310 117q219 0 337.5 -146.5t118.5 -437.5q0 -341 -137 -525t-391 -184q-138 0 -235.5 59
t-143.5 167zM711 612q0 102 -62.5 165t-152.5 63q-96 0 -160 -63t-64 -165q0 -106 64 -169.5t160 -63.5q91 0 153 63.5t62 169.5z" />
    <glyph glyph-name="colon" unicode=":" horiz-adv-x="589" 
d="M143 139q0 64 43.5 108t106.5 44q66 0 109.5 -43.5t43.5 -108.5q0 -63 -44 -107t-109 -44q-63 0 -106.5 44t-43.5 107zM143 799q0 64 43.5 107.5t106.5 43.5q66 0 109.5 -43t43.5 -108q0 -64 -44 -108t-109 -44q-63 0 -106.5 44.5t-43.5 107.5z" />
    <glyph glyph-name="semicolon" unicode=";" horiz-adv-x="583" 
d="M444 80q0 -158 -88 -235.5t-245 -82.5v97q176 20 176 151q-67 -12 -113.5 24t-46.5 103q0 66 41 101.5t108 35.5q72 0 120 -53.5t48 -140.5zM127 799q0 64 43 107.5t106 43.5q66 0 110 -43t44 -108q0 -63 -44 -107.5t-110 -44.5q-63 0 -106 44.5t-43 107.5z" />
    <glyph glyph-name="less" unicode="&#x3c;" horiz-adv-x="796" 
d="M694 842l-411 -336l409 -338l-86 -102l-514 440l518 434z" />
    <glyph glyph-name="equal" unicode="=" horiz-adv-x="1019" 
d="M928 301h-836v125h836v-125zM928 582h-836v125h836v-125z" />
    <glyph glyph-name="greater" unicode="&#x3e;" horiz-adv-x="796" 
d="M506 506l-412 336l84 98l518 -434l-512 -440l-88 102z" />
    <glyph glyph-name="question" unicode="?" horiz-adv-x="837" 
d="M195 856l-195 72q32 144 133.5 223.5t276.5 79.5q179 0 289 -101.5t110 -263.5q0 -92 -32 -163t-84.5 -112t-114 -61.5t-127.5 -21.5v-154h-193v275h82q120 0 183 52.5t63 168.5q0 96 -52 146.5t-139 50.5q-177 0 -200 -191zM211 125q0 61 41 100t102 39q62 0 104 -39
t42 -100q0 -59 -42 -98t-104 -39q-61 0 -102 39t-41 98z" />
    <glyph glyph-name="at" unicode="@" horiz-adv-x="1816" 
d="M1071 332v168q0 89 -55.5 136.5t-124.5 47.5q-85 0 -140 -68.5t-55 -214.5q0 -125 52 -193.5t141 -68.5q69 0 125.5 50t56.5 143zM1270 819v-614q0 -57 20.5 -81t61.5 -24q106 0 160.5 114.5t54.5 309.5q0 114 -33 209t-91.5 161.5t-139 113t-174 68.5t-197.5 22
q-135 0 -257 -44t-219 -128t-154.5 -219t-57.5 -304q0 -172 56 -305t156 -216.5t233 -126t292 -42.5q201 0 385 64l33 -125q-192 -64 -420 -64q-193 0 -352.5 50t-280 148t-187.5 255.5t-67 361.5q0 178 61.5 330t171.5 259.5t268 168t345 60.5q151 0 278.5 -35.5t218.5 -98
t155 -148.5t95 -187.5t31 -214.5q0 -562 -403 -562q-217 0 -234 175q-31 -95 -98 -135t-168 -40q-138 0 -232 108.5t-94 307.5q0 211 95.5 329t271.5 118q86 0 146.5 -35t82.5 -92l56 108h131z" />
    <glyph glyph-name="A" unicode="A" horiz-adv-x="1198" 
d="M942 0l-106 303h-482l-106 -303h-228l439 1206h280l439 -1206h-236zM496 713l-80 -228h354l-78 226q-30 84 -53.5 165.5t-32.5 120.5l-8 39h-8q-28 -133 -94 -323z" />
    <glyph glyph-name="B" unicode="B" 
d="M752 623v-7q122 -14 194 -87t72 -193q0 -159 -105.5 -247.5t-320.5 -88.5h-426v1206h428q183 0 279 -78t96 -227q0 -115 -58.5 -186t-158.5 -92zM385 686h176q89 0 139 41.5t50 126.5q0 88 -50.5 128t-148.5 40h-166v-336zM385 518v-334h209q205 0 205 176
q0 75 -50.5 116.5t-154.5 41.5h-209z" />
    <glyph glyph-name="C" unicode="C" horiz-adv-x="1169" 
d="M946 352l174 -119q-84 -134 -198 -196t-297 -62q-243 0 -390 166t-147 461q0 297 154 463t417 166q339 0 467 -295l-206 -102q-69 206 -271 206q-157 0 -245.5 -117.5t-88.5 -322.5t84 -317.5t246 -112.5q101 0 173.5 43.5t127.5 138.5z" />
    <glyph glyph-name="D" unicode="D" horiz-adv-x="1234" 
d="M385 184h147q182 0 284 101t102 321q0 416 -367 416h-166v-838zM553 0h-387v1206h397q104 0 191 -20.5t160.5 -65.5t124.5 -113t79.5 -167t28.5 -224q0 -131 -30.5 -235t-83.5 -174.5t-128.5 -117.5t-162.5 -68t-189 -21z" />
    <glyph glyph-name="E" unicode="E" horiz-adv-x="1034" 
d="M932 190v-190h-766v1206h766v-190h-547v-318h483v-186h-483v-322h547z" />
    <glyph glyph-name="F" unicode="F" horiz-adv-x="966" 
d="M385 0h-219v1206h735v-190h-516v-342h453v-187h-453v-487z" />
    <glyph glyph-name="G" unicode="G" horiz-adv-x="1261" 
d="M645 629h492v-629h-156l-33 150q-38 -85 -129 -130t-203 -45q-117 0 -213 39.5t-166.5 116t-109.5 196t-39 271.5q0 299 154 466t417 167q348 0 467 -295l-206 -102q-35 102 -105 154t-166 52q-146 0 -240 -113t-94 -331q0 -200 82.5 -320t247.5 -120q125 0 202 57
t77 160v73h-279v183z" />
    <glyph glyph-name="H" unicode="H" horiz-adv-x="1306" 
d="M385 0h-219v1206h219v-499h537v499h219v-1206h-219v518h-537v-518z" />
    <glyph glyph-name="I" unicode="I" horiz-adv-x="550" 
d="M166 1206h219v-1206h-219v1206z" />
    <glyph glyph-name="J" unicode="J" horiz-adv-x="917" 
d="M569 1206h219v-856q0 -100 -31.5 -174.5t-87.5 -117t-125 -63t-151 -20.5q-277 0 -393 234l166 135q45 -100 96 -143t131 -43q99 0 137.5 59t38.5 178v811z" />
    <glyph glyph-name="K" unicode="K" horiz-adv-x="1130" 
d="M1098 0h-267l-360 518h-86v-518h-219v1206h219v-499h90l336 499h254l-408 -585z" />
    <glyph glyph-name="L" unicode="L" horiz-adv-x="950" 
d="M166 1206h219v-1016h516v-190h-735v1206z" />
    <glyph glyph-name="M" unicode="M" horiz-adv-x="1486" 
d="M807 289h-127l-207 370q-30 54 -53 104t-31 73l-8 24h-8q12 -72 12 -213v-647h-219v1206h240l268 -508q24 -44 41 -83t23 -55l5 -17h9q14 55 69 155l266 508h234v-1206h-219v647q0 63 2.5 116t5.5 75l2 22h-8q-22 -80 -90 -201z" />
    <glyph glyph-name="N" unicode="N" horiz-adv-x="1349" 
d="M381 1206l459 -655q32 -44 63 -96t47 -81l15 -30h8q-8 120 -8 272v590h219v-1206h-209l-463 649q-35 47 -67.5 101t-48.5 84l-15 30h-8q12 -118 12 -280v-584h-219v1206h215z" />
    <glyph glyph-name="O" unicode="O" horiz-adv-x="1282" 
d="M641 -25q-258 0 -405.5 164.5t-147.5 462.5q0 299 147.5 464t405.5 165t405.5 -165t147.5 -464q0 -298 -147.5 -462.5t-405.5 -164.5zM641 1038q-158 0 -241 -115.5t-83 -322.5q0 -206 82.5 -321t241.5 -115t242.5 115t83.5 321q0 207 -83.5 322.5t-242.5 115.5z" />
    <glyph glyph-name="P" unicode="P" horiz-adv-x="1044" 
d="M385 1024v-420h164q113 0 162 53.5t49 155.5q0 211 -213 211h-162zM385 0h-219v1206h387q430 0 430 -383q0 -187 -106.5 -293t-303.5 -106h-188v-424z" />
    <glyph glyph-name="Q" unicode="Q" horiz-adv-x="1282" 
d="M1065 -123l-64 -192q-200 -3 -320 79t-169 224q-200 37 -312 196.5t-112 417.5q0 299 147.5 464t405.5 165t405.5 -165t147.5 -464q0 -271 -121.5 -431.5t-337.5 -188.5q60 -60 147.5 -86.5t182.5 -18.5zM641 1038q-158 0 -241 -115.5t-83 -322.5q0 -206 82.5 -321
t241.5 -115t242.5 115t83.5 321q0 207 -83.5 322.5t-242.5 115.5z" />
    <glyph glyph-name="R" unicode="R" horiz-adv-x="1148" 
d="M1081 0h-239q-42 40 -58 117l-47 198q-23 92 -70 123t-135 31h-147v-469h-219v1206h436q422 0 422 -352q0 -136 -76.5 -214t-197.5 -87v-4q86 -12 134 -55t72 -134l62 -233q19 -75 63 -127zM385 1022v-373h207q104 0 154.5 45.5t50.5 141.5q0 186 -205 186h-207z" />
    <glyph glyph-name="S" unicode="S" horiz-adv-x="1003" 
d="M53 283l203 69q17 -102 81.5 -155.5t160.5 -53.5q90 0 144 39.5t54 114.5q0 74 -47.5 117t-185.5 92q-71 24 -122 47t-99.5 55.5t-78 70t-47.5 90t-18 116.5q0 93 34 162.5t92 109t126 58t146 18.5q119 0 207.5 -30t148 -102t70.5 -183l-217 -50q-9 91 -64.5 139
t-140.5 48q-79 0 -127.5 -40t-48.5 -114q0 -32 11 -57.5t28 -44t51 -36.5t66 -31t87 -32q70 -24 118 -45t96.5 -53t77 -68.5t46 -90t17.5 -119.5q0 -90 -34 -158t-95 -109t-138.5 -61.5t-169.5 -20.5q-183 0 -290 73.5t-142 234.5z" />
    <glyph glyph-name="T" unicode="T" horiz-adv-x="950" 
d="M582 0h-217v1016h-345v190h910v-190h-348v-1016z" />
    <glyph glyph-name="U" unicode="U" horiz-adv-x="1210" 
d="M862 1206h219v-809q0 -115 -39 -199t-107.5 -131.5t-150.5 -69.5t-180 -22q-97 0 -179 22t-150 69.5t-107 132t-39 198.5v809h219v-749q0 -153 63 -227t193 -74q132 0 195 74t63 225v751z" />
    <glyph glyph-name="V" unicode="V" horiz-adv-x="1112" 
d="M254 1206l229 -725q24 -79 43 -157t26 -116l7 -38h8q15 131 70 309l225 727h230l-398 -1206h-278l-396 1206h234z" />
    <glyph glyph-name="W" unicode="W" horiz-adv-x="1724" 
d="M997 1206l177 -725q19 -81 34.5 -163.5t21.5 -125.5l5 -42h8q17 151 60 329l172 727h221l-297 -1206h-316l-168 672q-20 81 -32.5 163t-14.5 124l-2 42h-8q-10 -147 -55 -329l-168 -672h-309l-297 1206h231l172 -723q19 -80 34.5 -163.5t21.5 -126.5l6 -43h8
q16 151 59 331l180 725h256z" />
    <glyph glyph-name="X" unicode="X" horiz-adv-x="1128" 
d="M860 0l-207 313q-36 53 -57.5 92.5t-25.5 52.5l-3 13h-8q-10 -37 -88 -160l-201 -311h-250l416 608l-397 598h258l176 -278q39 -62 62 -105t27 -55l3 -12h8q5 33 89 170l169 280h244l-381 -581l414 -625h-248z" />
    <glyph glyph-name="Y" unicode="Y" horiz-adv-x="1032" 
d="M268 1206l174 -350q32 -64 53.5 -120.5t26.5 -80.5l6 -24h9q11 80 79 223l166 352h230l-373 -768v-438h-219v438l-400 768h248z" />
    <glyph glyph-name="Z" unicode="Z" horiz-adv-x="999" 
d="M936 1057l-496 -717q-31 -44 -61.5 -81.5t-44.5 -52.5l-15 -16v-8q56 8 173 8h458v-190h-901v141l492 725q31 44 61.5 81.5t45.5 52.5l14 16v8q-54 -8 -173 -8h-419v190h866v-149z" />
    <glyph glyph-name="bracketleft" unicode="[" horiz-adv-x="702" 
d="M375 1208v-1464h256v-160h-465v1786h465v-162h-256z" />
    <glyph glyph-name="backslash" unicode="\" horiz-adv-x="833" 
d="M254 1370l559 -1786h-188l-564 1786h193z" />
    <glyph glyph-name="bracketright" unicode="]" horiz-adv-x="702" 
d="M328 -256v1464h-256v162h465v-1786h-465v160h256z" />
    <glyph glyph-name="asciicircum" unicode="^" horiz-adv-x="1054" 
d="M776 657l-149 299q-39 81 -63.5 146t-29.5 90l-4 25h-8q-1 -9 -4.5 -27.5t-27.5 -85.5t-64 -146l-156 -301h-209l377 711h180l375 -711h-217z" />
    <glyph glyph-name="underscore" unicode="_" horiz-adv-x="985" 
d="M102 -211v166h781v-166h-781z" />
    <glyph glyph-name="grave" unicode="`" horiz-adv-x="761" 
d="M592 1081h-191l-237 303h280z" />
    <glyph glyph-name="a" unicode="a" horiz-adv-x="995" 
d="M614 289v123q-171 4 -250 -35t-79 -121q0 -54 35.5 -88.5t99.5 -34.5q75 0 134.5 41.5t59.5 114.5zM827 670v-426q0 -86 70 -86q32 0 55 10v-162q-49 -22 -118 -22q-172 0 -205 151q-63 -160 -279 -160q-126 0 -203 69t-77 189q0 162 133 242.5t411 67.5v106
q0 77 -39.5 114.5t-111.5 37.5q-69 0 -109.5 -38t-44.5 -110l-209 35q5 73 38 128.5t86 88t116.5 48.5t136.5 16q162 0 256 -72.5t94 -226.5z" />
    <glyph glyph-name="b" unicode="b" 
d="M354 537v-164q0 -120 65 -180t148 -60q106 0 175 88.5t69 255.5q0 159 -58.5 238.5t-164.5 79.5q-97 0 -165.5 -70t-68.5 -188zM342 137l-55 -137h-146v1368h215v-600q34 101 115.5 151t187.5 50q174 0 272.5 -123.5t98.5 -349.5q0 -149 -47 -266.5t-140 -186t-218 -68.5
q-116 0 -187 45t-96 117z" />
    <glyph glyph-name="c" unicode="c" horiz-adv-x="946" 
d="M705 297l186 -53q-24 -136 -126 -202.5t-255 -66.5q-196 0 -313 130t-117 362q0 234 119.5 368t320.5 134q157 0 253 -79.5t106 -221.5l-191 -43q-10 85 -54.5 128.5t-119.5 43.5q-108 0 -167.5 -89.5t-59.5 -238.5q0 -147 63.5 -236.5t171.5 -89.5q142 0 183 154z" />
    <glyph glyph-name="d" unicode="d" 
d="M754 383v197q0 111 -65 168t-152 57q-107 0 -174.5 -82.5t-67.5 -259.5q0 -153 63.5 -236.5t173.5 -83.5q86 0 154 63.5t68 176.5zM752 819v549h217v-1368h-189l-26 164q-62 -189 -299 -189q-159 0 -267 127t-108 353q0 244 111 379t313 135q90 0 159.5 -42.5
t88.5 -107.5z" />
    <glyph glyph-name="e" unicode="e" horiz-adv-x="985" 
d="M522 143q74 0 122.5 34t70.5 112l186 -56q-16 -70 -52.5 -121.5t-89.5 -80.5t-113.5 -42.5t-131.5 -13.5q-197 0 -315.5 129t-118.5 359q0 238 118.5 372t323.5 134q184 0 283.5 -112t99.5 -298q0 -65 -16 -127h-602q6 -133 66.5 -211t168.5 -78zM293 571h403q2 12 2 37
q0 84 -50.5 140.5t-135.5 56.5q-93 0 -150.5 -62.5t-68.5 -171.5z" />
    <glyph glyph-name="f" unicode="f" horiz-adv-x="606" 
d="M164 778h-137v168h137v94q0 93 28 161t77 106.5t108.5 56.5t130.5 18q120 0 207 -41l-35 -180q-74 41 -156 41q-72 0 -108.5 -39t-36.5 -131v-86h242v-168h-242v-778h-215v778z" />
    <glyph glyph-name="g" unicode="g" horiz-adv-x="1005" 
d="M477 969q169 0 273 -70q30 20 43.5 50.5t27.5 92.5l178 -61q-10 -65 -56 -111.5t-107 -60.5q43 -73 43 -176q0 -106 -55 -181t-145 -110t-204 -35q-80 0 -121 15q-57 -32 -57 -93q0 -69 92 -69h246q158 0 244 -72t86 -199q0 -74 -30.5 -131t-80.5 -92t-120 -58
t-141.5 -31.5t-152.5 -8.5q-87 0 -159 12t-133.5 38.5t-96.5 76t-35 117.5q0 90 63.5 144.5t182.5 63.5q-64 6 -101.5 49.5t-37.5 104.5t36.5 107t110.5 67q-188 79 -188 285q0 159 107.5 247.5t287.5 88.5zM217 -156q0 -129 246 -129q148 0 223.5 33.5t75.5 108.5
q0 110 -146 110h-215q-184 0 -184 -123zM297 635q0 -82 47 -131t133 -49q88 0 137.5 45.5t49.5 134.5q0 90 -49.5 136t-137.5 46q-88 -2 -134 -48t-46 -134z" />
    <glyph glyph-name="h" unicode="h" horiz-adv-x="1060" 
d="M356 1368v-602q67 203 289 203q124 0 204.5 -73.5t80.5 -221.5v-674h-215v604q0 182 -154 182q-42 0 -76.5 -12t-64.5 -39.5t-47 -77.5t-17 -120v-537h-215v1368h215z" />
    <glyph glyph-name="i" unicode="i" horiz-adv-x="497" 
d="M111 1245q0 61 39 98t98 37q61 0 101 -36.5t40 -98.5q0 -59 -40 -97t-101 -38q-58 0 -97.5 38t-39.5 97zM141 946h215v-946h-215v946z" />
    <glyph glyph-name="j" unicode="j" horiz-adv-x="497" 
d="M141 946h215v-952q0 -433 -481 -410v183q139 -15 202.5 38t63.5 197v944zM111 1245q0 61 39 98t98 37q60 0 100.5 -37t40.5 -98q0 -59 -41 -97t-100 -38q-58 0 -97.5 38t-39.5 97z" />
    <glyph glyph-name="k" unicode="k" horiz-adv-x="993" 
d="M586 506l393 -506h-258l-309 412h-56v-412h-215v1368h215v-788h47l291 366h254z" />
    <glyph glyph-name="l" unicode="l" horiz-adv-x="552" 
d="M494 180l-7 -178q-73 -18 -129 -18q-101 0 -166 54t-65 163v1167h215v-1116q0 -82 84 -82q35 0 68 10z" />
    <glyph glyph-name="m" unicode="m" horiz-adv-x="1599" 
d="M891 760q35 107 115 158t186 51q125 0 200.5 -71.5t75.5 -217.5v-680h-215v604q0 182 -145 182q-83 0 -140 -61.5t-57 -187.5v-537h-213v604q0 182 -147 182q-83 0 -139 -61.5t-56 -189.5v-535h-215v946h174l27 -182q35 104 112 154.5t181 50.5q222 0 256 -209z" />
    <glyph glyph-name="n" unicode="n" horiz-adv-x="1060" 
d="M315 946l27 -182q74 205 303 205q124 0 204.5 -73.5t80.5 -221.5v-674h-215v602q0 184 -154 184q-89 0 -147 -58t-58 -193v-535h-215v946h174z" />
    <glyph glyph-name="o" unicode="o" horiz-adv-x="1040" 
d="M520 -25q-202 0 -321 132t-119 370q0 237 118 364.5t322 127.5t322.5 -127.5t118.5 -364.5q0 -238 -119 -370t-322 -132zM520 797q-229 0 -229 -320q0 -334 229 -334q228 0 228 334q0 320 -228 320z" />
    <glyph glyph-name="p" unicode="p" 
d="M354 532v-159q0 -120 65 -180t148 -60q106 0 175 88.5t69 255.5q0 159 -58.5 238.5t-164.5 79.5q-97 0 -165.5 -71t-68.5 -192zM356 125v-541h-215v1362h178l27 -182q40 107 125 156t188 49q174 0 272.5 -123.5t98.5 -349.5q0 -229 -109.5 -375t-299.5 -146
q-103 0 -171.5 42t-93.5 108z" />
    <glyph glyph-name="q" unicode="q" 
d="M754 383v197q0 111 -65 168t-152 57q-107 0 -174.5 -82.5t-67.5 -259.5q0 -153 63.5 -236.5t173.5 -83.5q86 0 154 63.5t68 176.5zM764 823l57 123h148v-1362h-213v580q-65 -189 -301 -189q-159 0 -267 127t-108 353q0 242 111 378t311 136q94 0 164.5 -41t97.5 -105z
" />
    <glyph glyph-name="r" unicode="r" horiz-adv-x="755" 
d="M723 967l-21 -240q-40 12 -92 12q-103 0 -178.5 -72t-75.5 -204v-463h-215v946h183l26 -258q32 136 122.5 212t250.5 67z" />
    <glyph glyph-name="s" unicode="s" horiz-adv-x="876" 
d="M49 215l184 64q12 -77 64 -114.5t135 -37.5q75 0 121.5 29t46.5 84q0 53 -31 82.5t-108 48.5l-139 32q-125 32 -181.5 99t-56.5 174q0 80 30.5 139t83.5 91.5t115.5 47.5t135.5 15q329 0 352 -260l-205 -25q-11 125 -160 125q-68 0 -106.5 -29.5t-38.5 -81.5
q0 -48 26 -76t91 -42l131 -29q136 -32 203 -101.5t67 -191.5q0 -99 -51.5 -164t-134.5 -92t-195 -27q-170 0 -263 56.5t-116 183.5z" />
    <glyph glyph-name="t" unicode="t" horiz-adv-x="722" 
d="M653 213l39 -180q-101 -58 -250 -58q-135 0 -209.5 70.5t-74.5 208.5v524h-138v168h138v201l217 27v-228h280v-168h-282v-479q0 -141 121 -141q80 0 159 55z" />
    <glyph glyph-name="u" unicode="u" horiz-adv-x="1056" 
d="M731 0l-26 174q-31 -103 -101.5 -151t-189.5 -48q-135 0 -211 75.5t-76 236.5v659h215v-614q0 -100 37.5 -148.5t118.5 -48.5q82 0 142 70t60 198v543h215v-946h-184z" />
    <glyph glyph-name="v" unicode="v" horiz-adv-x="929" 
d="M342 0l-330 946h232l151 -489q24 -76 41.5 -152t23.5 -113l5 -38h8q17 131 70 301l151 491h224l-332 -946h-244z" />
    <glyph glyph-name="w" unicode="w" horiz-adv-x="1409" 
d="M811 946l125 -452q24 -84 39.5 -168.5t19.5 -127.5l4 -42h9q6 146 53 336l113 454h215l-254 -946h-256l-113 412q-21 76 -35 151t-18 113l-4 37h-9q-10 -129 -55 -301l-106 -412h-256l-263 946h220l118 -452q23 -84 39 -168.5t21 -127.5l4 -42h8q6 150 55 340l121 450
h205z" />
    <glyph glyph-name="x" unicode="x" horiz-adv-x="925" 
d="M672 0l-131 205q-34 54 -53 94t-21 53l-2 13h-8q-6 -39 -82 -162l-129 -203h-230l312 475l-295 471h248l102 -176q34 -60 55 -103t25 -56l4 -13h8q4 37 82 170l105 178h233l-297 -465l311 -481h-237z" />
    <glyph glyph-name="y" unicode="y" horiz-adv-x="931" 
d="M248 946l147 -489q25 -83 43 -158t24 -109l5 -34h8q15 115 70 299l149 491h226l-359 -1026q-36 -104 -78 -173t-93 -106.5t-104.5 -52t-123.5 -14.5q-76 0 -150 23l25 186q60 -31 125 -31q72 0 118 43t82 150l-350 1001h236z" />
    <glyph glyph-name="z" unicode="z" horiz-adv-x="829" 
d="M760 807l-342 -485q-31 -44 -61.5 -81.5t-44.5 -52.5l-15 -16v-8q55 8 172 8h311v-172h-731v125l340 496q31 44 61.5 81.5t45.5 52.5l14 15v8q-55 -8 -172 -8h-270v176h692v-139z" />
    <glyph glyph-name="braceleft" unicode="{" horiz-adv-x="823" 
d="M311 483v-8q86 -9 134.5 -55.5t48.5 -157.5v-368q0 -78 24 -115t86 -37q63 0 127 33l37 -152q-86 -45 -213 -45q-143 0 -202.5 75t-59.5 212v377q0 91 -38 124t-103 33h-84v162h84q66 0 103.5 33t37.5 125v375q0 137 59.5 212.5t202.5 75.5q122 0 213 -45l-37 -151
q-64 33 -127 33q-62 0 -86 -37.5t-24 -116.5v-369q0 -60 -14 -101t-41 -63.5t-56.5 -33t-71.5 -15.5z" />
    <glyph glyph-name="bar" unicode="|" horiz-adv-x="587" 
d="M383 -416h-178v1786h178v-1786z" />
    <glyph glyph-name="braceright" unicode="}" horiz-adv-x="823" 
d="M514 475v8q-89 10 -135.5 54.5t-46.5 158.5v369q0 79 -25 116.5t-88 37.5q-59 0 -127 -33l-37 151q96 45 213 45q143 0 202.5 -75.5t59.5 -212.5v-375q0 -92 38 -125t104 -33h84v-162h-84q-66 0 -104 -33t-38 -124v-377q0 -137 -59.5 -212t-202.5 -75q-123 0 -213 45
l37 152q68 -33 127 -33q63 0 88 37t25 115v368q0 111 47.5 158t134.5 55z" />
    <glyph glyph-name="asciitilde" unicode="~" horiz-adv-x="991" 
d="M643 403q-31 0 -58 7t-41 14t-48 27q-4 3 -17.5 10.5t-17 9.5l-14 8t-14 7.5t-11.5 5t-12.5 4.5t-11.5 3t-13 2.5t-12 0.5q-33 0 -50.5 -24.5t-11.5 -74.5h-125q-44 106 4.5 192.5t155.5 86.5q47 0 80 -12t74 -37q37 -23 50 -30t31.5 -14t36.5 -7q66 0 58 98h131
q42 -114 -4.5 -195.5t-159.5 -81.5z" />
    <glyph glyph-name="nbspace" unicode="&#xa0;" horiz-adv-x="313" 
 />
    <glyph glyph-name="exclamdown" unicode="&#xa1;" horiz-adv-x="479" 
d="M373 -258h-269l64 833h143zM96 823q0 59 41.5 98.5t102.5 39.5q62 0 102.5 -39t40.5 -99q0 -61 -40.5 -100t-102.5 -39q-61 0 -102.5 39t-41.5 100z" />
    <glyph glyph-name="cent" unicode="&#xa2;" horiz-adv-x="1054" 
d="M512 -217v194q-190 16 -304 146.5t-114 365.5q0 225 112 360t306 157v170h102v-168q139 -6 227.5 -65.5t139.5 -180.5l-190 -103q-54 153 -177 172v-679q66 6 112.5 42t84.5 107l170 -113q-59 -103 -147.5 -153t-219.5 -58v-194h-102zM313 496q0 -141 51 -229t148 -111
v673q-96 -22 -147.5 -107.5t-51.5 -225.5z" />
    <glyph glyph-name="sterling" unicode="&#xa3;" horiz-adv-x="1048" 
d="M715 403h-258q6 -27 6 -59q0 -125 -86 -166h313q56 0 94.5 20t55.5 78l155 -86q-20 -92 -91.5 -141t-180.5 -49h-610v182h61q49 0 73.5 35.5t24.5 91.5q0 38 -18 94h-178v121h127q-27 87 -27 170q0 62 20.5 114.5t55.5 89t82 62.5t100 38t109 12q313 0 352 -271l-195 -45
q-14 73 -51.5 109.5t-109.5 36.5q-76 0 -119 -41t-43 -119q0 -60 39 -156h299v-121z" />
    <glyph glyph-name="currency" unicode="&#xa4;" horiz-adv-x="925" 
d="M657 864l140 140l67 -68l-141 -141q51 -79 51 -199q0 -116 -45 -195l135 -133l-67 -67l-127 127q-81 -66 -203 -66q-128 0 -207 70l-131 -131l-68 67l138 138q-41 77 -41 190q0 121 49 197l-146 143l68 68l139 -142q78 60 199 60q110 0 190 -58zM467 799
q-131 0 -131 -205q0 -211 131 -211t131 211q0 205 -131 205z" />
    <glyph glyph-name="yen" unicode="&#xa5;" horiz-adv-x="1073" 
d="M965 289h-312v-289h-217v289h-319v104h284l-57 101h-227v104h168l-217 387h247l152 -295q31 -58 50 -107t23 -69l3 -20h8q8 67 74 194l149 297h232l-209 -387h168v-104h-226l-53 -101h279v-104z" />
    <glyph glyph-name="brokenbar" unicode="&#xa6;" horiz-adv-x="587" 
d="M383 569h-178v801h178v-801zM383 -416h-178v801h178v-801z" />
    <glyph glyph-name="section" unicode="&#xa7;" horiz-adv-x="925" 
d="M82 43l190 53q14 -74 69 -109.5t132 -35.5q69 0 111.5 26.5t42.5 77.5q0 45 -32 77t-106 54l-149 43q-115 34 -169 93.5t-54 152.5q0 86 46 139.5t122 73.5q-85 34 -125.5 103t-40.5 147q0 80 30 139t82.5 91.5t113 47.5t130.5 15q341 0 361 -260l-207 -25
q-9 123 -156 123q-69 0 -106 -29t-37 -82q0 -43 27 -71t96 -49l135 -43q126 -37 191 -97t65 -168q0 -86 -47 -141t-125 -67q76 -31 122 -98.5t46 -149.5q0 -100 -51 -165t-132.5 -91.5t-193.5 -26.5q-166 0 -263.5 63t-117.5 189zM631 494q0 58 -51.5 88.5t-163.5 62.5
q-41 -14 -65.5 -46t-24.5 -77q0 -62 45.5 -90.5t167.5 -60.5q38 14 65 45.5t27 77.5z" />
    <glyph glyph-name="dieresis" unicode="&#xa8;" horiz-adv-x="1009" 
d="M164 1219q0 60 37.5 96.5t93.5 36.5q58 0 95.5 -36.5t37.5 -96.5q0 -58 -38 -95t-95 -37q-55 0 -93 37t-38 95zM580 1219q0 60 38.5 96.5t92.5 36.5q58 0 96.5 -36.5t38.5 -96.5q0 -59 -38.5 -96.5t-96.5 -37.5q-54 0 -92.5 37.5t-38.5 96.5z" />
    <glyph glyph-name="copyright" unicode="&#xa9;" horiz-adv-x="1439" 
d="M911 473l142 -102q-58 -85 -137.5 -124.5t-198.5 -39.5q-167 0 -271 103t-104 294q0 189 106.5 294.5t286.5 105.5q120 0 196.5 -47.5t121.5 -145.5l-162 -84q-42 125 -160 125q-92 0 -147.5 -65.5t-55.5 -180.5q0 -116 53.5 -180t151.5 -64q61 0 101.5 26t76.5 85z
M92 602q0 179 84.5 323.5t227.5 225t315 80.5q128 0 244 -47.5t200.5 -129.5t134.5 -200t50 -252t-50 -251.5t-134.5 -199.5t-200.5 -129t-244 -47t-243.5 47t-200 129t-134 199.5t-49.5 251.5zM156 602q0 -122 44.5 -228.5t121 -180t180.5 -116t219 -42.5t219 42.5
t180.5 116t121 180t44.5 228.5t-44.5 228.5t-121 181t-180.5 117t-219 42.5t-219 -42.5t-180.5 -117t-121 -181t-44.5 -228.5z" />
    <glyph glyph-name="ordfeminine" unicode="&#xaa;" horiz-adv-x="761" 
d="M432 780v82q-100 1 -144 -24t-44 -76q0 -36 20.5 -56t59.5 -20q42 0 75 24t33 70zM606 1032v-276q0 -47 41 -47q28 0 49 14v-123q-42 -22 -110 -22q-61 0 -96.5 20.5t-49.5 71.5q-44 -99 -184 -99q-83 0 -133.5 45t-50.5 123q0 217 360 209v60q0 96 -86 96q-40 0 -64 -24
t-26 -62l-164 24q7 95 81.5 142t184.5 47q109 0 178.5 -47t69.5 -152z" />
    <glyph glyph-name="guillemotleft" unicode="&#xab;" horiz-adv-x="1036" 
d="M666 483v-8q38 -14 110 -98l199 -230l-113 -102l-389 436l389 434l113 -112l-199 -225q-33 -36 -60.5 -60t-38.5 -30zM254 483v-8q39 -14 111 -98l196 -230l-110 -102l-390 436l390 434l110 -112l-199 -225q-32 -36 -59 -60t-38 -30z" />
    <glyph glyph-name="logicalnot" unicode="&#xac;" horiz-adv-x="1028" 
d="M795 522h-699v123h836v-389h-137v266z" />
    <glyph glyph-name="uni00AD" unicode="&#xad;" horiz-adv-x="729" 
d="M135 436v182h459v-182h-459z" />
    <glyph glyph-name="registered" unicode="&#xae;" horiz-adv-x="1439" 
d="M1063 246h-197q-29 38 -39 82l-22 86q-21 90 -133 90h-47v-258h-174v739h297q135 0 207.5 -57.5t72.5 -173.5q0 -92 -55.5 -141t-145.5 -54q64 -10 100 -33.5t54 -76.5l33 -111q19 -60 49 -92zM625 844v-207h84q80 0 113.5 24.5t33.5 75.5q0 50 -33.5 78.5t-95.5 28.5
h-102zM92 602q0 179 84.5 323.5t227.5 225t315 80.5q128 0 244 -47.5t200.5 -129.5t134.5 -200t50 -252t-50 -251.5t-134.5 -199.5t-200.5 -129t-244 -47t-243.5 47t-200 129t-134 199.5t-49.5 251.5zM156 602q0 -122 44.5 -228.5t121 -180t180.5 -116t219 -42.5t219 42.5
t180.5 116t121 180t44.5 228.5t-44.5 228.5t-121 181t-180.5 117t-219 42.5t-219 -42.5t-180.5 -117t-121 -181t-44.5 -228.5z" />
    <glyph glyph-name="macron" unicode="&#xaf;" horiz-adv-x="886" 
d="M723 1130h-559v173h559v-173z" />
    <glyph glyph-name="degree" unicode="&#xb0;" horiz-adv-x="538" 
d="M66 1026q0 86 56.5 145.5t145.5 59.5t147 -59.5t58 -145.5t-57.5 -144.5t-147.5 -58.5q-89 0 -145.5 58.5t-56.5 144.5zM180 1026q0 -42 24.5 -69t63.5 -27q41 0 66.5 27t25.5 69q0 41 -26 69.5t-66 28.5q-39 0 -63.5 -28.5t-24.5 -69.5z" />
    <glyph glyph-name="plusminus" unicode="&#xb1;" horiz-adv-x="1019" 
d="M92 709h352v268h123v-268h361v-123h-361v-297h-123v297h-352v123zM928 76h-836v123h836v-123z" />
    <glyph glyph-name="twosuperior" unicode="&#xb2;" horiz-adv-x="649" 
d="M602 614v-131h-553v115q200 142 276 218t76 161q0 100 -102 100q-53 0 -83 -36t-32 -97l-139 57q3 90 76.5 156t200.5 66q109 0 180 -58t71 -170q0 -56 -22.5 -108.5t-53 -89.5t-77.5 -73.5t-81.5 -57t-78.5 -43.5v-9h342z" />
    <glyph glyph-name="threesuperior" unicode="&#xb3;" horiz-adv-x="655" 
d="M383 858v-6q203 -18 203 -184q0 -94 -77 -146.5t-208 -52.5q-117 0 -191.5 45t-89.5 121l140 57q12 -45 49.5 -72.5t93.5 -27.5q111 0 111 88q0 54 -44.5 83t-160.5 32v102q104 4 146 32.5t42 76.5q0 39 -26 62.5t-68 23.5q-43 0 -74.5 -23.5t-38.5 -67.5l-139 54
q19 77 89 122.5t175 45.5q107 0 175.5 -48t68.5 -141q0 -153 -176 -176z" />
    <glyph glyph-name="acute" unicode="&#xb4;" horiz-adv-x="761" 
d="M360 1081h-192l149 303h281z" />
    <glyph glyph-name="mu" unicode="&#xb5;" horiz-adv-x="1071" 
d="M739 0l-26 178q-57 -199 -252 -203q-37 0 -67 10.5t-44 24.5v-426h-215v1362h215v-604q0 -192 148 -192q33 0 68 13t68.5 39.5t55 75.5t21.5 113v555h213v-946h-185z" />
    <glyph glyph-name="paragraph" unicode="&#xb6;" horiz-adv-x="1095" 
d="M850 1034v-1069q0 -155 -82 -227t-223 -72q-121 0 -221 55l49 191q70 -59 157 -59q54 0 80.5 27t26.5 93v383h-98q-224 0 -346.5 103t-122.5 309q0 438 538 438h404v-172h-162z" />
    <glyph glyph-name="periodcentered" unicode="&#xb7;" horiz-adv-x="589" 
d="M143 545q0 64 43.5 107.5t106.5 43.5q66 0 109.5 -43t43.5 -108q0 -64 -44 -108t-109 -44q-63 0 -106.5 44.5t-43.5 107.5z" />
    <glyph glyph-name="periodcentered" unicode="&#x22c5;" horiz-adv-x="589" 
d="M143 545q0 64 43.5 107.5t106.5 43.5q66 0 109.5 -43t43.5 -108q0 -64 -44 -108t-109 -44q-63 0 -106.5 44.5t-43.5 107.5z" />
    <glyph glyph-name="cedilla" unicode="&#xb8;" horiz-adv-x="737" 
d="M573 -250q0 -88 -63 -135t-160 -47q-131 0 -194 76l51 114q55 -73 129 -73q70 0 70 63q0 80 -125 86l18 189h100l-6 -103q180 -14 180 -170z" />
    <glyph glyph-name="onesuperior" unicode="&#xb9;" horiz-adv-x="622" 
d="M594 483h-524v127h188v441l-209 -21v131l375 47v-598h170v-127z" />
    <glyph glyph-name="ordmasculine" unicode="&#xba;" horiz-adv-x="792" 
d="M397 571q-142 0 -225.5 87t-83.5 247q0 157 83.5 241.5t225.5 84.5q141 0 224.5 -85t83.5 -241q0 -160 -83.5 -247t-224.5 -87zM397 1108q-131 0 -131 -205q0 -211 131 -211t131 211q0 205 -131 205z" />
    <glyph glyph-name="guillemotright" unicode="&#xbb;" horiz-adv-x="1036" 
d="M371 475v8q-37 13 -111 95l-199 225l113 112l389 -434l-389 -436l-111 102l197 230q32 37 59.5 61.5t39.5 30.5zM782 475v8q-34 13 -108 95l-199 225l111 112l389 -434l-389 -436l-111 102l197 230q33 37 60.5 61.5t38.5 30.5z" />
    <glyph glyph-name="onequarter" unicode="&#xbc;" horiz-adv-x="1773" 
d="M627 483h-525v127h189v441l-209 -21v131l375 47v-598h170v-127zM504 0l626 1208h140l-627 -1208h-139zM1446 0v166h-363v119l361 438h168v-436h112v-121h-112v-166h-166zM1450 285v159q0 35 2.5 71.5t5.5 55.5l2 19h-8q-21 -54 -68 -117l-79 -94q-21 -26 -45.5 -50
t-39.5 -35l-14 -11v-9q35 11 115 11h129z" />
    <glyph glyph-name="onehalf" unicode="&#xbd;" horiz-adv-x="1773" 
d="M627 483h-525v127h189v441l-209 -21v131l375 47v-598h170v-127zM504 0l626 1208h140l-627 -1208h-139zM1659 131v-131h-553v115q200 142 276 218t76 161q0 100 -102 100q-53 0 -83 -36t-32 -97l-139 57q3 90 76 155.5t200 65.5q110 0 181 -58t71 -169q0 -56 -22.5 -108.5
t-53 -90t-77.5 -74t-81.5 -57t-78.5 -43.5v-8h342z" />
    <glyph glyph-name="threequarters" unicode="&#xbe;" horiz-adv-x="1773" 
d="M438 858v-6q203 -18 203 -184q0 -94 -77 -146.5t-208 -52.5q-117 0 -191 45t-89 121l139 57q12 -45 49.5 -72.5t93.5 -27.5q111 0 111 88q0 54 -44.5 83t-160.5 32v102q104 4 146.5 32.5t42.5 76.5q0 39 -26.5 62.5t-68.5 23.5q-43 0 -74 -23.5t-38 -67.5l-140 54
q19 77 89.5 122.5t175.5 45.5q107 0 175 -47.5t68 -141.5q0 -153 -176 -176zM504 0l626 1208h140l-627 -1208h-139zM1446 0v166h-363v119l361 438h168v-436h112v-121h-112v-166h-166zM1450 285v159q0 35 2.5 71.5t5.5 55.5l2 19h-8q-21 -54 -68 -117l-79 -94
q-21 -26 -45.5 -50t-39.5 -35l-14 -11v-9q35 11 115 11h129z" />
    <glyph glyph-name="questiondown" unicode="&#xbf;" horiz-adv-x="837" 
d="M643 90l195 -72q-32 -144 -133.5 -223.5t-276.5 -79.5q-179 0 -289 101.5t-110 263.5q0 92 32 163t84.5 112t114 61.5t127.5 21.5v154h193v-275h-82q-120 0 -183 -52.5t-63 -168.5q0 -96 51.5 -146t138.5 -50q178 0 201 190zM627 821q0 -61 -41.5 -100t-102.5 -39
q-62 0 -103.5 39t-41.5 100q0 60 41.5 98.5t103.5 38.5q61 0 102.5 -39t41.5 -98z" />
    <glyph glyph-name="Agrave" unicode="&#xc0;" horiz-adv-x="1198" 
d="M942 0l-106 303h-482l-106 -303h-228l439 1206h280l439 -1206h-236zM496 713l-80 -228h354l-78 226q-30 84 -53.5 165.5t-32.5 120.5l-8 39h-8q-28 -133 -94 -323zM709 1333h-197l-211 266h279z" />
    <glyph glyph-name="Aacute" unicode="&#xc1;" horiz-adv-x="1198" 
d="M942 0l-106 303h-482l-106 -303h-228l439 1206h280l439 -1206h-236zM496 713l-80 -228h354l-78 226q-30 84 -53.5 165.5t-32.5 120.5l-8 39h-8q-28 -133 -94 -323zM686 1333h-197l129 266h279z" />
    <glyph glyph-name="Acircumflex" unicode="&#xc2;" horiz-adv-x="1198" 
d="M942 0l-106 303h-482l-106 -303h-228l439 1206h280l439 -1206h-236zM496 713l-80 -228h354l-78 226q-30 84 -53.5 165.5t-32.5 120.5l-8 39h-8q-28 -133 -94 -323zM528 1608h134l262 -275h-217l-64 66q-16 18 -27.5 35t-14.5 24l-3 8h-6q-8 -26 -45 -67l-64 -66h-217z
" />
    <glyph glyph-name="Atilde" unicode="&#xc3;" horiz-adv-x="1198" 
d="M942 0l-106 303h-482l-106 -303h-228l439 1206h280l439 -1206h-236zM496 713l-80 -228h354l-78 226q-30 84 -53.5 165.5t-32.5 120.5l-8 39h-8q-28 -133 -94 -323zM743 1335q-31 0 -57.5 7t-41.5 14t-48 26q-6 4 -22 13t-21 12t-16.5 9t-17 8t-14.5 5t-16.5 4t-15.5 1
q-33 0 -50 -24.5t-11 -74.5h-125q-27 73 -17 135.5t58 104t118 41.5q46 0 78.5 -12.5t75.5 -38.5q70 -43 93 -49q12 -3 26 -3q65 0 57 99h131q42 -114 -4.5 -195.5t-159.5 -81.5z" />
    <glyph glyph-name="Adieresis" unicode="&#xc4;" horiz-adv-x="1198" 
d="M942 0l-106 303h-482l-106 -303h-228l439 1206h280l439 -1206h-236zM496 713l-80 -228h354l-78 226q-30 84 -53.5 165.5t-32.5 120.5l-8 39h-8q-28 -133 -94 -323zM254 1466q0 60 37.5 96.5t93.5 36.5q58 0 95.5 -36.5t37.5 -96.5q0 -58 -37.5 -94.5t-95.5 -36.5
q-55 0 -93 37t-38 94zM670 1466q0 60 38.5 96.5t92.5 36.5q58 0 96.5 -36.5t38.5 -96.5q0 -59 -38.5 -96t-96.5 -37q-54 0 -92.5 37.5t-38.5 95.5z" />
    <glyph glyph-name="Aring" unicode="&#xc5;" horiz-adv-x="1198" 
d="M942 0l-106 303h-482l-106 -303h-228l439 1206h280l439 -1206h-236zM496 713l-80 -228h354l-78 226q-30 84 -53.5 165.5t-32.5 120.5l-8 39h-8q-28 -133 -94 -323zM594 1296q-103 0 -161 60t-58 153q0 86 61 146.5t158 60.5t158 -60.5t61 -146.5q0 -93 -58 -153t-161 -60
zM594 1618q-50 0 -79.5 -31.5t-29.5 -79.5q0 -46 28.5 -76t80.5 -30t80 30t28 76q0 49 -29 80t-79 31z" />
    <glyph glyph-name="AE" unicode="&#xc6;" horiz-adv-x="1734" 
d="M1632 0h-764v303h-432l-186 -303h-238l733 1206h887v-190h-547v-318h486v-186h-486v-322h547v-190zM872 1047l-335 -562h331v248q-1 92 2.5 170.5t7.5 110.5l3 33h-9z" />
    <glyph glyph-name="Ccedilla" unicode="&#xc7;" horiz-adv-x="1169" 
d="M860 -250q0 -88 -63 -135t-160 -47q-132 0 -195 76l52 114q55 -73 129 -73q69 0 69 63q0 80 -125 86l15 143q-226 15 -360 179t-134 446q0 297 154 463t417 166q339 0 467 -295l-206 -102q-69 206 -271 206q-157 0 -245.5 -117.5t-88.5 -322.5t84 -317.5t246 -112.5
q101 0 173.5 43.5t127.5 138.5l174 -119q-77 -123 -179.5 -185t-258.5 -71l-2 -57q180 -14 180 -170z" />
    <glyph glyph-name="Egrave" unicode="&#xc8;" horiz-adv-x="1034" 
d="M932 190v-190h-766v1206h766v-190h-547v-318h483v-186h-483v-322h547zM657 1333h-196l-211 266h278z" />
    <glyph glyph-name="Eacute" unicode="&#xc9;" horiz-adv-x="1034" 
d="M932 190v-190h-766v1206h766v-190h-547v-318h483v-186h-483v-322h547zM637 1333h-197l129 266h279z" />
    <glyph glyph-name="Ecircumflex" unicode="&#xca;" horiz-adv-x="1034" 
d="M932 190v-190h-766v1206h766v-190h-547v-318h483v-186h-483v-322h547zM481 1608h133l263 -275h-218l-63 66q-16 18 -27.5 35t-14.5 24l-3 8h-6q-8 -26 -45 -67l-64 -66h-217z" />
    <glyph glyph-name="Edieresis" unicode="&#xcb;" horiz-adv-x="1034" 
d="M932 190v-190h-766v1206h766v-190h-547v-318h483v-186h-483v-322h547zM205 1466q0 60 37.5 96.5t93.5 36.5q58 0 95.5 -36.5t37.5 -96.5q0 -58 -37.5 -94.5t-95.5 -36.5q-55 0 -93 37t-38 94zM621 1466q0 60 38.5 96.5t92.5 36.5q58 0 96.5 -36.5t38.5 -96.5
q0 -59 -38.5 -96t-96.5 -37q-54 0 -92.5 37.5t-38.5 95.5z" />
    <glyph glyph-name="Igrave" unicode="&#xcc;" horiz-adv-x="550" 
d="M166 1206h219v-1206h-219v1206zM383 1333h-197l-211 266h279z" />
    <glyph glyph-name="Iacute" unicode="&#xcd;" horiz-adv-x="550" 
d="M166 1206h219v-1206h-219v1206zM367 1333h-197l129 266h279z" />
    <glyph glyph-name="Icircumflex" unicode="&#xce;" horiz-adv-x="550" 
d="M166 1206h219v-1206h-219v1206zM209 1608h133l262 -275h-217l-63 66q-16 18 -27.5 35t-14.5 24l-3 8h-7q-8 -26 -45 -67l-63 -66h-217z" />
    <glyph glyph-name="Idieresis" unicode="&#xcf;" horiz-adv-x="550" 
d="M166 1206h219v-1206h-219v1206zM-68 1466q0 60 37.5 96.5t93.5 36.5q58 0 96 -36.5t38 -96.5q0 -58 -38 -94.5t-96 -36.5q-55 0 -93 37t-38 94zM348 1466q0 60 38.5 96.5t92.5 36.5q58 0 96.5 -36.5t38.5 -96.5q0 -59 -38.5 -96t-96.5 -37q-54 0 -92.5 37.5t-38.5 95.5z
" />
    <glyph glyph-name="Eth" unicode="&#xd0;" horiz-adv-x="1234" 
d="M553 0h-387v514h-125v182h125v510h397q104 0 191 -20.5t160.5 -65.5t124.5 -113t79.5 -167t28.5 -224q0 -131 -30.5 -235t-83.5 -174.5t-128.5 -117.5t-162.5 -68t-189 -21zM385 184h147q182 0 284 101t102 321q0 416 -367 416h-166v-326h215v-182h-215v-330z" />
    <glyph glyph-name="Ntilde" unicode="&#xd1;" horiz-adv-x="1349" 
d="M381 1206l459 -655q32 -44 63 -96t47 -81l15 -30h8q-8 120 -8 272v590h219v-1206h-209l-463 649q-35 47 -67.5 101t-48.5 84l-15 30h-8q12 -118 12 -280v-584h-219v1206h215zM821 1335q-31 0 -57.5 7t-41.5 14t-48 26q-6 4 -22 13t-21 12t-16.5 9t-17 8t-14.5 5t-16.5 4
t-15.5 1q-33 0 -50.5 -24.5t-11.5 -74.5h-124q-27 73 -17 135.5t58 104t118 41.5q46 0 78.5 -12.5t75.5 -38.5q70 -43 93 -49q12 -3 26 -3q65 0 57 99h131q42 -114 -4.5 -195.5t-159.5 -81.5z" />
    <glyph glyph-name="Ograve" unicode="&#xd2;" horiz-adv-x="1282" 
d="M641 -25q-258 0 -405.5 164.5t-147.5 462.5q0 299 147.5 464t405.5 165t405.5 -165t147.5 -464q0 -298 -147.5 -462.5t-405.5 -164.5zM641 1038q-158 0 -241 -115.5t-83 -322.5q0 -206 82.5 -321t241.5 -115t242.5 115t83.5 321q0 207 -83.5 322.5t-242.5 115.5z
M752 1333h-197l-211 266h279z" />
    <glyph glyph-name="Oacute" unicode="&#xd3;" horiz-adv-x="1282" 
d="M641 -25q-258 0 -405.5 164.5t-147.5 462.5q0 299 147.5 464t405.5 165t405.5 -165t147.5 -464q0 -298 -147.5 -462.5t-405.5 -164.5zM641 1038q-158 0 -241 -115.5t-83 -322.5q0 -206 82.5 -321t241.5 -115t242.5 115t83.5 321q0 207 -83.5 322.5t-242.5 115.5z
M729 1333h-197l130 266h278z" />
    <glyph glyph-name="Ocircumflex" unicode="&#xd4;" horiz-adv-x="1282" 
d="M641 -25q-258 0 -405.5 164.5t-147.5 462.5q0 299 147.5 464t405.5 165t405.5 -165t147.5 -464q0 -298 -147.5 -462.5t-405.5 -164.5zM641 1038q-158 0 -241 -115.5t-83 -322.5q0 -206 82.5 -321t241.5 -115t242.5 115t83.5 321q0 207 -83.5 322.5t-242.5 115.5z
M575 1608h134l262 -275h-217l-64 66q-16 18 -27.5 35t-14.5 24l-3 8h-6q-8 -26 -45 -67l-64 -66h-217z" />
    <glyph glyph-name="Otilde" unicode="&#xd5;" horiz-adv-x="1282" 
d="M641 -25q-258 0 -405.5 164.5t-147.5 462.5q0 299 147.5 464t405.5 165t405.5 -165t147.5 -464q0 -298 -147.5 -462.5t-405.5 -164.5zM641 1038q-158 0 -241 -115.5t-83 -322.5q0 -206 82.5 -321t241.5 -115t242.5 115t83.5 321q0 207 -83.5 322.5t-242.5 115.5z
M788 1335q-31 0 -57.5 7t-41.5 14t-48 26q-6 4 -22 13t-21 12t-16.5 9t-17 8t-14.5 5t-16.5 4t-15.5 1q-33 0 -50 -24.5t-11 -74.5h-125q-23 53 -20 103.5t24 90t62.5 63.5t93.5 24q46 0 78 -12t75 -39q70 -43 93 -49q12 -3 26 -3q65 0 57 99h131q42 -114 -4.5 -195.5
t-159.5 -81.5z" />
    <glyph glyph-name="Odieresis" unicode="&#xd6;" horiz-adv-x="1282" 
d="M641 -25q-258 0 -405.5 164.5t-147.5 462.5q0 299 147.5 464t405.5 165t405.5 -165t147.5 -464q0 -298 -147.5 -462.5t-405.5 -164.5zM641 1038q-158 0 -241 -115.5t-83 -322.5q0 -206 82.5 -321t241.5 -115t242.5 115t83.5 321q0 207 -83.5 322.5t-242.5 115.5z
M297 1466q0 60 37.5 96.5t93.5 36.5q58 0 95.5 -36.5t37.5 -96.5q0 -58 -37.5 -94.5t-95.5 -36.5q-55 0 -93 37t-38 94zM713 1466q0 60 38.5 96.5t92.5 36.5q58 0 96.5 -36.5t38.5 -96.5q0 -59 -38.5 -96t-96.5 -37q-54 0 -92.5 37.5t-38.5 95.5z" />
    <glyph glyph-name="multiply" unicode="&#xd7;" horiz-adv-x="921" 
d="M92 236l275 274l-267 268l86 86l269 -266l280 281l86 -88l-280 -281l288 -287l-86 -88l-288 287l-277 -275z" />
    <glyph glyph-name="Oslash" unicode="&#xd8;" horiz-adv-x="1282" 
d="M164 -27l-90 82l121 135q-107 159 -107 412q0 299 147.5 464t405.5 165q225 0 367 -127l106 119l96 -84l-118 -133q102 -158 102 -404q0 -298 -147.5 -462.5t-405.5 -164.5q-224 0 -365 123zM641 1038q-157 0 -239.5 -115.5t-82.5 -322.5q0 -139 35 -231l510 573
q-83 96 -223 96zM963 600q0 121 -33 225l-512 -569q83 -92 223 -92q158 0 240 115t82 321z" />
    <glyph glyph-name="Ugrave" unicode="&#xd9;" horiz-adv-x="1210" 
d="M862 1206h219v-809q0 -115 -39 -199t-107.5 -131.5t-150.5 -69.5t-180 -22q-97 0 -179 22t-150 69.5t-107 132t-39 198.5v809h219v-749q0 -153 63 -227t193 -74q132 0 195 74t63 225v751zM713 1333h-197l-211 266h279z" />
    <glyph glyph-name="Uacute" unicode="&#xda;" horiz-adv-x="1210" 
d="M862 1206h219v-809q0 -115 -39 -199t-107.5 -131.5t-150.5 -69.5t-180 -22q-97 0 -179 22t-150 69.5t-107 132t-39 198.5v809h219v-749q0 -153 63 -227t193 -74q132 0 195 74t63 225v751zM692 1333h-196l129 266h278z" />
    <glyph glyph-name="Ucircumflex" unicode="&#xdb;" horiz-adv-x="1210" 
d="M862 1206h219v-809q0 -115 -39 -199t-107.5 -131.5t-150.5 -69.5t-180 -22q-97 0 -179 22t-150 69.5t-107 132t-39 198.5v809h219v-749q0 -153 63 -227t193 -74q132 0 195 74t63 225v751zM537 1608h133l262 -275h-217l-64 66q-16 18 -27.5 35t-14.5 24l-3 8h-6
q-8 -26 -45 -67l-63 -66h-218z" />
    <glyph glyph-name="Udieresis" unicode="&#xdc;" horiz-adv-x="1210" 
d="M862 1206h219v-809q0 -115 -39 -199t-107.5 -131.5t-150.5 -69.5t-180 -22q-97 0 -179 22t-150 69.5t-107 132t-39 198.5v809h219v-749q0 -153 63 -227t193 -74q132 0 195 74t63 225v751zM260 1466q0 60 37.5 96.5t93.5 36.5q58 0 95.5 -36.5t37.5 -96.5
q0 -58 -37.5 -94.5t-95.5 -36.5q-55 0 -93 37t-38 94zM676 1466q0 60 38.5 96.5t92.5 36.5q58 0 96.5 -36.5t38.5 -96.5q0 -59 -38.5 -96t-96.5 -37q-54 0 -92.5 37.5t-38.5 95.5z" />
    <glyph glyph-name="Yacute" unicode="&#xdd;" horiz-adv-x="1032" 
d="M268 1206l174 -350q32 -64 53.5 -120.5t26.5 -80.5l6 -24h9q11 80 79 223l166 352h230l-373 -768v-438h-219v438l-400 768h248zM604 1333h-196l129 266h278z" />
    <glyph glyph-name="Thorn" unicode="&#xde;" horiz-adv-x="1036" 
d="M385 819v-399h164q115 0 163 48.5t48 149.5q0 103 -53 152t-160 49h-162zM385 0h-219v1206h219v-205h168q222 0 326 -93t104 -279q0 -185 -105.5 -286t-304.5 -101h-188v-242z" />
    <glyph glyph-name="germandbls" unicode="&#xdf;" horiz-adv-x="1128" 
d="M141 0v899q0 130 33.5 225t95 150.5t141.5 81.5t181 26q183 0 284 -89t101 -234q0 -126 -62 -196.5t-176 -88.5v-8q150 -9 233 -106.5t83 -268.5q0 -195 -95 -305.5t-280 -110.5q-93 0 -154.5 31.5t-101.5 99.5l82 152q64 -115 170 -115q82 0 123 61.5t41 194.5
q0 130 -70 203.5t-199 73.5h-106v172h96q207 0 207 180q0 87 -49 134.5t-141 47.5q-106 0 -164 -72.5t-58 -240.5v-897h-215z" />
    <glyph glyph-name="agrave" unicode="&#xe0;" horiz-adv-x="995" 
d="M614 289v123q-171 4 -250 -35t-79 -121q0 -54 35.5 -88.5t99.5 -34.5q75 0 134.5 41.5t59.5 114.5zM827 670v-426q0 -86 70 -86q32 0 55 10v-162q-49 -22 -118 -22q-172 0 -205 151q-63 -160 -279 -160q-126 0 -203 69t-77 189q0 162 133 242.5t411 67.5v106
q0 77 -39.5 114.5t-111.5 37.5q-69 0 -109.5 -38t-44.5 -110l-209 35q5 73 38 128.5t86 88t116.5 48.5t136.5 16q162 0 256 -72.5t94 -226.5zM594 1081h-191l-237 303h280z" />
    <glyph glyph-name="aacute" unicode="&#xe1;" horiz-adv-x="995" 
d="M614 289v123q-171 4 -250 -35t-79 -121q0 -54 35.5 -88.5t99.5 -34.5q75 0 134.5 41.5t59.5 114.5zM827 670v-426q0 -86 70 -86q32 0 55 10v-162q-49 -22 -118 -22q-172 0 -205 151q-63 -160 -279 -160q-126 0 -203 69t-77 189q0 162 133 242.5t411 67.5v106
q0 77 -39.5 114.5t-111.5 37.5q-69 0 -109.5 -38t-44.5 -110l-209 35q5 73 38 128.5t86 88t116.5 48.5t136.5 16q162 0 256 -72.5t94 -226.5zM563 1081h-192l149 303h281z" />
    <glyph glyph-name="acircumflex" unicode="&#xe2;" horiz-adv-x="995" 
d="M614 289v123q-171 4 -250 -35t-79 -121q0 -54 35.5 -88.5t99.5 -34.5q75 0 134.5 41.5t59.5 114.5zM827 670v-426q0 -86 70 -86q32 0 55 10v-162q-49 -22 -118 -22q-172 0 -205 151q-63 -160 -279 -160q-126 0 -203 69t-77 189q0 162 133 242.5t411 67.5v106
q0 77 -39.5 114.5t-111.5 37.5q-69 0 -109.5 -38t-44.5 -110l-209 35q5 73 38 128.5t86 88t116.5 48.5t136.5 16q162 0 256 -72.5t94 -226.5zM412 1389h131l262 -310h-209l-70 80q-17 20 -28.5 38.5t-13.5 26.5l-3 9h-8q-6 -29 -45 -74l-70 -80h-208z" />
    <glyph glyph-name="atilde" unicode="&#xe3;" horiz-adv-x="995" 
d="M614 289v123q-171 4 -250 -35t-79 -121q0 -54 35.5 -88.5t99.5 -34.5q75 0 134.5 41.5t59.5 114.5zM827 670v-426q0 -86 70 -86q32 0 55 10v-162q-49 -22 -118 -22q-172 0 -205 151q-63 -160 -279 -160q-126 0 -203 69t-77 189q0 162 133 242.5t411 67.5v106
q0 77 -39.5 114.5t-111.5 37.5q-69 0 -109.5 -38t-44.5 -110l-209 35q5 73 38 128.5t86 88t116.5 48.5t136.5 16q162 0 256 -72.5t94 -226.5zM625 1077q-11 0 -20.5 0.5t-19 2.5t-16.5 3t-16.5 5t-14 5.5t-15.5 6.5t-14.5 7t-15.5 8.5t-16 8.5q-6 4 -22 13t-21 12t-16.5 9
t-17 8t-14.5 5t-16.5 4t-15.5 1q-72 0 -61 -97h-125q-27 72 -16.5 133t58.5 101.5t118 40.5q47 0 79.5 -11.5t73.5 -37.5q70 -43 93 -49q12 -3 26 -3q65 0 57 99h131q42 -115 -4 -195t-159 -80z" />
    <glyph glyph-name="adieresis" unicode="&#xe4;" horiz-adv-x="995" 
d="M614 289v123q-171 4 -250 -35t-79 -121q0 -54 35.5 -88.5t99.5 -34.5q75 0 134.5 41.5t59.5 114.5zM827 670v-426q0 -86 70 -86q32 0 55 10v-162q-49 -22 -118 -22q-172 0 -205 151q-63 -160 -279 -160q-126 0 -203 69t-77 189q0 162 133 242.5t411 67.5v106
q0 77 -39.5 114.5t-111.5 37.5q-69 0 -109.5 -38t-44.5 -110l-209 35q5 73 38 128.5t86 88t116.5 48.5t136.5 16q162 0 256 -72.5t94 -226.5zM139 1219q0 60 37.5 96.5t93.5 36.5q58 0 95.5 -36.5t37.5 -96.5q0 -58 -38 -95t-95 -37q-55 0 -93 37t-38 95zM555 1219
q0 60 38.5 96.5t92.5 36.5q58 0 96.5 -36.5t38.5 -96.5q0 -59 -38.5 -96.5t-96.5 -37.5q-54 0 -92.5 37.5t-38.5 96.5z" />
    <glyph glyph-name="aring" unicode="&#xe5;" horiz-adv-x="995" 
d="M614 289v123q-171 4 -250 -35t-79 -121q0 -54 35.5 -88.5t99.5 -34.5q75 0 134.5 41.5t59.5 114.5zM827 670v-426q0 -86 70 -86q32 0 55 10v-162q-49 -22 -118 -22q-172 0 -205 151q-63 -160 -279 -160q-126 0 -203 69t-77 189q0 162 133 242.5t411 67.5v106
q0 77 -39.5 114.5t-111.5 37.5q-69 0 -109.5 -38t-44.5 -110l-209 35q5 73 38 128.5t86 88t116.5 48.5t136.5 16q162 0 256 -72.5t94 -226.5zM479 1055q-103 0 -161 60t-58 153q0 86 61 146.5t158 60.5t158 -60.5t61 -146.5q0 -93 -58 -153t-161 -60zM479 1376
q-50 0 -79 -31t-29 -79q0 -47 28 -77t80 -30t80.5 30.5t28.5 76.5q0 48 -29.5 79t-79.5 31z" />
    <glyph glyph-name="ae" unicode="&#xe6;" horiz-adv-x="1515" 
d="M1053 143q74 0 122 33.5t70 112.5l187 -56q-21 -93 -80 -152t-135.5 -82.5t-174.5 -23.5q-218 0 -335 160q-35 -78 -121.5 -119t-204.5 -41q-144 0 -227.5 68.5t-83.5 200.5q0 159 133.5 238.5t412.5 80.5q8 48 25 105q-9 66 -55 99.5t-113 33.5q-72 0 -116 -38.5
t-48 -109.5l-209 35q5 73 38 128.5t85.5 88t115.5 48.5t134 16q198 0 277 -115q115 115 301 115q184 0 283.5 -115t99.5 -301q0 -69 -15 -127h-602q6 -132 67 -207.5t169 -75.5zM823 563h404q2 14 2 39q0 85 -51.5 144t-137.5 59q-96 0 -151 -64.5t-66 -177.5zM420 133
q80 0 140 40t73 112q-19 80 -21 141q-167 -2 -247 -42t-80 -128q0 -54 35.5 -88.5t99.5 -34.5z" />
    <glyph glyph-name="ccedilla" unicode="&#xe7;" horiz-adv-x="946" 
d="M733 -250q0 -88 -63 -135t-160 -47q-132 0 -195 76l52 114q55 -73 129 -73q69 0 69 63q0 80 -125 86l15 146q-172 18 -273.5 145t-101.5 342q0 234 119.5 368t320.5 134q157 0 253 -79.5t106 -221.5l-191 -43q-10 85 -54.5 128.5t-119.5 43.5q-108 0 -167.5 -89.5
t-59.5 -238.5q0 -147 63.5 -236.5t171.5 -89.5q142 0 183 154l186 -53q-22 -127 -111.5 -193t-224.5 -74l-2 -57q180 -14 180 -170z" />
    <glyph glyph-name="egrave" unicode="&#xe8;" horiz-adv-x="985" 
d="M522 143q74 0 122.5 34t70.5 112l186 -56q-16 -70 -52.5 -121.5t-89.5 -80.5t-113.5 -42.5t-131.5 -13.5q-197 0 -315.5 129t-118.5 359q0 238 118.5 372t323.5 134q184 0 283.5 -112t99.5 -298q0 -65 -16 -127h-602q6 -133 66.5 -211t168.5 -78zM293 571h403q2 12 2 37
q0 84 -50.5 140.5t-135.5 56.5q-93 0 -150.5 -62.5t-68.5 -171.5zM623 1081h-191l-237 303h280z" />
    <glyph glyph-name="eacute" unicode="&#xe9;" horiz-adv-x="985" 
d="M522 143q74 0 122.5 34t70.5 112l186 -56q-16 -70 -52.5 -121.5t-89.5 -80.5t-113.5 -42.5t-131.5 -13.5q-197 0 -315.5 129t-118.5 359q0 238 118.5 372t323.5 134q184 0 283.5 -112t99.5 -298q0 -65 -16 -127h-602q6 -133 66.5 -211t168.5 -78zM293 571h403q2 12 2 37
q0 84 -50.5 140.5t-135.5 56.5q-93 0 -150.5 -62.5t-68.5 -171.5zM590 1081h-193l150 303h280z" />
    <glyph glyph-name="ecircumflex" unicode="&#xea;" horiz-adv-x="985" 
d="M522 143q74 0 122.5 34t70.5 112l186 -56q-16 -70 -52.5 -121.5t-89.5 -80.5t-113.5 -42.5t-131.5 -13.5q-197 0 -315.5 129t-118.5 359q0 238 118.5 372t323.5 134q184 0 283.5 -112t99.5 -298q0 -65 -16 -127h-602q6 -133 66.5 -211t168.5 -78zM293 571h403q2 12 2 37
q0 84 -50.5 140.5t-135.5 56.5q-93 0 -150.5 -62.5t-68.5 -171.5zM453 1389h131l262 -310h-209l-70 80q-17 20 -28.5 38.5t-14.5 26.5l-2 9h-8q-6 -29 -45 -74l-70 -80h-209z" />
    <glyph glyph-name="edieresis" unicode="&#xeb;" horiz-adv-x="985" 
d="M522 143q74 0 122.5 34t70.5 112l186 -56q-16 -70 -52.5 -121.5t-89.5 -80.5t-113.5 -42.5t-131.5 -13.5q-197 0 -315.5 129t-118.5 359q0 238 118.5 372t323.5 134q184 0 283.5 -112t99.5 -298q0 -65 -16 -127h-602q6 -133 66.5 -211t168.5 -78zM293 571h403q2 12 2 37
q0 84 -50.5 140.5t-135.5 56.5q-93 0 -150.5 -62.5t-68.5 -171.5zM178 1219q0 60 37.5 96.5t93.5 36.5q58 0 95.5 -36.5t37.5 -96.5q0 -58 -38 -95t-95 -37q-55 0 -93 37t-38 95zM594 1219q0 60 38.5 96.5t92.5 36.5q58 0 96.5 -36.5t38.5 -96.5q0 -59 -38.5 -96.5
t-96.5 -37.5q-54 0 -92.5 37.5t-38.5 96.5z" />
    <glyph glyph-name="igrave" unicode="&#xec;" horiz-adv-x="497" 
d="M356 1081h-190l-238 303h281zM141 946h215v-946h-215v946z" />
    <glyph glyph-name="iacute" unicode="&#xed;" horiz-adv-x="497" 
d="M334 1081h-193l150 303h280zM141 946h215v-946h-215v946z" />
    <glyph glyph-name="icircumflex" unicode="&#xee;" horiz-adv-x="497" 
d="M141 946h215v-946h-215v946zM184 1389h131l263 -310h-209l-70 80q-17 20 -28.5 38.5t-14.5 26.5l-2 9h-8q-6 -29 -45 -74l-70 -80h-209z" />
    <glyph glyph-name="idieresis" unicode="&#xef;" horiz-adv-x="497" 
d="M-94 1219q0 60 37.5 96.5t93.5 36.5q58 0 95.5 -36.5t37.5 -96.5q0 -58 -38 -95t-95 -37q-55 0 -93 37t-38 95zM322 1219q0 60 38.5 96.5t92.5 36.5q58 0 96.5 -36.5t38.5 -96.5q0 -59 -38.5 -96.5t-96.5 -37.5q-54 0 -92.5 37.5t-38.5 96.5zM141 946h215v-946h-215v946z
" />
    <glyph glyph-name="eth" unicode="&#xf0;" horiz-adv-x="1046" 
d="M248 1006l-25 94l250 51q-39 33 -108 75t-129 70l196 88q144 -69 252 -174l213 47l27 -96l-162 -35q97 -124 151 -276.5t54 -312.5q0 -282 -119 -419.5t-328 -137.5q-205 0 -322.5 125t-117.5 364q0 119 32 212.5t87 150.5t124 86.5t148 29.5q161 0 248 -125h8
q-54 138 -170 248zM750 465q0 156 -59.5 236.5t-172.5 80.5q-225 0 -225 -317q0 -155 57 -237.5t170 -82.5q230 0 230 320z" />
    <glyph glyph-name="ntilde" unicode="&#xf1;" horiz-adv-x="1060" 
d="M315 946l27 -182q74 205 303 205q124 0 204.5 -73.5t80.5 -221.5v-674h-215v602q0 184 -154 184q-89 0 -147 -58t-58 -193v-535h-215v946h174zM690 1077q-12 0 -23.5 1t-20 2t-19 5t-16 5.5t-17.5 7t-15.5 7.5t-17.5 9.5t-18 9.5q-6 4 -22 13t-21 12t-16.5 9t-17 8
t-14.5 5t-16.5 4t-15.5 1q-33 0 -50.5 -23.5t-11.5 -73.5h-125q-27 72 -16.5 133t58.5 101.5t118 40.5q47 0 80 -12t74 -37q70 -43 93 -49q12 -3 26 -3q65 0 57 99h131q42 -115 -4.5 -195t-159.5 -80z" />
    <glyph glyph-name="ograve" unicode="&#xf2;" horiz-adv-x="1040" 
d="M520 -25q-202 0 -321 132t-119 370q0 237 118 364.5t322 127.5t322.5 -127.5t118.5 -364.5q0 -238 -119 -370t-322 -132zM520 797q-229 0 -229 -320q0 -334 229 -334q228 0 228 334q0 320 -228 320zM631 1081h-191l-237 303h280z" />
    <glyph glyph-name="oacute" unicode="&#xf3;" horiz-adv-x="1040" 
d="M520 -25q-202 0 -321 132t-119 370q0 237 118 364.5t322 127.5t322.5 -127.5t118.5 -364.5q0 -238 -119 -370t-322 -132zM520 797q-229 0 -229 -320q0 -334 229 -334q228 0 228 334q0 320 -228 320zM600 1081h-192l149 303h281z" />
    <glyph glyph-name="ocircumflex" unicode="&#xf4;" horiz-adv-x="1040" 
d="M520 -25q-202 0 -321 132t-119 370q0 237 118 364.5t322 127.5t322.5 -127.5t118.5 -364.5q0 -238 -119 -370t-322 -132zM520 797q-229 0 -229 -320q0 -334 229 -334q228 0 228 334q0 320 -228 320zM455 1389h131l262 -310h-209l-70 80q-17 20 -28.5 38.5t-14.5 26.5
l-2 9h-8q-6 -29 -45 -74l-70 -80h-208z" />
    <glyph glyph-name="otilde" unicode="&#xf5;" horiz-adv-x="1040" 
d="M520 -25q-202 0 -321 132t-119 370q0 237 118 364.5t322 127.5t322.5 -127.5t118.5 -364.5q0 -238 -119 -370t-322 -132zM520 797q-229 0 -229 -320q0 -334 229 -334q228 0 228 334q0 320 -228 320zM668 1077q-11 0 -20.5 0.5t-19 2.5t-16.5 3t-16.5 5t-14 5.5t-15.5 6.5
t-14.5 7t-15.5 8.5t-16 8.5q-6 4 -22 13t-21 12t-16.5 9t-17 8t-14.5 5t-16.5 4t-15.5 1q-72 0 -61 -97h-125q-27 72 -16.5 133t58.5 101.5t118 40.5q47 0 79.5 -11.5t73.5 -37.5q70 -43 93 -49q12 -3 26 -3q65 0 57 99h131q42 -115 -4 -195t-159 -80z" />
    <glyph glyph-name="odieresis" unicode="&#xf6;" horiz-adv-x="1040" 
d="M520 -25q-202 0 -321 132t-119 370q0 237 118 364.5t322 127.5t322.5 -127.5t118.5 -364.5q0 -238 -119 -370t-322 -132zM520 797q-229 0 -229 -320q0 -334 229 -334q228 0 228 334q0 320 -228 320zM176 1219q0 60 37.5 96.5t93.5 36.5q58 0 95.5 -36.5t37.5 -96.5
q0 -58 -38 -95t-95 -37q-55 0 -93 37t-38 95zM592 1219q0 60 38.5 96.5t92.5 36.5q58 0 96.5 -36.5t38.5 -96.5q0 -59 -38.5 -96.5t-96.5 -37.5q-54 0 -92.5 37.5t-38.5 96.5z" />
    <glyph glyph-name="divide" unicode="&#xf7;" horiz-adv-x="1019" 
d="M928 446h-836v123h836v-123zM401 160q0 41 30 70.5t71 29.5t71.5 -29.5t30.5 -70.5t-30.5 -71t-71.5 -30t-71 30t-30 71zM401 844q0 43 30 73.5t71 30.5t71.5 -30.5t30.5 -73.5q0 -41 -30.5 -71t-71.5 -30t-71 30t-30 71z" />
    <glyph glyph-name="oslash" unicode="&#xf8;" horiz-adv-x="1040" 
d="M145 -29l-92 80l103 111q-76 127 -76 315q0 237 118 364.5t322 127.5q180 0 293 -101l94 101l92 -80l-108 -115q70 -121 70 -297q0 -238 -119 -370t-322 -132q-172 0 -284 95zM520 797q-229 0 -229 -320q0 -93 14 -153l377 403q-61 70 -162 70zM748 477q0 66 -13 129
l-373 -401q59 -62 158 -62q228 0 228 334z" />
    <glyph glyph-name="ugrave" unicode="&#xf9;" horiz-adv-x="1056" 
d="M731 0l-26 174q-31 -103 -101.5 -151t-189.5 -48q-135 0 -211 75.5t-76 236.5v659h215v-614q0 -100 37.5 -148.5t118.5 -48.5q82 0 142 70t60 198v543h215v-946h-184zM633 1081h-191l-237 303h280z" />
    <glyph glyph-name="uacute" unicode="&#xfa;" horiz-adv-x="1056" 
d="M731 0l-26 174q-31 -103 -101.5 -151t-189.5 -48q-135 0 -211 75.5t-76 236.5v659h215v-614q0 -100 37.5 -148.5t118.5 -48.5q82 0 142 70t60 198v543h215v-946h-184zM600 1081h-192l149 303h281z" />
    <glyph glyph-name="ucircumflex" unicode="&#xfb;" horiz-adv-x="1056" 
d="M731 0l-26 174q-31 -103 -101.5 -151t-189.5 -48q-135 0 -211 75.5t-76 236.5v659h215v-614q0 -100 37.5 -148.5t118.5 -48.5q82 0 142 70t60 198v543h215v-946h-184zM457 1389h131l262 -310h-209l-70 80q-17 20 -28.5 38.5t-14.5 26.5l-2 9h-8q-6 -29 -45 -74l-70 -80
h-208z" />
    <glyph glyph-name="udieresis" unicode="&#xfc;" horiz-adv-x="1056" 
d="M731 0l-26 174q-31 -103 -101.5 -151t-189.5 -48q-135 0 -211 75.5t-76 236.5v659h215v-614q0 -100 37.5 -148.5t118.5 -48.5q82 0 142 70t60 198v543h215v-946h-184zM178 1219q0 60 37.5 96.5t93.5 36.5q58 0 95.5 -36.5t37.5 -96.5q0 -58 -38 -95t-95 -37q-55 0 -93 37
t-38 95zM594 1219q0 60 38.5 96.5t92.5 36.5q58 0 96.5 -36.5t38.5 -96.5q0 -59 -38.5 -96.5t-96.5 -37.5q-54 0 -92.5 37.5t-38.5 96.5z" />
    <glyph glyph-name="yacute" unicode="&#xfd;" horiz-adv-x="931" 
d="M248 946l147 -489q25 -83 43 -158t24 -109l5 -34h8q15 115 70 299l149 491h226l-359 -1026q-36 -104 -78 -173t-93 -106.5t-104.5 -52t-123.5 -14.5q-76 0 -150 23l25 186q60 -31 125 -31q72 0 118 43t82 150l-350 1001h236zM555 1081h-193l150 303h281z" />
    <glyph glyph-name="thorn" unicode="&#xfe;" 
d="M354 532v-159q0 -120 65 -180t148 -60q106 0 175 88.5t69 255.5q0 159 -58.5 238.5t-164.5 79.5q-97 0 -165.5 -71t-68.5 -192zM356 125v-541h-215v1784h215v-592q36 100 117.5 146.5t185.5 46.5q174 0 272.5 -123.5t98.5 -349.5q0 -229 -109.5 -375t-299.5 -146
q-103 0 -171.5 42t-93.5 108z" />
    <glyph glyph-name="ydieresis" unicode="&#xff;" horiz-adv-x="931" 
d="M248 946l147 -489q25 -83 43 -158t24 -109l5 -34h8q15 115 70 299l149 491h226l-359 -1026q-36 -104 -78 -173t-93 -106.5t-104.5 -52t-123.5 -14.5q-76 0 -150 23l25 186q60 -31 125 -31q72 0 118 43t82 150l-350 1001h236zM131 1219q0 60 37.5 96.5t93.5 36.5
q58 0 95.5 -36.5t37.5 -96.5q0 -58 -38 -95t-95 -37q-55 0 -93 37t-38 95zM547 1219q0 60 38.5 96.5t92.5 36.5q58 0 96.5 -36.5t38.5 -96.5q0 -59 -38.5 -96.5t-96.5 -37.5q-54 0 -92.5 37.5t-38.5 96.5z" />
    <glyph glyph-name="Amacron" unicode="&#x100;" horiz-adv-x="1198" 
d="M942 0l-106 303h-482l-106 -303h-228l439 1206h280l439 -1206h-236zM496 713l-80 -228h354l-78 226q-30 84 -53.5 165.5t-32.5 120.5l-8 39h-8q-28 -133 -94 -323zM877 1374h-566v170h566v-170z" />
    <glyph glyph-name="amacron" unicode="&#x101;" horiz-adv-x="995" 
d="M614 289v123q-171 4 -250 -35t-79 -121q0 -54 35.5 -88.5t99.5 -34.5q75 0 134.5 41.5t59.5 114.5zM827 670v-426q0 -86 70 -86q32 0 55 10v-162q-49 -22 -118 -22q-172 0 -205 151q-63 -160 -279 -160q-126 0 -203 69t-77 189q0 162 133 242.5t411 67.5v106
q0 77 -39.5 114.5t-111.5 37.5q-69 0 -109.5 -38t-44.5 -110l-209 35q5 73 38 128.5t86 88t116.5 48.5t136.5 16q162 0 256 -72.5t94 -226.5zM758 1130h-559v173h559v-173z" />
    <glyph glyph-name="Abreve" unicode="&#x102;" horiz-adv-x="1198" 
d="M942 0l-106 303h-482l-106 -303h-228l439 1206h280l439 -1206h-236zM496 713l-80 -228h354l-78 226q-30 84 -53.5 165.5t-32.5 120.5l-8 39h-8q-28 -133 -94 -323zM594 1325q-140 0 -213.5 75.5t-73.5 205.5h164q5 -63 32.5 -94t90.5 -31q65 0 92.5 31t30.5 94h166
q0 -131 -74 -206t-215 -75z" />
    <glyph glyph-name="abreve" unicode="&#x103;" horiz-adv-x="995" 
d="M614 289v123q-171 4 -250 -35t-79 -121q0 -54 35.5 -88.5t99.5 -34.5q75 0 134.5 41.5t59.5 114.5zM827 670v-426q0 -86 70 -86q32 0 55 10v-162q-49 -22 -118 -22q-172 0 -205 151q-63 -160 -279 -160q-126 0 -203 69t-77 189q0 162 133 242.5t411 67.5v106
q0 77 -39.5 114.5t-111.5 37.5q-69 0 -109.5 -38t-44.5 -110l-209 35q5 73 38 128.5t86 88t116.5 48.5t136.5 16q162 0 256 -72.5t94 -226.5zM481 1073q-140 0 -214 82t-74 219h163q5 -72 31 -107.5t94 -35.5q67 0 93.5 36t29.5 107h164q0 -136 -74 -218.5t-213 -82.5z" />
    <glyph glyph-name="Aogonek" unicode="&#x104;" horiz-adv-x="1198" 
d="M659 -213q0 62 24 113t64 84t82 53.5t89 32.5l-82 233h-482l-106 -303h-228l439 1206h280l439 -1206h-138q-80 -3 -139 -49.5t-59 -126.5q0 -54 27.5 -83.5t78.5 -29.5q82 0 139 76l60 -104q-81 -115 -242 -115q-109 0 -177.5 55.5t-68.5 163.5zM496 713l-80 -228h354
l-78 226q-30 84 -53.5 165.5t-32.5 120.5l-8 39h-8q-28 -133 -94 -323z" />
    <glyph glyph-name="aogonek" unicode="&#x105;" horiz-adv-x="995" 
d="M498 -213q0 90 54 152t134 96q-43 25 -57 100q-63 -160 -279 -160q-126 0 -203 69t-77 189q0 162 133 242.5t411 67.5v106q0 77 -39.5 114.5t-111.5 37.5q-69 0 -109.5 -38t-44.5 -110l-209 35q5 73 38 128.5t86 88t116.5 48.5t136.5 16q162 0 256 -72.5t94 -226.5v-426
q0 -86 70 -86q32 0 55 10v-162q-272 -30 -272 -182q0 -54 27.5 -83.5t78.5 -29.5q83 0 140 76l59 -104q-81 -115 -242 -115q-109 0 -177 55.5t-68 163.5zM614 289v123q-171 4 -250 -35t-79 -121q0 -54 35.5 -88.5t99.5 -34.5q75 0 134.5 41.5t59.5 114.5z" />
    <glyph glyph-name="Cacute" unicode="&#x106;" horiz-adv-x="1169" 
d="M946 352l174 -119q-84 -134 -198 -196t-297 -62q-243 0 -390 166t-147 461q0 297 154 463t417 166q339 0 467 -295l-206 -102q-69 206 -271 206q-157 0 -245.5 -117.5t-88.5 -322.5t84 -317.5t246 -112.5q101 0 173.5 43.5t127.5 138.5zM731 1333h-196l129 266h278z" />
    <glyph glyph-name="cacute" unicode="&#x107;" horiz-adv-x="946" 
d="M705 297l186 -53q-24 -136 -126 -202.5t-255 -66.5q-196 0 -313 130t-117 362q0 234 119.5 368t320.5 134q157 0 253 -79.5t106 -221.5l-191 -43q-10 85 -54.5 128.5t-119.5 43.5q-108 0 -167.5 -89.5t-59.5 -238.5q0 -147 63.5 -236.5t171.5 -89.5q142 0 183 154z
M608 1081h-192l149 303h281z" />
    <glyph glyph-name="Ccircumflex" unicode="&#x108;" horiz-adv-x="1169" 
d="M946 352l174 -119q-84 -134 -198 -196t-297 -62q-243 0 -390 166t-147 461q0 297 154 463t417 166q339 0 467 -295l-206 -102q-69 206 -271 206q-157 0 -245.5 -117.5t-88.5 -322.5t84 -317.5t246 -112.5q101 0 173.5 43.5t127.5 138.5zM586 1608h133l262 -275h-217
l-64 66q-16 18 -27.5 35t-14.5 24l-3 8h-6q-8 -26 -45 -67l-63 -66h-217z" />
    <glyph glyph-name="ccircumflex" unicode="&#x109;" horiz-adv-x="946" 
d="M705 297l186 -53q-24 -136 -126 -202.5t-255 -66.5q-196 0 -313 130t-117 362q0 234 119.5 368t320.5 134q157 0 253 -79.5t106 -221.5l-191 -43q-10 85 -54.5 128.5t-119.5 43.5q-108 0 -167.5 -89.5t-59.5 -238.5q0 -147 63.5 -236.5t171.5 -89.5q142 0 183 154z
M453 1389h131l262 -310h-209l-70 80q-17 20 -28.5 38.5t-14.5 26.5l-2 9h-8q-6 -29 -45 -74l-70 -80h-209z" />
    <glyph glyph-name="Cdotaccent" unicode="&#x10a;" horiz-adv-x="1169" 
d="M946 352l174 -119q-84 -134 -198 -196t-297 -62q-243 0 -390 166t-147 461q0 297 154 463t417 166q339 0 467 -295l-206 -102q-69 206 -271 206q-157 0 -245.5 -117.5t-88.5 -322.5t84 -317.5t246 -112.5q101 0 173.5 43.5t127.5 138.5zM500 1466q0 62 39 99t98 37
q61 0 101 -37t40 -99q0 -59 -40 -96t-101 -37q-58 0 -97.5 37t-39.5 96z" />
    <glyph glyph-name="cdotaccent" unicode="&#x10b;" horiz-adv-x="946" 
d="M705 297l186 -53q-24 -136 -126 -202.5t-255 -66.5q-196 0 -313 130t-117 362q0 234 119.5 368t320.5 134q157 0 253 -79.5t106 -221.5l-191 -43q-10 85 -54.5 128.5t-119.5 43.5q-108 0 -167.5 -89.5t-59.5 -238.5q0 -147 63.5 -236.5t171.5 -89.5q142 0 183 154z
M377 1214q0 62 39 99t98 37q62 0 101.5 -37t39.5 -99q0 -60 -39.5 -96.5t-101.5 -36.5q-58 0 -97.5 37t-39.5 96z" />
    <glyph glyph-name="Ccaron" unicode="&#x10c;" horiz-adv-x="1169" 
d="M946 352l174 -119q-84 -134 -198 -196t-297 -62q-243 0 -390 166t-147 461q0 297 154 463t417 166q339 0 467 -295l-206 -102q-69 206 -271 206q-157 0 -245.5 -117.5t-88.5 -322.5t84 -317.5t246 -112.5q101 0 173.5 43.5t127.5 138.5zM700 1327h-133l-262 275h217
l64 -66q16 -17 27.5 -34t14.5 -26l3 -8h6q8 29 45 68l63 66h218z" />
    <glyph glyph-name="ccaron" unicode="&#x10d;" horiz-adv-x="946" 
d="M705 297l186 -53q-24 -136 -126 -202.5t-255 -66.5q-196 0 -313 130t-117 362q0 234 119.5 368t320.5 134q157 0 253 -79.5t106 -221.5l-191 -43q-10 85 -54.5 128.5t-119.5 43.5q-108 0 -167.5 -89.5t-59.5 -238.5q0 -147 63.5 -236.5t171.5 -89.5q142 0 183 154z
M586 1079h-131l-262 310h208l70 -84q17 -20 28.5 -38.5t14.5 -26.5l2 -9h8q6 29 45 74l70 84h209z" />
    <glyph glyph-name="Dcaron" unicode="&#x10e;" horiz-adv-x="1234" 
d="M385 184h147q182 0 284 101t102 321q0 416 -367 416h-166v-838zM553 0h-387v1206h397q104 0 191 -20.5t160.5 -65.5t124.5 -113t79.5 -167t28.5 -224q0 -131 -30.5 -235t-83.5 -174.5t-128.5 -117.5t-162.5 -68t-189 -21zM625 1327h-133l-263 275h217l64 -66
q16 -17 27.5 -34t14.5 -26l3 -8h6q8 29 45 68l64 66h217z" />
    <glyph glyph-name="dcaron" unicode="&#x10f;" 
d="M1352 1393l-111 -363h-154l31 363h234zM754 383v197q0 111 -65 168t-152 57q-107 0 -174.5 -82.5t-67.5 -259.5q0 -153 63.5 -236.5t173.5 -83.5q86 0 154 63.5t68 176.5zM752 819v549h217v-1368h-189l-26 164q-62 -189 -299 -189q-159 0 -267 127t-108 353
q0 244 111 379t313 135q90 0 159.5 -42.5t88.5 -107.5z" />
    <glyph glyph-name="Dcroat" unicode="&#x110;" horiz-adv-x="1234" 
d="M553 0h-387v514h-125v182h125v510h397q104 0 191 -20.5t160.5 -65.5t124.5 -113t79.5 -167t28.5 -224q0 -131 -30.5 -235t-83.5 -174.5t-128.5 -117.5t-162.5 -68t-189 -21zM385 184h147q182 0 284 101t102 321q0 416 -367 416h-166v-326h215v-182h-215v-330z" />
    <glyph glyph-name="dcroat" unicode="&#x111;" 
d="M459 1077v144h293v147h217v-147h139v-144h-139v-1077h-189l-26 164q-62 -189 -299 -189q-159 0 -267 127t-108 353q0 244 111 379t313 135q90 0 159.5 -42.5t88.5 -107.5v258h-293zM754 383v197q0 111 -65 168t-152 57q-107 0 -174.5 -82.5t-67.5 -259.5
q0 -153 63.5 -236.5t173.5 -83.5q86 0 154 63.5t68 176.5z" />
    <glyph glyph-name="Emacron" unicode="&#x112;" horiz-adv-x="1034" 
d="M932 190v-190h-766v1206h766v-190h-547v-318h483v-186h-483v-322h547zM831 1374h-565v170h565v-170z" />
    <glyph glyph-name="emacron" unicode="&#x113;" horiz-adv-x="985" 
d="M522 143q74 0 122.5 34t70.5 112l186 -56q-16 -70 -52.5 -121.5t-89.5 -80.5t-113.5 -42.5t-131.5 -13.5q-197 0 -315.5 129t-118.5 359q0 238 118.5 372t323.5 134q184 0 283.5 -112t99.5 -298q0 -65 -16 -127h-602q6 -133 66.5 -211t168.5 -78zM293 571h403q2 12 2 37
q0 84 -50.5 140.5t-135.5 56.5q-93 0 -150.5 -62.5t-68.5 -171.5zM793 1130h-560v173h560v-173z" />
    <glyph glyph-name="Ebreve" unicode="&#x114;" horiz-adv-x="1034" 
d="M932 190v-190h-766v1206h766v-190h-547v-318h483v-186h-483v-322h547zM535 1325q-140 0 -213.5 75.5t-73.5 205.5h164q5 -63 32.5 -94t90.5 -31q65 0 92 30.5t30 94.5h166q0 -131 -73.5 -206t-214.5 -75z" />
    <glyph glyph-name="ebreve" unicode="&#x115;" horiz-adv-x="985" 
d="M522 143q74 0 122.5 34t70.5 112l186 -56q-16 -70 -52.5 -121.5t-89.5 -80.5t-113.5 -42.5t-131.5 -13.5q-197 0 -315.5 129t-118.5 359q0 238 118.5 372t323.5 134q184 0 283.5 -112t99.5 -298q0 -65 -16 -127h-602q6 -133 66.5 -211t168.5 -78zM293 571h403q2 12 2 37
q0 84 -50.5 140.5t-135.5 56.5q-93 0 -150.5 -62.5t-68.5 -171.5zM514 1073q-141 0 -215 82t-74 219h164q5 -72 31 -107.5t94 -35.5q67 0 93.5 36t29.5 107h164q0 -136 -74 -218.5t-213 -82.5z" />
    <glyph glyph-name="Edotaccent" unicode="&#x116;" horiz-adv-x="1034" 
d="M932 190v-190h-766v1206h766v-190h-547v-318h483v-186h-483v-322h547zM403 1466q0 61 39.5 98.5t98.5 37.5q61 0 101 -37t40 -99q0 -59 -40 -96t-101 -37q-58 0 -98 37t-40 96z" />
    <glyph glyph-name="edotaccent" unicode="&#x117;" horiz-adv-x="985" 
d="M522 143q74 0 122.5 34t70.5 112l186 -56q-16 -70 -52.5 -121.5t-89.5 -80.5t-113.5 -42.5t-131.5 -13.5q-197 0 -315.5 129t-118.5 359q0 238 118.5 372t323.5 134q184 0 283.5 -112t99.5 -298q0 -65 -16 -127h-602q6 -133 66.5 -211t168.5 -78zM293 571h403q2 12 2 37
q0 84 -50.5 140.5t-135.5 56.5q-93 0 -150.5 -62.5t-68.5 -171.5zM371 1214q0 62 39 99t98 37q62 0 101.5 -37t39.5 -99q0 -60 -39.5 -96.5t-101.5 -36.5q-58 0 -97.5 37t-39.5 96z" />
    <glyph glyph-name="Eogonek" unicode="&#x118;" horiz-adv-x="1034" 
d="M932 190v-190h-49q-97 0 -153 -44.5t-56 -129.5q0 -55 27.5 -85t78.5 -30q83 0 140 76l59 -104q-81 -115 -242 -115q-109 0 -177 55.5t-68 163.5q0 145 139 213h-465v1206h766v-190h-547v-318h483v-186h-483v-322h547z" />
    <glyph glyph-name="eogonek" unicode="&#x119;" horiz-adv-x="985" 
d="M362 -213q0 116 84 193q-169 21 -267.5 146.5t-98.5 336.5q0 238 118.5 372t323.5 134q184 0 283.5 -112t99.5 -298q0 -65 -16 -127h-602q6 -133 66.5 -211t168.5 -78q74 0 122.5 34t70.5 112l186 -56q-12 -54 -35 -95t-55 -67t-61.5 -42t-67.5 -29q-137 -49 -137 -172
q0 -57 27.5 -87t78.5 -30q83 0 140 76l59 -104q-81 -115 -242 -115q-109 0 -177.5 55.5t-68.5 163.5zM293 571h403q2 12 2 37q0 84 -50.5 140.5t-135.5 56.5q-93 0 -150.5 -62.5t-68.5 -171.5z" />
    <glyph glyph-name="Ecaron" unicode="&#x11a;" horiz-adv-x="1034" 
d="M932 190v-190h-766v1206h766v-190h-547v-318h483v-186h-483v-322h547zM606 1327h-133l-262 275h217l64 -66q16 -17 27.5 -34t14.5 -26l3 -8h6q8 29 45 68l63 66h217z" />
    <glyph glyph-name="ecaron" unicode="&#x11b;" horiz-adv-x="985" 
d="M522 143q74 0 122.5 34t70.5 112l186 -56q-16 -70 -52.5 -121.5t-89.5 -80.5t-113.5 -42.5t-131.5 -13.5q-197 0 -315.5 129t-118.5 359q0 238 118.5 372t323.5 134q184 0 283.5 -112t99.5 -298q0 -65 -16 -127h-602q6 -133 66.5 -211t168.5 -78zM293 571h403q2 12 2 37
q0 84 -50.5 140.5t-135.5 56.5q-93 0 -150.5 -62.5t-68.5 -171.5zM582 1079h-131l-263 310h209l70 -84q17 -20 28.5 -38.5t14.5 -26.5l2 -9h8q6 29 45 74l70 84h209z" />
    <glyph glyph-name="Gcircumflex" unicode="&#x11c;" horiz-adv-x="1261" 
d="M645 629h492v-629h-156l-33 150q-38 -85 -129 -130t-203 -45q-117 0 -213 39.5t-166.5 116t-109.5 196t-39 271.5q0 299 154 466t417 167q348 0 467 -295l-206 -102q-35 102 -105 154t-166 52q-146 0 -240 -113t-94 -331q0 -200 82.5 -320t247.5 -120q125 0 202 57
t77 160v73h-279v183zM596 1608h133l262 -275h-217l-63 66q-16 18 -27.5 35t-14.5 24l-3 8h-7q-8 -26 -45 -67l-63 -66h-217z" />
    <glyph glyph-name="gcircumflex" unicode="&#x11d;" horiz-adv-x="1005" 
d="M477 969q169 0 273 -70q30 20 43.5 50.5t27.5 92.5l178 -61q-10 -65 -56 -111.5t-107 -60.5q43 -73 43 -176q0 -106 -55 -181t-145 -110t-204 -35q-80 0 -121 15q-57 -32 -57 -93q0 -69 92 -69h246q158 0 244 -72t86 -199q0 -74 -30.5 -131t-80.5 -92t-120 -58
t-141.5 -31.5t-152.5 -8.5q-87 0 -159 12t-133.5 38.5t-96.5 76t-35 117.5q0 90 63.5 144.5t182.5 63.5q-64 6 -101.5 49.5t-37.5 104.5t36.5 107t110.5 67q-188 79 -188 285q0 159 107.5 247.5t287.5 88.5zM217 -156q0 -129 246 -129q148 0 223.5 33.5t75.5 108.5
q0 110 -146 110h-215q-184 0 -184 -123zM297 635q0 -82 47 -131t133 -49q88 0 137.5 45.5t49.5 134.5q0 90 -49.5 136t-137.5 46q-88 -2 -134 -48t-46 -134zM442 1397h131l263 -310h-209l-70 80q-17 20 -28.5 38.5t-14.5 26.5l-2 9h-8q-6 -29 -45 -74l-70 -80h-209z" />
    <glyph glyph-name="Gbreve" unicode="&#x11e;" horiz-adv-x="1261" 
d="M645 629h492v-629h-156l-33 150q-38 -85 -129 -130t-203 -45q-117 0 -213 39.5t-166.5 116t-109.5 196t-39 271.5q0 299 154 466t417 167q348 0 467 -295l-206 -102q-35 102 -105 154t-166 52q-146 0 -240 -113t-94 -331q0 -200 82.5 -320t247.5 -120q125 0 202 57
t77 160v73h-279v183zM662 1325q-140 0 -213.5 75.5t-73.5 205.5h164q5 -63 32.5 -94t90.5 -31q65 0 92 30.5t30 94.5h166q0 -131 -73.5 -206t-214.5 -75z" />
    <glyph glyph-name="gbreve" unicode="&#x11f;" horiz-adv-x="1005" 
d="M477 969q169 0 273 -70q30 20 43.5 50.5t27.5 92.5l178 -61q-10 -65 -56 -111.5t-107 -60.5q43 -73 43 -176q0 -106 -55 -181t-145 -110t-204 -35q-80 0 -121 15q-57 -32 -57 -93q0 -69 92 -69h246q158 0 244 -72t86 -199q0 -74 -30.5 -131t-80.5 -92t-120 -58
t-141.5 -31.5t-152.5 -8.5q-87 0 -159 12t-133.5 38.5t-96.5 76t-35 117.5q0 90 63.5 144.5t182.5 63.5q-64 6 -101.5 49.5t-37.5 104.5t36.5 107t110.5 67q-188 79 -188 285q0 159 107.5 247.5t287.5 88.5zM217 -156q0 -129 246 -129q148 0 223.5 33.5t75.5 108.5
q0 110 -146 110h-215q-184 0 -184 -123zM297 635q0 -82 47 -131t133 -49q88 0 137.5 45.5t49.5 134.5q0 90 -49.5 136t-137.5 46q-88 -2 -134 -48t-46 -134zM489 1073q-140 0 -214 82t-74 219h164q5 -73 30.5 -108t93.5 -35q67 0 93.5 36t29.5 107h164q0 -136 -74 -218.5
t-213 -82.5z" />
    <glyph glyph-name="Gdotaccent" unicode="&#x120;" horiz-adv-x="1261" 
d="M645 629h492v-629h-156l-33 150q-38 -85 -129 -130t-203 -45q-117 0 -213 39.5t-166.5 116t-109.5 196t-39 271.5q0 299 154 466t417 167q348 0 467 -295l-206 -102q-35 102 -105 154t-166 52q-146 0 -240 -113t-94 -331q0 -200 82.5 -320t247.5 -120q125 0 202 57
t77 160v73h-279v183zM522 1487q0 61 39 98t98 37q62 0 102 -36.5t40 -98.5q0 -59 -40.5 -96t-101.5 -37q-58 0 -97.5 37t-39.5 96z" />
    <glyph glyph-name="gdotaccent" unicode="&#x121;" horiz-adv-x="1005" 
d="M477 969q169 0 273 -70q30 20 43.5 50.5t27.5 92.5l178 -61q-10 -65 -56 -111.5t-107 -60.5q43 -73 43 -176q0 -106 -55 -181t-145 -110t-204 -35q-80 0 -121 15q-57 -32 -57 -93q0 -69 92 -69h246q158 0 244 -72t86 -199q0 -74 -30.5 -131t-80.5 -92t-120 -58
t-141.5 -31.5t-152.5 -8.5q-87 0 -159 12t-133.5 38.5t-96.5 76t-35 117.5q0 90 63.5 144.5t182.5 63.5q-64 6 -101.5 49.5t-37.5 104.5t36.5 107t110.5 67q-188 79 -188 285q0 159 107.5 247.5t287.5 88.5zM217 -156q0 -129 246 -129q148 0 223.5 33.5t75.5 108.5
q0 110 -146 110h-215q-184 0 -184 -123zM297 635q0 -82 47 -131t133 -49q88 0 137.5 45.5t49.5 134.5q0 90 -49.5 136t-137.5 46q-88 -2 -134 -48t-46 -134zM342 1219q0 61 39 98t98 37q63 0 102.5 -36.5t39.5 -98.5q0 -60 -40 -97t-102 -37q-58 0 -97.5 37.5t-39.5 96.5z
" />
    <glyph glyph-name="Gcommaaccent" unicode="&#x122;" horiz-adv-x="1261" 
d="M645 629h492v-629h-156l-33 150q-38 -85 -129 -130t-203 -45q-117 0 -213 39.5t-166.5 116t-109.5 196t-39 271.5q0 299 154 466t417 167q348 0 467 -295l-206 -102q-35 102 -105 154t-166 52q-146 0 -240 -113t-94 -331q0 -200 82.5 -320t247.5 -120q125 0 202 57
t77 160v73h-279v183zM817 -291q0 -115 -67 -168t-197 -53v82q66 3 96.5 22t30.5 64q-56 -11 -93.5 17t-37.5 83q0 57 34.5 87t90.5 30q62 0 102.5 -44.5t40.5 -119.5z" />
    <glyph glyph-name="gcommaaccent" unicode="&#x123;" horiz-adv-x="1005" 
d="M477 969q169 0 273 -70q30 20 43.5 50.5t27.5 92.5l178 -61q-10 -65 -56 -111.5t-107 -60.5q43 -73 43 -176q0 -106 -55 -181t-145 -110t-204 -35q-80 0 -121 15q-57 -32 -57 -93q0 -69 92 -69h246q158 0 244 -72t86 -199q0 -74 -30.5 -131t-80.5 -92t-120 -58
t-141.5 -31.5t-152.5 -8.5q-87 0 -159 12t-133.5 38.5t-96.5 76t-35 117.5q0 90 63.5 144.5t182.5 63.5q-64 6 -101.5 49.5t-37.5 104.5t36.5 107t110.5 67q-188 79 -188 285q0 159 107.5 247.5t287.5 88.5zM217 -156q0 -129 246 -129q148 0 223.5 33.5t75.5 108.5
q0 110 -146 110h-215q-184 0 -184 -123zM297 635q0 -82 47 -131t133 -49q88 0 137.5 45.5t49.5 134.5q0 90 -49.5 136t-137.5 46q-88 -2 -134 -48t-46 -134zM342 1245q0 115 66.5 168t195.5 53v-82q-65 -3 -96 -22t-31 -64q58 11 95.5 -17t37.5 -83q0 -57 -34.5 -87
t-90.5 -30q-62 0 -102.5 44.5t-40.5 119.5z" />
    <glyph glyph-name="Hcircumflex" unicode="&#x124;" horiz-adv-x="1306" 
d="M385 0h-219v1206h219v-499h537v499h219v-1206h-219v518h-537v-518zM586 1608h133l262 -275h-217l-64 66q-16 18 -27.5 35t-14.5 24l-3 8h-6q-8 -26 -45 -67l-63 -66h-217z" />
    <glyph glyph-name="hcircumflex" unicode="&#x125;" horiz-adv-x="1060" 
d="M356 1368v-602q67 203 289 203q124 0 204.5 -73.5t80.5 -221.5v-674h-215v604q0 182 -154 182q-42 0 -76.5 -12t-64.5 -39.5t-47 -77.5t-17 -120v-537h-215v1368h215zM188 1712h134l262 -274h-217l-64 65q-16 18 -27.5 35t-14.5 25l-3 8h-6q-8 -27 -45 -68l-64 -65h-217z
" />
    <glyph glyph-name="Hbar" unicode="&#x126;" horiz-adv-x="1335" 
d="M23 850v176h155v180h217v-180h539v180h219v-180h160v-176h-160v-850h-219v510h-539v-510h-217v850h-155zM395 690h539v160h-539v-160z" />
    <glyph glyph-name="hbar" unicode="&#x127;" horiz-adv-x="1060" 
d="M356 1368v-147h291v-144h-291v-311q67 203 289 203q124 0 204.5 -73.5t80.5 -221.5v-674h-215v604q0 182 -154 182q-42 0 -76.5 -12t-64.5 -39.5t-47 -77.5t-17 -120v-537h-215v1077h-143v144h143v147h215z" />
    <glyph glyph-name="Itilde" unicode="&#x128;" horiz-adv-x="550" 
d="M166 1206h219v-1206h-219v1206zM424 1335q-31 0 -57.5 6.5t-42.5 14.5t-48 26q-7 4 -25.5 15t-23.5 13.5t-18 9.5t-19.5 8.5t-16 3.5t-19.5 2q-33 0 -50.5 -24.5t-11.5 -74.5h-125q-23 53 -20 103.5t24 90t62.5 63.5t93.5 24q46 0 78.5 -12.5t75.5 -38.5q5 -3 16 -10
t14.5 -9t12.5 -7.5t12.5 -7t11 -5.5t11 -5t9.5 -3t10.5 -3t9.5 -1.5t11 -0.5q66 0 58 99h131q42 -114 -4.5 -195.5t-159.5 -81.5z" />
    <glyph glyph-name="itilde" unicode="&#x129;" horiz-adv-x="497" 
d="M397 1077q-12 0 -23.5 1t-20 2t-19 5t-16 5.5t-17.5 7t-15.5 7.5t-17.5 9.5t-18 9.5q-6 4 -22 13t-21 12t-16.5 9t-17 8t-14.5 5t-16.5 4t-15.5 1q-72 0 -61 -97h-125q-27 72 -17 133t58 101.5t118 40.5q47 0 80 -12t74 -37q70 -43 93 -49q12 -3 26 -3q65 0 57 99h131
q42 -115 -4.5 -195t-159.5 -80zM141 946h215v-946h-215v946z" />
    <glyph glyph-name="Imacron" unicode="&#x12a;" horiz-adv-x="550" 
d="M166 1206h219v-1206h-219v1206zM559 1374h-565v170h565v-170z" />
    <glyph glyph-name="imacron" unicode="&#x12b;" horiz-adv-x="497" 
d="M492 1130h-486v173h486v-173zM141 946h215v-946h-215v946z" />
    <glyph glyph-name="Ibreve" unicode="&#x12c;" horiz-adv-x="550" 
d="M166 1206h219v-1206h-219v1206zM274 1325q-139 0 -212.5 75t-73.5 206h164q5 -64 32 -94.5t90 -30.5q65 0 92.5 31t30.5 94h166q0 -131 -74 -206t-215 -75z" />
    <glyph glyph-name="Iogonek" unicode="&#x12e;" horiz-adv-x="550" 
d="M-12 -213q0 92 50.5 154.5t127.5 95.5v1169h219v-1206q-85 0 -150 -46.5t-65 -129.5q0 -54 27 -83.5t77 -29.5q82 0 142 76l59 -104q-81 -115 -242 -115q-109 0 -177 55.5t-68 163.5z" />
    <glyph glyph-name="iogonek" unicode="&#x12f;" horiz-adv-x="497" 
d="M-41 -213q0 93 51.5 156t130.5 96v907h215v-946q-85 0 -150 -46.5t-65 -129.5q0 -54 27.5 -83.5t77.5 -29.5q81 0 141 76l59 -104q-81 -115 -241 -115q-109 0 -177.5 55.5t-68.5 163.5zM111 1245q0 61 39 98t98 37q61 0 101 -36.5t40 -98.5q0 -59 -40 -97t-101 -38
q-58 0 -97.5 38t-39.5 97z" />
    <glyph glyph-name="Idotaccent" unicode="&#x130;" horiz-adv-x="550" 
d="M166 1206h219v-1206h-219v1206zM135 1466q0 62 39 99t98 37q61 0 101.5 -37t40.5 -99q0 -59 -40.5 -96t-101.5 -37q-58 0 -97.5 37t-39.5 96z" />
    <glyph glyph-name="dotlessi" unicode="&#x131;" horiz-adv-x="497" 
d="M141 946h215v-946h-215v946z" />
    <glyph glyph-name="IJ" unicode="&#x132;" horiz-adv-x="1406" 
d="M166 1206h219v-1206h-219v1206zM1059 1206h219v-856q0 -100 -31.5 -174.5t-87.5 -117t-125 -63t-151 -20.5q-278 0 -394 234l166 135q45 -100 96.5 -143t131.5 -43q99 0 137.5 59t38.5 178v811z" />
    <glyph glyph-name="ij" unicode="&#x133;" horiz-adv-x="993" 
d="M111 1245q0 61 39 98t98 37q61 0 101 -36.5t40 -98.5q0 -59 -40 -97t-101 -38q-58 0 -97.5 38t-39.5 97zM141 946h215v-946h-215v946zM637 946h215v-952q0 -433 -481 -410v183q139 -15 202.5 38t63.5 197v944zM606 1245q0 61 39 98t98 37q60 0 101 -37t41 -98
q0 -59 -41 -97t-101 -38q-58 0 -97.5 38t-39.5 97z" />
    <glyph glyph-name="Jcircumflex" unicode="&#x134;" horiz-adv-x="917" 
d="M569 1206h219v-856q0 -100 -31.5 -174.5t-87.5 -117t-125 -63t-151 -20.5q-277 0 -393 234l166 135q45 -100 96 -143t131 -43q99 0 137.5 59t38.5 178v811zM608 1608h133l263 -275h-218l-63 66q-16 18 -27.5 35t-14.5 24l-3 8h-6q-8 -26 -45 -67l-64 -66h-217z" />
    <glyph glyph-name="jcircumflex" unicode="&#x135;" horiz-adv-x="495" 
d="M141 946h213v-952q0 -433 -479 -410v183q138 -15 202 38.5t64 196.5v944zM182 1389h131l262 -310h-208l-70 80q-17 20 -28.5 38.5t-14.5 26.5l-2 9h-8q-6 -29 -45 -74l-70 -80h-209z" />
    <glyph glyph-name="Kcommaaccent" unicode="&#x136;" horiz-adv-x="1130" 
d="M1098 0h-267l-360 518h-86v-518h-219v1206h219v-499h90l336 499h254l-408 -585zM705 -291q0 -115 -67.5 -168t-197.5 -53v82q66 3 96.5 22t30.5 64q-56 -11 -93.5 17t-37.5 83q0 57 34.5 87t90.5 30q62 0 103 -44.5t41 -119.5z" />
    <glyph glyph-name="kcommaaccent" unicode="&#x137;" horiz-adv-x="993" 
d="M586 506l393 -506h-258l-309 412h-56v-412h-215v1368h215v-788h47l291 366h254zM664 -291q0 -115 -67.5 -168t-197.5 -53v82q66 3 96.5 22t30.5 64q-56 -11 -93.5 17t-37.5 83q0 57 34.5 87t90.5 30q62 0 103 -44.5t41 -119.5z" />
    <glyph glyph-name="kgreenlandic" unicode="&#x138;" horiz-adv-x="993" 
d="M586 506l393 -506h-258l-309 412h-56v-412h-215v946h213v-366h49l291 366h254z" />
    <glyph glyph-name="Lacute" unicode="&#x139;" horiz-adv-x="950" 
d="M166 1206h219v-1016h516v-190h-735v1206zM377 1333h-197l129 266h279z" />
    <glyph glyph-name="lacute" unicode="&#x13a;" horiz-adv-x="552" 
d="M494 180l-7 -178q-73 -18 -129 -18q-101 0 -166 54t-65 163v1167h215v-1116q0 -82 84 -82q35 0 68 10zM332 1475h-197l129 266h279z" />
    <glyph glyph-name="Lcommaaccent" unicode="&#x13b;" horiz-adv-x="950" 
d="M166 1206h219v-1016h516v-190h-735v1206zM688 -291q0 -115 -67 -168t-197 -53v82q66 3 96.5 22t30.5 64q-56 -11 -93.5 17t-37.5 83q0 57 34.5 87t90.5 30q62 0 102.5 -44.5t40.5 -119.5z" />
    <glyph glyph-name="lcommaaccent" unicode="&#x13c;" horiz-adv-x="552" 
d="M494 180l-7 -178q-73 -18 -129 -18q-101 0 -166 54t-65 163v1167h215v-1116q0 -82 84 -82q35 0 68 10zM455 -291q0 -115 -67.5 -168t-197.5 -53v82q66 3 96.5 22t30.5 64q-56 -11 -93.5 17t-37.5 83q0 57 34.5 87t90.5 30q62 0 103 -44.5t41 -119.5z" />
    <glyph glyph-name="Lcaron" unicode="&#x13d;" horiz-adv-x="950" 
d="M166 1206h219v-1016h516v-190h-735v1206zM879 1260l-111 -379h-154l31 379h234z" />
    <glyph glyph-name="lcaron" unicode="&#x13e;" horiz-adv-x="552" 
d="M729 1393l-113 -363h-153l33 363h233zM494 180l-7 -178q-73 -18 -129 -18q-101 0 -166 54t-65 163v1167h215v-1116q0 -82 84 -82q35 0 68 10z" />
    <glyph glyph-name="Ldot" unicode="&#x13f;" horiz-adv-x="950" 
d="M166 1206h219v-1016h516v-190h-735v1206zM541 664q0 64 43 107.5t106 43.5q66 0 110 -43t44 -108q0 -64 -44 -108t-110 -44q-63 0 -106 44.5t-43 107.5z" />
    <glyph glyph-name="ldot" unicode="&#x140;" horiz-adv-x="700" 
d="M494 180l-7 -178q-73 -18 -129 -18q-101 0 -166 54t-65 163v1167h215v-1116q0 -82 84 -82q35 0 68 10zM442 659q0 64 43.5 108t106.5 44q66 0 109.5 -43.5t43.5 -108.5q0 -63 -43.5 -107t-109.5 -44q-63 0 -106.5 44t-43.5 107z" />
    <glyph glyph-name="Lslash" unicode="&#x141;" horiz-adv-x="968" 
d="M61 442v156l123 45v563h219v-483l287 104v-161l-287 -103v-373h517v-190h-736v485z" />
    <glyph glyph-name="lslash" unicode="&#x142;" horiz-adv-x="579" 
d="M25 530v168l122 62v608h215v-498l158 82v-172l-158 -80v-448q0 -82 84 -82q35 0 68 10l-6 -178q-74 -18 -129 -18q-101 0 -166.5 54t-65.5 163v391z" />
    <glyph glyph-name="Nacute" unicode="&#x143;" horiz-adv-x="1349" 
d="M381 1206l459 -655q32 -44 63 -96t47 -81l15 -30h8q-8 120 -8 272v590h219v-1206h-209l-463 649q-35 47 -67.5 101t-48.5 84l-15 30h-8q12 -118 12 -280v-584h-219v1206h215zM764 1333h-197l129 266h279z" />
    <glyph glyph-name="nacute" unicode="&#x144;" horiz-adv-x="1060" 
d="M315 946l27 -182q74 205 303 205q124 0 204.5 -73.5t80.5 -221.5v-674h-215v602q0 184 -154 184q-89 0 -147 -58t-58 -193v-535h-215v946h174zM623 1081h-193l150 303h280z" />
    <glyph glyph-name="Ncommaaccent" unicode="&#x145;" horiz-adv-x="1349" 
d="M381 1206l459 -655q32 -44 63 -96t47 -81l15 -30h8q-8 120 -8 272v590h219v-1206h-209l-463 649q-35 47 -67.5 101t-48.5 84l-15 30h-8q12 -118 12 -280v-584h-219v1206h215zM829 -291q0 -115 -67 -168t-197 -53v82q66 3 96.5 22t30.5 64q-56 -11 -93.5 17t-37.5 83
q0 57 34.5 87t90.5 30q62 0 102.5 -44.5t40.5 -119.5z" />
    <glyph glyph-name="ncommaaccent" unicode="&#x146;" horiz-adv-x="1060" 
d="M315 946l27 -182q74 205 303 205q124 0 204.5 -73.5t80.5 -221.5v-674h-215v602q0 184 -154 184q-89 0 -147 -58t-58 -193v-535h-215v946h174zM678 -291q0 -115 -67 -168t-197 -53v82q66 3 96.5 22t30.5 64q-56 -11 -93.5 17t-37.5 83q0 57 34.5 87t90.5 30
q62 0 102.5 -44.5t40.5 -119.5z" />
    <glyph glyph-name="Ncaron" unicode="&#x147;" horiz-adv-x="1349" 
d="M381 1206l459 -655q32 -44 63 -96t47 -81l15 -30h8q-8 120 -8 272v590h219v-1206h-209l-463 649q-35 47 -67.5 101t-48.5 84l-15 30h-8q12 -118 12 -280v-584h-219v1206h215zM741 1327h-133l-262 275h217l64 -66q16 -17 27.5 -34t14.5 -26l3 -8h6q8 29 45 68l63 66h218z
" />
    <glyph glyph-name="ncaron" unicode="&#x148;" horiz-adv-x="1060" 
d="M315 946l27 -182q74 205 303 205q124 0 204.5 -73.5t80.5 -221.5v-674h-215v602q0 184 -154 184q-89 0 -147 -58t-58 -193v-535h-215v946h174zM606 1079h-131l-262 310h209l70 -84q17 -20 28.5 -38.5t13.5 -26.5l3 -9h8q6 29 45 74l69 84h209z" />
    <glyph glyph-name="Eng" unicode="&#x14a;" horiz-adv-x="1349" 
d="M1184 1206v-1263q0 -102 -32.5 -177t-90.5 -117t-127 -61.5t-152 -19.5q-202 0 -331 133l122 170q38 -55 95 -87t116 -32q102 0 141.5 59t39.5 177v22l-453 639q-35 47 -67.5 101t-48.5 84l-15 30h-8q12 -118 12 -280v-584h-219v1206h215l459 -655q32 -44 63 -96t47 -81
l15 -30h8q-8 120 -8 272v590h219z" />
    <glyph glyph-name="eng" unicode="&#x14b;" horiz-adv-x="1060" 
d="M356 0h-215v946h174l27 -182q74 205 303 205q124 0 204.5 -73.5t80.5 -221.5v-680q0 -433 -481 -410v183q139 -15 202.5 38t63.5 197v600q0 184 -154 184q-89 0 -147 -58t-58 -193v-535z" />
    <glyph glyph-name="Omacron" unicode="&#x14c;" horiz-adv-x="1282" 
d="M641 -25q-258 0 -405.5 164.5t-147.5 462.5q0 299 147.5 464t405.5 165t405.5 -165t147.5 -464q0 -298 -147.5 -462.5t-405.5 -164.5zM641 1038q-158 0 -241 -115.5t-83 -322.5q0 -206 82.5 -321t241.5 -115t242.5 115t83.5 321q0 207 -83.5 322.5t-242.5 115.5z
M924 1374h-566v170h566v-170z" />
    <glyph glyph-name="omacron" unicode="&#x14d;" horiz-adv-x="1040" 
d="M520 -25q-202 0 -321 132t-119 370q0 237 118 364.5t322 127.5t322.5 -127.5t118.5 -364.5q0 -238 -119 -370t-322 -132zM520 797q-229 0 -229 -320q0 -334 229 -334q228 0 228 334q0 320 -228 320zM801 1130h-559v173h559v-173z" />
    <glyph glyph-name="Obreve" unicode="&#x14e;" horiz-adv-x="1282" 
d="M641 -25q-258 0 -405.5 164.5t-147.5 462.5q0 299 147.5 464t405.5 165t405.5 -165t147.5 -464q0 -298 -147.5 -462.5t-405.5 -164.5zM641 1038q-158 0 -241 -115.5t-83 -322.5q0 -206 82.5 -321t241.5 -115t242.5 115t83.5 321q0 207 -83.5 322.5t-242.5 115.5z
M641 1325q-140 0 -213.5 75.5t-73.5 205.5h164q5 -63 32.5 -94t90.5 -31q65 0 92.5 31t30.5 94h166q0 -131 -74 -206t-215 -75z" />
    <glyph glyph-name="obreve" unicode="&#x14f;" horiz-adv-x="1040" 
d="M520 -25q-202 0 -321 132t-119 370q0 237 118 364.5t322 127.5t322.5 -127.5t118.5 -364.5q0 -238 -119 -370t-322 -132zM520 797q-229 0 -229 -320q0 -334 229 -334q228 0 228 334q0 320 -228 320zM520 1073q-141 0 -215 82t-74 219h164q5 -72 31 -107.5t94 -35.5
q67 0 93.5 36t29.5 107h164q0 -136 -74 -218.5t-213 -82.5z" />
    <glyph glyph-name="Ohungarumlaut" unicode="&#x150;" horiz-adv-x="1282" 
d="M641 -25q-258 0 -405.5 164.5t-147.5 462.5q0 299 147.5 464t405.5 165t405.5 -165t147.5 -464q0 -298 -147.5 -462.5t-405.5 -164.5zM641 1038q-158 0 -241 -115.5t-83 -322.5q0 -206 82.5 -321t241.5 -115t242.5 115t83.5 321q0 207 -83.5 322.5t-242.5 115.5z
M553 1333h-156l121 266h244zM879 1333h-168l147 266h258z" />
    <glyph glyph-name="ohungarumlaut" unicode="&#x151;" horiz-adv-x="1040" 
d="M520 -25q-202 0 -321 132t-119 370q0 237 118 364.5t322 127.5t322.5 -127.5t118.5 -364.5q0 -238 -119 -370t-322 -132zM520 797q-229 0 -229 -320q0 -334 229 -334q228 0 228 334q0 320 -228 320zM428 1081h-156l121 303h244zM754 1081h-168l147 303h258z" />
    <glyph glyph-name="OE" unicode="&#x152;" horiz-adv-x="1746" 
d="M641 -25q-258 0 -405.5 164.5t-147.5 462.5q0 299 147.5 464t405.5 165q94 0 180 -25h824v-190h-564q92 -125 107 -318h393v-186h-391q-18 -198 -109 -322h564v-190h-824q-86 -25 -180 -25zM641 1038q-157 0 -239.5 -115.5t-82.5 -322.5q0 -206 82 -321t240 -115t240 115
t82 321q0 208 -81.5 323t-240.5 115z" />
    <glyph glyph-name="oe" unicode="&#x153;" horiz-adv-x="1656" 
d="M1192 143q74 0 122 33.5t72 112.5l185 -56q-15 -70 -51.5 -121.5t-89.5 -80.5t-114 -42.5t-132 -13.5q-112 0 -199.5 45t-132.5 132q-83 -177 -332 -177q-202 0 -321 132t-119 370q0 237 118 364.5t322 127.5q253 0 336 -183q44 89 130.5 136t205.5 47q184 0 283.5 -112
t99.5 -298q0 -77 -16 -127h-603q6 -133 67 -211t169 -78zM520 797q-229 0 -229 -320q0 -334 229 -334q228 0 228 334q0 320 -228 320zM963 571h403q2 12 2 37q0 84 -50.5 140.5t-135.5 56.5q-93 0 -150 -62t-69 -172z" />
    <glyph glyph-name="Racute" unicode="&#x154;" horiz-adv-x="1148" 
d="M1081 0h-239q-42 40 -58 117l-47 198q-23 92 -70 123t-135 31h-147v-469h-219v1206h436q422 0 422 -352q0 -136 -76.5 -214t-197.5 -87v-4q86 -12 134 -55t72 -134l62 -233q19 -75 63 -127zM385 1022v-373h207q104 0 154.5 45.5t50.5 141.5q0 186 -205 186h-207z
M635 1333h-197l129 266h279z" />
    <glyph glyph-name="racute" unicode="&#x155;" horiz-adv-x="755" 
d="M723 967l-21 -240q-40 12 -92 12q-103 0 -178.5 -72t-75.5 -204v-463h-215v946h183l26 -258q32 136 122.5 212t250.5 67zM512 1081h-193l150 303h281z" />
    <glyph glyph-name="Rcommaaccent" unicode="&#x156;" horiz-adv-x="1148" 
d="M1081 0h-239q-42 40 -58 117l-47 198q-23 92 -70 123t-135 31h-147v-469h-219v1206h436q422 0 422 -352q0 -136 -76.5 -214t-197.5 -87v-4q86 -12 134 -55t72 -134l62 -233q19 -75 63 -127zM385 1022v-373h207q104 0 154.5 45.5t50.5 141.5q0 186 -205 186h-207z
M700 -291q0 -115 -67 -168t-197 -53v82q66 3 96.5 22t30.5 64q-56 -11 -93.5 17t-37.5 83q0 57 34.5 87t90.5 30q62 0 102.5 -44.5t40.5 -119.5z" />
    <glyph glyph-name="rcommaaccent" unicode="&#x157;" horiz-adv-x="755" 
d="M723 967l-21 -240q-40 12 -92 12q-103 0 -178.5 -72t-75.5 -204v-463h-215v946h183l26 -258q32 136 122.5 212t250.5 67zM383 -291q0 -115 -67 -168t-197 -53v82q66 3 96.5 22t30.5 64q-56 -11 -93.5 17t-37.5 83q0 57 34.5 87t90.5 30q62 0 102.5 -44.5t40.5 -119.5z
" />
    <glyph glyph-name="Rcaron" unicode="&#x158;" horiz-adv-x="1148" 
d="M1081 0h-239q-42 40 -58 117l-47 198q-23 92 -70 123t-135 31h-147v-469h-219v1206h436q422 0 422 -352q0 -136 -76.5 -214t-197.5 -87v-4q86 -12 134 -55t72 -134l62 -233q19 -75 63 -127zM385 1022v-373h207q104 0 154.5 45.5t50.5 141.5q0 186 -205 186h-207z
M612 1327h-133l-262 275h217l64 -66q16 -17 27.5 -34t14.5 -26l3 -8h6q8 29 45 68l63 66h217z" />
    <glyph glyph-name="rcaron" unicode="&#x159;" horiz-adv-x="755" 
d="M723 967l-21 -240q-40 12 -92 12q-103 0 -178.5 -72t-75.5 -204v-463h-215v946h183l26 -258q32 136 122.5 212t250.5 67zM479 1079h-131l-262 310h209l70 -84q17 -20 28.5 -38.5t14.5 -26.5l2 -9h8q6 29 45 74l69 84h209z" />
    <glyph glyph-name="Sacute" unicode="&#x15a;" horiz-adv-x="1003" 
d="M53 283l203 69q17 -102 81.5 -155.5t160.5 -53.5q90 0 144 39.5t54 114.5q0 74 -47.5 117t-185.5 92q-71 24 -122 47t-99.5 55.5t-78 70t-47.5 90t-18 116.5q0 93 34 162.5t92 109t126 58t146 18.5q119 0 207.5 -30t148 -102t70.5 -183l-217 -50q-9 91 -64.5 139
t-140.5 48q-79 0 -127.5 -40t-48.5 -114q0 -32 11 -57.5t28 -44t51 -36.5t66 -31t87 -32q70 -24 118 -45t96.5 -53t77 -68.5t46 -90t17.5 -119.5q0 -90 -34 -158t-95 -109t-138.5 -61.5t-169.5 -20.5q-183 0 -290 73.5t-142 234.5zM600 1333h-197l129 266h279z" />
    <glyph glyph-name="sacute" unicode="&#x15b;" horiz-adv-x="876" 
d="M49 215l184 64q12 -77 64 -114.5t135 -37.5q75 0 121.5 29t46.5 84q0 53 -31 82.5t-108 48.5l-139 32q-125 32 -181.5 99t-56.5 174q0 80 30.5 139t83.5 91.5t115.5 47.5t135.5 15q329 0 352 -260l-205 -25q-11 125 -160 125q-68 0 -106.5 -29.5t-38.5 -81.5
q0 -48 26 -76t91 -42l131 -29q136 -32 203 -101.5t67 -191.5q0 -99 -51.5 -164t-134.5 -92t-195 -27q-170 0 -263 56.5t-116 183.5zM545 1081h-193l150 303h280z" />
    <glyph glyph-name="Scircumflex" unicode="&#x15c;" horiz-adv-x="1003" 
d="M53 283l203 69q17 -102 81.5 -155.5t160.5 -53.5q90 0 144 39.5t54 114.5q0 74 -47.5 117t-185.5 92q-71 24 -122 47t-99.5 55.5t-78 70t-47.5 90t-18 116.5q0 93 34 162.5t92 109t126 58t146 18.5q119 0 207.5 -30t148 -102t70.5 -183l-217 -50q-9 91 -64.5 139
t-140.5 48q-79 0 -127.5 -40t-48.5 -114q0 -32 11 -57.5t28 -44t51 -36.5t66 -31t87 -32q70 -24 118 -45t96.5 -53t77 -68.5t46 -90t17.5 -119.5q0 -90 -34 -158t-95 -109t-138.5 -61.5t-169.5 -20.5q-183 0 -290 73.5t-142 234.5zM444 1608h134l262 -275h-217l-64 66
q-16 18 -27.5 35t-14.5 24l-3 8h-6q-8 -26 -45 -67l-64 -66h-217z" />
    <glyph glyph-name="scircumflex" unicode="&#x15d;" horiz-adv-x="876" 
d="M49 215l184 64q12 -77 64 -114.5t135 -37.5q75 0 121.5 29t46.5 84q0 53 -31 82.5t-108 48.5l-139 32q-125 32 -181.5 99t-56.5 174q0 80 30.5 139t83.5 91.5t115.5 47.5t135.5 15q329 0 352 -260l-205 -25q-11 125 -160 125q-68 0 -106.5 -29.5t-38.5 -81.5
q0 -48 26 -76t91 -42l131 -29q136 -32 203 -101.5t67 -191.5q0 -99 -51.5 -164t-134.5 -92t-195 -27q-170 0 -263 56.5t-116 183.5zM399 1389h131l263 -310h-209l-70 80q-17 20 -28.5 38.5t-13.5 26.5l-3 9h-8q-6 -29 -45 -74l-70 -80h-209z" />
    <glyph glyph-name="Scedilla" unicode="&#x15e;" horiz-adv-x="1003" 
d="M717 -250q0 -88 -63 -135t-160 -47q-132 0 -195 76l51 114q55 -73 129 -73q70 0 70 63q0 80 -125 86l14 143q-162 8 -257.5 81.5t-127.5 224.5l203 69q17 -102 81.5 -155.5t160.5 -53.5q90 0 144 39.5t54 114.5q0 74 -47.5 117t-185.5 92q-71 24 -122 47t-99.5 55.5
t-78 70t-47.5 90t-18 116.5q0 93 34 162.5t92 109t126 58t146 18.5q119 0 207.5 -30t148 -102t70.5 -183l-217 -50q-9 91 -64.5 139t-140.5 48q-79 0 -127.5 -40t-48.5 -114q0 -32 11 -57.5t28 -44t51 -36.5t66 -31t87 -32q70 -24 118 -45t96.5 -53t77 -68.5t46 -90
t17.5 -119.5q0 -162 -105.5 -249t-277.5 -98l-2 -57q180 -14 180 -170z" />
    <glyph glyph-name="scedilla" unicode="&#x15f;" horiz-adv-x="876" 
d="M647 -250q0 -88 -63 -135t-160 -47q-132 0 -195 76l52 114q55 -73 129 -73q69 0 69 63q0 80 -125 86l15 143q-142 9 -221 65.5t-99 172.5l184 64q12 -77 64 -114.5t135 -37.5q75 0 121.5 29t46.5 84q0 53 -31 82.5t-108 48.5l-139 32q-125 32 -181.5 99t-56.5 174
q0 80 30.5 139t83.5 91.5t115.5 47.5t135.5 15q329 0 352 -260l-205 -25q-11 125 -160 125q-68 0 -106.5 -29.5t-38.5 -81.5q0 -48 26 -76t91 -42l131 -29q136 -32 203 -101.5t67 -191.5q0 -137 -91.5 -205t-248.5 -76l-2 -57q180 -14 180 -170z" />
    <glyph glyph-name="Scaron" unicode="&#x160;" horiz-adv-x="1003" 
d="M53 283l203 69q17 -102 81.5 -155.5t160.5 -53.5q90 0 144 39.5t54 114.5q0 74 -47.5 117t-185.5 92q-71 24 -122 47t-99.5 55.5t-78 70t-47.5 90t-18 116.5q0 93 34 162.5t92 109t126 58t146 18.5q119 0 207.5 -30t148 -102t70.5 -183l-217 -50q-9 91 -64.5 139
t-140.5 48q-79 0 -127.5 -40t-48.5 -114q0 -32 11 -57.5t28 -44t51 -36.5t66 -31t87 -32q70 -24 118 -45t96.5 -53t77 -68.5t46 -90t17.5 -119.5q0 -90 -34 -158t-95 -109t-138.5 -61.5t-169.5 -20.5q-183 0 -290 73.5t-142 234.5zM578 1327h-134l-262 275h217l64 -66
q16 -17 27.5 -34t14.5 -26l3 -8h6q8 29 45 68l64 66h217z" />
    <glyph glyph-name="scaron" unicode="&#x161;" horiz-adv-x="876" 
d="M49 215l184 64q12 -77 64 -114.5t135 -37.5q75 0 121.5 29t46.5 84q0 53 -31 82.5t-108 48.5l-139 32q-125 32 -181.5 99t-56.5 174q0 80 30.5 139t83.5 91.5t115.5 47.5t135.5 15q329 0 352 -260l-205 -25q-11 125 -160 125q-68 0 -106.5 -29.5t-38.5 -81.5
q0 -48 26 -76t91 -42l131 -29q136 -32 203 -101.5t67 -191.5q0 -99 -51.5 -164t-134.5 -92t-195 -27q-170 0 -263 56.5t-116 183.5zM512 1079h-131l-262 310h209l69 -84q17 -20 28.5 -38.5t14.5 -26.5l2 -9h9q6 29 45 74l69 84h209z" />
    <glyph glyph-name="Tcommaaccent" unicode="&#x162;" horiz-adv-x="950" 
d="M582 0h-217v1016h-345v190h910v-190h-348v-1016zM604 -291q0 -115 -67 -168t-197 -53v82q66 3 96.5 22t30.5 64q-56 -11 -93.5 17t-37.5 83q0 57 34.5 87t90.5 30q62 0 102.5 -44.5t40.5 -119.5z" />
    <glyph glyph-name="tcommaaccent" unicode="&#x163;" horiz-adv-x="722" 
d="M653 213l39 -180q-101 -58 -250 -58q-135 0 -209.5 70.5t-74.5 208.5v524h-138v168h138v201l217 27v-228h280v-168h-282v-479q0 -141 121 -141q80 0 159 55zM537 -291q0 -115 -67.5 -168t-197.5 -53v82q66 3 96.5 22t30.5 64q-56 -11 -93.5 17t-37.5 83q0 57 34.5 87
t90.5 30q62 0 103 -44.5t41 -119.5z" />
    <glyph glyph-name="Tcaron" unicode="&#x164;" horiz-adv-x="950" 
d="M582 0h-217v1016h-345v190h910v-190h-348v-1016zM541 1327h-133l-263 275h217l64 -66q16 -17 27.5 -34t14.5 -26l3 -8h6q8 29 45 68l64 66h217z" />
    <glyph glyph-name="tcaron" unicode="&#x165;" horiz-adv-x="722" 
d="M653 213l39 -180q-101 -58 -250 -58q-135 0 -209.5 70.5t-74.5 208.5v524h-138v168h138v201l217 27v-228h280v-168h-282v-479q0 -141 121 -141q80 0 159 55zM733 1432l-110 -379h-154l31 379h233z" />
    <glyph glyph-name="Tbar" unicode="&#x166;" horiz-adv-x="950" 
d="M582 0h-217v496h-222v178h222v342h-345v190h910v-190h-348v-342h227v-178h-227v-496z" />
    <glyph glyph-name="tbar" unicode="&#x167;" horiz-adv-x="722" 
d="M20 461v162h138v155h-138v168h138v201l217 27v-228h280v-168h-282v-155h282v-162h-282v-162q0 -141 121 -141q80 0 159 55l39 -180q-101 -58 -250 -58q-135 0 -209.5 70.5t-74.5 208.5v207h-138z" />
    <glyph glyph-name="Utilde" unicode="&#x168;" horiz-adv-x="1210" 
d="M862 1206h219v-809q0 -115 -39 -199t-107.5 -131.5t-150.5 -69.5t-180 -22q-97 0 -179 22t-150 69.5t-107 132t-39 198.5v809h219v-749q0 -153 63 -227t193 -74q132 0 195 74t63 225v751zM750 1335q-31 0 -57.5 6.5t-42.5 14.5t-48 26q-6 4 -22 13t-21 12t-16.5 9t-17 8
t-14.5 5t-16.5 4t-15.5 1q-33 0 -50 -24.5t-11 -74.5h-125q-23 53 -20 103.5t24 90t62.5 63.5t93.5 24q46 0 78 -12t75 -39q70 -43 93 -49q12 -3 26 -3q65 0 57 99h131q42 -114 -4 -195.5t-159 -81.5z" />
    <glyph glyph-name="utilde" unicode="&#x169;" horiz-adv-x="1056" 
d="M731 0l-26 174q-31 -103 -101.5 -151t-189.5 -48q-135 0 -211 75.5t-76 236.5v659h215v-614q0 -100 37.5 -148.5t118.5 -48.5q82 0 142 70t60 198v543h215v-946h-184zM668 1077q-11 0 -20.5 0.5t-19 2.5t-16.5 3t-16.5 5t-14 5.5t-15.5 6.5t-14.5 7t-15.5 8.5t-16 8.5
q-6 4 -22 13t-21 12t-16.5 9t-17 8t-14.5 5t-16.5 4t-15.5 1q-72 0 -61 -97h-125q-27 72 -16.5 133t58.5 101.5t118 40.5q47 0 79.5 -11.5t73.5 -37.5q70 -43 93 -49q12 -3 26 -3q65 0 57 99h131q42 -115 -4 -195t-159 -80z" />
    <glyph glyph-name="Umacron" unicode="&#x16a;" horiz-adv-x="1210" 
d="M862 1206h219v-809q0 -115 -39 -199t-107.5 -131.5t-150.5 -69.5t-180 -22q-97 0 -179 22t-150 69.5t-107 132t-39 198.5v809h219v-749q0 -153 63 -227t193 -74q132 0 195 74t63 225v751zM887 1374h-565v170h565v-170z" />
    <glyph glyph-name="umacron" unicode="&#x16b;" horiz-adv-x="1056" 
d="M731 0l-26 174q-31 -103 -101.5 -151t-189.5 -48q-135 0 -211 75.5t-76 236.5v659h215v-614q0 -100 37.5 -148.5t118.5 -48.5q82 0 142 70t60 198v543h215v-946h-184zM803 1130h-559v173h559v-173z" />
    <glyph glyph-name="Ubreve" unicode="&#x16c;" horiz-adv-x="1210" 
d="M862 1206h219v-809q0 -115 -39 -199t-107.5 -131.5t-150.5 -69.5t-180 -22q-97 0 -179 22t-150 69.5t-107 132t-39 198.5v809h219v-749q0 -153 63 -227t193 -74q132 0 195 74t63 225v751zM604 1325q-140 0 -213.5 75.5t-73.5 205.5h164q5 -63 32.5 -94t90.5 -31
q65 0 92.5 31t30.5 94h166q0 -131 -74 -206t-215 -75z" />
    <glyph glyph-name="ubreve" unicode="&#x16d;" horiz-adv-x="1056" 
d="M731 0l-26 174q-31 -103 -101.5 -151t-189.5 -48q-135 0 -211 75.5t-76 236.5v659h215v-614q0 -100 37.5 -148.5t118.5 -48.5q82 0 142 70t60 198v543h215v-946h-184zM522 1073q-141 0 -215 82t-74 219h164q5 -72 31 -107.5t94 -35.5q67 0 93.5 36t29.5 107h164
q0 -136 -74 -218.5t-213 -82.5z" />
    <glyph glyph-name="Uring" unicode="&#x16e;" horiz-adv-x="1210" 
d="M862 1206h219v-809q0 -115 -39 -199t-107.5 -131.5t-150.5 -69.5t-180 -22q-97 0 -179 22t-150 69.5t-107 132t-39 198.5v809h219v-749q0 -153 63 -227t193 -74q132 0 195 74t63 225v751zM621 1296q-103 0 -161.5 60.5t-58.5 152.5q0 86 61.5 146.5t158.5 60.5t158 -60.5
t61 -146.5q0 -93 -58 -153t-161 -60zM621 1618q-50 0 -79.5 -31.5t-29.5 -79.5q0 -46 28.5 -76t80.5 -30t80 30t28 76q0 49 -29 80t-79 31z" />
    <glyph glyph-name="uring" unicode="&#x16f;" horiz-adv-x="1056" 
d="M731 0l-26 174q-31 -103 -101.5 -151t-189.5 -48q-135 0 -211 75.5t-76 236.5v659h215v-614q0 -100 37.5 -148.5t118.5 -48.5q82 0 142 70t60 198v543h215v-946h-184zM522 1055q-103 0 -161 60t-58 153q0 86 61 146.5t158 60.5t158 -60.5t61 -146.5q0 -93 -58 -153
t-161 -60zM522 1376q-50 0 -79 -31t-29 -79q0 -47 28 -77t80 -30t80.5 30.5t28.5 76.5q0 48 -29.5 79t-79.5 31z" />
    <glyph glyph-name="Uhungarumlaut" unicode="&#x170;" horiz-adv-x="1210" 
d="M862 1206h219v-809q0 -115 -39 -199t-107.5 -131.5t-150.5 -69.5t-180 -22q-97 0 -179 22t-150 69.5t-107 132t-39 198.5v809h219v-749q0 -153 63 -227t193 -74q132 0 195 74t63 225v751zM516 1333h-156l121 266h244zM842 1333h-168l147 266h258z" />
    <glyph glyph-name="uhungarumlaut" unicode="&#x171;" horiz-adv-x="1056" 
d="M731 0l-26 174q-31 -103 -101.5 -151t-189.5 -48q-135 0 -211 75.5t-76 236.5v659h215v-614q0 -100 37.5 -148.5t118.5 -48.5q82 0 142 70t60 198v543h215v-946h-184zM430 1081h-156l121 303h244zM756 1081h-168l147 303h258z" />
    <glyph glyph-name="Uogonek" unicode="&#x172;" horiz-adv-x="1210" 
d="M389 -213q0 123 90 199q-159 27 -254.5 126.5t-95.5 284.5v809h219v-749q0 -153 63 -227t193 -74q132 0 195 74t63 225v751h219v-809q0 -103 -31.5 -182t-88.5 -127t-126.5 -74t-154.5 -34q-109 -48 -109 -156q0 -54 28 -83.5t79 -29.5q82 0 139 76l60 -104
q-81 -115 -242 -115q-109 0 -177.5 55.5t-68.5 163.5z" />
    <glyph glyph-name="uogonek" unicode="&#x173;" horiz-adv-x="1056" 
d="M524 -217q0 88 58 152.5t143 99.5l-20 145q-62 -205 -291 -205q-135 0 -211 75.5t-76 236.5v659h215v-614q0 -197 154 -197q83 0 143.5 73t60.5 202v536h215v-946q-90 -3 -149 -51t-59 -127q0 -52 25 -81.5t73 -29.5q81 0 141 76l60 -104q-80 -115 -242 -115
q-107 0 -173.5 55t-66.5 160z" />
    <glyph glyph-name="Wcircumflex" unicode="&#x174;" horiz-adv-x="1724" 
d="M997 1206l177 -725q19 -81 34.5 -163.5t21.5 -125.5l5 -42h8q17 151 60 329l172 727h221l-297 -1206h-316l-168 672q-20 81 -32.5 163t-14.5 124l-2 42h-8q-10 -147 -55 -329l-168 -672h-309l-297 1206h231l172 -723q19 -80 34.5 -163.5t21.5 -126.5l6 -43h8
q16 151 59 331l180 725h256zM795 1608h133l262 -275h-217l-64 66q-16 18 -27.5 35t-14.5 24l-3 8h-6q-8 -26 -45 -67l-63 -66h-218z" />
    <glyph glyph-name="wcircumflex" unicode="&#x175;" horiz-adv-x="1409" 
d="M811 946l125 -452q24 -84 39.5 -168.5t19.5 -127.5l4 -42h9q6 146 53 336l113 454h215l-254 -946h-256l-113 412q-21 76 -35 151t-18 113l-4 37h-9q-10 -129 -55 -301l-106 -412h-256l-263 946h220l118 -452q23 -84 39 -168.5t21 -127.5l4 -42h8q6 150 55 340l121 450
h205zM639 1389h131l262 -310h-209l-69 80q-17 20 -28.5 38.5t-13.5 26.5l-3 9h-9q-6 -29 -45 -74l-69 -80h-209z" />
    <glyph glyph-name="Ycircumflex" unicode="&#x176;" horiz-adv-x="1032" 
d="M268 1206l174 -350q32 -64 53.5 -120.5t26.5 -80.5l6 -24h9q11 80 79 223l166 352h230l-373 -768v-438h-219v438l-400 768h248zM451 1608h133l262 -275h-217l-64 66q-16 18 -27.5 35t-14.5 24l-3 8h-6q-8 -26 -45 -67l-63 -66h-218z" />
    <glyph glyph-name="ycircumflex" unicode="&#x177;" horiz-adv-x="931" 
d="M248 946l147 -489q25 -83 43 -158t24 -109l5 -34h8q15 115 70 299l149 491h226l-359 -1026q-36 -104 -78 -173t-93 -106.5t-104.5 -52t-123.5 -14.5q-76 0 -150 23l25 186q60 -31 125 -31q72 0 118 43t82 150l-350 1001h236zM410 1389h131l262 -310h-209l-70 80
q-17 20 -28.5 38.5t-13.5 26.5l-3 9h-8q-6 -29 -45 -74l-70 -80h-209z" />
    <glyph glyph-name="Ydieresis" unicode="&#x178;" horiz-adv-x="1032" 
d="M268 1206l174 -350q32 -64 53.5 -120.5t26.5 -80.5l6 -24h9q11 80 79 223l166 352h230l-373 -768v-438h-219v438l-400 768h248zM172 1466q0 60 37.5 96.5t93.5 36.5q58 0 95.5 -36.5t37.5 -96.5q0 -58 -37.5 -94.5t-95.5 -36.5q-55 0 -93 37t-38 94zM588 1466
q0 60 38.5 96.5t92.5 36.5q58 0 96.5 -36.5t38.5 -96.5q0 -59 -38.5 -96t-96.5 -37q-54 0 -92.5 37.5t-38.5 95.5z" />
    <glyph glyph-name="Zacute" unicode="&#x179;" horiz-adv-x="999" 
d="M936 1057l-496 -717q-31 -44 -61.5 -81.5t-44.5 -52.5l-15 -16v-8q56 8 173 8h458v-190h-901v141l492 725q31 44 61.5 81.5t45.5 52.5l14 16v8q-54 -8 -173 -8h-419v190h866v-149zM588 1333h-197l129 266h279z" />
    <glyph glyph-name="zacute" unicode="&#x17a;" horiz-adv-x="829" 
d="M760 807l-342 -485q-31 -44 -61.5 -81.5t-44.5 -52.5l-15 -16v-8q55 8 172 8h311v-172h-731v125l340 496q31 44 61.5 81.5t45.5 52.5l14 15v8q-55 -8 -172 -8h-270v176h692v-139zM502 1081h-193l150 303h280z" />
    <glyph glyph-name="Zdotaccent" unicode="&#x17b;" horiz-adv-x="999" 
d="M936 1057l-496 -717q-31 -44 -61.5 -81.5t-44.5 -52.5l-15 -16v-8q56 8 173 8h458v-190h-901v141l492 725q31 44 61.5 81.5t45.5 52.5l14 16v8q-54 -8 -173 -8h-419v190h866v-149zM360 1491q0 61 39.5 98t98.5 37q61 0 101 -36.5t40 -98.5q0 -59 -40 -96t-101 -37
q-58 0 -98 37t-40 96z" />
    <glyph glyph-name="zdotaccent" unicode="&#x17c;" horiz-adv-x="829" 
d="M760 807l-342 -485q-31 -44 -61.5 -81.5t-44.5 -52.5l-15 -16v-8q55 8 172 8h311v-172h-731v125l340 496q31 44 61.5 81.5t45.5 52.5l14 15v8q-55 -8 -172 -8h-270v176h692v-139zM283 1239q0 61 39 98t98 37q63 0 102 -36.5t39 -98.5q0 -60 -39.5 -96.5t-101.5 -36.5
q-58 0 -97.5 37t-39.5 96z" />
    <glyph glyph-name="Zcaron" unicode="&#x17d;" horiz-adv-x="999" 
d="M936 1057l-496 -717q-31 -44 -61.5 -81.5t-44.5 -52.5l-15 -16v-8q56 8 173 8h458v-190h-901v141l492 725q31 44 61.5 81.5t45.5 52.5l14 16v8q-54 -8 -173 -8h-419v190h866v-149zM565 1327h-133l-262 275h217l64 -66q16 -17 27.5 -34t14.5 -26l3 -8h6q8 29 45 68l63 66
h217z" />
    <glyph glyph-name="zcaron" unicode="&#x17e;" horiz-adv-x="829" 
d="M760 807l-342 -485q-31 -44 -61.5 -81.5t-44.5 -52.5l-15 -16v-8q55 8 172 8h311v-172h-731v125l340 496q31 44 61.5 81.5t45.5 52.5l14 15v8q-55 -8 -172 -8h-270v176h692v-139zM496 1079h-131l-263 310h209l70 -84q17 -20 28.5 -38.5t14.5 -26.5l2 -9h8q6 29 45 74
l70 84h209z" />
    <glyph glyph-name="Schwa" unicode="&#x18f;" horiz-adv-x="1185" 
d="M98 907q40 163 164 243.5t299 80.5q244 0 390.5 -163.5t146.5 -457.5q0 -305 -144 -470t-395 -165q-228 0 -349.5 136t-121.5 374q0 90 16 168h768q-5 168 -89.5 275.5t-233.5 107.5q-202 0 -266 -200zM870 483h-559q-4 -14 -4 -53q0 -122 67.5 -199t186.5 -77
q134 0 215.5 91.5t93.5 237.5z" />
    <glyph glyph-name="florin" unicode="&#x192;" horiz-adv-x="921" 
d="M68 -246l112 563h-139l31 175h139l37 192q32 170 136 249t247 79q80 0 153.5 -30.5t116.5 -86.5l-127 -162q-58 94 -158 94q-116 0 -151 -153l-37 -182h242l-31 -175h-242l-112 -563h-217z" />
    <glyph glyph-name="Khook" unicode="&#x198;" horiz-adv-x="1130" 
d="M780 909l-125 -295l443 -614h-267l-356 504h-90v-504h-219v1206h219v-504h94l113 281q51 125 123.5 186.5t179.5 61.5q153 0 209 -139l-125 -140q-31 66 -84 66q-36 0 -62 -23.5t-53 -85.5z" />
    <glyph glyph-name="khook" unicode="&#x199;" horiz-adv-x="993" 
d="M356 412v-412h-215v1040q0 84 25.5 148.5t68.5 102t98 59.5t117.5 25t123 -6t116.5 -30l-37 -192q-46 24 -87 36.5t-80.5 10.5t-68 -22t-46 -65.5t-17.5 -115.5v-411h49l291 366h254l-362 -440l393 -506h-258l-309 412h-56z" />
    <glyph glyph-name="Ezh" unicode="&#x1b7;" horiz-adv-x="976" 
d="M289 555l217 311q31 44 61.5 81.5t44.5 52.5l15 16v8q-55 -8 -172 -8h-394v190h834v-149l-391 -522v-9q135 -5 231.5 -64t143.5 -156t47 -222q0 -209 -132 -331t-345 -122q-203 0 -327 97t-149 276l183 78q20 -141 95.5 -212t192.5 -71q127 0 199 75t72 206
q0 151 -109.5 236t-316.5 85v154z" />
    <glyph glyph-name="Acaron" unicode="&#x1cd;" horiz-adv-x="1198" 
d="M942 0l-106 303h-482l-106 -303h-228l439 1206h280l439 -1206h-236zM496 713l-80 -228h354l-78 226q-30 84 -53.5 165.5t-32.5 120.5l-8 39h-8q-28 -133 -94 -323zM659 1327h-133l-262 275h217l64 -66q16 -17 27.5 -34t14.5 -26l3 -8h6q8 29 45 68l64 66h217z" />
    <glyph glyph-name="acaron" unicode="&#x1ce;" horiz-adv-x="995" 
d="M614 289v123q-171 4 -250 -35t-79 -121q0 -54 35.5 -88.5t99.5 -34.5q75 0 134.5 41.5t59.5 114.5zM827 670v-426q0 -86 70 -86q32 0 55 10v-162q-49 -22 -118 -22q-172 0 -205 151q-63 -160 -279 -160q-126 0 -203 69t-77 189q0 162 133 242.5t411 67.5v106
q0 77 -39.5 114.5t-111.5 37.5q-69 0 -109.5 -38t-44.5 -110l-209 35q5 73 38 128.5t86 88t116.5 48.5t136.5 16q162 0 256 -72.5t94 -226.5zM549 1079h-131l-262 310h209l69 -84q17 -20 28.5 -38.5t13.5 -26.5l3 -9h8q6 29 45 74l70 84h209z" />
    <glyph glyph-name="Icaron" unicode="&#x1cf;" horiz-adv-x="550" 
d="M166 1206h219v-1206h-219v1206zM342 1327h-133l-262 275h217l63 -66q16 -17 27.5 -34t14.5 -26l3 -8h7q8 29 45 68l63 66h217z" />
    <glyph glyph-name="icaron" unicode="&#x1d0;" horiz-adv-x="497" 
d="M315 1079h-131l-262 310h209l70 -84q17 -20 28.5 -38.5t14.5 -26.5l2 -9h8q6 29 45 74l70 84h209zM141 946h215v-946h-215v946z" />
    <glyph glyph-name="Ocaron" unicode="&#x1d1;" horiz-adv-x="1282" 
d="M641 -25q-258 0 -405.5 164.5t-147.5 462.5q0 299 147.5 464t405.5 165t405.5 -165t147.5 -464q0 -298 -147.5 -462.5t-405.5 -164.5zM641 1038q-158 0 -241 -115.5t-83 -322.5q0 -206 82.5 -321t241.5 -115t242.5 115t83.5 321q0 207 -83.5 322.5t-242.5 115.5z
M709 1327h-134l-262 275h217l64 -66q16 -17 27.5 -34t14.5 -26l3 -8h6q8 29 45 68l64 66h217z" />
    <glyph glyph-name="ocaron" unicode="&#x1d2;" horiz-adv-x="1040" 
d="M520 -25q-202 0 -321 132t-119 370q0 237 118 364.5t322 127.5t322.5 -127.5t118.5 -364.5q0 -238 -119 -370t-322 -132zM520 797q-229 0 -229 -320q0 -334 229 -334q228 0 228 334q0 320 -228 320zM586 1079h-131l-262 310h208l70 -84q17 -20 28.5 -38.5t14.5 -26.5
l2 -9h8q6 29 45 74l70 84h209z" />
    <glyph glyph-name="Ucaron" unicode="&#x1d3;" horiz-adv-x="1210" 
d="M862 1206h219v-809q0 -115 -39 -199t-107.5 -131.5t-150.5 -69.5t-180 -22q-97 0 -179 22t-150 69.5t-107 132t-39 198.5v809h219v-749q0 -153 63 -227t193 -74q132 0 195 74t63 225v751zM670 1327h-133l-263 275h218l63 -66q16 -17 27.5 -34t14.5 -26l3 -8h6q8 29 45 68
l64 66h217z" />
    <glyph glyph-name="ucaron" unicode="&#x1d4;" horiz-adv-x="1056" 
d="M731 0l-26 174q-31 -103 -101.5 -151t-189.5 -48q-135 0 -211 75.5t-76 236.5v659h215v-614q0 -100 37.5 -148.5t118.5 -48.5q82 0 142 70t60 198v543h215v-946h-184zM588 1079h-131l-262 310h208l70 -84q17 -20 28.5 -38.5t14.5 -26.5l2 -9h8q6 29 45 74l70 84h209z" />
    <glyph glyph-name="uni01D9" unicode="&#x1d9;" horiz-adv-x="1210" 
d="M862 1206h219v-809q0 -115 -39 -199t-107.5 -131.5t-150.5 -69.5t-180 -22q-97 0 -179 22t-150 69.5t-107 132t-39 198.5v809h219v-749q0 -153 63 -227t193 -74q132 0 195 74t63 225v751zM260 1405q0 60 37.5 96.5t93.5 36.5q58 0 95.5 -36.5t37.5 -96.5
q0 -58 -37.5 -94.5t-95.5 -36.5q-55 0 -93 37t-38 94zM676 1405q0 60 38.5 96.5t92.5 36.5q58 0 96.5 -36.5t38.5 -96.5q0 -59 -38.5 -96t-96.5 -37q-54 0 -92.5 37.5t-38.5 95.5zM670 1561h-135l-263 276h217l64 -68q16 -17 27.5 -33.5t14.5 -23.5l3 -8h6q8 26 45 65l66 68
h215z" />
    <glyph glyph-name="uni01DA" unicode="&#x1da;" horiz-adv-x="1056" 
d="M731 0l-26 174q-31 -103 -101.5 -151t-189.5 -48q-135 0 -211 75.5t-76 236.5v659h215v-614q0 -100 37.5 -148.5t118.5 -48.5q82 0 142 70t60 198v543h215v-946h-184zM178 1149q0 60 38.5 96.5t92.5 36.5q58 0 95.5 -36.5t37.5 -96.5q0 -59 -37.5 -95t-95.5 -36
q-54 0 -92.5 36.5t-38.5 94.5zM596 1147q0 60 37.5 96.5t93.5 36.5q57 0 95 -36.5t38 -96.5q0 -58 -38.5 -94.5t-94.5 -36.5q-55 0 -93 37t-38 94zM588 1305h-135l-263 274h218l63 -66q17 -17 28.5 -34t14.5 -25l2 -8h8q6 28 45 67l64 66h217z" />
    <glyph glyph-name="uni004100A800AF" unicode="&#x1de;" horiz-adv-x="1198" 
d="M942 0l-106 303h-482l-106 -303h-228l439 1206h280l439 -1206h-236zM496 713l-80 -228h354l-78 226q-30 84 -53.5 165.5t-32.5 120.5l-8 39h-8q-28 -133 -94 -323zM877 1665h-566v170h566v-170zM254 1430q0 60 37.5 96.5t93.5 36.5q58 0 95.5 -36.5t37.5 -96.5
q0 -58 -38 -95t-95 -37q-55 0 -93 37t-38 95zM670 1430q0 60 38.5 96.5t92.5 36.5q58 0 96.5 -36.5t38.5 -96.5q0 -59 -38.5 -96.5t-96.5 -37.5q-54 0 -92.5 37.5t-38.5 96.5z" />
    <glyph glyph-name="adieresismacron" unicode="&#x1df;" horiz-adv-x="995" 
d="M614 289v123q-171 4 -250 -35t-79 -121q0 -54 35.5 -88.5t99.5 -34.5q75 0 134.5 41.5t59.5 114.5zM827 670v-426q0 -86 70 -86q32 0 55 10v-162q-49 -22 -118 -22q-172 0 -205 151q-63 -160 -279 -160q-126 0 -203 69t-77 189q0 162 133 242.5t411 67.5v106
q0 77 -39.5 114.5t-111.5 37.5q-69 0 -109.5 -38t-44.5 -110l-209 35q5 73 38 128.5t86 88t116.5 48.5t136.5 16q162 0 256 -72.5t94 -226.5zM764 1382h-559v172h559v-172zM139 1163q0 60 37.5 96.5t93.5 36.5q58 0 95.5 -36.5t37.5 -96.5q0 -58 -37.5 -94.5t-95.5 -36.5
q-55 0 -93 37t-38 94zM555 1163q0 60 38.5 96.5t92.5 36.5q58 0 96.5 -36.5t38.5 -96.5q0 -59 -38.5 -96t-96.5 -37q-54 0 -92.5 37.5t-38.5 95.5z" />
    <glyph glyph-name="AEmacron" unicode="&#x1e2;" horiz-adv-x="1734" 
d="M1632 0h-764v303h-432l-186 -303h-238l733 1206h887v-190h-547v-318h486v-186h-486v-322h547v-190zM872 1047l-335 -562h331v248q-1 92 2.5 170.5t7.5 110.5l3 33h-9zM1405 1374h-565v170h565v-170z" />
    <glyph glyph-name="aemacron" unicode="&#x1e3;" horiz-adv-x="1495" 
d="M1030 150q146 0 195 141l184 -58q-15 -70 -51.5 -121.5t-89.5 -80.5t-114 -42.5t-132 -13.5q-223 0 -338 158q-89 -158 -317 -158q-135 0 -216 68.5t-81 189.5q0 325 524 328q5 53 27 117q-9 62 -50.5 92.5t-105.5 30.5q-70 0 -109.5 -38t-44.5 -110l-209 35
q4 59 27 106.5t58.5 79.5t83 54t100 31.5t110.5 9.5q179 0 262 -99q116 99 287 99q182 0 281.5 -115t101.5 -297q0 -75 -12 -131h-596q5 -126 62 -201t163 -75zM807 561h393q2 12 2 47q0 85 -48 141t-132 56q-93 0 -148.5 -66.5t-66.5 -177.5zM420 135q67 0 120 34t76 95
q-23 67 -26 162q-160 -3 -228.5 -41.5t-68.5 -122.5q0 -58 33.5 -92.5t93.5 -34.5zM1016 1130h-559v173h559v-173z" />
    <glyph glyph-name="Gstroke" unicode="&#x1e4;" horiz-adv-x="1312" 
d="M645 659h492v-235h120v-135h-120v-289h-156l-33 150q-38 -85 -129 -130t-203 -45q-117 0 -213 39.5t-166.5 116t-109.5 196t-39 271.5q0 299 154 466t417 167q348 0 467 -295l-206 -102q-35 102 -105 154t-166 52q-145 0 -238.5 -113t-93.5 -331q0 -131 33.5 -228.5
t108.5 -156.5t186 -59q103 0 176 34t101 103h-277v135h279v92h-279v143z" />
    <glyph glyph-name="gstroke" unicode="&#x1e5;" horiz-adv-x="1122" 
d="M541 969q168 0 272 -70q32 20 46 51.5t26 91.5l178 -61q-9 -65 -55 -111.5t-107 -60.5q43 -73 43 -176q0 -157 -114 -241.5t-289 -84.5q-83 0 -121 15q-58 -31 -58 -93q0 -69 93 -69h243q160 0 246 -72t86 -199v-14h92v-72h-104q-20 -66 -71 -114t-124 -73t-151 -36.5
t-168 -11.5q-86 0 -156.5 11.5t-132 37t-96.5 73t-37 113.5h-82v72h90q42 130 238 145q-65 6 -102.5 49.5t-37.5 104.5q0 60 36.5 106.5t109.5 67.5q-189 81 -189 285q0 159 108 247.5t288 88.5zM360 635q0 -81 47.5 -130.5t133.5 -49.5q88 0 137 45.5t49 134.5
q0 90 -49 136t-137 46q-87 -2 -134 -48.5t-47 -133.5zM465 -31q-161 0 -184 -94h548q-10 94 -145 94h-219zM526 -295q253 0 295 98h-538q32 -98 243 -98z" />
    <glyph glyph-name="Gcaron" unicode="&#x1e6;" horiz-adv-x="1261" 
d="M645 629h492v-629h-156l-33 150q-38 -85 -129 -130t-203 -45q-117 0 -213 39.5t-166.5 116t-109.5 196t-39 271.5q0 299 154 466t417 167q348 0 467 -295l-206 -102q-35 102 -105 154t-166 52q-146 0 -240 -113t-94 -331q0 -200 82.5 -320t247.5 -120q125 0 202 57
t77 160v73h-279v183zM729 1327h-133l-262 275h217l63 -66q16 -17 27.5 -34t14.5 -26l3 -8h7q8 29 45 68l63 66h217z" />
    <glyph glyph-name="gcaron" unicode="&#x1e7;" horiz-adv-x="1005" 
d="M477 969q169 0 273 -70q30 20 43.5 50.5t27.5 92.5l178 -61q-10 -65 -56 -111.5t-107 -60.5q43 -73 43 -176q0 -106 -55 -181t-145 -110t-204 -35q-80 0 -121 15q-57 -32 -57 -93q0 -69 92 -69h246q158 0 244 -72t86 -199q0 -74 -30.5 -131t-80.5 -92t-120 -58
t-141.5 -31.5t-152.5 -8.5q-87 0 -159 12t-133.5 38.5t-96.5 76t-35 117.5q0 90 63.5 144.5t182.5 63.5q-64 6 -101.5 49.5t-37.5 104.5t36.5 107t110.5 67q-188 79 -188 285q0 159 107.5 247.5t287.5 88.5zM217 -156q0 -129 246 -129q148 0 223.5 33.5t75.5 108.5
q0 110 -146 110h-215q-184 0 -184 -123zM297 635q0 -82 47 -131t133 -49q88 0 137.5 45.5t49.5 134.5q0 90 -49.5 136t-137.5 46q-88 -2 -134 -48t-46 -134zM561 1079h-131l-262 310h209l69 -84q17 -20 28.5 -38.5t14.5 -26.5l3 -9h8q6 29 45 74l69 84h209z" />
    <glyph glyph-name="Kcaron" unicode="&#x1e8;" horiz-adv-x="1130" 
d="M1098 0h-267l-360 518h-86v-518h-219v1206h219v-499h90l336 499h254l-408 -585zM616 1327h-133l-262 275h217l64 -66q16 -17 27.5 -34t14.5 -26l3 -8h6q8 29 45 68l64 66h217z" />
    <glyph glyph-name="kcaron" unicode="&#x1e9;" horiz-adv-x="993" 
d="M586 506l393 -506h-258l-309 412h-56v-412h-215v1368h215v-788h47l291 366h254zM317 1454h-133l-262 275h217l64 -66q16 -17 27.5 -34t14.5 -25l3 -9h6q8 29 45 68l63 66h218z" />
    <glyph glyph-name="Oogonek" unicode="&#x1ea;" horiz-adv-x="1282" 
d="M418 -213q0 123 92 201q-199 39 -310.5 197.5t-111.5 416.5q0 299 147.5 464t405.5 165t405.5 -165t147.5 -464q0 -278 -129 -439.5t-356 -182.5q-109 -48 -109 -156q0 -54 27.5 -83.5t77.5 -29.5q81 0 141 76l59 -104q-81 -115 -241 -115q-109 0 -177.5 55.5
t-68.5 163.5zM641 1038q-158 0 -241 -115.5t-83 -322.5q0 -206 82.5 -321t241.5 -115t242.5 115t83.5 321q0 207 -83.5 322.5t-242.5 115.5z" />
    <glyph glyph-name="oogonek" unicode="&#x1eb;" horiz-adv-x="1040" 
d="M279 -213q0 127 100 209q-141 41 -220 164.5t-79 316.5q0 237 118 364.5t322 127.5t322.5 -127.5t118.5 -364.5q0 -224 -106.5 -354.5t-289.5 -145.5q-104 -49 -104 -153q0 -54 27.5 -83.5t78.5 -29.5q80 0 140 76l59 -104q-81 -115 -242 -115q-109 0 -177 55.5
t-68 163.5zM520 797q-229 0 -229 -320q0 -334 229 -334q228 0 228 334q0 320 -228 320z" />
    <glyph glyph-name="uni004F02DB00AF" unicode="&#x1ec;" horiz-adv-x="1282" 
d="M924 1374h-566v170h566v-170zM418 -213q0 123 92 201q-199 39 -310.5 197.5t-111.5 416.5q0 299 147.5 464t405.5 165t405.5 -165t147.5 -464q0 -278 -129 -439.5t-356 -182.5q-109 -48 -109 -156q0 -54 27.5 -83.5t77.5 -29.5q81 0 141 76l59 -104q-81 -115 -241 -115
q-109 0 -177.5 55.5t-68.5 163.5zM641 1038q-158 0 -241 -115.5t-83 -322.5q0 -206 82.5 -321t241.5 -115t242.5 115t83.5 321q0 207 -83.5 322.5t-242.5 115.5z" />
    <glyph glyph-name="oogonekmacron" unicode="&#x1ed;" horiz-adv-x="1040" 
d="M801 1130h-559v173h559v-173zM279 -213q0 127 100 209q-141 41 -220 164.5t-79 316.5q0 237 118 364.5t322 127.5t322.5 -127.5t118.5 -364.5q0 -224 -106.5 -354.5t-289.5 -145.5q-104 -49 -104 -153q0 -54 27.5 -83.5t78.5 -29.5q80 0 140 76l59 -104
q-81 -115 -242 -115q-109 0 -177 55.5t-68 163.5zM520 797q-229 0 -229 -320q0 -334 229 -334q228 0 228 334q0 320 -228 320z" />
    <glyph glyph-name="Ezhcaron" unicode="&#x1ee;" horiz-adv-x="976" 
d="M289 555l217 311q31 44 61.5 81.5t44.5 52.5l15 16v8q-55 -8 -172 -8h-394v190h834v-149l-391 -522v-9q135 -5 231.5 -64t143.5 -156t47 -222q0 -209 -132 -331t-345 -122q-203 0 -327 97t-149 276l183 78q20 -141 95.5 -212t192.5 -71q127 0 199 75t72 206
q0 151 -109.5 236t-316.5 85v154zM563 1327h-133l-262 275h217l64 -66q16 -17 27.5 -34t14.5 -26l3 -8h6q8 29 45 68l63 66h217z" />
    <glyph glyph-name="ezhcaron" unicode="&#x1ef;" horiz-adv-x="831" 
d="M233 444l140 177q34 43 67 80t50 53l16 16v8q-65 -8 -184 -8h-261v176h695v-139l-328 -393v-6q159 -7 249.5 -108.5t90.5 -254.5q0 -170 -115.5 -265t-304.5 -95q-151 0 -251 77.5t-122 208.5l195 64q12 -89 65.5 -135.5t133.5 -46.5q81 0 136.5 51t55.5 133
q0 105 -75.5 178.5t-252.5 93.5v135zM485 1079h-131l-262 310h209l70 -84q17 -20 28.5 -38.5t14.5 -26.5l2 -9h8q6 29 45 74l70 84h209z" />
    <glyph glyph-name="jcaron" unicode="&#x1f0;" horiz-adv-x="495" 
d="M313 1079h-131l-262 310h209l70 -84q17 -20 28.5 -38.5t14.5 -26.5l2 -9h8q6 29 45 74l70 84h208zM141 946h213v-952q0 -433 -479 -410v183q138 -15 202 38.5t64 196.5v944z" />
    <glyph glyph-name="jcaron" unicode="&#xe10c;" horiz-adv-x="495" 
d="M313 1079h-131l-262 310h209l70 -84q17 -20 28.5 -38.5t14.5 -26.5l2 -9h8q6 29 45 74l70 84h208zM141 946h213v-952q0 -433 -479 -410v183q138 -15 202 38.5t64 196.5v944z" />
    <glyph glyph-name="Gacute" unicode="&#x1f4;" horiz-adv-x="1261" 
d="M645 629h492v-629h-156l-33 150q-38 -85 -129 -130t-203 -45q-117 0 -213 39.5t-166.5 116t-109.5 196t-39 271.5q0 299 154 466t417 167q348 0 467 -295l-206 -102q-35 102 -105 154t-166 52q-146 0 -240 -113t-94 -331q0 -200 82.5 -320t247.5 -120q125 0 202 57
t77 160v73h-279v183zM750 1333h-197l129 266h279z" />
    <glyph glyph-name="gacute" unicode="&#x1f5;" horiz-adv-x="1005" 
d="M477 969q169 0 273 -70q30 20 43.5 50.5t27.5 92.5l178 -61q-10 -65 -56 -111.5t-107 -60.5q43 -73 43 -176q0 -106 -55 -181t-145 -110t-204 -35q-80 0 -121 15q-57 -32 -57 -93q0 -69 92 -69h246q158 0 244 -72t86 -199q0 -74 -30.5 -131t-80.5 -92t-120 -58
t-141.5 -31.5t-152.5 -8.5q-87 0 -159 12t-133.5 38.5t-96.5 76t-35 117.5q0 90 63.5 144.5t182.5 63.5q-64 6 -101.5 49.5t-37.5 104.5t36.5 107t110.5 67q-188 79 -188 285q0 159 107.5 247.5t287.5 88.5zM217 -156q0 -129 246 -129q148 0 223.5 33.5t75.5 108.5
q0 110 -146 110h-215q-184 0 -184 -123zM297 635q0 -82 47 -131t133 -49q88 0 137.5 45.5t49.5 134.5q0 90 -49.5 136t-137.5 46q-88 -2 -134 -48t-46 -134zM588 1081h-193l150 303h280z" />
    <glyph glyph-name="Ngrave" unicode="&#x1f8;" horiz-adv-x="1349" 
d="M381 1206l459 -655q32 -44 63 -96t47 -81l15 -30h8q-8 120 -8 272v590h219v-1206h-209l-463 649q-35 47 -67.5 101t-48.5 84l-15 30h-8q12 -118 12 -280v-584h-219v1206h215zM784 1333h-196l-211 266h278z" />
    <glyph glyph-name="ngrave" unicode="&#x1f9;" horiz-adv-x="1060" 
d="M315 946l27 -182q74 205 303 205q124 0 204.5 -73.5t80.5 -221.5v-674h-215v602q0 184 -154 184q-89 0 -147 -58t-58 -193v-535h-215v946h174zM655 1081h-190l-238 303h281z" />
    <glyph glyph-name="uni004102DA00B4" unicode="&#x1fa;" horiz-adv-x="1198" 
d="M942 0l-106 303h-482l-106 -303h-228l439 1206h280l439 -1206h-236zM496 713l-80 -228h354l-78 226q-30 84 -53.5 165.5t-32.5 120.5l-8 39h-8q-28 -133 -94 -323zM594 1268q-103 0 -161 60t-58 153q0 86 61 146.5t158 60.5t158 -60.5t61 -146.5q0 -93 -58 -153t-161 -60
zM594 1589q-50 0 -79.5 -31t-29.5 -79q0 -46 28.5 -76.5t80.5 -30.5t80 30t28 77q0 48 -29 79t-79 31zM690 1753h-196l129 266h278z" />
    <glyph glyph-name="aringacute" unicode="&#x1fb;" horiz-adv-x="995" 
d="M614 289v123q-171 4 -250 -35t-79 -121q0 -54 35.5 -88.5t99.5 -34.5q75 0 134.5 41.5t59.5 114.5zM827 670v-426q0 -86 70 -86q32 0 55 10v-162q-49 -22 -118 -22q-172 0 -205 151q-63 -160 -279 -160q-126 0 -203 69t-77 189q0 162 133 242.5t411 67.5v106
q0 77 -39.5 114.5t-111.5 37.5q-69 0 -109.5 -38t-44.5 -110l-209 35q5 73 38 128.5t86 88t116.5 48.5t136.5 16q162 0 256 -72.5t94 -226.5zM477 1034q-103 0 -161 60t-58 153q0 86 61 146.5t158 60.5t158 -60.5t61 -146.5q0 -93 -58 -153t-161 -60zM477 1356
q-50 0 -79 -31t-29 -80q0 -46 28 -76t80 -30t80.5 30t28.5 76q0 48 -29.5 79.5t-79.5 31.5zM573 1524h-196l129 266h278z" />
    <glyph glyph-name="AEacute" unicode="&#x1fc;" horiz-adv-x="1734" 
d="M1632 0h-764v303h-432l-186 -303h-238l733 1206h887v-190h-547v-318h486v-186h-486v-322h547v-190zM872 1047l-335 -562h331v248q-1 92 2.5 170.5t7.5 110.5l3 33h-9zM1210 1333h-196l129 266h278z" />
    <glyph glyph-name="aeacute" unicode="&#x1fd;" horiz-adv-x="1495" 
d="M1030 150q146 0 195 141l184 -58q-15 -70 -51.5 -121.5t-89.5 -80.5t-114 -42.5t-132 -13.5q-223 0 -338 158q-89 -158 -317 -158q-135 0 -216 68.5t-81 189.5q0 325 524 328q5 53 27 117q-9 62 -50.5 92.5t-105.5 30.5q-70 0 -109.5 -38t-44.5 -110l-209 35
q4 59 27 106.5t58.5 79.5t83 54t100 31.5t110.5 9.5q179 0 262 -99q116 99 287 99q182 0 281.5 -115t101.5 -297q0 -75 -12 -131h-596q5 -126 62 -201t163 -75zM807 561h393q2 12 2 47q0 85 -48 141t-132 56q-93 0 -148.5 -66.5t-66.5 -177.5zM420 135q67 0 120 34t76 95
q-23 67 -26 162q-160 -3 -228.5 -41.5t-68.5 -122.5q0 -58 33.5 -92.5t93.5 -34.5zM815 1081h-192l149 303h281z" />
    <glyph glyph-name="Oslashacute" unicode="&#x1fe;" horiz-adv-x="1282" 
d="M164 -27l-90 82l121 135q-107 159 -107 412q0 299 147.5 464t405.5 165q225 0 367 -127l106 119l96 -84l-118 -133q102 -158 102 -404q0 -298 -147.5 -462.5t-405.5 -164.5q-224 0 -365 123zM641 1038q-157 0 -239.5 -115.5t-82.5 -322.5q0 -139 35 -231l510 573
q-83 96 -223 96zM963 600q0 121 -33 225l-512 -569q83 -92 223 -92q158 0 240 115t82 321zM729 1333h-197l130 266h278z" />
    <glyph glyph-name="oslashacute" unicode="&#x1ff;" horiz-adv-x="1040" 
d="M145 -29l-92 80l103 111q-76 127 -76 315q0 237 118 364.5t322 127.5q180 0 293 -101l94 101l92 -80l-108 -115q70 -121 70 -297q0 -238 -119 -370t-322 -132q-172 0 -284 95zM520 797q-229 0 -229 -320q0 -93 14 -153l377 403q-61 70 -162 70zM748 477q0 66 -13 129
l-373 -401q59 -62 158 -62q228 0 228 334zM612 1081h-192l149 303h281z" />
    <glyph glyph-name="Adoublegrave" unicode="&#x200;" horiz-adv-x="1198" 
d="M942 0l-106 303h-482l-106 -303h-228l439 1206h280l439 -1206h-236zM496 713l-80 -228h354l-78 226q-30 84 -53.5 165.5t-32.5 120.5l-8 39h-8q-28 -133 -94 -323zM850 1333h-158l-209 266h246zM537 1333h-168l-238 266h256z" />
    <glyph glyph-name="edoublegrave" unicode="&#x201;" horiz-adv-x="985" 
d="M522 143q74 0 122.5 34t70.5 112l186 -56q-16 -70 -52.5 -121.5t-89.5 -80.5t-113.5 -42.5t-131.5 -13.5q-197 0 -315.5 129t-118.5 359q0 238 118.5 372t323.5 134q184 0 283.5 -112t99.5 -298q0 -65 -16 -127h-602q6 -133 66.5 -211t168.5 -78zM293 571h403q2 12 2 37
q0 84 -50.5 140.5t-135.5 56.5q-93 0 -150.5 -62.5t-68.5 -171.5zM770 1081h-158l-209 303h246zM457 1081h-168l-238 303h256z" />
    <glyph glyph-name="edoublegrave" unicode="&#x205;" horiz-adv-x="985" 
d="M522 143q74 0 122.5 34t70.5 112l186 -56q-16 -70 -52.5 -121.5t-89.5 -80.5t-113.5 -42.5t-131.5 -13.5q-197 0 -315.5 129t-118.5 359q0 238 118.5 372t323.5 134q184 0 283.5 -112t99.5 -298q0 -65 -16 -127h-602q6 -133 66.5 -211t168.5 -78zM293 571h403q2 12 2 37
q0 84 -50.5 140.5t-135.5 56.5q-93 0 -150.5 -62.5t-68.5 -171.5zM770 1081h-158l-209 303h246zM457 1081h-168l-238 303h256z" />
    <glyph glyph-name="Ainvertedbreve" unicode="&#x202;" horiz-adv-x="1198" 
d="M942 0l-106 303h-482l-106 -303h-228l439 1206h280l439 -1206h-236zM496 713l-80 -228h354l-78 226q-30 84 -53.5 165.5t-32.5 120.5l-8 39h-8q-28 -133 -94 -323zM594 1618q142 0 215.5 -75.5t73.5 -207.5h-166q-3 65 -30.5 96t-92.5 31q-63 0 -90.5 -31t-32.5 -96h-164
q0 132 73.5 207.5t213.5 75.5z" />
    <glyph glyph-name="ainvertedbreve" unicode="&#x203;" horiz-adv-x="995" 
d="M614 289v123q-171 4 -250 -35t-79 -121q0 -54 35.5 -88.5t99.5 -34.5q75 0 134.5 41.5t59.5 114.5zM827 670v-426q0 -86 70 -86q32 0 55 10v-162q-49 -22 -118 -22q-172 0 -205 151q-63 -160 -279 -160q-126 0 -203 69t-77 189q0 162 133 242.5t411 67.5v106
q0 77 -39.5 114.5t-111.5 37.5q-69 0 -109.5 -38t-44.5 -110l-209 35q5 73 38 128.5t86 88t116.5 48.5t136.5 16q162 0 256 -72.5t94 -226.5zM477 1386q138 0 212.5 -83t74.5 -218h-164q-3 71 -29.5 107.5t-93.5 36.5q-68 0 -94 -35.5t-31 -108.5h-164q0 136 74.5 218.5
t214.5 82.5z" />
    <glyph glyph-name="Edoublegrave" unicode="&#x204;" horiz-adv-x="1034" 
d="M932 190v-190h-766v1206h766v-190h-547v-318h483v-186h-483v-322h547zM801 1333h-158l-209 266h246zM487 1333h-168l-237 266h256z" />
    <glyph glyph-name="Einvertedbreve" unicode="&#x206;" horiz-adv-x="1034" 
d="M932 190v-190h-766v1206h766v-190h-547v-318h483v-186h-483v-322h547zM535 1620q142 0 215 -75.5t73 -207.5h-166q-3 65 -30 96t-92 31q-63 0 -90.5 -31t-32.5 -96h-164q0 132 73.5 207.5t213.5 75.5z" />
    <glyph glyph-name="einvertedbreve" unicode="&#x207;" horiz-adv-x="985" 
d="M522 143q74 0 122.5 34t70.5 112l186 -56q-16 -70 -52.5 -121.5t-89.5 -80.5t-113.5 -42.5t-131.5 -13.5q-197 0 -315.5 129t-118.5 359q0 238 118.5 372t323.5 134q184 0 283.5 -112t99.5 -298q0 -65 -16 -127h-602q6 -133 66.5 -211t168.5 -78zM293 571h403q2 12 2 37
q0 84 -50.5 140.5t-135.5 56.5q-93 0 -150.5 -62.5t-68.5 -171.5zM516 1386q138 0 212.5 -83t74.5 -218h-164q-3 71 -29.5 107.5t-93.5 36.5q-68 0 -94 -35.5t-31 -108.5h-164q0 136 74.5 218.5t214.5 82.5z" />
    <glyph glyph-name="Idoublegrave" unicode="&#x208;" horiz-adv-x="550" 
d="M166 1206h219v-1206h-219v1206zM526 1333h-157l-209 266h246zM213 1333h-168l-238 266h256z" />
    <glyph glyph-name="idoublegrave" unicode="&#x209;" horiz-adv-x="497" 
d="M141 946h215v-946h-215v946zM502 1081h-158l-209 303h246zM188 1081h-168l-237 303h256z" />
    <glyph glyph-name="Iinvertedbreve" unicode="&#x20a;" horiz-adv-x="550" 
d="M166 1206h219v-1206h-219v1206zM274 1620q142 0 215.5 -75.5t73.5 -207.5h-166q-3 65 -30.5 96t-92.5 31q-63 0 -90 -31t-32 -96h-164q0 132 73 207.5t213 75.5z" />
    <glyph glyph-name="iinvertedbreve" unicode="&#x20b;" horiz-adv-x="497" 
d="M141 946h215v-946h-215v946zM250 1386q138 0 212.5 -83t74.5 -218h-164q-3 71 -29.5 107.5t-93.5 36.5q-68 0 -94 -35.5t-31 -108.5h-164q0 136 74.5 218.5t214.5 82.5z" />
    <glyph glyph-name="Odoublegrave" unicode="&#x20c;" horiz-adv-x="1282" 
d="M641 -25q-258 0 -405.5 164.5t-147.5 462.5q0 299 147.5 464t405.5 165t405.5 -165t147.5 -464q0 -298 -147.5 -462.5t-405.5 -164.5zM641 1038q-158 0 -241 -115.5t-83 -322.5q0 -206 82.5 -321t241.5 -115t242.5 115t83.5 321q0 207 -83.5 322.5t-242.5 115.5z
M893 1333h-158l-209 266h246zM580 1333h-168l-238 266h256z" />
    <glyph glyph-name="odoublegrave" unicode="&#x20d;" horiz-adv-x="1040" 
d="M520 -25q-202 0 -321 132t-119 370q0 237 118 364.5t322 127.5t322.5 -127.5t118.5 -364.5q0 -238 -119 -370t-322 -132zM520 797q-229 0 -229 -320q0 -334 229 -334q228 0 228 334q0 320 -228 320zM772 1081h-158l-208 303h245zM459 1081h-168l-238 303h256z" />
    <glyph glyph-name="Oinvertedbreve" unicode="&#x20e;" horiz-adv-x="1282" 
d="M641 -25q-258 0 -405.5 164.5t-147.5 462.5q0 299 147.5 464t405.5 165t405.5 -165t147.5 -464q0 -298 -147.5 -462.5t-405.5 -164.5zM641 1038q-158 0 -241 -115.5t-83 -322.5q0 -206 82.5 -321t241.5 -115t242.5 115t83.5 321q0 207 -83.5 322.5t-242.5 115.5z
M641 1620q142 0 215.5 -75.5t73.5 -207.5h-166q-3 65 -30.5 96t-92.5 31q-63 0 -90.5 -31t-32.5 -96h-164q0 132 73.5 207.5t213.5 75.5z" />
    <glyph glyph-name="oinvertedbreve" unicode="&#x20f;" horiz-adv-x="1040" 
d="M520 -25q-202 0 -321 132t-119 370q0 237 118 364.5t322 127.5t322.5 -127.5t118.5 -364.5q0 -238 -119 -370t-322 -132zM520 797q-229 0 -229 -320q0 -334 229 -334q228 0 228 334q0 320 -228 320zM520 1386q138 0 212.5 -83t74.5 -218h-164q-3 71 -29.5 107.5
t-93.5 36.5q-68 0 -94 -35.5t-31 -108.5h-164q0 136 74.5 218.5t214.5 82.5z" />
    <glyph glyph-name="Rinvertedbreve" unicode="&#x212;" horiz-adv-x="1148" 
d="M1081 0h-239q-42 40 -58 117l-47 198q-23 92 -70 123t-135 31h-147v-469h-219v1206h436q422 0 422 -352q0 -136 -76.5 -214t-197.5 -87v-4q86 -12 134 -55t72 -134l62 -233q19 -75 63 -127zM385 1022v-373h207q104 0 154.5 45.5t50.5 141.5q0 186 -205 186h-207z
M547 1620q142 0 215.5 -75.5t73.5 -207.5h-166q-3 65 -30.5 96t-92.5 31q-63 0 -90.5 -31t-32.5 -96h-164q0 132 73.5 207.5t213.5 75.5z" />
    <glyph glyph-name="rinvertedbreve" unicode="&#x213;" horiz-adv-x="755" 
d="M723 967l-21 -240q-40 12 -92 12q-103 0 -178.5 -72t-75.5 -204v-463h-215v946h183l26 -258q32 136 122.5 212t250.5 67zM432 1386q138 0 212.5 -83t74.5 -218h-164q-3 71 -29.5 107.5t-93.5 36.5q-68 0 -94 -35.5t-31 -108.5h-164q0 136 74.5 218.5t214.5 82.5z" />
    <glyph glyph-name="Udoublegrave" unicode="&#x214;" horiz-adv-x="1210" 
d="M862 1206h219v-809q0 -115 -39 -199t-107.5 -131.5t-150.5 -69.5t-180 -22q-97 0 -179 22t-150 69.5t-107 132t-39 198.5v809h219v-749q0 -153 63 -227t193 -74q132 0 195 74t63 225v751zM856 1333h-158l-209 266h246zM543 1333h-168l-238 266h256z" />
    <glyph glyph-name="udoublegrave" unicode="&#x215;" horiz-adv-x="1056" 
d="M731 0l-26 174q-31 -103 -101.5 -151t-189.5 -48q-135 0 -211 75.5t-76 236.5v659h215v-614q0 -100 37.5 -148.5t118.5 -48.5q82 0 142 70t60 198v543h215v-946h-184zM774 1081h-158l-208 303h245zM461 1081h-168l-238 303h256z" />
    <glyph glyph-name="Uinvertedbreve" unicode="&#x216;" horiz-adv-x="1210" 
d="M862 1206h219v-809q0 -115 -39 -199t-107.5 -131.5t-150.5 -69.5t-180 -22q-97 0 -179 22t-150 69.5t-107 132t-39 198.5v809h219v-749q0 -153 63 -227t193 -74q132 0 195 74t63 225v751zM604 1620q142 0 215.5 -75.5t73.5 -207.5h-166q-3 65 -30.5 96t-92.5 31
q-63 0 -90.5 -31t-32.5 -96h-164q0 132 73.5 207.5t213.5 75.5z" />
    <glyph glyph-name="uinvertedbreve" unicode="&#x217;" horiz-adv-x="1056" 
d="M731 0l-26 174q-31 -103 -101.5 -151t-189.5 -48q-135 0 -211 75.5t-76 236.5v659h215v-614q0 -100 37.5 -148.5t118.5 -48.5q82 0 142 70t60 198v543h215v-946h-184zM522 1386q138 0 212.5 -83t74.5 -218h-164q-3 71 -29.5 107.5t-93.5 36.5q-68 0 -94 -35.5t-31 -108.5
h-164q0 136 74.5 218.5t214.5 82.5z" />
    <glyph glyph-name="Scommaaccent" unicode="&#x218;" horiz-adv-x="1003" 
d="M53 283l203 69q17 -102 81.5 -155.5t160.5 -53.5q90 0 144 39.5t54 114.5q0 74 -47.5 117t-185.5 92q-71 24 -122 47t-99.5 55.5t-78 70t-47.5 90t-18 116.5q0 93 34 162.5t92 109t126 58t146 18.5q119 0 207.5 -30t148 -102t70.5 -183l-217 -50q-9 91 -64.5 139
t-140.5 48q-79 0 -127.5 -40t-48.5 -114q0 -32 11 -57.5t28 -44t51 -36.5t66 -31t87 -32q70 -24 118 -45t96.5 -53t77 -68.5t46 -90t17.5 -119.5q0 -90 -34 -158t-95 -109t-138.5 -61.5t-169.5 -20.5q-183 0 -290 73.5t-142 234.5zM666 -291q0 -115 -67.5 -168t-197.5 -53
v82q66 3 96.5 22t30.5 64q-56 -11 -93.5 17t-37.5 83q0 57 34.5 87t90.5 30q62 0 103 -44.5t41 -119.5z" />
    <glyph glyph-name="scommaaccent" unicode="&#x219;" horiz-adv-x="876" 
d="M49 215l184 64q12 -77 64 -114.5t135 -37.5q75 0 121.5 29t46.5 84q0 53 -31 82.5t-108 48.5l-139 32q-125 32 -181.5 99t-56.5 174q0 80 30.5 139t83.5 91.5t115.5 47.5t135.5 15q329 0 352 -260l-205 -25q-11 125 -160 125q-68 0 -106.5 -29.5t-38.5 -81.5
q0 -48 26 -76t91 -42l131 -29q136 -32 203 -101.5t67 -191.5q0 -99 -51.5 -164t-134.5 -92t-195 -27q-170 0 -263 56.5t-116 183.5zM586 -291q0 -115 -67 -168t-197 -53v82q66 3 96.5 22t30.5 64q-56 -11 -94 17t-38 83q0 57 34.5 87t90.5 30q62 0 103 -44.5t41 -119.5z" />
    <glyph glyph-name="Hcaron" unicode="&#x21e;" horiz-adv-x="1306" 
d="M385 0h-219v1206h219v-499h537v499h219v-1206h-219v518h-537v-518zM719 1327h-133l-262 275h217l63 -66q16 -17 27.5 -34t14.5 -26l3 -8h6q8 29 45 68l64 66h217z" />
    <glyph glyph-name="hcaron" unicode="&#x21f;" horiz-adv-x="1060" 
d="M356 1368v-602q67 203 289 203q124 0 204.5 -73.5t80.5 -221.5v-674h-215v604q0 182 -154 182q-42 0 -76.5 -12t-64.5 -39.5t-47 -77.5t-17 -120v-537h-215v1368h215zM317 1454h-133l-262 275h217l64 -66q16 -17 27.5 -34t14.5 -25l3 -9h6q8 29 45 68l63 66h218z" />
    <glyph glyph-name="Adotabove" unicode="&#x226;" horiz-adv-x="1198" 
d="M942 0l-106 303h-482l-106 -303h-228l439 1206h280l439 -1206h-236zM496 713l-80 -228h354l-78 226q-30 84 -53.5 165.5t-32.5 120.5l-8 39h-8q-28 -133 -94 -323zM457 1464q0 61 39 98t98 37q61 0 101 -36.5t40 -98.5q0 -59 -40 -96t-101 -37q-58 0 -97.5 37t-39.5 96z
" />
    <glyph glyph-name="adotabove" unicode="&#x227;" horiz-adv-x="995" 
d="M614 289v123q-171 4 -250 -35t-79 -121q0 -54 35.5 -88.5t99.5 -34.5q75 0 134.5 41.5t59.5 114.5zM827 670v-426q0 -86 70 -86q32 0 55 10v-162q-49 -22 -118 -22q-172 0 -205 151q-63 -160 -279 -160q-126 0 -203 69t-77 189q0 162 133 242.5t411 67.5v106
q0 77 -39.5 114.5t-111.5 37.5q-69 0 -109.5 -38t-44.5 -110l-209 35q5 73 38 128.5t86 88t116.5 48.5t136.5 16q162 0 256 -72.5t94 -226.5zM332 1219q0 61 39 98t98 37q63 0 102 -36.5t39 -98.5q0 -60 -39.5 -97t-101.5 -37q-58 0 -97.5 37.5t-39.5 96.5z" />
    <glyph glyph-name="Otildemacron" unicode="&#x22c;" horiz-adv-x="1282" 
d="M641 -25q-258 0 -405.5 164.5t-147.5 462.5q0 299 147.5 464t405.5 165t405.5 -165t147.5 -464q0 -298 -147.5 -462.5t-405.5 -164.5zM641 1038q-158 0 -241 -115.5t-83 -322.5q0 -206 82.5 -321t241.5 -115t242.5 115t83.5 321q0 207 -83.5 322.5t-242.5 115.5z
M788 1292q-31 0 -57.5 7t-41.5 14t-48 26q-6 4 -22 13t-21 12t-16.5 9t-17 8t-14.5 5t-16.5 4t-15.5 1q-33 0 -50 -24.5t-11 -74.5h-125q-23 53 -20 103.5t24 90t62.5 63.5t93.5 24q46 0 78 -12t75 -39q70 -43 93 -49q12 -3 26 -3q65 0 57 99h131q42 -114 -4.5 -195.5
t-159.5 -81.5zM924 1663h-566v170h566v-170z" />
    <glyph glyph-name="otildemacron" unicode="&#x22d;" horiz-adv-x="1040" 
d="M520 -25q-202 0 -321 132t-119 370q0 237 118 364.5t322 127.5t322.5 -127.5t118.5 -364.5q0 -238 -119 -370t-322 -132zM520 797q-229 0 -229 -320q0 -334 229 -334q228 0 228 334q0 320 -228 320zM668 1042q-14 0 -26 1t-24 4t-19 5t-20.5 8t-17.5 8t-20.5 11t-20.5 11
q-4 3 -17.5 10.5t-17 9.5l-14 8t-14 7.5t-11.5 5t-12.5 4.5t-11.5 3t-13 2.5t-12 0.5q-72 0 -61 -97h-125q-27 72 -16.5 133t58.5 101.5t118 40.5q47 0 79.5 -11.5t73.5 -37.5q36 -22 50 -30t32.5 -14.5t36.5 -6.5q65 0 57 98h131q42 -115 -4 -195t-159 -80zM801 1409h-559
v172h559v-172z" />
    <glyph glyph-name="Odotabove" unicode="&#x22e;" horiz-adv-x="1282" 
d="M641 -25q-258 0 -405.5 164.5t-147.5 462.5q0 299 147.5 464t405.5 165t405.5 -165t147.5 -464q0 -298 -147.5 -462.5t-405.5 -164.5zM641 1038q-158 0 -241 -115.5t-83 -322.5q0 -206 82.5 -321t241.5 -115t242.5 115t83.5 321q0 207 -83.5 322.5t-242.5 115.5z
M502 1466q0 62 39 99t98 37q61 0 101 -37t40 -99q0 -59 -40 -96t-101 -37q-58 0 -97.5 37t-39.5 96z" />
    <glyph glyph-name="odotabove" unicode="&#x22f;" horiz-adv-x="1040" 
d="M520 -25q-202 0 -321 132t-119 370q0 237 118 364.5t322 127.5t322.5 -127.5t118.5 -364.5q0 -238 -119 -370t-322 -132zM520 797q-229 0 -229 -320q0 -334 229 -334q228 0 228 334q0 320 -228 320zM381 1219q0 61 39 98t98 37q63 0 102 -36.5t39 -98.5q0 -60 -39.5 -97
t-101.5 -37q-58 0 -97.5 37.5t-39.5 96.5z" />
    <glyph glyph-name="odotabovemacron" unicode="&#x231;" horiz-adv-x="1040" 
d="M520 -25q-202 0 -321 132t-119 370q0 237 118 364.5t322 127.5t322.5 -127.5t118.5 -364.5q0 -238 -119 -370t-322 -132zM520 797q-229 0 -229 -320q0 -334 229 -334q228 0 228 334q0 320 -228 320zM801 1409h-559v172h559v-172zM381 1188q0 61 39 98t98 37
q63 0 102 -36.5t39 -98.5q0 -60 -39.5 -96.5t-101.5 -36.5q-58 0 -97.5 37t-39.5 96z" />
    <glyph glyph-name="odotabovemacron" unicode="&#xe11e;" horiz-adv-x="1040" 
d="M520 -25q-202 0 -321 132t-119 370q0 237 118 364.5t322 127.5t322.5 -127.5t118.5 -364.5q0 -238 -119 -370t-322 -132zM520 797q-229 0 -229 -320q0 -334 229 -334q228 0 228 334q0 320 -228 320zM801 1409h-559v172h559v-172zM381 1188q0 61 39 98t98 37
q63 0 102 -36.5t39 -98.5q0 -60 -39.5 -96.5t-101.5 -36.5q-58 0 -97.5 37t-39.5 96z" />
    <glyph glyph-name="Ymacron" unicode="&#x232;" horiz-adv-x="1032" 
d="M268 1206l174 -350q32 -64 53.5 -120.5t26.5 -80.5l6 -24h9q11 80 79 223l166 352h230l-373 -768v-438h-219v438l-400 768h248zM799 1374h-566v170h566v-170z" />
    <glyph glyph-name="ymacron" unicode="&#x233;" horiz-adv-x="931" 
d="M248 946l147 -489q25 -83 43 -158t24 -109l5 -34h8q15 115 70 299l149 491h226l-359 -1026q-36 -104 -78 -173t-93 -106.5t-104.5 -52t-123.5 -14.5q-76 0 -150 23l25 186q60 -31 125 -31q72 0 118 43t82 150l-350 1001h236zM756 1130h-559v173h559v-173z" />
    <glyph glyph-name="dotlessj" unicode="&#x237;" horiz-adv-x="495" 
d="M141 946h213v-952q0 -433 -479 -410v183q138 -15 202 38.5t64 196.5v944z" />
    <glyph glyph-name="schwa" unicode="&#x259;" horiz-adv-x="985" 
d="M465 795q-143 0 -195 -150l-186 53q31 137 136.5 204t252.5 67q197 0 314.5 -129t117.5 -359q0 -238 -116.5 -372t-319.5 -134q-186 0 -285.5 112.5t-101.5 301.5q0 63 12 119h596q-5 131 -62.5 209t-162.5 78zM686 373h-391q-2 -14 -2 -39q0 -85 49 -141t133 -56
q94 0 148 62.5t63 173.5z" />
    <glyph glyph-name="ezh" unicode="&#x292;" horiz-adv-x="831" 
d="M233 444l140 177q34 43 67 80t50 53l16 16v8q-65 -8 -184 -8h-261v176h695v-139l-328 -393v-6q159 -7 249.5 -108.5t90.5 -254.5q0 -170 -115.5 -265t-304.5 -95q-151 0 -251 77.5t-122 208.5l195 64q12 -89 65.5 -135.5t133.5 -46.5q81 0 136.5 51t55.5 133
q0 105 -75.5 178.5t-252.5 93.5v135z" />
    <glyph glyph-name="circumflex" unicode="&#x2c6;" horiz-adv-x="983" 
d="M426 1389h131l262 -310h-209l-69 80q-17 20 -28.5 38.5t-14.5 26.5l-2 9h-9q-6 -29 -45 -74l-69 -80h-209z" />
    <glyph glyph-name="caron" unicode="&#x2c7;" horiz-adv-x="983" 
d="M557 1079h-131l-262 310h209l69 -84q17 -20 28.5 -38.5t13.5 -26.5l3 -9h9q6 29 45 74l69 84h209z" />
    <glyph glyph-name="breve" unicode="&#x2d8;" horiz-adv-x="903" 
d="M453 1073q-141 0 -215 82t-74 219h164q5 -72 31 -107.5t94 -35.5q67 0 93 35.5t29 107.5h164q0 -136 -74 -218.5t-212 -82.5z" />
    <glyph glyph-name="dotaccent" unicode="&#x2d9;" horiz-adv-x="606" 
d="M164 1239q0 61 39 98t98 37q63 0 102 -36.5t39 -98.5q0 -60 -39.5 -96.5t-101.5 -36.5q-58 0 -97.5 37t-39.5 96z" />
    <glyph glyph-name="ring" unicode="&#x2da;" horiz-adv-x="765" 
d="M383 1055q-103 0 -161 60t-58 153q0 86 61 146.5t158 60.5t158 -60.5t61 -146.5q0 -93 -58 -153t-161 -60zM383 1376q-50 0 -79.5 -31t-29.5 -79q0 -46 28.5 -76.5t80.5 -30.5t80.5 30.5t28.5 76.5q0 48 -29.5 79t-79.5 31z" />
    <glyph glyph-name="ogonek" unicode="&#x2db;" horiz-adv-x="804" 
d="M131 -213q0 62 25 113t62.5 83t85 55t87.5 33t76 13l61 -84q-85 0 -150 -46.5t-65 -129.5q0 -54 28 -83.5t79 -29.5q82 0 139 76l59 -104q-80 -115 -241 -115q-109 0 -177.5 55.5t-68.5 163.5z" />
    <glyph glyph-name="tilde" unicode="&#x2dc;" horiz-adv-x="991" 
d="M643 1077q-12 0 -23.5 1t-20 2t-19 5t-16 5.5t-17.5 7t-15.5 7.5t-17.5 9.5t-18 9.5q-6 4 -22 13t-21 12t-16.5 9t-17 8t-14.5 5t-16.5 4t-15.5 1q-33 0 -50.5 -23.5t-11.5 -73.5h-125q-27 72 -16.5 133t58.5 101.5t118 40.5q47 0 80 -12t74 -37q5 -3 16 -10t14.5 -9
t12.5 -7.5t12.5 -7t11 -5.5t11 -5t9.5 -3t10.5 -3t9.5 -1.5t11 -0.5q66 0 58 99h131q42 -115 -4.5 -195t-159.5 -80z" />
    <glyph glyph-name="hungarumlaut" unicode="&#x2dd;" horiz-adv-x="1046" 
d="M319 1081h-155l121 303h243zM645 1081h-168l148 303h258z" />
    <glyph glyph-name="uni0312" unicode="&#x312;" horiz-adv-x="595" 
d="M164 1495q0 115 66.5 168t195.5 53v-82q-65 -3 -96 -22t-31 -64q58 11 95.5 -17t37.5 -83q0 -57 -34.5 -87t-90.5 -30q-62 0 -102.5 44.5t-40.5 119.5z" />
    <glyph glyph-name="uni0320" unicode="&#x320;" horiz-adv-x="886" 
d="M723 -379h-559v170h559v-170z" />
    <glyph glyph-name="uni0323" unicode="&#x323;" horiz-adv-x="606" 
d="M164 -250q0 61 39 98t98 37q61 0 101 -36.5t40 -98.5q0 -59 -40 -96t-101 -37q-58 0 -97.5 37t-39.5 96z" />
    <glyph glyph-name="uni0329" unicode="&#x329;" horiz-adv-x="528" 
d="M164 -416v314h201v-299z" />
    <glyph glyph-name="pi" unicode="&#x3c0;" horiz-adv-x="1353" 
d="M336 985h883v-166h-213v-555q0 -59 18 -85.5t59 -26.5q40 0 66.5 23t50.5 69l92 -117q-38 -80 -99 -116t-157 -36q-123 0 -184 62.5t-61 204.5v577h-222l-94 -819h-215l100 819h-26q-138 0 -144 -170h-170q0 157 77 246.5t239 89.5z" />
    <glyph glyph-name="uni0E3F" unicode="&#xe3f;" horiz-adv-x="1124" 
d="M518 -217v217h-342v985h342v191h103v-191h34q154 0 243 -64t89 -186q0 -192 -190 -225v-8q107 -9 170 -72t63 -160q0 -270 -368 -270h-41v-217h-103zM645 422h-24v-264h14q93 0 136.5 29.5t43.5 105.5q0 129 -170 129zM778 700q0 65 -42 96t-115 33v-258h6q151 0 151 129
zM393 422v-264h125v264h-125zM393 571h125v258h-125v-258z" />
    <glyph glyph-name="Ddotbelow" unicode="&#x1e0c;" horiz-adv-x="1234" 
d="M385 184h147q182 0 284 101t102 321q0 416 -367 416h-166v-838zM553 0h-387v1206h397q104 0 191 -20.5t160.5 -65.5t124.5 -113t79.5 -167t28.5 -224q0 -131 -30.5 -235t-83.5 -174.5t-128.5 -117.5t-162.5 -68t-189 -21zM418 -281q0 62 39 99t98 37q61 0 101 -37t40 -99
q0 -59 -40 -96t-101 -37q-58 0 -97.5 37t-39.5 96z" />
    <glyph glyph-name="ddotbelow" unicode="&#x1e0d;" 
d="M754 383v197q0 111 -65 168t-152 57q-107 0 -174.5 -82.5t-67.5 -259.5q0 -153 63.5 -236.5t173.5 -83.5q86 0 154 63.5t68 176.5zM752 819v549h217v-1368h-189l-26 164q-62 -189 -299 -189q-159 0 -267 127t-108 353q0 244 111 379t313 135q90 0 159.5 -42.5
t88.5 -107.5zM385 -281q0 62 39 99t98 37q61 0 101.5 -37t40.5 -99q0 -59 -40.5 -96t-101.5 -37q-58 0 -97.5 37t-39.5 96z" />
    <glyph glyph-name="Dcedilla" unicode="&#x1e10;" horiz-adv-x="1234" 
d="M762 -250q0 -88 -63 -135t-160 -47q-132 0 -195 76l51 114q55 -73 129 -73q70 0 70 63q0 80 -125 86l16 166h-319v1206h397q104 0 191 -20.5t160.5 -65.5t124.5 -113t79.5 -167t28.5 -224q0 -157 -43 -276t-120.5 -191t-177 -108.5t-220.5 -40.5l-4 -80q180 -14 180 -170
zM385 184h147q182 0 284 101t102 321q0 416 -367 416h-166v-838z" />
    <glyph glyph-name="dcedilla" unicode="&#x1e11;" 
d="M729 -250q0 -88 -63 -135t-160 -47q-132 0 -195 76l51 114q55 -73 130 -73q69 0 69 63q0 80 -125 86l13 141q-76 2 -142 33.5t-117 90t-80.5 150.5t-29.5 206q0 244 111 379t313 135q90 0 159.5 -42.5t88.5 -107.5v549h217v-1368h-189l-26 164q-50 -149 -201 -178l-4 -66
q180 -14 180 -170zM754 383v197q0 111 -65 168t-152 57q-107 0 -174.5 -82.5t-67.5 -259.5q0 -153 63.5 -236.5t173.5 -83.5q86 0 154 63.5t68 176.5z" />
    <glyph glyph-name="Hdotbelow" unicode="&#x1e24;" horiz-adv-x="1306" 
d="M385 0h-219v1206h219v-499h537v499h219v-1206h-219v518h-537v-518zM514 -281q0 62 39 99t98 37q61 0 101.5 -37t40.5 -99q0 -59 -40.5 -96t-101.5 -37q-58 0 -97.5 37t-39.5 96z" />
    <glyph glyph-name="hdotbelow" unicode="&#x1e25;" horiz-adv-x="1060" 
d="M356 1368v-602q67 203 289 203q124 0 204.5 -73.5t80.5 -221.5v-674h-215v604q0 182 -154 182q-42 0 -76.5 -12t-64.5 -39.5t-47 -77.5t-17 -120v-537h-215v1368h215zM395 -281q0 62 39 99t98 37q61 0 101.5 -37t40.5 -99q0 -59 -40.5 -96t-101.5 -37q-58 0 -97.5 37
t-39.5 96z" />
    <glyph glyph-name="Ldotbelow" unicode="&#x1e36;" horiz-adv-x="950" 
d="M166 1206h219v-1016h516v-190h-735v1206zM395 -281q0 62 39 99t98 37q61 0 101.5 -37t40.5 -99q0 -59 -40.5 -96t-101.5 -37q-58 0 -97.5 37t-39.5 96z" />
    <glyph glyph-name="ldotbelow" unicode="&#x1e37;" horiz-adv-x="552" 
d="M494 180l-7 -178q-73 -18 -129 -18q-101 0 -166 54t-65 163v1167h215v-1116q0 -82 84 -82q35 0 68 10zM170 -281q0 62 39 99t98 37q61 0 101.5 -37t40.5 -99q0 -59 -40.5 -96t-101.5 -37q-58 0 -97.5 37t-39.5 96z" />
    <glyph glyph-name="uni004C032300AF" unicode="&#x1e38;" horiz-adv-x="950" 
d="M166 1206h219v-1016h516v-190h-735v1206zM395 -281q0 62 39 99t98 37q61 0 101.5 -37t40.5 -99q0 -59 -40.5 -96t-101.5 -37q-58 0 -97.5 37t-39.5 96zM596 1374h-565v170h565v-170z" />
    <glyph glyph-name="ldotbelowmacron" unicode="&#x1e39;" horiz-adv-x="552" 
d="M494 180l-7 -178q-73 -18 -129 -18q-101 0 -166 54t-65 163v1167h215v-1116q0 -82 84 -82q35 0 68 10zM170 -281q0 62 39 99t98 37q61 0 101.5 -37t40.5 -99q0 -59 -40.5 -96t-101.5 -37q-58 0 -97.5 37t-39.5 96zM524 1511h-565v170h565v-170z" />
    <glyph glyph-name="Mdotbelow" unicode="&#x1e42;" horiz-adv-x="1486" 
d="M807 289h-127l-207 370q-30 54 -53 104t-31 73l-8 24h-8q12 -72 12 -213v-647h-219v1206h240l268 -508q24 -44 41 -83t23 -55l5 -17h9q14 55 69 155l266 508h234v-1206h-219v647q0 63 2.5 116t5.5 75l2 22h-8q-22 -80 -90 -201zM604 -281q0 62 39 99t98 37
q61 0 101.5 -37t40.5 -99q0 -59 -40.5 -96t-101.5 -37q-58 0 -97.5 37t-39.5 96z" />
    <glyph glyph-name="mdotbelow" unicode="&#x1e43;" horiz-adv-x="1599" 
d="M891 760q35 107 115 158t186 51q125 0 200.5 -71.5t75.5 -217.5v-680h-215v604q0 182 -145 182q-83 0 -140 -61.5t-57 -187.5v-537h-213v604q0 182 -147 182q-83 0 -139 -61.5t-56 -189.5v-535h-215v946h174l27 -182q35 104 112 154.5t181 50.5q222 0 256 -209zM666 -281
q0 62 39 99t98 37q61 0 101 -37t40 -99q0 -59 -40 -96t-101 -37q-58 0 -97.5 37t-39.5 96z" />
    <glyph glyph-name="Ndotaccent" unicode="&#x1e44;" horiz-adv-x="1349" 
d="M381 1206l459 -655q32 -44 63 -96t47 -81l15 -30h8q-8 120 -8 272v590h219v-1206h-209l-463 649q-35 47 -67.5 101t-48.5 84l-15 30h-8q12 -118 12 -280v-584h-219v1206h215zM535 1464q0 61 39 98t98 37q61 0 101 -36.5t40 -98.5q0 -59 -40 -96t-101 -37q-58 0 -97.5 37
t-39.5 96z" />
    <glyph glyph-name="ndotaccent" unicode="&#x1e45;" horiz-adv-x="1060" 
d="M315 946l27 -182q74 205 303 205q124 0 204.5 -73.5t80.5 -221.5v-674h-215v602q0 184 -154 184q-89 0 -147 -58t-58 -193v-535h-215v946h174zM403 1219q0 61 39.5 98t98.5 37q63 0 102 -36.5t39 -98.5q0 -60 -39.5 -97t-101.5 -37q-58 0 -98 37.5t-40 96.5z" />
    <glyph glyph-name="Ndotbelow" unicode="&#x1e46;" horiz-adv-x="1349" 
d="M381 1206l459 -655q32 -44 63 -96t47 -81l15 -30h8q-8 120 -8 272v590h219v-1206h-209l-463 649q-35 47 -67.5 101t-48.5 84l-15 30h-8q12 -118 12 -280v-584h-219v1206h215zM535 -281q0 62 39 99t98 37q61 0 101 -37t40 -99q0 -59 -40 -96t-101 -37q-58 0 -97.5 37
t-39.5 96z" />
    <glyph glyph-name="ndotbelow" unicode="&#x1e47;" horiz-adv-x="1060" 
d="M315 946l27 -182q74 205 303 205q124 0 204.5 -73.5t80.5 -221.5v-674h-215v602q0 184 -154 184q-89 0 -147 -58t-58 -193v-535h-215v946h174zM401 -281q0 61 39.5 98.5t98.5 37.5q61 0 101 -37t40 -99q0 -59 -40 -96t-101 -37q-58 0 -98 37t-40 96z" />
    <glyph glyph-name="Rdotbelow" unicode="&#x1e5a;" horiz-adv-x="1148" 
d="M1081 0h-239q-42 40 -58 117l-47 198q-23 92 -70 123t-135 31h-147v-469h-219v1206h436q422 0 422 -352q0 -136 -76.5 -214t-197.5 -87v-4q86 -12 134 -55t72 -134l62 -233q19 -75 63 -127zM385 1022v-373h207q104 0 154.5 45.5t50.5 141.5q0 186 -205 186h-207z
M408 -281q0 62 39 99t98 37q61 0 101 -37t40 -99q0 -59 -40 -96t-101 -37q-58 0 -97.5 37t-39.5 96z" />
    <glyph glyph-name="rdotbelow" unicode="&#x1e5b;" horiz-adv-x="755" 
d="M723 967l-21 -240q-40 12 -92 12q-103 0 -178.5 -72t-75.5 -204v-463h-215v946h183l26 -258q32 136 122.5 212t250.5 67zM106 -281q0 61 39.5 98.5t98.5 37.5q61 0 101 -37t40 -99q0 -59 -40 -96t-101 -37q-58 0 -98 37t-40 96z" />
    <glyph glyph-name="Rdotbelowmacron" unicode="&#x1e5c;" horiz-adv-x="1148" 
d="M1081 0h-239q-42 40 -58 117l-47 198q-23 92 -70 123t-135 31h-147v-469h-219v1206h436q422 0 422 -352q0 -136 -76.5 -214t-197.5 -87v-4q86 -12 134 -55t72 -134l62 -233q19 -75 63 -127zM385 1022v-373h207q104 0 154.5 45.5t50.5 141.5q0 186 -205 186h-207z
M408 -281q0 62 39 99t98 37q61 0 101 -37t40 -99q0 -59 -40 -96t-101 -37q-58 0 -97.5 37t-39.5 96zM829 1374h-565v170h565v-170z" />
    <glyph glyph-name="rdotbelowmacron" unicode="&#x1e5d;" horiz-adv-x="755" 
d="M723 967l-21 -240q-40 12 -92 12q-103 0 -178.5 -72t-75.5 -204v-463h-215v946h183l26 -258q32 136 122.5 212t250.5 67zM713 1130h-559v173h559v-173zM109 -281q0 62 39 99t98 37q61 0 101 -37t40 -99q0 -59 -40 -96t-101 -37q-58 0 -97.5 37t-39.5 96z" />
    <glyph glyph-name="Sdotbelow" unicode="&#x1e62;" horiz-adv-x="1003" 
d="M53 283l203 69q17 -102 81.5 -155.5t160.5 -53.5q90 0 144 39.5t54 114.5q0 74 -47.5 117t-185.5 92q-71 24 -122 47t-99.5 55.5t-78 70t-47.5 90t-18 116.5q0 93 34 162.5t92 109t126 58t146 18.5q119 0 207.5 -30t148 -102t70.5 -183l-217 -50q-9 91 -64.5 139
t-140.5 48q-79 0 -127.5 -40t-48.5 -114q0 -32 11 -57.5t28 -44t51 -36.5t66 -31t87 -32q70 -24 118 -45t96.5 -53t77 -68.5t46 -90t17.5 -119.5q0 -90 -34 -158t-95 -109t-138.5 -61.5t-169.5 -20.5q-183 0 -290 73.5t-142 234.5zM373 -281q0 62 39 99t98 37q61 0 101 -37
t40 -99q0 -59 -40 -96t-101 -37q-58 0 -97.5 37t-39.5 96z" />
    <glyph glyph-name="sdotbelow" unicode="&#x1e63;" horiz-adv-x="876" 
d="M49 215l184 64q12 -77 64 -114.5t135 -37.5q75 0 121.5 29t46.5 84q0 53 -31 82.5t-108 48.5l-139 32q-125 32 -181.5 99t-56.5 174q0 80 30.5 139t83.5 91.5t115.5 47.5t135.5 15q329 0 352 -260l-205 -25q-11 125 -160 125q-68 0 -106.5 -29.5t-38.5 -81.5
q0 -48 26 -76t91 -42l131 -29q136 -32 203 -101.5t67 -191.5q0 -99 -51.5 -164t-134.5 -92t-195 -27q-170 0 -263 56.5t-116 183.5zM311 -281q0 61 39.5 98.5t98.5 37.5q61 0 101 -37t40 -99q0 -59 -40 -96t-101 -37q-58 0 -98 37t-40 96z" />
    <glyph glyph-name="Tdotbelow" unicode="&#x1e6c;" horiz-adv-x="950" 
d="M582 0h-217v1016h-345v190h910v-190h-348v-1016zM336 -281q0 62 39 99t98 37q61 0 101 -37t40 -99q0 -59 -40 -96t-101 -37q-58 0 -97.5 37t-39.5 96z" />
    <glyph glyph-name="tdotbelow" unicode="&#x1e6d;" horiz-adv-x="722" 
d="M653 213l39 -180q-101 -58 -250 -58q-135 0 -209.5 70.5t-74.5 208.5v524h-138v168h138v201l217 27v-228h280v-168h-282v-479q0 -141 121 -141q80 0 159 55zM248 -281q0 62 39 99t98 37q61 0 101 -37t40 -99q0 -59 -40 -96t-101 -37q-58 0 -97.5 37t-39.5 96z" />
    <glyph glyph-name="Wgrave" unicode="&#x1e80;" horiz-adv-x="1724" 
d="M997 1206l177 -725q19 -81 34.5 -163.5t21.5 -125.5l5 -42h8q17 151 60 329l172 727h221l-297 -1206h-316l-168 672q-20 81 -32.5 163t-14.5 124l-2 42h-8q-10 -147 -55 -329l-168 -672h-309l-297 1206h231l172 -723q19 -80 34.5 -163.5t21.5 -126.5l6 -43h8
q16 151 59 331l180 725h256zM971 1333h-197l-211 266h279z" />
    <glyph glyph-name="wgrave" unicode="&#x1e81;" horiz-adv-x="1409" 
d="M811 946l125 -452q24 -84 39.5 -168.5t19.5 -127.5l4 -42h9q6 146 53 336l113 454h215l-254 -946h-256l-113 412q-21 76 -35 151t-18 113l-4 37h-9q-10 -129 -55 -301l-106 -412h-256l-263 946h220l118 -452q23 -84 39 -168.5t21 -127.5l4 -42h8q6 150 55 340l121 450
h205zM815 1081h-190l-238 303h281z" />
    <glyph glyph-name="Wacute" unicode="&#x1e82;" horiz-adv-x="1724" 
d="M997 1206l177 -725q19 -81 34.5 -163.5t21.5 -125.5l5 -42h8q17 151 60 329l172 727h221l-297 -1206h-316l-168 672q-20 81 -32.5 163t-14.5 124l-2 42h-8q-10 -147 -55 -329l-168 -672h-309l-297 1206h231l172 -723q19 -80 34.5 -163.5t21.5 -126.5l6 -43h8
q16 151 59 331l180 725h256zM950 1333h-196l129 266h278z" />
    <glyph glyph-name="wacute" unicode="&#x1e83;" horiz-adv-x="1409" 
d="M811 946l125 -452q24 -84 39.5 -168.5t19.5 -127.5l4 -42h9q6 146 53 336l113 454h215l-254 -946h-256l-113 412q-21 76 -35 151t-18 113l-4 37h-9q-10 -129 -55 -301l-106 -412h-256l-263 946h220l118 -452q23 -84 39 -168.5t21 -127.5l4 -42h8q6 150 55 340l121 450
h205zM784 1081h-192l149 303h281z" />
    <glyph glyph-name="Wdieresis" unicode="&#x1e84;" horiz-adv-x="1724" 
d="M997 1206l177 -725q19 -81 34.5 -163.5t21.5 -125.5l5 -42h8q17 151 60 329l172 727h221l-297 -1206h-316l-168 672q-20 81 -32.5 163t-14.5 124l-2 42h-8q-10 -147 -55 -329l-168 -672h-309l-297 1206h231l172 -723q19 -80 34.5 -163.5t21.5 -126.5l6 -43h8
q16 151 59 331l180 725h256zM518 1466q0 60 37.5 96.5t93.5 36.5q58 0 95.5 -36.5t37.5 -96.5q0 -58 -37.5 -94.5t-95.5 -36.5q-55 0 -93 37t-38 94zM934 1466q0 60 38.5 96.5t92.5 36.5q58 0 96.5 -36.5t38.5 -96.5q0 -59 -38.5 -96t-96.5 -37q-54 0 -92.5 37.5t-38.5 95.5
z" />
    <glyph glyph-name="wdieresis" unicode="&#x1e85;" horiz-adv-x="1409" 
d="M811 946l125 -452q24 -84 39.5 -168.5t19.5 -127.5l4 -42h9q6 146 53 336l113 454h215l-254 -946h-256l-113 412q-21 76 -35 151t-18 113l-4 37h-9q-10 -129 -55 -301l-106 -412h-256l-263 946h220l118 -452q23 -84 39 -168.5t21 -127.5l4 -42h8q6 150 55 340l121 450
h205zM360 1219q0 60 38 96.5t94 36.5q58 0 95.5 -36.5t37.5 -96.5q0 -58 -38 -95t-95 -37q-55 0 -93.5 37.5t-38.5 94.5zM776 1219q0 60 38.5 96.5t92.5 36.5q58 0 96.5 -36.5t38.5 -96.5q0 -59 -38.5 -96.5t-96.5 -37.5q-54 0 -92.5 37.5t-38.5 96.5z" />
    <glyph glyph-name="Idotbelow" unicode="&#x1eca;" horiz-adv-x="550" 
d="M166 1206h219v-1206h-219v1206zM135 -281q0 62 39 99t98 37q61 0 101.5 -37t40.5 -99q0 -59 -40.5 -96t-101.5 -37q-58 0 -97.5 37t-39.5 96z" />
    <glyph glyph-name="idotbelow" unicode="&#x1ecb;" horiz-adv-x="497" 
d="M111 1245q0 61 39 98t98 37q61 0 101 -36.5t40 -98.5q0 -59 -40 -97t-101 -38q-58 0 -97.5 38t-39.5 97zM141 946h215v-946h-215v946zM111 -281q0 62 39 99t98 37q61 0 101 -37t40 -99q0 -59 -40 -96t-101 -37q-58 0 -97.5 37t-39.5 96z" />
    <glyph glyph-name="Odotbelow" unicode="&#x1ecc;" horiz-adv-x="1282" 
d="M641 -25q-258 0 -405.5 164.5t-147.5 462.5q0 299 147.5 464t405.5 165t405.5 -165t147.5 -464q0 -298 -147.5 -462.5t-405.5 -164.5zM641 1038q-158 0 -241 -115.5t-83 -322.5q0 -206 82.5 -321t241.5 -115t242.5 115t83.5 321q0 207 -83.5 322.5t-242.5 115.5z
M502 -281q0 62 39 99t98 37q61 0 101 -37t40 -99q0 -59 -40 -96t-101 -37q-58 0 -97.5 37t-39.5 96z" />
    <glyph glyph-name="odotbelow" unicode="&#x1ecd;" horiz-adv-x="1040" 
d="M520 -25q-202 0 -321 132t-119 370q0 237 118 364.5t322 127.5t322.5 -127.5t118.5 -364.5q0 -238 -119 -370t-322 -132zM520 797q-229 0 -229 -320q0 -334 229 -334q228 0 228 334q0 320 -228 320zM381 -281q0 62 39 99t98 37q61 0 101 -37t40 -99q0 -59 -40 -96
t-101 -37q-58 0 -97.5 37t-39.5 96z" />
    <glyph glyph-name="Udotbelow" unicode="&#x1ee4;" horiz-adv-x="1210" 
d="M862 1206h219v-809q0 -115 -39 -199t-107.5 -131.5t-150.5 -69.5t-180 -22q-97 0 -179 22t-150 69.5t-107 132t-39 198.5v809h219v-749q0 -153 63 -227t193 -74q132 0 195 74t63 225v751zM465 -281q0 62 39 99t98 37q61 0 101 -37t40 -99q0 -59 -40 -96t-101 -37
q-58 0 -97.5 37t-39.5 96z" />
    <glyph glyph-name="udotbelow" unicode="&#x1ee5;" horiz-adv-x="1056" 
d="M731 0l-26 174q-31 -103 -101.5 -151t-189.5 -48q-135 0 -211 75.5t-76 236.5v659h215v-614q0 -100 37.5 -148.5t118.5 -48.5q82 0 142 70t60 198v543h215v-946h-184zM381 -281q0 62 39 99t98 37q61 0 101 -37t40 -99q0 -59 -40 -96t-101 -37q-58 0 -97.5 37t-39.5 96z
" />
    <glyph glyph-name="Ygrave" unicode="&#x1ef2;" horiz-adv-x="1032" 
d="M268 1206l174 -350q32 -64 53.5 -120.5t26.5 -80.5l6 -24h9q11 80 79 223l166 352h230l-373 -768v-438h-219v438l-400 768h248zM625 1333h-197l-211 266h279z" />
    <glyph glyph-name="ygrave" unicode="&#x1ef3;" horiz-adv-x="931" 
d="M248 946l147 -489q25 -83 43 -158t24 -109l5 -34h8q15 115 70 299l149 491h226l-359 -1026q-36 -104 -78 -173t-93 -106.5t-104.5 -52t-123.5 -14.5q-76 0 -150 23l25 186q60 -31 125 -31q72 0 118 43t82 150l-350 1001h236zM586 1081h-191l-237 303h280z" />
    <glyph glyph-name="Ytilde" unicode="&#x1ef8;" horiz-adv-x="1032" 
d="M268 1206l174 -350q32 -64 53.5 -120.5t26.5 -80.5l6 -24h9q11 80 79 223l166 352h230l-373 -768v-438h-219v438l-400 768h248zM664 1335q-31 0 -57.5 6.5t-42.5 14.5t-48 26q-6 4 -22 13t-21 12t-16.5 9t-17 8t-14.5 5t-16.5 4t-15.5 1q-33 0 -50 -24.5t-11 -74.5h-125
q-23 53 -20 103.5t24 90t62.5 63.5t93.5 24q46 0 78 -12t75 -39q70 -43 93 -49q12 -3 26 -3q65 0 57 99h131q42 -114 -4 -195.5t-159 -81.5z" />
    <glyph glyph-name="ytilde" unicode="&#x1ef9;" horiz-adv-x="931" 
d="M248 946l147 -489q25 -83 43 -158t24 -109l5 -34h8q15 115 70 299l149 491h226l-359 -1026q-36 -104 -78 -173t-93 -106.5t-104.5 -52t-123.5 -14.5q-76 0 -150 23l25 186q60 -31 125 -31q72 0 118 43t82 150l-350 1001h236zM623 1077q-11 0 -20.5 0.5t-19 2.5t-16.5 3
t-16.5 5t-14 5.5t-15.5 6.5t-14.5 7t-15.5 8.5t-16 8.5q-6 4 -22 13t-21 12t-16.5 9t-17 8t-14.5 5t-16.5 4t-15.5 1q-72 0 -61 -97h-125q-27 72 -16.5 133t58.5 101.5t118 40.5q47 0 79.5 -11.5t73.5 -37.5q70 -43 93 -49q12 -3 26 -3q65 0 57 99h131q42 -115 -4 -195
t-159 -80z" />
    <glyph glyph-name="enspace" unicode="&#x2002;" horiz-adv-x="921" 
 />
    <glyph glyph-name="emspace" unicode="&#x2003;" horiz-adv-x="1843" 
 />
    <glyph glyph-name="threeperemspace" unicode="&#x2004;" horiz-adv-x="614" 
 />
    <glyph glyph-name="fourperemspace" unicode="&#x2005;" horiz-adv-x="460" 
 />
    <glyph glyph-name="sixperemspace" unicode="&#x2006;" horiz-adv-x="307" 
 />
    <glyph glyph-name="figurespace" unicode="&#x2007;" horiz-adv-x="1050" 
 />
    <glyph glyph-name="punctuationspace" unicode="&#x2008;" horiz-adv-x="350" 
 />
    <glyph glyph-name="thinspace" unicode="&#x2009;" horiz-adv-x="184" 
 />
    <glyph glyph-name="hairspace" unicode="&#x200a;" horiz-adv-x="92" 
 />
    <glyph glyph-name="zerowidthspace" unicode="&#x200b;" horiz-adv-x="0" 
 />
    <glyph glyph-name="figuredash" unicode="&#x2012;" horiz-adv-x="1210" 
d="M135 444v148h940v-148h-940z" />
    <glyph glyph-name="endash" unicode="&#x2013;" horiz-adv-x="1024" 
d="M135 444v148h754v-148h-754z" />
    <glyph glyph-name="emdash" unicode="&#x2014;" horiz-adv-x="2048" 
d="M135 444v148h1778v-148h-1778z" />
    <glyph glyph-name="uni2015" unicode="&#x2015;" horiz-adv-x="2560" 
d="M135 444v148h2290v-148h-2290z" />
    <glyph glyph-name="doublebar" unicode="&#x2016;" horiz-adv-x="944" 
d="M383 -416h-178v1786h178v-1786zM739 -416h-178v1786h178v-1786z" />
    <glyph glyph-name="quoteleft" unicode="&#x2018;" horiz-adv-x="481" 
d="M74 1073q0 158 88.5 235t245.5 83v-97q-175 -20 -175 -151q66 11 113 -25t47 -102q0 -65 -41.5 -101t-107.5 -36q-72 0 -121 53.5t-49 140.5z" />
    <glyph glyph-name="quoteright" unicode="&#x2019;" horiz-adv-x="481" 
d="M408 1196q0 -158 -88.5 -235t-245.5 -82v96q176 20 176 151q-67 -12 -113.5 24t-46.5 103q0 66 41.5 102t108.5 36q72 0 120 -53.5t48 -141.5z" />
    <glyph glyph-name="quotesinglbase" unicode="&#x201a;" horiz-adv-x="481" 
d="M408 72q0 -158 -88.5 -235.5t-245.5 -82.5v96q176 20 176 152q-67 -12 -113.5 24t-46.5 103q0 65 41.5 101t108.5 36q72 0 120 -53.5t48 -140.5z" />
    <glyph glyph-name="reversequoteleft" unicode="&#x201b;" horiz-adv-x="481" 
d="M74 1196q0 88 48 141.5t120 53.5q67 0 108 -36t41 -102q0 -67 -46.5 -103t-113.5 -24q0 -131 177 -151v-96q-157 5 -245.5 82t-88.5 235z" />
    <glyph glyph-name="quotedblleft" unicode="&#x201c;" horiz-adv-x="903" 
d="M74 1073q0 158 88.5 235t245.5 83v-97q-175 -20 -175 -151q66 11 113 -25t47 -102q0 -65 -41.5 -101t-107.5 -36q-72 0 -121 53.5t-49 140.5zM496 1073q0 158 88 235t245 83v-97q-174 -20 -174 -151q66 11 113 -25t47 -102q0 -65 -41.5 -101t-107.5 -36q-72 0 -121 53.5
t-49 140.5z" />
    <glyph glyph-name="quotedblright" unicode="&#x201d;" horiz-adv-x="903" 
d="M408 1196q0 -157 -88.5 -234t-245.5 -83v96q174 20 174 151q-66 -11 -113 25t-47 102q0 65 42 101.5t108 36.5q72 0 121 -54t49 -141zM829 1196q0 -158 -88 -234.5t-245 -82.5v96q174 20 174 151q-66 -11 -113 25t-47 102q0 65 42 101.5t107 36.5q72 0 121 -54t49 -141z
" />
    <glyph glyph-name="quotedblbase" unicode="&#x201e;" horiz-adv-x="903" 
d="M408 72q0 -158 -88.5 -235t-245.5 -83v96q174 20 174 152q-66 -11 -113 25t-47 102q0 65 42 101t108 36q72 0 121 -53.5t49 -140.5zM829 72q0 -158 -88 -235t-245 -83v96q174 20 174 152q-66 -11 -113 25t-47 102q0 65 41.5 101t107.5 36q72 0 121 -53.5t49 -140.5z" />
    <glyph glyph-name="reversequotedblleft" unicode="&#x201f;" horiz-adv-x="903" 
d="M74 1196q0 87 49 141t121 54q65 0 107 -36.5t42 -101.5q0 -66 -47 -102t-113 -25q0 -131 175 -151v-96q-157 6 -245.5 83t-88.5 234zM496 1196q0 87 49 141t121 54q65 0 107 -36.5t42 -101.5q0 -66 -47 -102t-113 -25q0 -131 174 -151v-96q-157 6 -245 82.5t-88 234.5z
" />
    <glyph glyph-name="dagger" unicode="&#x2020;" horiz-adv-x="1124" 
d="M473 567l-379 -22v205l379 -21l-20 477h219l-21 -477l379 21v-205l-377 22l21 -872h-221z" />
    <glyph glyph-name="daggerdbl" unicode="&#x2021;" horiz-adv-x="1124" 
d="M651 621v-326l379 22v-202l-379 22l23 -444h-221l22 444l-381 -22v202l379 -22v326l-379 -23v203l379 -23l-20 428h221l-23 -428l379 23v-203z" />
    <glyph glyph-name="bullet" unicode="&#x2022;" horiz-adv-x="696" 
d="M150 508q0 82 58 140.5t138 58.5q83 0 142 -58.5t59 -140.5t-59 -140.5t-142 -58.5q-80 0 -138 58.5t-58 140.5z" />
    <glyph glyph-name="ellipsis" unicode="&#x2026;" horiz-adv-x="1769" 
d="M143 139q0 64 43.5 108t106.5 44q66 0 109.5 -43.5t43.5 -108.5q0 -63 -44 -107t-109 -44q-63 0 -106.5 44t-43.5 107zM733 139q0 64 43.5 108t106.5 44q66 0 109.5 -43.5t43.5 -108.5q0 -63 -44 -107t-109 -44q-63 0 -106.5 44t-43.5 107zM1323 139q0 64 43.5 108
t106.5 44q66 0 109.5 -43.5t43.5 -108.5q0 -63 -44 -107t-109 -44q-63 0 -106.5 44t-43.5 107z" />
    <glyph glyph-name="perthousand" unicode="&#x2030;" horiz-adv-x="2498" 
d="M360 469q-145 0 -221 103t-76 274q0 167 80 272t217 105t217 -105t80 -272q0 -171 -75.5 -274t-221.5 -103zM360 1079q-63 0 -98 -64t-35 -171q0 -105 35.5 -171.5t97.5 -66.5q63 0 99.5 66.5t36.5 171.5q0 107 -35.5 171t-100.5 64zM506 0l627 1208h139l-627 -1208h-139
zM1419 -14q-145 0 -221 103t-76 273q0 167 80 272t217 105t217 -105t80 -272q0 -171 -75.5 -273.5t-221.5 -102.5zM1419 596q-63 0 -98 -64.5t-35 -171.5q0 -105 35.5 -171t97.5 -66q63 0 99 66t36 171q0 107 -35.5 171.5t-99.5 64.5zM2136 -14q-145 0 -221 103t-76 273
q0 167 80 272t217 105t217 -105t80 -272q0 -171 -75.5 -273.5t-221.5 -102.5zM2136 596q-63 0 -98 -64.5t-35 -171.5q0 -105 35.5 -171t97.5 -66q63 0 99 66t36 171q0 107 -35.5 171.5t-99.5 64.5z" />
    <glyph glyph-name="tripleprime" unicode="&#x2034;" horiz-adv-x="1081" 
d="M127 844v524h223l-92 -524h-131zM449 844v524h223l-92 -524h-131zM772 844v524h223l-92 -524h-131z" />
    <glyph glyph-name="guilsinglleft" unicode="&#x2039;" horiz-adv-x="624" 
d="M254 483v-8q39 -14 111 -98l196 -230l-110 -102l-390 436l390 434l110 -112l-199 -225q-32 -36 -59 -60t-38 -30z" />
    <glyph glyph-name="guilsinglright" unicode="&#x203a;" horiz-adv-x="624" 
d="M371 475v8q-37 13 -111 95l-199 225l113 112l389 -434l-389 -436l-111 102l197 230q32 37 59.5 61.5t39.5 30.5z" />
    <glyph glyph-name="fraction" unicode="&#x2044;" horiz-adv-x="339" 
d="M-213 0l627 1208h139l-627 -1208h-139z" />
    <glyph glyph-name="uni2070" unicode="&#x2070;" horiz-adv-x="720" 
d="M360 469q-145 0 -221 103t-76 274q0 167 80 272t217 105t217 -105t80 -272q0 -171 -75.5 -274t-221.5 -103zM360 1079q-63 0 -98 -64t-35 -171q0 -105 35.5 -171.5t97.5 -66.5q63 0 99.5 66.5t36.5 171.5q0 107 -35.5 171t-100.5 64z" />
    <glyph glyph-name="uni2074" unicode="&#x2074;" horiz-adv-x="708" 
d="M389 483v166h-362v119l360 438h168v-436h113v-121h-113v-166h-166zM393 768v160q0 35 2.5 71t4.5 55l3 19h-8q-20 -54 -67 -117l-80 -94q-21 -26 -45.5 -50t-38.5 -35l-14 -11v-8q34 10 114 10h129z" />
    <glyph glyph-name="uni2075" unicode="&#x2075;" horiz-adv-x="653" 
d="M96 795l19 411h444v-135h-315l-11 -174q43 55 146 55q98 0 157.5 -59.5t59.5 -167.5q0 -124 -79.5 -190t-215.5 -66q-115 0 -185.5 46t-82.5 126l143 64q9 -54 44 -83.5t89 -29.5q59 0 93 32t34 95q0 58 -28 88.5t-78 30.5q-65 0 -99 -43h-135z" />
    <glyph glyph-name="uni2076" unicode="&#x2076;" horiz-adv-x="686" 
d="M621 1090l-119 -78q-35 78 -121 78q-78 0 -123 -72.5t-45 -210.5h8q14 63 64 100t127 37q99 0 161 -64.5t62 -164.5q0 -108 -74 -177t-205 -69q-138 0 -215.5 90t-77.5 266q0 193 92.5 295.5t231.5 102.5q166 0 234 -133zM248 709q0 -54 34.5 -86.5t86.5 -32.5t85 32
t33 87t-32.5 87.5t-83.5 32.5q-54 0 -88.5 -32.5t-34.5 -87.5z" />
    <glyph glyph-name="uni2077" unicode="&#x2077;" horiz-adv-x="626" 
d="M422 1067h-244v-109h-141v248h565v-102l-285 -621h-172z" />
    <glyph glyph-name="uni2078" unicode="&#x2078;" horiz-adv-x="710" 
d="M354 791q-50 0 -84 -25.5t-34 -75.5q0 -49 31 -75.5t87 -26.5t88.5 26.5t32.5 75.5q0 50 -35 75.5t-86 25.5zM354 469q-129 0 -206.5 53t-77.5 150q0 68 42.5 114t118.5 58v8q-69 10 -106 55t-37 107q0 98 72 153.5t194 55.5q124 0 196.5 -55.5t72.5 -153.5
q0 -62 -37.5 -107t-106.5 -55v-8q76 -12 119 -58t43 -114q0 -97 -78 -150t-209 -53zM354 1104q-53 0 -84.5 -25.5t-31.5 -68.5t35 -69t81 -26q47 0 82 25.5t35 69.5q0 43 -32 68.5t-85 25.5z" />
    <glyph glyph-name="uni2079" unicode="&#x2079;" horiz-adv-x="686" 
d="M61 602l119 78q31 -78 121 -78q81 0 126.5 72t45.5 211h-8q-14 -63 -64 -100t-125 -37q-100 0 -162.5 64t-62.5 165q0 108 74 177t205 69q138 0 215.5 -90.5t77.5 -266.5q0 -193 -92.5 -295t-231.5 -102q-173 0 -238 133zM438 979q0 54 -34 86.5t-85 32.5
q-52 0 -86 -32.5t-34 -86.5t33.5 -86.5t82.5 -32.5q54 0 88.5 32.5t34.5 86.5z" />
    <glyph glyph-name="uni207A" unicode="&#x207a;" horiz-adv-x="909" 
d="M92 911h305v297h107v-297h313v-106h-313v-322h-107v322h-305v106z" />
    <glyph glyph-name="uni207B" unicode="&#x207b;" horiz-adv-x="911" 
d="M819 803h-727v108h727v-108z" />
    <glyph glyph-name="uni207C" unicode="&#x207c;" horiz-adv-x="911" 
d="M819 686h-727v107h727v-107zM819 942h-727v107h727v-107z" />
    <glyph glyph-name="uni207D" unicode="&#x207d;" horiz-adv-x="473" 
d="M213 838q0 -97 25.5 -182t60 -143.5t94.5 -139.5h-131q-79 99 -124.5 208.5t-45.5 256.5t45.5 256.5t124.5 208.5h131q-90 -118 -135 -223t-45 -242z" />
    <glyph glyph-name="uni207E" unicode="&#x207e;" horiz-adv-x="473" 
d="M272 838q0 137 -45 242t-135 223h131q79 -99 124.5 -208.5t45.5 -256.5t-45.5 -256.5t-124.5 -208.5h-131q60 81 94.5 139.5t60 143.5t25.5 182z" />
    <glyph glyph-name="n.superior" unicode="&#x207f;" horiz-adv-x="817" 
d="M262 1214l23 -120q24 69 79.5 103t129.5 34q91 0 153 -54t62 -167v-422h-174v381q0 127 -105 127q-135 0 -135 -176v-332h-176v626h143z" />
    <glyph glyph-name="uni2080" unicode="&#x2080;" horiz-adv-x="720" 
d="M360 -14q-145 0 -221 103t-76 273q0 167 80 272t217 105t217 -105t80 -272q0 -171 -75.5 -273.5t-221.5 -102.5zM360 596q-63 0 -98 -64.5t-35 -171.5q0 -105 35.5 -171t97.5 -66q63 0 99.5 66t36.5 171q0 107 -35.5 171.5t-100.5 64.5z" />
    <glyph glyph-name="uni2081" unicode="&#x2081;" horiz-adv-x="622" 
d="M594 0h-524v127h188v440l-209 -20v131l375 47v-598h170v-127z" />
    <glyph glyph-name="uni2082" unicode="&#x2082;" horiz-adv-x="649" 
d="M602 131v-131h-553v115q200 142 276 218t76 161q0 100 -102 100q-53 0 -83 -36t-32 -97l-139 57q3 90 76 155.5t201 65.5q110 0 180.5 -58t70.5 -169q0 -56 -22.5 -108.5t-53 -90t-77.5 -74t-81.5 -57t-78.5 -43.5v-8h342z" />
    <glyph glyph-name="uni2083" unicode="&#x2083;" horiz-adv-x="655" 
d="M383 375v-6q203 -18 203 -185q0 -94 -77 -146t-208 -52q-117 0 -191.5 45t-89.5 121l140 57q12 -45 49.5 -72.5t93.5 -27.5q111 0 111 88q0 54 -44.5 82.5t-160.5 31.5v103q104 4 146 32t42 76q0 39 -26 62.5t-68 23.5q-43 0 -74.5 -23t-38.5 -67l-139 53q19 77 89 122.5
t175 45.5q107 0 175.5 -47.5t68.5 -140.5q0 -153 -176 -176z" />
    <glyph glyph-name="uni2084" unicode="&#x2084;" horiz-adv-x="708" 
d="M389 0v166h-362v119l360 438h168v-436h113v-121h-113v-166h-166zM393 285v159q0 35 2.5 71.5t4.5 55.5l3 19h-8q-20 -54 -67 -117l-80 -94q-21 -26 -45.5 -50t-38.5 -35l-14 -11v-9q34 11 114 11h129z" />
    <glyph glyph-name="uni2085" unicode="&#x2085;" horiz-adv-x="653" 
d="M96 311l19 412h444v-135h-315l-11 -174q43 55 146 55q98 0 157.5 -59.5t59.5 -167.5q0 -124 -79.5 -190t-215.5 -66q-115 0 -185.5 46t-82.5 126l143 63q9 -54 44 -83t89 -29q59 0 93 32t34 95q0 58 -28 88t-78 30q-65 0 -99 -43h-135z" />
    <glyph glyph-name="uni2086" unicode="&#x2086;" horiz-adv-x="686" 
d="M621 606l-119 -78q-35 78 -121 78q-78 0 -123 -72t-45 -210h8q14 63 64 100t127 37q99 0 161 -65t62 -165q0 -108 -74 -176.5t-205 -68.5q-138 0 -215.5 90t-77.5 266q0 193 92.5 295t231.5 102q166 0 234 -133zM248 225q0 -54 34.5 -86.5t86.5 -32.5t85 32t33 87t-33 88
t-83 33q-53 0 -88 -33t-35 -88z" />
    <glyph glyph-name="uni2087" unicode="&#x2087;" horiz-adv-x="626" 
d="M422 584h-244v-109h-141v248h565v-102l-285 -621h-172z" />
    <glyph glyph-name="uni2088" unicode="&#x2088;" horiz-adv-x="710" 
d="M354 307q-50 0 -84 -25.5t-34 -74.5t31 -76t87 -27t88.5 27t32.5 76t-35 74.5t-86 25.5zM354 -14q-130 0 -207 52.5t-77 149.5q0 68 42.5 114t118.5 58v9q-69 10 -106 54.5t-37 106.5q0 98 72 153.5t194 55.5q124 0 196.5 -55.5t72.5 -153.5q0 -61 -37.5 -106t-106.5 -55
v-9q76 -12 119 -58t43 -114q0 -97 -78 -149.5t-209 -52.5zM354 621q-52 0 -84 -26t-32 -69t35 -68.5t81 -25.5q47 0 82 25.5t35 68.5t-32 69t-85 26z" />
    <glyph glyph-name="uni2089" unicode="&#x2089;" horiz-adv-x="686" 
d="M61 119l119 78q31 -78 121 -78q81 0 126.5 72t45.5 210h-8q-14 -63 -64 -100t-125 -37q-100 0 -162.5 64.5t-62.5 165.5q0 108 74 176.5t205 68.5q138 0 215.5 -90t77.5 -266q0 -193 -92.5 -295t-231.5 -102q-173 0 -238 133zM438 496q0 54 -34 86t-85 32q-52 0 -86 -32
t-34 -86t33.5 -86.5t82.5 -32.5q54 0 88.5 32.5t34.5 86.5z" />
    <glyph glyph-name="uni208A" unicode="&#x208a;" horiz-adv-x="909" 
d="M92 428h305v297h107v-297h313v-106h-313v-322h-107v322h-305v106z" />
    <glyph glyph-name="uni208B" unicode="&#x208b;" horiz-adv-x="911" 
d="M819 322h-727v106h727v-106z" />
    <glyph glyph-name="uni208C" unicode="&#x208c;" horiz-adv-x="911" 
d="M819 203h-727v108h727v-108zM819 459h-727v106h727v-106z" />
    <glyph glyph-name="uni208D" unicode="&#x208d;" horiz-adv-x="473" 
d="M213 354q0 -97 25.5 -182t60 -143.5t94.5 -139.5h-131q-79 99 -124.5 208.5t-45.5 256.5t45.5 256.5t124.5 208.5h131q-90 -116 -135 -221t-45 -244z" />
    <glyph glyph-name="uni208E" unicode="&#x208e;" horiz-adv-x="473" 
d="M272 354q0 139 -45 244t-135 221h131q79 -99 124.5 -208.5t45.5 -256.5t-45.5 -256.5t-124.5 -208.5h-131q60 81 94.5 139.5t60 143.5t25.5 182z" />
    <glyph glyph-name="uni20A1" unicode="&#x20a1;" horiz-adv-x="1048" 
d="M221 -135l66 188q-193 130 -193 436q0 247 132.5 384t357.5 137q25 0 37 -2l59 172l96 -35l-53 -152q47 -9 84 -30l57 161l97 -32l-68 -193q55 -58 88 -137l-168 -90l-182 -525q61 9 104.5 45.5t79.5 106.5l166 -111q-65 -111 -163.5 -161t-246.5 -52l-69 -198l-99 33
l62 174q-56 11 -86 22l-62 -176zM309 496q0 -149 51 -232l203 580q-121 -3 -187.5 -93.5t-66.5 -254.5zM438 180q38 -24 84 -33l217 621q-29 39 -75 57z" />
    <glyph glyph-name="uni20A2" unicode="&#x20a2;" horiz-adv-x="1067" 
d="M831 291l156 -103q-65 -113 -165 -163t-253 -50q-211 0 -340 131.5t-129 382.5q0 247 132.5 384t357.5 137q153 0 248.5 -60.5t148.5 -187.5l-186 -100q-29 89 -82.5 135.5t-140.5 46.5q-124 0 -193.5 -91t-69.5 -257q0 -135 47 -225t134 -121v405h141l14 -135
q18 69 69 108t132 39l-14 -178q-16 8 -47 8q-52 0 -95 -32t-43 -97v-125q114 23 178 148z" />
    <glyph glyph-name="franc" unicode="&#x20a3;" horiz-adv-x="931" 
d="M739 301h-311v-301h-217v301h-141v105h141v100h-141v104h141v375h684v-178h-467v-197h311v-104h-311v-100h311v-105z" />
    <glyph glyph-name="lira" unicode="&#x20a4;" horiz-adv-x="1030" 
d="M688 317h-227q-10 -105 -84 -139h313q56 0 94.5 20t55.5 78l155 -86q-20 -92 -91.5 -141t-180.5 -49h-610v182h61q49 0 73.5 35.5t24.5 91.5v8h-196v105h170l-35 84h-135v104h106q-6 38 -6 84q0 62 20.5 114.5t55.5 89t82 62.5t100 38t109 12q313 0 352 -271l-195 -45
q-14 73 -51.5 109.5t-109.5 36.5q-76 0 -119 -41t-43 -119q0 -32 10 -70h301v-104h-264q23 -62 29 -84h235v-105z" />
    <glyph glyph-name="uni20A6" unicode="&#x20a6;" horiz-adv-x="1390" 
d="M1321 322h-158v-322h-211l-372 485q-39 51 -73.5 104.5t-49.5 80.5l-15 28h-8q12 -133 12 -297v-401h-217v322h-159v104h159v96h-159v105h159v358h234l360 -483q36 -49 67 -98.5t44 -73.5l12 -25h8q-8 139 -8 291v389h217v-358h158v-105h-158v-96h158v-104z" />
    <glyph glyph-name="peseta" unicode="&#x20a7;" horiz-adv-x="2488" 
d="M385 0h-217v985h364q311 0 394 -184h690q30 109 131 159t240 50q166 0 261 -67t105 -204l-213 -22q-9 135 -170 135q-72 0 -115 -33t-43 -90q0 -53 31 -84.5t99 -44.5l139 -29q134 -28 207 -105.5t73 -197.5q0 -150 -108 -221.5t-289 -71.5q-355 0 -397 256l186 56
q13 -79 72 -116.5t151 -37.5q176 0 176 117q0 56 -31 84t-114 47l-152 35q-203 45 -243 207h-236v-623h-219v623h-201q-6 -349 -413 -349h-158v-274zM385 811v-362h135q114 0 165.5 40.5t51.5 143.5q0 95 -52 136.5t-163 41.5h-137z" />
    <glyph glyph-name="uni20A8" unicode="&#x20a8;" horiz-adv-x="1748" 
d="M385 811v-295h168q93 0 134.5 35t41.5 111q0 149 -176 149h-168zM578 985q376 0 376 -305q0 -119 -69.5 -181.5t-184.5 -68.5v-6q47 -5 78.5 -21t75 -53.5t57.5 -48.5l138 -100q55 -42 117.5 -60t150.5 -18q54 0 90.5 16.5t36.5 53.5q0 32 -22.5 52.5t-78.5 33.5l-112 24
q-187 41 -187 217q0 49 17 88.5t45 65t67 43t80.5 24.5t87.5 7q130 0 204 -50t81 -153l-180 -19q-12 88 -117 88q-45 0 -69.5 -19.5t-24.5 -55.5q0 -31 19.5 -49.5t72.5 -28.5l86 -19q118 -24 169.5 -83.5t51.5 -161.5q0 -112 -90.5 -167t-249.5 -55q-173 0 -280.5 36.5
t-204.5 121.5l-115 98q-8 7 -29.5 25.5t-30 25.5t-27 21t-31 20t-31 13.5t-37 10.5t-39.5 3h-84v-350h-217v985h410z" />
    <glyph glyph-name="uni20A9" unicode="&#x20a9;" horiz-adv-x="1777" 
d="M1696 352h-264l-91 -352h-268l-139 500q-18 65 -29 136t-13 110l-1 38h-8q-4 -134 -45 -284l-136 -500h-270l-90 352h-260v107h233l-24 94h-209v106h180l-82 326h223l140 -559q16 -67 27 -136t14 -104l2 -36h6q10 129 47 274l143 561h224l143 -559q17 -67 29 -135.5
t15 -103.5l3 -35h6q4 125 41 272l139 561h215l-86 -326h185v-106h-211l-25 -94h236v-107z" />
    <glyph glyph-name="uni20AA" unicode="&#x20aa;" horiz-adv-x="1546" 
d="M1040 272h-196v412q0 64 -30.5 99.5t-108.5 35.5h-312v-819h-217v985h561q89 0 150 -22t93.5 -65.5t46 -96.5t13.5 -127v-402zM1171 985h220v-674q0 -59 -8.5 -104.5t-29.5 -85t-55 -65.5t-87.5 -41t-125.5 -15h-561v711h195v-545h315q137 0 137 133v686z" />
    <glyph glyph-name="Euro" unicode="&#x20ac;" horiz-adv-x="1116" 
d="M692 334h-266q57 -184 236 -184q82 0 134 35.5t93 115.5l164 -113q-64 -113 -160 -163t-244 -50q-171 0 -287.5 91t-152.5 268h-156v104h142v51q0 44 2 64h-144v104h158q39 169 160 261t297 92q148 0 241 -60.5t146 -187.5l-187 -103q-30 87 -79.5 132t-131.5 45
q-171 0 -229 -179h320l-21 -104h-319q-2 -18 -2 -57q0 -10 1 -29.5t1 -28.5h305z" />
    <glyph glyph-name="uni20AE" unicode="&#x20ae;" horiz-adv-x="952" 
d="M584 0h-219v268l-215 -37v107l215 37v98l-215 -37v107l215 37v227h-324v178h870v-178h-327v-191l213 37v-106l-213 -37v-98l213 37v-107l-213 -37v-305z" />
    <glyph glyph-name="uni20B1" unicode="&#x20b1;" horiz-adv-x="1191" 
d="M1151 567h-154q-39 -293 -409 -293h-160v-274h-217v567h-150v105h150v313h367q200 0 305.5 -75.5t115.5 -237.5h152v-105zM428 817v-145h350q-9 77 -61 111t-152 34h-137zM563 440q97 0 146.5 28.5t64.5 98.5h-346v-127h135z" />
    <glyph glyph-name="afii61289" unicode="&#x2113;" horiz-adv-x="727" 
d="M80 258l-62 104l146 101v485q0 221 74 321.5t219 100.5q233 0 233 -260q0 -115 -27.5 -222t-75.5 -193.5t-103.5 -154.5t-121.5 -124v-103q0 -89 31.5 -123t102.5 -34q61 0 122 26l-8 -180q-83 -27 -172 -27q-274 0 -274 261v81zM362 991v-418q91 91 147 227.5t56 315.5
q0 125 -90 125q-113 0 -113 -250z" />
    <glyph glyph-name="afii61352" unicode="&#x2116;" horiz-adv-x="2068" 
d="M1360 0v162h616v-162h-616zM387 565v-299q0 -155 -70.5 -227t-214.5 -90l-49 201q65 8 90 40t25 113v903h217l442 -639q31 -44 62.5 -96t46.5 -81l16 -30h9q-11 121 -11 273v282q0 156 70.5 228t214.5 90l51 -199q-65 -8 -91 -41t-26 -114v-879h-208l-447 633
q-34 47 -66.5 101t-48.5 84l-16 30h-8q12 -121 12 -283zM1663 313q-141 0 -224 87t-83 245q0 157 83 242.5t224 85.5q142 0 225.5 -85.5t83.5 -242.5q0 -159 -83.5 -245.5t-225.5 -86.5zM1661 834q-119 0 -119 -191q0 -197 119 -197t119 197q0 191 -119 191z" />
    <glyph glyph-name="published" unicode="&#x2117;" horiz-adv-x="1439" 
d="M778 483h-127v-252h-178v762h307q138 0 213.5 -63t75.5 -187q0 -134 -81 -197t-210 -63zM651 846v-219h107q70 0 101.5 26t31.5 82q0 111 -135 111h-105zM92 602q0 179 84.5 323.5t227.5 225t315 80.5q128 0 244 -47.5t200.5 -129.5t134.5 -200t50 -252t-50 -251.5
t-134.5 -199.5t-200.5 -129t-244 -47t-243.5 47t-200 129t-134 199.5t-49.5 251.5zM156 602q0 -122 44.5 -228.5t121 -180t180.5 -116t219 -42.5t219 42.5t180.5 116t121 180t44.5 228.5t-44.5 228.5t-121 181t-180.5 117t-219 42.5t-219 -42.5t-180.5 -117t-121 -181
t-44.5 -228.5z" />
    <glyph glyph-name="servicemark" unicode="&#x2120;" horiz-adv-x="1239" 
d="M41 821l117 33q17 -72 106 -72q76 0 76 52q0 45 -70 61l-73 16q-65 15 -100.5 53t-35.5 95q0 84 59.5 122t149.5 38q191 0 203 -138l-127 -16q-5 59 -80 59q-33 0 -52 -13.5t-19 -37.5q0 -23 14 -38t51 -23l66 -13q72 -15 111.5 -56.5t39.5 -102.5q0 -79 -58.5 -114.5
t-156.5 -35.5q-201 0 -221 131zM1145 700h-129v316h-8l-95 -207h-94l-96 207h-10v-316h-127v508h151l127 -256h6l123 256h152v-508z" />
    <glyph glyph-name="trademark" unicode="&#x2122;" horiz-adv-x="1226" 
d="M315 698h-129v402h-145v106h420v-106h-146v-402zM1133 698h-129v318h-9l-94 -209h-94l-96 209h-11v-318h-127v508h152l127 -256h6l123 256h152v-508z" />
    <glyph glyph-name="ohm" unicode="&#x2126;" horiz-adv-x="1353" 
d="M676 1040q-156 0 -239 -111t-83 -302q0 -159 61 -270t152 -158v-199h-448v199h229q-89 45 -157 170.5t-68 281.5q0 266 149 423t404 157t405 -157t150 -423q0 -157 -68.5 -282t-158.5 -170h229v-199h-449v199q91 47 153 158.5t62 269.5q0 191 -83 302t-240 111z" />
    <glyph glyph-name="estimated" unicode="&#x212e;" horiz-adv-x="1325" 
d="M662 1231q145 0 257.5 -53t179.5 -143t100.5 -199.5t33.5 -233.5v-53h-883v-346q122 -119 312 -119q264 0 376 213h136q-62 -149 -190.5 -235.5t-321.5 -86.5q-116 0 -211.5 35t-161 94.5t-111 140t-66 170.5t-20.5 187q0 98 21 188t66 171t110.5 140.5t161 94.5
t211.5 35zM662 1122q-194 0 -312 -118v-349h623v349q-118 118 -311 118z" />
    <glyph glyph-name="uni2153" unicode="&#x2153;" horiz-adv-x="1773" 
d="M627 483h-525v127h189v441l-209 -21v131l375 47v-598h170v-127zM504 0l626 1208h140l-627 -1208h-139zM1440 375v-6q202 -17 202 -185q0 -94 -76.5 -146t-207.5 -52q-117 0 -191.5 45t-89.5 121l140 57q12 -45 49.5 -72.5t93.5 -27.5q110 0 110 88q0 54 -44 82.5
t-160 31.5v103q104 4 146 32t42 76q0 39 -26 62.5t-68 23.5q-43 0 -74.5 -23t-38.5 -67l-139 53q19 77 89 122.5t175 45.5q107 0 175.5 -47.5t68.5 -140.5q0 -153 -176 -176z" />
    <glyph glyph-name="uni2154" unicode="&#x2154;" horiz-adv-x="1773" 
d="M649 614v-131h-553v115q83 59 127.5 92.5t95.5 76t74.5 73t39.5 66t16 71.5q0 100 -103 100q-53 0 -83 -36t-32 -97l-139 57q3 90 76.5 156t200.5 66q109 0 180.5 -58.5t71.5 -169.5q0 -56 -22.5 -108.5t-53.5 -89.5t-78 -73.5t-81 -57t-79 -43.5v-9h342zM504 0l626 1208
h140l-627 -1208h-139zM1440 375v-6q202 -17 202 -185q0 -94 -76.5 -146t-207.5 -52q-117 0 -191.5 45t-89.5 121l140 57q12 -45 49.5 -72.5t93.5 -27.5q110 0 110 88q0 54 -44 82.5t-160 31.5v103q104 4 146 32t42 76q0 39 -26 62.5t-68 23.5q-43 0 -74.5 -23t-38.5 -67
l-139 53q19 77 89 122.5t175 45.5q107 0 175.5 -47.5t68.5 -140.5q0 -153 -176 -176z" />
    <glyph glyph-name="uni215B" unicode="&#x215b;" horiz-adv-x="1773" 
d="M627 483h-525v127h189v441l-209 -21v131l375 47v-598h170v-127zM504 0l626 1208h140l-627 -1208h-139zM1411 307q-50 0 -84.5 -25.5t-34.5 -74.5t31.5 -76t87.5 -27t88.5 27t32.5 76t-35 74.5t-86 25.5zM1411 -14q-130 0 -207.5 52.5t-77.5 149.5q0 68 43 114t119 58v9
q-69 10 -106 54.5t-37 106.5q0 98 72 153.5t194 55.5q124 0 196 -55.5t72 -153.5q0 -62 -37 -106.5t-106 -54.5v-9q76 -12 119 -58t43 -114q0 -97 -78 -149.5t-209 -52.5zM1411 621q-53 0 -85 -26t-32 -69t35.5 -68.5t81.5 -25.5q47 0 82 25.5t35 68.5t-32 69t-85 26z" />
    <glyph glyph-name="uni215C" unicode="&#x215c;" horiz-adv-x="1773" 
d="M438 858v-6q203 -18 203 -184q0 -94 -77 -146.5t-208 -52.5q-117 0 -191 45t-89 121l139 57q12 -45 49.5 -72.5t93.5 -27.5q111 0 111 88q0 54 -44.5 83t-160.5 32v102q104 4 146.5 32.5t42.5 76.5q0 39 -26.5 62.5t-68.5 23.5q-43 0 -74 -23.5t-38 -67.5l-140 54
q19 77 89.5 122.5t175.5 45.5q107 0 175 -47.5t68 -141.5q0 -153 -176 -176zM504 0l626 1208h140l-627 -1208h-139zM1411 307q-50 0 -84.5 -25.5t-34.5 -74.5t31.5 -76t87.5 -27t88.5 27t32.5 76t-35 74.5t-86 25.5zM1411 -14q-130 0 -207.5 52.5t-77.5 149.5q0 68 43 114
t119 58v9q-69 10 -106 54.5t-37 106.5q0 98 72 153.5t194 55.5q124 0 196 -55.5t72 -153.5q0 -62 -37 -106.5t-106 -54.5v-9q76 -12 119 -58t43 -114q0 -97 -78 -149.5t-209 -52.5zM1411 621q-53 0 -85 -26t-32 -69t35.5 -68.5t81.5 -25.5q47 0 82 25.5t35 68.5t-32 69
t-85 26z" />
    <glyph glyph-name="uni215D" unicode="&#x215d;" horiz-adv-x="1773" 
d="M139 795l19 411h444v-135h-315l-11 -174q43 55 146 55q98 0 157.5 -59.5t59.5 -167.5q0 -124 -79.5 -190t-215.5 -66q-115 0 -185.5 46t-82.5 126l143 64q9 -54 44 -83.5t89 -29.5q59 0 93 32t34 95q0 58 -28 88.5t-78 30.5q-65 0 -99 -43h-135zM504 0l626 1208h140
l-627 -1208h-139zM1411 307q-50 0 -84.5 -25.5t-34.5 -74.5t31.5 -76t87.5 -27t88.5 27t32.5 76t-35 74.5t-86 25.5zM1411 -14q-130 0 -207.5 52.5t-77.5 149.5q0 68 43 114t119 58v9q-69 10 -106 54.5t-37 106.5q0 98 72 153.5t194 55.5q124 0 196 -55.5t72 -153.5
q0 -62 -37 -106.5t-106 -54.5v-9q76 -12 119 -58t43 -114q0 -97 -78 -149.5t-209 -52.5zM1411 621q-53 0 -85 -26t-32 -69t35.5 -68.5t81.5 -25.5q47 0 82 25.5t35 68.5t-32 69t-85 26z" />
    <glyph glyph-name="uni215E" unicode="&#x215e;" horiz-adv-x="1665" 
d="M461 1067h-244v-109h-141v248h565v-102l-285 -621h-172zM401 0l627 1208h139l-626 -1208h-140zM1309 307q-50 0 -84.5 -25.5t-34.5 -74.5t31.5 -76t87.5 -27t88.5 27t32.5 76t-35 74.5t-86 25.5zM1309 -14q-130 0 -207.5 52.5t-77.5 149.5q0 68 43 114t119 58v9
q-69 10 -106.5 55t-37.5 106q0 97 72.5 153t194.5 56q124 0 196 -55.5t72 -153.5q0 -62 -37 -106.5t-106 -54.5v-9q76 -12 118.5 -58t42.5 -114q0 -97 -77.5 -149.5t-208.5 -52.5zM1309 621q-53 0 -85 -26t-32 -69t35.5 -68.5t81.5 -25.5q47 0 81.5 25t34.5 69q0 43 -32 69
t-84 26z" />
    <glyph glyph-name="arrowleft" unicode="&#x2190;" horiz-adv-x="1398" 
d="M389 700h918v-192h-920l395 -399l-139 -134l-598 627l596 629l141 -133z" />
    <glyph glyph-name="arrowup" unicode="&#x2191;" horiz-adv-x="1402" 
d="M799 885v-885h-193v889l-399 -395l-133 139l626 598l629 -598l-133 -139z" />
    <glyph glyph-name="arrowright" unicode="&#x2192;" horiz-adv-x="1398" 
d="M45 700h918l-390 398l142 133l592 -629l-592 -627l-140 134l392 399h-922v192z" />
    <glyph glyph-name="arrowdown" unicode="&#x2193;" horiz-adv-x="1402" 
d="M604 322v884h193v-889l399 398l133 -140l-627 -600l-628 598l133 142z" />
    <glyph glyph-name="uni2196" unicode="&#x2196;" horiz-adv-x="1398" 
d="M1229 0l-887 889v-688h-184v1005h966v-178h-649l887 -893z" />
    <glyph glyph-name="uni2197" unicode="&#x2197;" horiz-adv-x="1398" 
d="M1057 889l-885 -889l-135 135l887 893h-650v178h967v-1005h-184v688z" />
    <glyph glyph-name="uni2198" unicode="&#x2198;" horiz-adv-x="1398" 
d="M172 1206l885 -887v687h184v-1006h-967v180h650l-887 891z" />
    <glyph glyph-name="uni2199" unicode="&#x2199;" horiz-adv-x="1398" 
d="M342 319l887 887l133 -135l-887 -891h649v-180h-966v1006h184v-687z" />
    <glyph glyph-name="partialdiff" unicode="&#x2202;" horiz-adv-x="1071" 
d="M285 1272l157 114q250 -118 392.5 -343.5t142.5 -499.5q0 -283 -116.5 -420t-325.5 -137q-203 0 -322 128t-119 361q0 115 32 206.5t87 148.5t124.5 86.5t147.5 29.5q88 0 148 -33t108 -94q-65 145 -176.5 256t-279.5 197zM764 467q0 148 -60 225.5t-174 77.5
q-223 0 -223 -303q0 -148 57.5 -228.5t170.5 -80.5q229 0 229 309z" />
    <glyph glyph-name="increment" unicode="&#x2206;" horiz-adv-x="1198" 
d="M1178 0h-1158l439 1206h280zM879 182l-187 529q-30 84 -53.5 164.5t-32.5 118.5l-8 38h-8q-28 -129 -94 -319l-185 -529z" />
    <glyph glyph-name="product" unicode="&#x220f;" horiz-adv-x="1294" 
d="M377 -414h-217v1620h975v-1620h-217v1422h-541v-1422z" />
    <glyph glyph-name="summation" unicode="&#x2211;" horiz-adv-x="933" 
d="M836 1016h-308q-52 0 -96.5 2t-63.5 4l-18 2v-8q51 -39 123 -139l201 -273l-211 -274q-32 -44 -62.5 -79t-44.5 -48l-14 -13v-8q59 8 178 8h316v-190h-836l426 606l-426 600h836v-190z" />
    <glyph glyph-name="minus" unicode="&#x2212;" horiz-adv-x="1019" 
d="M928 446h-836v123h836v-123z" />
    <glyph glyph-name="radical" unicode="&#x221a;" horiz-adv-x="1218" 
d="M414 952l270 -723h8l307 1166l199 -23l-397 -1372h-211l-289 688l-190 -96l-78 160z" />
    <glyph glyph-name="infinity" unicode="&#x221e;" horiz-adv-x="1769" 
d="M272 504q0 -104 55 -160.5t136 -56.5q116 0 211 98l110 119l-110 119q-90 98 -211 98q-81 0 -136 -56.5t-55 -160.5zM885 391l-99 -104q-79 -83 -154 -123.5t-179 -40.5q-153 0 -254 101.5t-101 279.5t101 279.5t254 101.5q104 0 179 -40.5t154 -123.5l99 -105l98 105
q80 83 154.5 123.5t177.5 40.5q154 0 255 -101.5t101 -279.5t-101 -279.5t-255 -101.5q-104 0 -179.5 40.5t-152.5 123.5zM1495 504q0 104 -54 160.5t-134 56.5q-63 0 -113 -22.5t-100 -75.5l-109 -119l109 -119q50 -53 100 -75.5t113 -22.5q80 0 134 56.5t54 160.5z" />
    <glyph glyph-name="integral" unicode="&#x222b;" horiz-adv-x="595" 
d="M174 -59v1114q0 87 29 151t79.5 100t110 53t129.5 17q101 0 205 -33l-39 -196q-73 45 -149 45q-150 0 -150 -174v-1112q0 -87 -29 -151.5t-79 -101t-110 -54t-130 -17.5q-108 0 -201 35l37 197q73 -45 152 -45q145 0 145 172z" />
    <glyph glyph-name="approxequal" unicode="&#x2248;" horiz-adv-x="1019" 
d="M737 512q-72 0 -225.5 47t-216.5 47q-115 0 -203 -94v127q78 90 203 90q71 0 222.5 -46t219.5 -46q106 0 191 88v-139q-68 -74 -191 -74zM737 260q-72 0 -225.5 48t-216.5 48q-115 0 -203 -94v127q78 90 203 90q71 0 222.5 -46t219.5 -46q109 0 191 88v-141
q-71 -74 -191 -74z" />
    <glyph glyph-name="notequal" unicode="&#x2260;" horiz-adv-x="1019" 
d="M928 582h-258l-127 -156h385v-125h-482l-200 -252l-96 78l141 174h-199v125h293l125 156h-418v125h514l182 229l101 -76l-125 -153h164v-125z" />
    <glyph glyph-name="lessequal" unicode="&#x2264;" horiz-adv-x="847" 
d="M721 879l-395 -277l395 -280l-88 -109l-531 387l535 383zM756 41h-664v125h664v-125z" />
    <glyph glyph-name="greaterequal" unicode="&#x2265;" horiz-adv-x="847" 
d="M522 602l-393 277l82 104l534 -383l-530 -387l-88 109zM756 41h-664v125h664v-125z" />
    <glyph glyph-name="blacksquare" unicode="&#x25a0;" horiz-adv-x="1538" 
d="M166 0v1206h1206v-1206h-1206z" />
    <glyph glyph-name="whitesquare" unicode="&#x25a1;" horiz-adv-x="1538" 
d="M166 0v1206h1206v-1206h-1206zM254 1118v-1030h1030v1030h-1030z" />
    <glyph glyph-name="blacksmallsquare" unicode="&#x25aa;" horiz-adv-x="997" 
d="M166 285v665h665v-665h-665z" />
    <glyph glyph-name="whitesmallsquare" unicode="&#x25ab;" horiz-adv-x="999" 
d="M166 285v665h668v-665h-668zM254 862v-489h491v489h-491z" />
    <glyph glyph-name="triagup" unicode="&#x25b2;" horiz-adv-x="1169" 
d="M82 0l502 1231l503 -1231h-1005z" />
    <glyph glyph-name="triagrt" unicode="&#x25ba;" horiz-adv-x="1396" 
d="M166 1098l1231 -502l-1231 -504v1006z" />
    <glyph glyph-name="triagdn" unicode="&#x25bc;" horiz-adv-x="1169" 
d="M584 -25l-502 1231h1005z" />
    <glyph glyph-name="triaglf" unicode="&#x25c4;" horiz-adv-x="1396" 
d="M0 596l1231 502v-1006z" />
    <glyph glyph-name="lozenge" unicode="&#x25ca;" horiz-adv-x="1048" 
d="M954 621l-352 -689h-158l-350 689l350 671h158zM772 618l-244 488l-245 -488l245 -503z" />
    <glyph glyph-name="circle" unicode="&#x25cb;" horiz-adv-x="1064" 
d="M88 604q0 121 59 223.5t161 162t224 59.5q183 0 314 -130.5t131 -314.5t-131 -314t-314 -130q-186 0 -315 129.5t-129 314.5zM182 602q0 -148 102 -252t248 -104t250.5 104t104.5 252q0 149 -104.5 255t-250.5 106t-248 -105.5t-102 -255.5z" />
    <glyph glyph-name="blackcircle" unicode="&#x25cf;" horiz-adv-x="1431" 
d="M88 602q0 170 84 315t228.5 229.5t314.5 84.5q127 0 243.5 -50t200.5 -134.5t134 -201t50 -243.5t-50 -243.5t-134 -200.5t-200.5 -133.5t-243.5 -49.5q-170 0 -314.5 84t-228.5 228.5t-84 314.5z" />
    <glyph glyph-name="whitecircle" unicode="&#x25ef;" horiz-adv-x="1431" 
d="M88 602q0 170 84 315t228.5 229.5t314.5 84.5q127 0 243.5 -50t200.5 -134.5t134 -201t50 -243.5t-50 -243.5t-134 -200.5t-200.5 -133.5t-243.5 -49.5q-170 0 -314.5 84t-228.5 228.5t-84 314.5zM178 600q0 -147 71.5 -272t195.5 -198t270 -73q145 0 268.5 73t195.5 198
t72 272q0 148 -72 274t-195.5 199.5t-268.5 73.5q-109 0 -208.5 -43.5t-171.5 -117t-114.5 -174.5t-42.5 -212z" />
    <glyph glyph-name="anglebracketleft" unicode="&#x3008;" horiz-adv-x="681" 
d="M610 -416h-209l-313 901l313 883h209l-307 -887z" />
    <glyph glyph-name="anglebracketright" unicode="&#x3009;" horiz-adv-x="681" 
d="M281 -416h-209l307 897l-307 887h209l313 -883z" />
    <glyph glyph-name="lcedilla" unicode="&#xe100;" horiz-adv-x="552" 
d="M528 -250q0 -88 -63 -135t-160 -47q-131 0 -194 76l51 114q55 -73 129 -73q69 0 69 63q0 80 -124 86l16 166q-125 49 -125 201v1167h215v-1116q0 -82 84 -82q35 0 68 10l-7 -178q-73 -18 -129 -18h-6l-4 -64q180 -14 180 -170z" />
    <glyph glyph-name="uni004500600323" unicode="&#xe101;" horiz-adv-x="1034" 
d="M932 190v-190h-766v1206h766v-190h-547v-318h483v-186h-483v-322h547zM410 -281q0 62 39 99t98 37q61 0 101 -37t40 -99q0 -59 -40 -96t-101 -37q-58 0 -97.5 37t-39.5 96zM637 1333h-197l129 266h279z" />
    <glyph glyph-name="uni006500600323" unicode="&#xe102;" horiz-adv-x="985" 
d="M522 143q74 0 122.5 34t70.5 112l186 -56q-16 -70 -52.5 -121.5t-89.5 -80.5t-113.5 -42.5t-131.5 -13.5q-197 0 -315.5 129t-118.5 359q0 238 118.5 372t323.5 134q184 0 283.5 -112t99.5 -298q0 -65 -16 -127h-602q6 -133 66.5 -211t168.5 -78zM293 571h403q2 12 2 37
q0 84 -50.5 140.5t-135.5 56.5q-93 0 -150.5 -62.5t-68.5 -171.5zM590 1081h-193l150 303h280zM371 -281q0 62 39 99t98 37q61 0 101 -37t40 -99q0 -59 -40 -96t-101 -37q-58 0 -97.5 37t-39.5 96z" />
    <glyph glyph-name="uni004500B40323" unicode="&#xe103;" horiz-adv-x="1034" 
d="M932 190v-190h-766v1206h766v-190h-547v-318h483v-186h-483v-322h547zM410 -281q0 62 39 99t98 37q61 0 101 -37t40 -99q0 -59 -40 -96t-101 -37q-58 0 -97.5 37t-39.5 96zM657 1333h-196l-211 266h278z" />
    <glyph glyph-name="uni006500B40323" unicode="&#xe104;" horiz-adv-x="985" 
d="M522 143q74 0 122.5 34t70.5 112l186 -56q-16 -70 -52.5 -121.5t-89.5 -80.5t-113.5 -42.5t-131.5 -13.5q-197 0 -315.5 129t-118.5 359q0 238 118.5 372t323.5 134q184 0 283.5 -112t99.5 -298q0 -65 -16 -127h-602q6 -133 66.5 -211t168.5 -78zM293 571h403q2 12 2 37
q0 84 -50.5 140.5t-135.5 56.5q-93 0 -150.5 -62.5t-68.5 -171.5zM623 1081h-191l-237 303h280zM371 -281q0 62 39 99t98 37q61 0 101 -37t40 -99q0 -59 -40 -96t-101 -37q-58 0 -97.5 37t-39.5 96z" />
    <glyph glyph-name="Gtilde" unicode="&#xe105;" horiz-adv-x="1261" 
d="M645 629h492v-629h-156l-33 150q-38 -85 -129 -130t-203 -45q-117 0 -213 39.5t-166.5 116t-109.5 196t-39 271.5q0 299 154 466t417 167q348 0 467 -295l-206 -102q-35 102 -105 154t-166 52q-146 0 -240 -113t-94 -331q0 -200 82.5 -320t247.5 -120q125 0 202 57
t77 160v73h-279v183zM809 1335q-31 0 -57.5 7t-41.5 14t-48 26q-6 4 -22 13t-21 12t-16.5 9t-17 8t-14.5 5t-16.5 4t-15.5 1q-33 0 -50.5 -24.5t-11.5 -74.5h-125q-23 53 -20 103.5t24 90t62.5 63.5t93.5 24q46 0 78.5 -12.5t75.5 -38.5q5 -3 16 -10t14.5 -9t12.5 -7.5
t12.5 -7t11 -5.5t11 -5t9.5 -3t10.5 -3t9.5 -1.5t11 -0.5q66 0 58 99h131q42 -114 -4.5 -195.5t-159.5 -81.5z" />
    <glyph glyph-name="gtilde" unicode="&#xe106;" horiz-adv-x="1005" 
d="M477 969q169 0 273 -70q30 20 43.5 50.5t27.5 92.5l178 -61q-10 -65 -56 -111.5t-107 -60.5q43 -73 43 -176q0 -106 -55 -181t-145 -110t-204 -35q-80 0 -121 15q-57 -32 -57 -93q0 -69 92 -69h246q158 0 244 -72t86 -199q0 -74 -30.5 -131t-80.5 -92t-120 -58
t-141.5 -31.5t-152.5 -8.5q-87 0 -159 12t-133.5 38.5t-96.5 76t-35 117.5q0 90 63.5 144.5t182.5 63.5q-64 6 -101.5 49.5t-37.5 104.5t36.5 107t110.5 67q-188 79 -188 285q0 159 107.5 247.5t287.5 88.5zM217 -156q0 -129 246 -129q148 0 223.5 33.5t75.5 108.5
q0 110 -146 110h-215q-184 0 -184 -123zM297 635q0 -82 47 -131t133 -49q88 0 137.5 45.5t49.5 134.5q0 90 -49.5 136t-137.5 46q-88 -2 -134 -48t-46 -134zM637 1077q-11 0 -20.5 0.5t-19 2.5t-16.5 3t-16.5 5t-14 5.5t-15.5 6.5t-14.5 7t-15.5 8.5t-16 8.5q-7 4 -25.5 15
t-23.5 13.5t-18 9.5t-19.5 8.5t-16 3.5t-19.5 2q-33 0 -50.5 -23.5t-11.5 -73.5h-125q-27 72 -16.5 133t58.5 101.5t118 40.5q47 0 80 -12t74 -37q5 -3 16 -10t14.5 -9t12.5 -7.5t12.5 -7t11 -5.5t11 -5t9.5 -3t10.5 -3t9.5 -1.5t11 -0.5q66 0 58 99h131q42 -115 -4.5 -195
t-159.5 -80z" />
    <glyph glyph-name="Gcommaturnedabove" unicode="&#xe107;" horiz-adv-x="1261" 
d="M645 629h492v-629h-156l-33 150q-38 -85 -129 -130t-203 -45q-117 0 -213 39.5t-166.5 116t-109.5 196t-39 271.5q0 299 154 466t417 167q348 0 467 -295l-206 -102q-35 102 -105 154t-166 52q-146 0 -240 -113t-94 -331q0 -200 82.5 -320t247.5 -120q125 0 202 57
t77 160v73h-279v183zM496 1495q0 115 66.5 168t195.5 53v-82q-65 -3 -96 -22t-31 -64q58 11 95.5 -17t37.5 -83q0 -57 -34.5 -87t-90.5 -30q-62 0 -102.5 44.5t-40.5 119.5z" />
    <glyph glyph-name="gcommaturnedabove" unicode="&#xe108;" horiz-adv-x="1005" 
d="M477 969q169 0 273 -70q30 20 43.5 50.5t27.5 92.5l178 -61q-10 -65 -56 -111.5t-107 -60.5q43 -73 43 -176q0 -106 -55 -181t-145 -110t-204 -35q-80 0 -121 15q-57 -32 -57 -93q0 -69 92 -69h246q158 0 244 -72t86 -199q0 -74 -30.5 -131t-80.5 -92t-120 -58
t-141.5 -31.5t-152.5 -8.5q-87 0 -159 12t-133.5 38.5t-96.5 76t-35 117.5q0 90 63.5 144.5t182.5 63.5q-64 6 -101.5 49.5t-37.5 104.5t36.5 107t110.5 67q-188 79 -188 285q0 159 107.5 247.5t287.5 88.5zM217 -156q0 -129 246 -129q148 0 223.5 33.5t75.5 108.5
q0 110 -146 110h-215q-184 0 -184 -123zM297 635q0 -82 47 -131t133 -49q88 0 137.5 45.5t49.5 134.5q0 90 -49.5 136t-137.5 46q-88 -2 -134 -48t-46 -134zM342 1245q0 115 66.5 168t195.5 53v-82q-65 -3 -96 -22t-31 -64q58 11 95.5 -17t37.5 -83q0 -57 -34.5 -87
t-90.5 -30q-62 0 -102.5 44.5t-40.5 119.5z" />
    <glyph glyph-name="Hmacronbelow" unicode="&#xe109;" horiz-adv-x="1306" 
d="M385 0h-219v1206h219v-499h537v499h219v-1206h-219v518h-537v-518zM934 -379h-559v170h559v-170z" />
    <glyph glyph-name="hmacronbelow" unicode="&#xe10a;" horiz-adv-x="1060" 
d="M356 1368v-602q67 203 289 203q124 0 204.5 -73.5t80.5 -221.5v-674h-215v604q0 182 -154 182q-42 0 -76.5 -12t-64.5 -39.5t-47 -77.5t-17 -120v-537h-215v1368h215zM817 -379h-559v170h559v-170z" />
    <glyph glyph-name="Jcaron" unicode="&#xe10b;" horiz-adv-x="917" 
d="M569 1206h219v-856q0 -100 -31.5 -174.5t-87.5 -117t-125 -63t-151 -20.5q-277 0 -393 234l166 135q45 -100 96 -143t131 -43q99 0 137.5 59t38.5 178v811zM743 1327h-133l-262 275h217l64 -66q16 -17 27.5 -34t14.5 -26l3 -8h6q8 29 45 68l63 66h218z" />
    <glyph glyph-name="Kcedilla" unicode="&#xe10d;" horiz-adv-x="1130" 
d="M1098 0h-267l-360 518h-86v-518h-219v1206h219v-499h90l336 499h254l-408 -585zM754 -250q0 -88 -63 -135t-161 -47q-131 0 -194 76l51 114q55 -73 129 -73q70 0 70 63q0 80 -125 86l18 189h101l-7 -103q181 -14 181 -170z" />
    <glyph glyph-name="kcedilla" unicode="&#xe10e;" horiz-adv-x="993" 
d="M586 506l393 -506h-258l-309 412h-56v-412h-215v1368h215v-788h47l291 366h254zM721 -250q0 -88 -63 -135t-160 -47q-132 0 -195 76l51 114q55 -73 129 -73q70 0 70 63q0 80 -125 86l18 189h101l-6 -103q180 -14 180 -170z" />
    <glyph glyph-name="Lcedilla" unicode="&#xe10f;" horiz-adv-x="950" 
d="M739 -250q0 -88 -63 -135t-160 -47q-131 0 -194 76l51 114q55 -73 129 -73q69 0 69 63q0 80 -125 86l17 166h-297v1206h219v-1016h516v-190h-338l-4 -80q180 -14 180 -170z" />
    <glyph glyph-name="ocedilla" unicode="&#xe110;" horiz-adv-x="1040" 
d="M737 -250q0 -88 -63 -135t-160 -47q-132 0 -195 76l52 114q55 -73 129 -73q69 0 69 63q0 80 -125 86l15 146q-176 19 -277.5 148.5t-101.5 348.5q0 237 118 364.5t322 127.5t322.5 -127.5t118.5 -364.5q0 -226 -108 -357t-294 -143l-2 -57q180 -14 180 -170zM520 797
q-229 0 -229 -320q0 -334 229 -334q228 0 228 334q0 320 -228 320z" />
    <glyph glyph-name="Mmacron" unicode="&#xe111;" horiz-adv-x="1486" 
d="M807 289h-127l-207 370q-30 54 -53 104t-31 73l-8 24h-8q12 -72 12 -213v-647h-219v1206h240l268 -508q24 -44 41 -83t23 -55l5 -17h9q14 55 69 155l266 508h234v-1206h-219v647q0 63 2.5 116t5.5 75l2 22h-8q-22 -80 -90 -201zM1026 1374h-565v170h565v-170z" />
    <glyph glyph-name="mmacron" unicode="&#xe112;" horiz-adv-x="1599" 
d="M891 760q35 107 115 158t186 51q125 0 200.5 -71.5t75.5 -217.5v-680h-215v604q0 182 -145 182q-83 0 -140 -61.5t-57 -187.5v-537h-213v604q0 182 -147 182q-83 0 -139 -61.5t-56 -189.5v-535h-215v946h174l27 -182q35 104 112 154.5t181 50.5q222 0 256 -209z
M1085 1130h-559v173h559v-173z" />
    <glyph glyph-name="Mcedilla" unicode="&#xe113;" horiz-adv-x="1486" 
d="M807 289h-127l-207 370q-30 54 -53 104t-31 73l-8 24h-8q12 -72 12 -213v-647h-219v1206h240l268 -508q24 -44 41 -83t23 -55l5 -17h9q14 55 69 155l266 508h234v-1206h-219v647q0 63 2.5 116t5.5 75l2 22h-8q-22 -80 -90 -201zM948 -250q0 -88 -63 -135t-160 -47
q-132 0 -195 76l52 114q55 -73 129 -73q69 0 69 63q0 80 -125 86l19 189h100l-6 -103q180 -14 180 -170z" />
    <glyph glyph-name="mcedilla" unicode="&#xe114;" horiz-adv-x="1599" 
d="M1024 -250q0 -88 -63 -135t-160 -47q-132 0 -195 76l51 114q55 -73 129 -73q70 0 70 63q0 80 -125 86l17 166h-50v604q0 182 -147 182q-83 0 -139 -61.5t-56 -189.5v-535h-215v946h174l27 -182q35 104 112 154.5t181 50.5q222 0 256 -209q35 107 115 158t186 51
q125 0 200.5 -71.5t75.5 -217.5v-680h-215v604q0 182 -145 182q-83 0 -140 -61.5t-57 -187.5v-537h-63l-4 -80q180 -14 180 -170z" />
    </font>
</defs>
</svg>
