<?xml version="1.0" standalone="no"?>
<!DOCTYPE svg PUBLIC "-//W3C//DTD SVG 1.1//EN" "http://www.w3.org/Graphics/SVG/1.1/DTD/svg11.dtd" >
<svg xmlns="http://www.w3.org/2000/svg" xmlns:xlink="http://www.w3.org/1999/xlink" version="1.1">
<metadata>
Created by FontForge 20170731 at Fri Sep 17 22:21:32 2021
 By Aleksey,,,
Copyright (c) 2004-9 by Kris Sowersby. All rights reserved.
</metadata>
<defs>
<font id="National-Extrabold" horiz-adv-x="1157" >
  <font-face 
    font-family="National Extrabold"
    font-weight="900"
    font-stretch="normal"
    units-per-em="2048"
    panose-1="2 0 5 3 0 0 0 2 0 4"
    ascent="1638"
    descent="-410"
    x-height="946"
    cap-height="1206"
    bbox="-250 -528 2542 2107"
    underline-thickness="116"
    underline-position="-173"
    unicode-range="U+0020-F778"
  />
<missing-glyph horiz-adv-x="1546" 
d="M170 0v1206h1206v-1206h-1206zM772 541l-453 -453h908zM319 1118l453 -454l455 454h-908zM834 602l454 -452v907zM711 602l-453 455v-907z" />
    <glyph glyph-name="f_b" unicode="fb" horiz-adv-x="1773" 
d="M1040 526v-131q0 -56 15 -97t40.5 -63t53.5 -32t59 -10q86 0 142.5 71t56.5 205q0 258 -182 258q-72 0 -128.5 -55.5t-56.5 -145.5zM739 1112q-64 43 -139 43q-137 0 -137 -139v-70h180v-233h-180v-713h-303v713h-140v233h140v58q0 102 32.5 177.5t89 118.5t125.5 63.5
t150 20.5q114 0 213 -38l272 22v-596q38 102 119 149.5t189 47.5q173 0 267.5 -124t94.5 -349q0 -240 -106.5 -380.5t-296.5 -140.5q-116 0 -186.5 45t-92.5 117l-76 -137h-215v1112z" />
    <glyph glyph-name="f_f_b" unicode="ffb" horiz-adv-x="2353" 
d="M1620 526v-131q0 -106 49.5 -154t116.5 -48q87 0 144 71.5t57 204.5q0 258 -185 258q-71 0 -126.5 -55.5t-55.5 -145.5zM1622 1368v-596q38 102 118.5 149.5t188.5 47.5q173 0 268 -124t95 -349q0 -240 -107 -380.5t-297 -140.5q-116 0 -186 45t-92 117l-76 -137h-215
v1112q-64 43 -139 43q-138 0 -138 -139v-70h181v-233h-181v-713h-303v713h-276v-713h-303v713h-140v233h140v55q0 79 21.5 142t56.5 103.5t82.5 67.5t97 38.5t102.5 11.5q69 0 107 -7.5t92 -29.5l-43 -254q-48 37 -103 37q-57 0 -83.5 -28t-26.5 -91v-45h276v58
q0 102 32.5 177.5t89.5 118.5t126 63.5t150 20.5q114 0 213 -38z" />
    <glyph glyph-name="f_f_h" unicode="ffh" horiz-adv-x="2308" 
d="M1622 1368v-602q73 203 299 203q116 0 195 -75t79 -226v-668h-303v549q0 83 -24 124.5t-90 41.5q-68 0 -112 -46t-44 -155v-514h-303v1112q-64 43 -139 43q-138 0 -138 -139v-70h181v-233h-181v-713h-303v713h-276v-713h-303v713h-140v233h140v55q0 79 21.5 142
t56.5 103.5t82.5 67.5t97 38.5t102.5 11.5q69 0 107 -7.5t92 -29.5l-43 -254q-48 37 -103 37q-57 0 -83.5 -28t-26.5 -91v-45h276v58q0 102 32.5 177.5t89.5 118.5t126 63.5t150 20.5q114 0 213 -38z" />
    <glyph glyph-name="f_f_j" unicode="ffj" horiz-adv-x="1744" 
d="M1042 713v-713h-303v713h-276v-713h-303v713h-140v233h140v55q0 79 21.5 142t56.5 103.5t82.5 67.5t97 38.5t102.5 11.5q69 0 107 -7.5t92 -29.5l-43 -254q-48 37 -103 37q-57 0 -83.5 -28t-26.5 -91v-45h276v51q0 106 39 184.5t105 121t140 62t157 19.5q172 0 303 -69
l-105 -244q-77 57 -176 57q-67 0 -113.5 -31.5t-46.5 -109.5v-41h580v-928q0 -228 -155.5 -339.5t-411.5 -92.5v256q86 -13 145 -1.5t89 68.5t30 169v635h-277z" />
    <glyph glyph-name="f_f_k" unicode="ffk" horiz-adv-x="2293" 
d="M1622 1368v-756h55l217 334h349l-312 -440l342 -506h-350l-244 379h-57v-379h-303v1112q-64 43 -139 43q-138 0 -138 -139v-70h181v-233h-181v-713h-303v713h-276v-713h-303v713h-140v233h140v55q0 79 21.5 142t56.5 103.5t82.5 67.5t97 38.5t102.5 11.5q69 0 107 -7.5
t92 -29.5l-43 -254q-48 37 -103 37q-57 0 -83.5 -28t-26.5 -91v-45h276v58q0 102 32.5 177.5t89.5 118.5t126 63.5t150 20.5q114 0 213 -38z" />
    <glyph glyph-name="f_h" unicode="fh" horiz-adv-x="1728" 
d="M1042 1368v-602q73 203 299 203q55 0 103 -17.5t87 -52t62 -94t23 -137.5v-668h-303v549q0 83 -24.5 124.5t-90.5 41.5q-68 0 -112 -46t-44 -155v-514h-303v1112q-64 43 -139 43q-137 0 -137 -139v-70h180v-233h-180v-713h-303v713h-140v233h140v58q0 102 32.5 177.5
t89 118.5t125.5 63.5t150 20.5q114 0 213 -38z" />
    <glyph glyph-name="f_j" unicode="fj" horiz-adv-x="1165" 
d="M739 78v635h-276v-713h-303v713h-140v233h140v51q0 86 26 154t69 111t101 71t118 39.5t126 11.5q172 0 303 -69l-104 -244q-77 57 -176 57q-67 0 -113.5 -31.5t-46.5 -109.5v-41h579v-928q0 -228 -155.5 -339.5t-411.5 -92.5v256q86 -13 145 -1.5t89 68.5t30 169z" />
    <glyph glyph-name="f_k" unicode="fk" horiz-adv-x="1714" 
d="M1042 1368v-756h56l217 334h348l-311 -440l342 -506h-351l-243 379h-58v-379h-303v1112q-64 43 -139 43q-137 0 -137 -139v-70h180v-233h-180v-713h-303v713h-140v233h140v58q0 102 32.5 177.5t89 118.5t125.5 63.5t150 20.5q114 0 213 -38z" />
    <glyph glyph-name="ff" unicode="ff" horiz-adv-x="1257" 
d="M739 713h-276v-713h-303v713h-140v233h140v55q0 79 21.5 142t56.5 103.5t82.5 67.5t97 38.5t102.5 11.5q69 0 107 -7.5t92 -29.5l-43 -254q-48 37 -103 37q-57 0 -83.5 -28t-26.5 -91v-45h276v58q0 102 32.5 177t89.5 118t126 63.5t150 21.5q131 0 243 -36l-45 -283
q-74 55 -155 55q-138 0 -138 -135v-39h242v-233h-242v-713h-303v713z" />
    <glyph glyph-name="ffi" unicode="ffi" horiz-adv-x="1744" 
d="M739 946v51q0 106 39 184.5t105 121t140 62t157 19.5q172 0 303 -69l-105 -244q-77 57 -176 57q-67 0 -113.5 -31.5t-46.5 -109.5v-41h580v-946h-303v713h-277v-713h-303v713h-276v-713h-303v713h-140v233h140v55q0 79 21.5 142t56.5 103.5t82.5 67.5t97 38.5t102.5 11.5
q69 0 107 -7.5t92 -29.5l-43 -254q-48 37 -103 37q-57 0 -83.5 -28t-26.5 -91v-45h276z" />
    <glyph glyph-name="ffl" unicode="ffl" horiz-adv-x="1826" 
d="M739 946v58q0 102 32.5 177.5t89.5 118.5t126 63.5t150 20.5q114 0 213 -38l272 22v-1040q0 -80 88 -80q41 0 76 14l-17 -254q-96 -28 -172 -28q-56 0 -104 13.5t-88 42t-63 79t-23 118.5v879q-64 43 -139 43q-138 0 -138 -139v-70h181v-233h-181v-713h-303v713h-276
v-713h-303v713h-140v233h140v55q0 79 21.5 142t56.5 103.5t82.5 67.5t97 38.5t102.5 11.5q69 0 107 -7.5t92 -29.5l-43 -254q-48 37 -103 37q-57 0 -83.5 -28t-26.5 -91v-45h276z" />
    <glyph glyph-name="fi" unicode="fi" horiz-adv-x="1165" 
d="M160 713h-140v233h140v51q0 86 26 154t69 111t101 71t118 39.5t126 11.5q172 0 303 -69l-104 -244q-77 57 -176 57q-67 0 -113.5 -31.5t-46.5 -109.5v-41h579v-946h-303v713h-276v-713h-303v713z" />
    <glyph glyph-name="fl" unicode="fl" horiz-adv-x="1247" 
d="M1206 262l-16 -254q-96 -28 -172 -28q-56 0 -104 13.5t-88.5 42t-63.5 79t-23 118.5v879q-64 43 -139 43q-137 0 -137 -139v-70h180v-233h-180v-713h-303v713h-140v233h140v58q0 102 32.5 177.5t89 118.5t125.5 63.5t150 20.5q114 0 213 -38l272 22v-1040q0 -80 88 -80
q41 0 76 14z" />
    <glyph glyph-name=".notdef" horiz-adv-x="1546" 
d="M170 0v1206h1206v-1206h-1206zM772 541l-453 -453h908zM319 1118l453 -454l455 454h-908zM834 602l454 -452v907zM711 602l-453 455v-907z" />
    <glyph glyph-name=".null" horiz-adv-x="0" 
 />
    <glyph glyph-name="nonmarkingreturn" horiz-adv-x="682" 
 />
    <glyph glyph-name="space" unicode=" " horiz-adv-x="452" 
 />
    <glyph glyph-name="exclam" unicode="!" horiz-adv-x="507" 
d="M72 1206h364l-82 -784h-200zM72 158q0 76 52 123t130 47q81 0 133.5 -46.5t52.5 -123.5q0 -75 -52.5 -121.5t-133.5 -46.5q-78 0 -130 46.5t-52 121.5z" />
    <glyph glyph-name="quotedbl" unicode="&#x22;" horiz-adv-x="894" 
d="M133 844v524h291l-111 -524h-180zM512 844v524h291l-111 -524h-180z" />
    <glyph glyph-name="numbersign" unicode="#" horiz-adv-x="1333" 
d="M1231 233h-350l-74 -233h-217l72 233h-175l-73 -233h-217l71 233h-207v205h271l45 144h-275v204h338l62 199h221l-64 -199h175l61 199h221l-63 -199h219v-204h-283l-45 -144h287v-205zM596 582l-45 -144h174l45 144h-174z" />
    <glyph glyph-name="dollar" unicode="$" horiz-adv-x="1028" 
d="M467 -217v194q-342 16 -385 246l227 107q37 -122 158 -146v183l-86 16q-268 61 -268 301q0 83 28.5 145t79.5 98.5t111.5 55.5t134.5 25v168h102v-168q165 -8 260.5 -80t98.5 -199l-258 -33q-9 89 -101 107v-191l78 -12q299 -50 299 -315q0 -148 -102.5 -224t-274.5 -84
v-194h-102zM670 252q0 39 -22.5 59.5t-78.5 34.5v-166q101 11 101 72zM381 721q0 -75 86 -92v176q-86 -15 -86 -84z" />
    <glyph glyph-name="percent" unicode="%" horiz-adv-x="1822" 
d="M371 469q-108 0 -181.5 51t-106 134t-32.5 192q0 164 84.5 270.5t235.5 106.5t235 -106.5t84 -270.5q0 -109 -32.5 -192t-105.5 -134t-181 -51zM371 1032q-48 0 -75.5 -50.5t-27.5 -139.5q0 -85 28.5 -137t74.5 -52q47 0 75.5 52t28.5 137q0 90 -27.5 140t-76.5 50z
M504 0l624 1206h179l-631 -1206h-172zM1452 -14q-108 0 -181 51t-105.5 133.5t-32.5 191.5q0 164 84 270.5t235 106.5t235.5 -106.5t84.5 -270.5q0 -109 -32.5 -191.5t-106 -133.5t-181.5 -51zM1452 549q-47 0 -74.5 -51t-27.5 -140q0 -85 28 -136.5t74 -51.5
q47 0 75.5 51.5t28.5 136.5q0 90 -27.5 140.5t-76.5 50.5z" />
    <glyph glyph-name="ampersand" unicode="&#x26;" horiz-adv-x="1206" 
d="M1196 164l-219 -195l-137 129q-84 -65 -179.5 -94t-236.5 -29q-76 0 -145 18t-128.5 54.5t-95 101.5t-35.5 150q0 109 71 193.5t210 113.5l-72 70q-118 109 -118 252q0 76 31.5 134.5t87 95t128.5 55t160 18.5q166 0 274.5 -77.5t108.5 -221.5q0 -105 -79 -169t-191 -79
l227 -211q41 70 47 166l242 -92q-10 -65 -44 -133.5t-71 -106.5zM324 338q0 -64 43.5 -102.5t119.5 -38.5q124 0 181 65l-258 244q-43 -40 -64.5 -75.5t-21.5 -92.5zM516 1030q-42 0 -68 -24.5t-26 -61.5q0 -49 43 -92l78 -80q36 33 57 75t21 83q0 46 -27.5 73t-77.5 27z
" />
    <glyph glyph-name="quotesingle" unicode="'" horiz-adv-x="516" 
d="M133 844v524h291l-111 -524h-180z" />
    <glyph glyph-name="parenleft" unicode="(" horiz-adv-x="757" 
d="M397 477q0 -114 19 -220.5t46.5 -188t76.5 -173t91 -155t107 -154.5h-317q-54 73 -89.5 125.5t-83 142.5t-76 174.5t-49 202.5t-20.5 246t20.5 246t49 202.5t76 174.5t83 142.5t89.5 125.5h317q-65 -89 -107.5 -153.5t-91 -155.5t-76 -173t-46.5 -188.5t-19 -220.5z" />
    <glyph glyph-name="parenright" unicode=")" horiz-adv-x="757" 
d="M360 477q-1 114 -19.5 220t-47 189t-76 173t-90.5 155t-107 154h320q54 -73 88.5 -125t82 -142.5t75.5 -175t48.5 -202.5t20.5 -246t-20.5 -246t-48.5 -202.5t-75.5 -175t-82 -142.5t-88.5 -125h-320q65 90 107 154.5t90.5 155.5t76 173t46.5 188t20 220z" />
    <glyph glyph-name="asterisk" unicode="*" horiz-adv-x="858" 
d="M543 1231l-43 -221l205 102l61 -201l-221 -37l164 -159l-183 -131l-94 204l-100 -204l-176 131l159 159l-223 37l68 199l200 -100l-38 221h221z" />
    <glyph glyph-name="plus" unicode="+" horiz-adv-x="1019" 
d="M92 592h330v319h168v-319h338v-168h-338v-348h-168v348h-330v168z" />
    <glyph glyph-name="comma" unicode="," horiz-adv-x="598" 
d="M496 117q0 -99 -30 -171.5t-85 -115.5t-127 -63.5t-162 -20.5v121q203 17 203 156q-77 -11 -137 31.5t-60 127.5q0 83 53.5 127.5t133.5 44.5q94 0 152.5 -65.5t58.5 -171.5z" />
    <glyph glyph-name="hyphen" unicode="-" horiz-adv-x="765" 
d="M123 403v256h520v-256h-520z" />
    <glyph glyph-name="period" unicode="." horiz-adv-x="602" 
d="M113 174q0 83 53.5 138t130.5 55q83 0 137.5 -55t54.5 -138q0 -77 -55 -130.5t-137 -53.5q-77 0 -130.5 54t-53.5 130z" />
    <glyph glyph-name="slash" unicode="/" horiz-adv-x="903" 
d="M20 -416l560 1784h262l-563 -1784h-259z" />
    <glyph glyph-name="zero" unicode="0" horiz-adv-x="1196" 
d="M598 -25q-239 0 -377.5 147t-138.5 374q0 144 59.5 259.5t178.5 185t278 69.5t278 -69.5t178.5 -185t59.5 -259.5q0 -227 -138.5 -374t-377.5 -147zM598 741q-105 0 -165 -71t-60 -181q0 -112 60 -184t165 -72q106 0 166.5 72t60.5 184q0 111 -60.5 181.5t-166.5 70.5z
" />
    <glyph glyph-name="one" unicode="1" horiz-adv-x="757" 
d="M594 0h-283v715l-270 -29v246l553 69v-1001z" />
    <glyph glyph-name="two" unicode="2" horiz-adv-x="1003" 
d="M922 252v-252h-838v205q205 106 315.5 180.5t151.5 129.5t41 116q0 53 -29.5 82.5t-83.5 29.5q-115 0 -129 -157l-278 69q23 170 140 262.5t300 92.5q163 0 269 -95t106 -258q0 -162 -99 -253.5t-303 -143.5v-8h437z" />
    <glyph glyph-name="three" unicode="3" horiz-adv-x="997" 
d="M592 385v-10q159 -14 236 -99t77 -221q0 -163 -123.5 -250.5t-345.5 -87.5q-172 0 -285.5 74t-140.5 213l287 113q6 -84 47.5 -128t116.5 -44q66 0 106.5 31t40.5 94q0 98 -72.5 148.5t-242.5 49.5v207q77 1 132 14t83.5 29.5t44 43t19 46t3.5 45.5q0 53 -30.5 83
t-77.5 30q-54 0 -90 -38.5t-37 -109.5l-287 80q24 148 140.5 230t291.5 82q180 0 289 -83t109 -239q0 -268 -291 -303z" />
    <glyph glyph-name="four" unicode="4" horiz-adv-x="1193" 
d="M629 -268v307h-588v203l612 743h279v-723h201v-223h-201v-307h-303zM446 262h183v201q0 36 2.5 81.5t4.5 73.5l3 27h-8q-29 -57 -66 -104l-129 -168q-24 -32 -53.5 -60t-46.5 -41l-17 -12v-8q51 10 127 10z" />
    <glyph glyph-name="five" unicode="5" horiz-adv-x="1034" 
d="M160 256l28 729h693v-270h-451l-10 -228q62 41 158 41q162 0 258 -102t96 -276q0 -108 -38 -192.5t-104 -136t-149.5 -78t-179.5 -26.5q-192 0 -307.5 72.5t-143.5 212.5l273 119q6 -88 55.5 -136t132.5 -48q81 0 128.5 51t47.5 157q0 88 -42.5 127t-110.5 39
q-71 0 -115 -55h-219z" />
    <glyph glyph-name="six" unicode="6" horiz-adv-x="1085" 
d="M987 1028l-199 -162q-51 119 -188 119q-120 0 -184 -114t-64 -318h8q24 103 98 159t173 56q171 0 272 -108t101 -267q0 -193 -120 -305.5t-331 -112.5q-219 0 -345 152t-126 426q0 171 41 303t112.5 212.5t164.5 121.5t202 41q130 0 232.5 -54.5t152.5 -148.5zM410 375
q0 -72 46.5 -119t112.5 -47q69 0 115.5 46.5t46.5 119.5q0 76 -46.5 122t-115.5 46q-67 0 -113 -46t-46 -122z" />
    <glyph glyph-name="seven" unicode="7" horiz-adv-x="1030" 
d="M623 715h-318v-148h-244v418h877v-217l-418 -1036h-301z" />
    <glyph glyph-name="eight" unicode="8" horiz-adv-x="1089" 
d="M545 -25q-229 0 -346 92t-117 240q0 115 72 197.5t186 107.5v9q-115 23 -172 100t-57 178q0 146 115.5 239t318.5 93t318.5 -93t115.5 -239q0 -101 -57 -178t-172 -100v-9q114 -25 186 -107.5t72 -197.5q0 -148 -117 -240t-346 -92zM545 1020q-67 0 -105.5 -42
t-38.5 -104q0 -72 43 -110.5t101 -38.5t100.5 38.5t42.5 110.5q0 63 -38 104.5t-105 41.5zM545 498q-66 0 -115 -39t-49 -109q0 -66 44.5 -108.5t119.5 -42.5t119.5 42.5t44.5 108.5q0 70 -49 109t-115 39z" />
    <glyph glyph-name="nine" unicode="9" horiz-adv-x="1079" 
d="M43 -72l199 158q55 -127 196 -127q146 0 217.5 128.5t71.5 346.5h-8q-25 -107 -94.5 -162t-175.5 -55q-169 0 -269 106t-100 275q0 192 117.5 302t320.5 110q479 0 479 -586q0 -346 -151.5 -526.5t-423.5 -180.5q-125 0 -229 56.5t-150 154.5zM670 610q0 71 -46 116.5
t-112 45.5q-67 0 -113.5 -45.5t-46.5 -116.5q0 -76 46 -121t114 -45q67 0 112.5 45t45.5 121z" />
    <glyph glyph-name="colon" unicode=":" horiz-adv-x="602" 
d="M113 174q0 83 53.5 138t130.5 55q83 0 137.5 -55t54.5 -138q0 -77 -55 -130.5t-137 -53.5q-77 0 -130.5 54t-53.5 130zM113 766q0 82 53.5 137t130.5 55q83 0 137.5 -54.5t54.5 -137.5q0 -77 -55 -130.5t-137 -53.5q-77 0 -130.5 54t-53.5 130z" />
    <glyph glyph-name="semicolon" unicode=";" horiz-adv-x="598" 
d="M496 117q0 -99 -30 -171.5t-85 -115.5t-127 -63.5t-162 -20.5v121q203 17 203 156q-77 -11 -137 31.5t-60 127.5q0 83 53.5 127.5t133.5 44.5q94 0 152.5 -65.5t58.5 -171.5zM98 766q0 82 54 137t131 55q83 0 137.5 -54.5t54.5 -137.5q0 -77 -55 -130.5t-137 -53.5
q-77 0 -131 54t-54 130z" />
    <glyph glyph-name="less" unicode="&#x3c;" horiz-adv-x="825" 
d="M733 803l-375 -297l365 -297l-123 -146l-508 443l520 434z" />
    <glyph glyph-name="equal" unicode="=" horiz-adv-x="1019" 
d="M928 262h-836v168h836v-168zM928 578h-836v167h836v-167z" />
    <glyph glyph-name="greater" unicode="&#x3e;" horiz-adv-x="825" 
d="M467 506l-375 297l121 137l520 -434l-508 -443l-123 146z" />
    <glyph glyph-name="question" unicode="?" horiz-adv-x="929" 
d="M287 778l-287 103q39 177 152.5 263.5t320.5 86.5q197 0 322 -106.5t125 -276.5q0 -78 -23 -139t-59 -97.5t-86.5 -59.5t-100 -31.5t-104.5 -8.5v-111h-262v275h108q108 0 155.5 32t47.5 117q0 64 -39 102t-104 38q-84 0 -122.5 -47.5t-43.5 -139.5zM233 158
q0 76 52.5 123t130.5 47q81 0 133.5 -46.5t52.5 -123.5q0 -75 -52.5 -121.5t-133.5 -46.5q-78 0 -130.5 46.5t-52.5 121.5z" />
    <glyph glyph-name="at" unicode="@" horiz-adv-x="1830" 
d="M1042 352v133q0 72 -42.5 110t-96.5 38q-56 0 -99.5 -54.5t-43.5 -168.5q0 -96 39 -149.5t104 -53.5q56 0 97.5 35t41.5 110zM1323 821v-594q0 -53 15 -76.5t53 -23.5q82 0 133 105t51 288q0 141 -48 251t-133.5 179t-198.5 104.5t-247 35.5q-138 0 -262 -47t-219.5 -134
t-152 -222t-56.5 -300q0 -313 191.5 -489.5t531.5 -176.5q113 0 199.5 15t212.5 55l34 -141q-207 -66 -448 -66q-224 1 -396 62t-278 170.5t-159.5 253.5t-53.5 319q0 183 65.5 339.5t179.5 264.5t272 169t339 61q150 0 278 -34.5t221.5 -96.5t159 -147.5t98 -188
t32.5 -217.5q0 -564 -422 -564q-116 0 -182.5 48.5t-73.5 142.5q-25 -104 -93 -147.5t-178 -43.5q-143 0 -235 107t-92 305q0 212 95 332.5t271 120.5q182 0 242 -127l61 108h193z" />
    <glyph glyph-name="A" unicode="A" horiz-adv-x="1292" 
d="M942 0l-80 225h-444l-76 -225h-322l437 1206h374l441 -1206h-330zM537 575l-33 -94h268l-33 92q-32 89 -56 177.5t-32 131.5l-8 44h-8q-30 -154 -98 -351z" />
    <glyph glyph-name="B" unicode="B" horiz-adv-x="1200" 
d="M842 623v-9q131 -20 198.5 -97t67.5 -189q0 -153 -107 -240.5t-321 -87.5h-526v1206h530q181 0 277 -80t96 -223q0 -110 -57 -181.5t-158 -98.5zM461 711h153q138 0 138 114q0 65 -36 93t-108 28h-147v-235zM461 489v-229h192q72 0 108 25.5t36 91.5q0 112 -144 112h-192
z" />
    <glyph glyph-name="C" unicode="C" horiz-adv-x="1214" 
d="M905 414l269 -154q-58 -99 -125.5 -159.5t-168 -93t-237.5 -32.5q-253 0 -407 167.5t-154 463.5q0 300 156.5 462.5t441.5 162.5q364 0 504 -311l-299 -146q-27 92 -74.5 138t-138.5 46q-128 0 -201.5 -96t-73.5 -264t72 -259t211 -91q74 0 134 42.5t91 123.5z" />
    <glyph glyph-name="D" unicode="D" horiz-adv-x="1292" 
d="M461 260h108q165 0 243.5 75.5t78.5 262.5q0 194 -75 271t-230 77h-125v-686zM598 0h-444v1206h467q102 0 189 -20.5t161.5 -65.5t127 -113t82 -167.5t29.5 -223.5q0 -131 -30 -235t-83.5 -175t-130.5 -117.5t-168 -67.5t-200 -21z" />
    <glyph glyph-name="E" unicode="E" horiz-adv-x="1087" 
d="M985 266v-266h-831v1206h831v-266h-524v-201h461v-256h-461v-217h524z" />
    <glyph glyph-name="F" unicode="F" horiz-adv-x="1038" 
d="M461 0h-307v1206h813v-266h-506v-262h442v-256h-442v-422z" />
    <glyph glyph-name="G" unicode="G" horiz-adv-x="1300" 
d="M655 651h533v-651h-180l-52 129q-96 -154 -331 -154q-119 0 -217 37.5t-171.5 112t-114 195.5t-40.5 278q0 302 156.5 467.5t441.5 165.5q184 0 313.5 -81.5t190.5 -229.5l-299 -146q-52 184 -213 184q-34 0 -68 -8.5t-72.5 -33.5t-67.5 -64t-48 -106t-19 -154
q0 -78 14.5 -141.5t46.5 -115.5t88.5 -81t133.5 -29q113 0 164 45.5t51 114.5v25h-240v241z" />
    <glyph glyph-name="H" unicode="H" horiz-adv-x="1349" 
d="M461 0h-307v1206h307v-461h428v461h307v-1206h-307v479h-428v-479z" />
    <glyph glyph-name="I" unicode="I" horiz-adv-x="614" 
d="M154 1206h307v-1206h-307v1206z" />
    <glyph glyph-name="J" unicode="J" horiz-adv-x="983" 
d="M553 1206h307v-856q0 -99 -33.5 -173t-94 -117t-137.5 -64t-171 -21q-305 0 -424 230l223 211q36 -93 82 -141t113 -48q74 0 104.5 41t30.5 133v805z" />
    <glyph glyph-name="K" unicode="K" horiz-adv-x="1220" 
d="M1200 0h-366l-308 479h-65v-479h-307v1206h307v-461h67l281 461h352l-368 -583z" />
    <glyph glyph-name="L" unicode="L" horiz-adv-x="972" 
d="M154 1206h307v-940h450v-266h-757v1206z" />
    <glyph glyph-name="M" unicode="M" horiz-adv-x="1527" 
d="M831 272h-135l-147 230q-26 41 -49 85.5t-33 68.5l-10 24h-8q12 -66 12 -201v-479h-307v1206h303l209 -356q34 -57 57.5 -104t30.5 -66l6 -18h8q18 59 94 188l209 356h303v-1206h-307v479q0 60 3 110t6 71l3 20h-8q-33 -86 -92 -178z" />
    <glyph glyph-name="N" unicode="N" horiz-adv-x="1400" 
d="M438 1206l410 -547q29 -39 51.5 -74.5t30.5 -50.5l8 -16h8q-6 94 -6 248v440h307v-1206h-274l-410 535q-35 44 -61.5 84.5t-35.5 58.5l-9 18h-8q12 -90 12 -268v-428h-307v1206h284z" />
    <glyph glyph-name="O" unicode="O" horiz-adv-x="1327" 
d="M664 -25q-275 0 -428.5 163.5t-153.5 463.5q0 302 153 465.5t429 163.5t428.5 -163t152.5 -466q0 -301 -153 -464t-428 -163zM664 956q-130 0 -196.5 -94.5t-66.5 -263.5q0 -170 66 -263t197 -93t196.5 93t65.5 263q0 169 -66.5 263.5t-195.5 94.5z" />
    <glyph glyph-name="P" unicode="P" horiz-adv-x="1110" 
d="M461 948v-325h133q78 0 114.5 37.5t36.5 115.5q0 89 -35.5 130.5t-113.5 41.5h-135zM461 0h-307v1206h452q231 0 337 -104.5t106 -315.5q0 -196 -110 -305.5t-304 -109.5h-174v-371z" />
    <glyph glyph-name="Q" unicode="Q" horiz-adv-x="1327" 
d="M1100 -90l-82 -260q-222 0 -344.5 89.5t-177.5 254.5q-198 45 -306 201t-108 407q0 302 153 465.5t429 163.5t428.5 -163t152.5 -466q0 -264 -119.5 -423t-337.5 -193q55 -46 139 -65t173 -11zM664 956q-130 0 -196.5 -94.5t-66.5 -263.5q0 -170 66 -263t197 -93
t196.5 93t65.5 263q0 169 -66.5 263.5t-195.5 94.5z" />
    <glyph glyph-name="R" unicode="R" horiz-adv-x="1214" 
d="M1163 0h-342q-44 33 -67 129l-43 170q-16 64 -46.5 84t-97.5 20h-106v-403h-307v1206h493q105 0 184 -19t140 -62t93 -117.5t32 -178.5q0 -136 -69 -212.5t-191 -90.5v-6q84 -14 129 -52.5t67 -115.5l62 -221q24 -84 69 -131zM461 946v-287h164q77 0 117 33t40 109
q0 70 -40 107.5t-115 37.5h-166z" />
    <glyph glyph-name="S" unicode="S" horiz-adv-x="1081" 
d="M41 264l278 133q17 -83 77 -134.5t141 -51.5q64 0 102.5 25t38.5 75q0 52 -38 82t-146 62q-226 69 -316 162t-90 245q0 101 37 175.5t101 116t138.5 60.5t161.5 19q436 0 473 -311l-307 -82q-7 69 -53 103t-107 34q-52 0 -85 -22t-33 -70q0 -51 42.5 -81t145.5 -59
q109 -33 178.5 -66t121 -80t73.5 -109.5t22 -149.5q0 -79 -25 -141.5t-68.5 -104t-106 -68.5t-133 -39t-152.5 -12q-186 0 -303.5 67t-167.5 222z" />
    <glyph glyph-name="T" unicode="T" horiz-adv-x="995" 
d="M647 0h-305v940h-322v266h955v-266h-328v-940z" />
    <glyph glyph-name="U" unicode="U" horiz-adv-x="1263" 
d="M834 1206h307v-800q0 -119 -39.5 -205t-111 -134t-159.5 -70t-198 -22q-87 0 -160.5 13t-139.5 44.5t-111.5 80t-72 123t-26.5 170.5v800h307v-712q0 -65 7.5 -108t28 -81t62 -56t105.5 -18q51 0 87.5 13t58.5 34.5t34.5 57t16.5 73t4 89.5v708z" />
    <glyph glyph-name="V" unicode="V" horiz-adv-x="1202" 
d="M348 1206l191 -612q23 -73 39.5 -154.5t21.5 -126.5l6 -45h8q15 164 62 324l182 614h324l-398 -1206h-366l-398 1206h328z" />
    <glyph glyph-name="W" unicode="W" horiz-adv-x="1820" 
d="M1102 1206l135 -633q16 -75 29.5 -161.5t19.5 -135.5l6 -49h8q17 182 48 344l118 635h314l-250 -1206h-449l-123 557q-16 73 -27.5 159t-14.5 136l-3 49h-8q-10 -178 -49 -346l-131 -555h-434l-250 1206h326l125 -633q15 -75 27.5 -161.5t18.5 -135.5l5 -49h8
q18 180 51 344l129 635h371z" />
    <glyph glyph-name="X" unicode="X" horiz-adv-x="1245" 
d="M868 0l-155 238q-36 56 -57.5 99.5t-25.5 58.5l-3 16h-9q-12 -47 -90 -174l-147 -238h-361l414 606l-397 600h369l124 -202q41 -67 65 -115.5t28 -64.5l4 -15h10q2 41 90 195l115 202h346l-371 -588l408 -618h-357z" />
    <glyph glyph-name="Y" unicode="Y" 
d="M371 1206l123 -256q36 -75 59.5 -144.5t28.5 -101.5l6 -32h8q1 13 5 36.5t27.5 96t59.5 145.5l125 256h324l-392 -823v-383h-307v383l-418 823h351z" />
    <glyph glyph-name="Z" unicode="Z" horiz-adv-x="1077" 
d="M993 989l-432 -575q-34 -44 -67 -81.5t-50 -52.5l-16 -16v-8q60 10 160 10h428v-266h-955v229l416 564q33 44 66 81.5t50 52.5l17 15v8q-59 -10 -159 -10h-379v266h921v-217z" />
    <glyph glyph-name="bracketleft" unicode="[" horiz-adv-x="790" 
d="M463 1141v-1331h256v-226h-565v1784h565v-227h-256z" />
    <glyph glyph-name="backslash" unicode="\" horiz-adv-x="903" 
d="M326 1368l557 -1784h-258l-564 1784h265z" />
    <glyph glyph-name="bracketright" unicode="]" horiz-adv-x="790" 
d="M328 -190v1331h-256v227h565v-1784h-565v226h256z" />
    <glyph glyph-name="asciicircum" unicode="^" horiz-adv-x="1103" 
d="M743 657l-94 209q-39 87 -63 159.5t-28 102.5l-5 29h-8q-1 -12 -5 -34t-29 -97t-65 -158l-102 -211h-283l357 711h270l354 -711h-299z" />
    <glyph glyph-name="underscore" unicode="_" horiz-adv-x="985" 
d="M102 -270v225h781v-225h-781z" />
    <glyph glyph-name="grave" unicode="`" horiz-adv-x="845" 
d="M682 1075h-279l-239 320h377z" />
    <glyph glyph-name="a" unicode="a" horiz-adv-x="1040" 
d="M580 301v82q-226 8 -226 -115q0 -36 24.5 -58t65.5 -22q54 0 95 27t41 86zM881 649v-342q0 -86 67 -86q24 0 62 17v-218q-56 -38 -172 -38q-186 0 -236 147q-31 -84 -99.5 -119t-174.5 -35q-127 0 -202 70.5t-75 192.5q0 161 133 239.5t396 63.5v80q0 120 -91 120
q-94 0 -100 -133l-305 58q10 147 122.5 225t291.5 78q190 0 286.5 -81.5t96.5 -238.5z" />
    <glyph glyph-name="b" unicode="b" 
d="M424 520v-125q0 -106 49.5 -154t116.5 -48q87 0 144 71.5t57 204.5q0 258 -185 258q-71 0 -126.5 -56.5t-55.5 -150.5zM414 137l-76 -137h-215v1368h303v-596q38 102 118.5 149.5t188.5 47.5q173 0 268 -124t95 -349q0 -240 -107 -380.5t-297 -140.5q-116 0 -186 45
t-92 117z" />
    <glyph glyph-name="c" unicode="c" horiz-adv-x="970" 
d="M670 348l270 -88q-27 -138 -138 -211.5t-272 -73.5q-215 0 -342 131t-127 363q0 234 127 367t342 133q172 0 278.5 -87t117.5 -229l-254 -75q-19 153 -142 153q-84 0 -129 -67.5t-45 -188.5q0 -129 45.5 -197.5t130.5 -68.5q53 0 87.5 31.5t50.5 107.5z" />
    <glyph glyph-name="d" unicode="d" 
d="M733 399v164q0 92 -47.5 137t-122.5 45q-82 0 -139 -67t-57 -211q0 -124 51 -192t141 -68q72 0 123 51.5t51 140.5zM731 823v545h303v-1368h-264l-37 164q-41 -189 -293 -189q-167 0 -273 126t-106 350q0 244 110.5 381t311.5 137q92 0 160 -39t88 -107z" />
    <glyph glyph-name="e" unicode="e" horiz-adv-x="1005" 
d="M535 209q113 0 151 119l258 -92q-25 -91 -90 -151.5t-145.5 -85t-178.5 -24.5q-210 0 -339.5 129t-129.5 353q0 244 125 378t346 134q199 0 303.5 -116t104.5 -308q0 -59 -12 -123h-574q3 -100 49.5 -156.5t131.5 -56.5zM362 582h287q2 10 2 28q0 61 -32.5 98t-96.5 37
q-67 0 -110.5 -46t-49.5 -117z" />
    <glyph glyph-name="f" unicode="f" horiz-adv-x="677" 
d="M160 713h-140v233h140v58q0 102 30.5 177.5t86 118.5t125 63.5t155.5 20.5q142 0 242 -47l-41 -250q-71 41 -166 41q-63 0 -96 -28.5t-33 -104.5v-49h242v-233h-242v-713h-303v713z" />
    <glyph glyph-name="g" unicode="g" horiz-adv-x="1040" 
d="M498 969q157 0 268 -54q28 33 40 58t30 86l235 -78q-7 -64 -59 -111.5t-117 -68.5q41 -68 41 -166q0 -105 -60.5 -180t-160 -110.5t-228.5 -35.5q-75 0 -112 13q-37 -23 -37 -72q0 -21 17 -35t48 -14h283q157 0 247.5 -80t90.5 -205q0 -80 -32.5 -142t-85 -100
t-127.5 -62.5t-152 -34t-166 -9.5q-95 0 -172.5 12t-142 37.5t-100.5 72.5t-36 111q0 83 61 128.5t191 54.5q-71 4 -115.5 55.5t-44.5 118.5q0 61 42 116t122 78q-102 40 -151 105.5t-49 177.5q0 163 116.5 248.5t315.5 85.5zM287 -135q0 -96 211 -96q93 0 147 11t74 31
t20 52q0 37 -23 50t-77 13h-244q-47 0 -77.5 -16t-30.5 -45zM375 635q0 -59 30.5 -94t92.5 -35t94.5 34t32.5 95q0 129 -127 129q-123 0 -123 -129z" />
    <glyph glyph-name="h" unicode="h" horiz-adv-x="1112" 
d="M426 1368v-602q73 203 299 203q116 0 195 -75t79 -226v-668h-303v549q0 83 -24 124.5t-90 41.5q-68 0 -112 -46t-44 -155v-514h-303v1368h303z" />
    <glyph glyph-name="i" unicode="i" horiz-adv-x="548" 
d="M94 1231q0 82 51 126t129 44q83 0 135 -43.5t52 -126.5q0 -80 -52 -124t-135 -44q-77 0 -128.5 44t-51.5 124zM123 946h303v-946h-303v946z" />
    <glyph glyph-name="j" unicode="j" horiz-adv-x="548" 
d="M123 946h303v-928q0 -228 -155.5 -339.5t-411.5 -92.5v256q86 -13 145 -1.5t89 68.5t30 169v868zM90 1231q0 83 50.5 126.5t129.5 43.5q83 0 135 -43.5t52 -126.5q0 -80 -52 -124t-135 -44q-79 0 -129.5 44t-50.5 124z" />
    <glyph glyph-name="k" unicode="k" horiz-adv-x="1097" 
d="M735 506l342 -506h-350l-244 379h-57v-379h-303v1368h303v-756h55l217 334h349z" />
    <glyph glyph-name="l" unicode="l" horiz-adv-x="610" 
d="M569 262l-16 -254q-96 -28 -172 -28q-56 0 -104 13.5t-88.5 42t-63.5 79t-23 118.5v1135h304v-1040q0 -80 88 -80q40 0 75 14z" />
    <glyph glyph-name="m" unicode="m" horiz-adv-x="1648" 
d="M958 762q38 102 118.5 154.5t191.5 52.5q123 0 195.5 -73.5t72.5 -227.5v-668h-303v549q0 82 -25 124t-90 42t-101 -45t-36 -156v-514h-303v549q0 83 -24.5 124.5t-90.5 41.5q-64 0 -100.5 -46t-36.5 -157v-512h-303v946h262l37 -182q74 205 291 205q213 0 245 -207z" />
    <glyph glyph-name="n" unicode="n" horiz-adv-x="1112" 
d="M385 946l37 -182q74 205 303 205q116 0 195 -75t79 -226v-668h-303v549q0 83 -24 124.5t-90 41.5q-67 0 -111.5 -47t-44.5 -156v-512h-303v946h262z" />
    <glyph glyph-name="o" unicode="o" horiz-adv-x="1056" 
d="M528 -25q-214 0 -340.5 132t-126.5 368q0 237 126 365.5t341 128.5t341 -128.5t126 -365.5q0 -236 -126.5 -368t-340.5 -132zM528 727q-168 0 -168 -254q0 -136 40.5 -199t127.5 -63t127.5 63t40.5 199q0 254 -168 254z" />
    <glyph glyph-name="p" unicode="p" 
d="M424 510v-115q0 -106 49.5 -154t116.5 -48q87 0 144 71.5t57 204.5q0 258 -185 258q-72 0 -127 -58t-55 -159zM426 125v-541h-303v1362h262l39 -182q74 205 309 205q173 0 268 -124t95 -349q0 -240 -108 -380.5t-298 -140.5q-103 0 -173.5 43t-90.5 107z" />
    <glyph glyph-name="q" unicode="q" 
d="M733 395v168q0 92 -47.5 137t-122.5 45q-82 0 -139 -67t-57 -211q0 -124 51 -192t141 -68q72 0 123 50.5t51 137.5zM756 823l67 123h211v-1362h-301v580q-41 -189 -293 -189q-167 0 -273 126t-106 350q0 243 110.5 380.5t311.5 137.5q205 0 273 -146z" />
    <glyph glyph-name="r" unicode="r" horiz-adv-x="833" 
d="M813 967l-37 -334q-59 18 -114 18q-33 0 -62.5 -5t-62.5 -20.5t-56.5 -40t-39 -67.5t-15.5 -100v-418h-303v946h264l37 -262q17 67 42 116.5t68.5 91.5t113.5 61.5t165 13.5z" />
    <glyph glyph-name="s" unicode="s" horiz-adv-x="927" 
d="M31 221l245 105q16 -71 63.5 -104.5t113.5 -33.5q51 0 80.5 17t29.5 49q0 34 -26 52t-86 32l-140 33q-243 64 -243 284q0 71 22.5 126.5t59 90.5t89 57t107.5 31t119 9q178 0 277 -67t108 -204l-283 -41q-7 50 -34.5 69t-81.5 19q-38 0 -62 -16t-24 -45q0 -57 79 -72
l136 -26q286 -58 286 -312q0 -79 -31 -137.5t-87.5 -93t-130.5 -51.5t-166 -17q-186 0 -289 57.5t-131 188.5z" />
    <glyph glyph-name="t" unicode="t" horiz-adv-x="823" 
d="M741 295l52 -256q-128 -64 -312 -64q-152 0 -237.5 76.5t-85.5 241.5v420h-138v233h140v201l303 35v-236h280v-233h-282v-351q0 -71 27 -100t85 -29q81 0 168 62z" />
    <glyph glyph-name="u" unicode="u" horiz-adv-x="1101" 
d="M717 0l-37 178q-23 -99 -93 -151t-200 -52q-133 0 -209 74t-76 230v667h304v-575q0 -166 116 -166q72 0 113 60.5t41 189.5v491h303v-946h-262z" />
    <glyph glyph-name="v" unicode="v" horiz-adv-x="1013" 
d="M332 0l-332 946h319l119 -401q19 -64 34.5 -141t21.5 -122l6 -44h8q20 164 65 307l129 401h312l-352 -946h-330z" />
    <glyph glyph-name="w" unicode="w" horiz-adv-x="1511" 
d="M895 946l92 -336q24 -84 40 -180t20 -150l4 -53h8q10 189 53 379l78 340h301l-244 -946h-360l-80 301q-16 64 -28 140.5t-15 121.5l-4 45h-8q-10 -162 -45 -309l-70 -299h-358l-259 946h308l88 -340q22 -84 36.5 -179t18.5 -147l4 -53h8q11 193 56 383l82 336h274z" />
    <glyph glyph-name="x" unicode="x" horiz-adv-x="1046" 
d="M698 0l-94 158q-34 56 -54.5 101.5t-23.5 62.5l-4 18h-8q-14 -59 -86 -182l-90 -158h-328l301 471l-282 475h354l55 -112q33 -68 55 -119.5t27 -69.5l6 -18h9q12 55 94 207l61 112h330l-289 -465l305 -481h-338z" />
    <glyph glyph-name="y" unicode="y" horiz-adv-x="1019" 
d="M332 946l110 -401q23 -82 38.5 -158.5t19.5 -112.5l4 -36h8q11 125 66 307l122 401h320l-383 -1032q-33 -88 -70.5 -149.5t-76 -98.5t-88.5 -57.5t-98.5 -27.5t-115.5 -7q-76 0 -178 23l47 270q53 -35 125 -35q63 0 103.5 26.5t64.5 88.5l-350 999h332z" />
    <glyph glyph-name="z" unicode="z" horiz-adv-x="897" 
d="M817 758l-285 -377q-34 -44 -67 -81.5t-49 -53.5l-17 -15v-8q60 10 160 10h277v-233h-775v186l271 375q33 44 66 81.5t50 53.5l17 15v8q-60 -10 -160 -10h-229v237h741v-188z" />
    <glyph glyph-name="braceleft" unicode="{" horiz-adv-x="880" 
d="M328 479v-8q47 -4 83 -16t68 -37t49 -70t17 -108v-295q0 -67 20 -98t74 -31q41 0 66.5 7.5t64.5 29.5l49 -209q-92 -66 -262 -66q-301 0 -301 307v318q0 88 -36.5 122.5t-104.5 34.5h-84v230h84q68 0 104.5 35t36.5 123v317q0 307 301 307q171 0 262 -65l-49 -209
q-39 22 -64.5 29.5t-66.5 7.5q-54 0 -74 -31t-20 -98v-295q0 -66 -17 -112t-49 -70.5t-67.5 -35.5t-83.5 -14z" />
    <glyph glyph-name="bar" unicode="|" horiz-adv-x="649" 
d="M444 -416h-239v1784h239v-1784z" />
    <glyph glyph-name="braceright" unicode="}" horiz-adv-x="880" 
d="M553 471v8q-48 3 -83.5 14t-67.5 35.5t-49 70.5t-17 112v295q0 67 -20 98t-74 31q-41 0 -66.5 -7.5t-64.5 -29.5l-50 209q91 65 263 65q301 0 301 -307v-317q0 -88 36.5 -123t104.5 -35h84v-230h-84q-68 0 -104.5 -34.5t-36.5 -122.5v-318q0 -307 -301 -307
q-171 0 -263 66l50 209q39 -22 64.5 -29.5t66.5 -7.5q54 0 74 31t20 98v295q0 63 17 108t49 70t68 37t83 16z" />
    <glyph glyph-name="asciitilde" unicode="~" horiz-adv-x="1067" 
d="M694 395q-50 0 -79.5 9.5t-73.5 35.5q-39 23 -52 30.5t-31.5 14.5t-33.5 7q-33 0 -52 -25.5t-12 -75.5h-165q-32 61 -29 122.5t28 110t75.5 79t113.5 30.5q65 0 131 -39q7 -4 20 -11.5t18.5 -11t15.5 -9.5t15 -8t13.5 -6t13.5 -6t11.5 -4t12 -2.5t11.5 -0.5q68 0 53 92
h172q38 -90 28.5 -163.5t-65 -121t-139.5 -47.5z" />
    <glyph glyph-name="nbspace" unicode="&#xa0;" horiz-adv-x="313" 
 />
    <glyph glyph-name="exclamdown" unicode="&#xa1;" horiz-adv-x="507" 
d="M436 -258h-364l82 784h200zM72 791q0 75 52 121t130 46q81 0 133.5 -46t52.5 -121q0 -77 -52.5 -123.5t-133.5 -46.5q-78 0 -130 47t-52 123z" />
    <glyph glyph-name="cent" unicode="&#xa2;" horiz-adv-x="1062" 
d="M528 -217v194q-209 12 -327.5 142.5t-118.5 369.5q0 233 115.5 366.5t330.5 150.5v170h103v-168q147 -6 241.5 -71.5t147.5 -195.5l-262 -133q-18 62 -46 101t-81 53v-539q52 9 85 42.5t56 94.5l250 -149q-62 -115 -154 -171t-237 -63v-194h-103zM391 494
q0 -228 137 -269v537q-64 -16 -100.5 -82.5t-36.5 -185.5z" />
    <glyph glyph-name="sterling" unicode="&#xa3;" horiz-adv-x="1069" 
d="M743 397h-225q-13 -116 -76 -151h228q35 0 58.5 5t50.5 27.5t42 63.5l207 -123q-15 -104 -98 -161.5t-203 -57.5h-635v246h66q58 0 82 36.5t24 84.5q0 10 -4 30h-178v150h111q-33 71 -33 155q0 134 110.5 221t261.5 87q76 0 140 -14.5t119.5 -46t92 -88.5t46.5 -136
l-266 -72q-12 56 -45.5 87.5t-75.5 31.5q-115 0 -115 -104q0 -18 6 -35.5t12.5 -28t20.5 -29.5t20 -28h256v-150z" />
    <glyph glyph-name="currency" unicode="&#xa4;" horiz-adv-x="925" 
d="M664 870l133 134l67 -68l-129 -129q66 -81 66 -213q0 -124 -58 -207l121 -119l-67 -67l-121 121q-85 -60 -207 -60q-133 0 -215 64l-125 -125l-68 67l127 127q-51 82 -51 199q0 125 60 207l-136 135l68 68l135 -138q83 56 205 56q111 0 195 -52zM469 760q-94 0 -94 -170
q0 -166 94 -166t94 166q0 170 -94 170z" />
    <glyph glyph-name="yen" unicode="&#xa5;" horiz-adv-x="1198" 
d="M1096 287h-330v-287h-307v287h-336v108h285l-56 97h-229v108h166l-228 385h349l127 -237q32 -58 50.5 -112t20.5 -79l2 -25h8q0 9 2.5 26.5t20 73t47.5 113.5l121 240h328l-211 -385h170v-108h-230l-53 -97h283v-108z" />
    <glyph glyph-name="brokenbar" unicode="&#xa6;" horiz-adv-x="649" 
d="M444 569h-239v799h239v-799zM444 -414h-239v797h239v-797z" />
    <glyph glyph-name="section" unicode="&#xa7;" horiz-adv-x="997" 
d="M82 68l235 106q23 -69 69 -104t108 -35q48 0 74 18t26 47t-25 45t-88 35l-147 43q-116 34 -167.5 88t-51.5 148q0 86 45 136.5t112 63.5q-42 17 -73.5 49t-48 69.5t-24 72.5t-7.5 68q0 71 22.5 126.5t59 90t89 57t107.5 31t119 8.5q176 0 278 -70t105 -200l-281 -41
q-3 50 -32 69t-80 19q-39 0 -59.5 -17.5t-20.5 -44.5q0 -28 19.5 -45.5t72.5 -30.5l141 -36q132 -34 194 -99.5t62 -169.5q0 -85 -46 -138.5t-115 -64.5q153 -78 153 -247q0 -78 -31 -136.5t-87.5 -93t-129 -51t-161.5 -16.5q-373 0 -416 250zM602 510q0 35 -31.5 55.5
t-103.5 40.5q-25 -8 -38 -27.5t-13 -39.5q0 -34 30 -55t105 -44q51 17 51 70z" />
    <glyph glyph-name="dieresis" unicode="&#xa8;" horiz-adv-x="1118" 
d="M164 1221q0 81 46 123t116 42q76 0 122 -42t46 -123q0 -79 -46.5 -121.5t-121.5 -42.5q-70 0 -116 43t-46 121zM625 1221q0 81 45.5 123t115.5 42q76 0 122 -42t46 -123q0 -79 -46.5 -121.5t-121.5 -42.5q-70 0 -115.5 43t-45.5 121z" />
    <glyph glyph-name="copyright" unicode="&#xa9;" horiz-adv-x="1439" 
d="M870 522l211 -137q-61 -94 -145 -138t-221 -44q-174 0 -279.5 105.5t-105.5 295.5q0 194 106.5 299t302.5 105q126 0 208 -51t132 -160l-221 -107q-16 56 -42.5 85.5t-82.5 29.5q-64 0 -104.5 -53.5t-40.5 -143.5q0 -92 37.5 -142t105.5 -50q54 0 85.5 26.5t53.5 79.5z
M92 602q0 179 84.5 323.5t227.5 225t315 80.5q128 0 244 -47.5t200.5 -129.5t134.5 -200t50 -252t-50 -251.5t-134.5 -199.5t-200.5 -129t-244 -47t-243.5 47t-200 129t-134 199.5t-49.5 251.5zM156 602q0 -163 77 -294t206 -202t284 -71q115 0 218 42t179.5 115.5t121 180
t44.5 229.5q0 122 -44.5 228.5t-120.5 181t-179.5 117t-218.5 42.5t-219.5 -42.5t-181 -117t-121.5 -181t-45 -228.5z" />
    <glyph glyph-name="ordfeminine" unicode="&#xaa;" horiz-adv-x="821" 
d="M428 782v70q-70 0 -99.5 -25t-29.5 -61q0 -51 53 -51q30 0 53 16.5t23 50.5zM664 1018v-230q0 -40 36 -40q32 0 50 10v-154q-50 -26 -138 -26q-71 0 -108.5 18.5t-65.5 67.5q-49 -93 -186 -93q-84 0 -132 44.5t-48 123.5q0 104 86.5 155.5t269.5 51.5v60q0 34 -15.5 48.5
t-37.5 14.5q-28 0 -44 -23.5t-16 -56.5l-223 39q7 98 88.5 150.5t214.5 52.5q120 0 194.5 -51.5t74.5 -161.5z" />
    <glyph glyph-name="guillemotleft" unicode="&#xab;" horiz-adv-x="1169" 
d="M817 485v-8q48 -13 105 -74l186 -204l-150 -148l-415 434l415 435l148 -150l-186 -205q-25 -27 -51 -47t-39 -26zM336 485v-8q47 -13 104 -74l187 -204l-150 -148l-416 434l416 435l148 -150l-187 -205q-25 -27 -50.5 -47t-38.5 -26z" />
    <glyph glyph-name="logicalnot" unicode="&#xac;" horiz-adv-x="1040" 
d="M756 477h-654v168h836v-397h-182v229z" />
    <glyph glyph-name="uni00AD" unicode="&#xad;" horiz-adv-x="704" 
d="M123 403v256h459v-256h-459z" />
    <glyph glyph-name="registered" unicode="&#xae;" horiz-adv-x="1439" 
d="M1102 248h-277q-32 25 -47 82l-18 65q-10 39 -27 51.5t-53 12.5h-16v-211h-240v739h326q303 0 303 -244q0 -96 -55.5 -145t-135.5 -59q61 -9 91.5 -30.5t50.5 -64.5l43 -110q21 -52 55 -86zM664 793v-152h49q52 0 78 16t26 54q0 39 -24.5 60.5t-67.5 21.5h-61zM92 602
q0 179 84.5 323.5t227.5 225t315 80.5q128 0 244 -47.5t200.5 -129.5t134.5 -200t50 -252t-50 -251.5t-134.5 -199.5t-200.5 -129t-244 -47t-243.5 47t-200 129t-134 199.5t-49.5 251.5zM156 602q0 -163 77 -294t206 -202t284 -71q115 0 218 42t179.5 115.5t121 180
t44.5 229.5q0 122 -44.5 228.5t-120.5 181t-179.5 117t-218.5 42.5t-219.5 -42.5t-181 -117t-121.5 -181t-45 -228.5z" />
    <glyph glyph-name="macron" unicode="&#xaf;" horiz-adv-x="952" 
d="M788 1092h-624v245h624v-245z" />
    <glyph glyph-name="degree" unicode="&#xb0;" horiz-adv-x="546" 
d="M41 997q0 98 64.5 166t166.5 68q101 0 167.5 -68.5t66.5 -165.5q0 -98 -66 -164.5t-168 -66.5q-103 0 -167 66t-64 165zM195 997q0 -36 21 -60t56 -24q36 0 58 24t22 60t-22 61t-58 25q-34 0 -55.5 -25t-21.5 -61z" />
    <glyph glyph-name="plusminus" unicode="&#xb1;" horiz-adv-x="1019" 
d="M92 750h330v245h168v-245h338v-168h-338v-275h-168v275h-330v168zM928 37h-836v168h836v-168z" />
    <glyph glyph-name="twosuperior" unicode="&#xb2;" horiz-adv-x="698" 
d="M643 655v-172h-580v140q195 140 262.5 205t67.5 128q0 76 -74 76q-36 0 -64 -29.5t-28 -91.5l-186 70q7 103 82 172.5t217 69.5q127 0 205 -61.5t78 -176.5q0 -62 -26 -116t-70 -93t-87 -65.5t-92 -46.5v-9h295z" />
    <glyph glyph-name="threesuperior" unicode="&#xb3;" horiz-adv-x="671" 
d="M416 850v-4q205 -15 205 -180q0 -96 -81 -146.5t-231 -50.5q-114 0 -192.5 42.5t-96.5 123.5l179 74q11 -43 37 -62.5t77 -19.5q74 0 74 55q0 39 -35 63t-137 27v123q97 3 129.5 28.5t32.5 63.5q0 30 -17.5 46t-42.5 16q-36 0 -60.5 -20t-27.5 -56l-176 67
q13 88 91.5 135.5t193.5 47.5q116 0 186 -49t70 -142q0 -77 -44.5 -120.5t-133.5 -61.5z" />
    <glyph glyph-name="acute" unicode="&#xb4;" horiz-adv-x="845" 
d="M442 1075h-278l141 320h377z" />
    <glyph glyph-name="mu" unicode="&#xb5;" horiz-adv-x="1122" 
d="M737 0l-37 178q-19 -104 -78.5 -153.5t-138.5 -49.5q-32 0 -57 15v-406h-303v1362h303v-567q0 -160 117 -160q66 0 109.5 51.5t43.5 161.5v514h303v-946h-262z" />
    <glyph glyph-name="paragraph" unicode="&#xb6;" horiz-adv-x="1173" 
d="M940 958v-972q0 -167 -97 -243.5t-253 -76.5q-71 0 -123 12t-109 43l50 263q71 -60 157 -60q43 0 64.5 27.5t21.5 93.5v311h-100q-215 0 -342 104t-127 308q0 438 512 438h508v-248h-162z" />
    <glyph glyph-name="periodcentered" unicode="&#xb7;" horiz-adv-x="602" 
d="M113 541q0 82 53.5 137t130.5 55q83 0 137.5 -54.5t54.5 -137.5q0 -77 -55 -131t-137 -54q-76 0 -130 54t-54 131z" />
    <glyph glyph-name="periodcentered" unicode="&#x22c5;" horiz-adv-x="602" 
d="M113 541q0 82 53.5 137t130.5 55q83 0 137.5 -54.5t54.5 -137.5q0 -77 -55 -131t-137 -54q-76 0 -130 54t-54 131z" />
    <glyph glyph-name="cedilla" unicode="&#xb8;" horiz-adv-x="778" 
d="M614 -238q0 -94 -68 -144t-175 -50q-74 0 -135 20.5t-91 53.5l54 137q64 -70 135 -70q57 0 57 49q0 64 -96 78l24 207h125l-10 -115q180 -9 180 -166z" />
    <glyph glyph-name="onesuperior" unicode="&#xb9;" horiz-adv-x="655" 
d="M614 483h-534v162h166v363l-185 -15v172l402 41v-561h151v-162z" />
    <glyph glyph-name="ordmasculine" unicode="&#xba;" horiz-adv-x="827" 
d="M414 571q-152 0 -242 87.5t-90 244.5q0 156 90 242t242 86t241.5 -86t89.5 -242q0 -157 -89.5 -244.5t-241.5 -87.5zM414 1069q-95 0 -95 -170q0 -166 95 -166q94 0 94 166q0 170 -94 170z" />
    <glyph glyph-name="guillemotright" unicode="&#xbb;" horiz-adv-x="1169" 
d="M352 477v8q-45 19 -102 80l-187 205l148 150l416 -435l-416 -434l-150 148l187 204q25 27 51 45.5t39 23.5zM834 477v8q-46 19 -103 80l-186 205l147 150l416 -435l-416 -434l-149 148l186 204q25 27 51.5 45.5t39.5 23.5z" />
    <glyph glyph-name="onequarter" unicode="&#xbc;" horiz-adv-x="1785" 
d="M633 483h-535v162h166v363l-184 -15v172l401 41v-561h152v-162zM492 0l624 1206h178l-630 -1206h-172zM1444 0v131h-354v148l362 444h213v-434h96v-158h-96v-131h-221zM1448 285v118q0 31 2 68t4 59l2 21h-8q-16 -51 -53 -98l-60 -76q-19 -24 -43 -48t-38 -36l-15 -12v-9
q47 13 115 13h94z" />
    <glyph glyph-name="onehalf" unicode="&#xbd;" horiz-adv-x="1785" 
d="M633 483h-535v162h166v363l-184 -15v172l401 41v-561h152v-162zM492 0l624 1206h178l-630 -1206h-172zM1712 172v-172h-579v139q193 139 261 204.5t68 129.5q0 76 -73 76q-36 0 -64.5 -29.5t-28.5 -91.5l-186 70q7 103 82 172t217 69q128 0 205.5 -61t77.5 -176
q0 -62 -26 -116t-70 -93.5t-87.5 -66t-91.5 -46.5v-8h295z" />
    <glyph glyph-name="threequarters" unicode="&#xbe;" horiz-adv-x="1785" 
d="M455 850v-4q204 -14 204 -180q0 -96 -80.5 -146.5t-230.5 -50.5q-114 0 -192.5 42.5t-96.5 123.5l179 74q11 -43 37 -62.5t77 -19.5q74 0 74 55q0 39 -35 63t-137 27v123q97 3 129.5 28.5t32.5 63.5q0 30 -17.5 46t-42.5 16q-36 0 -60.5 -20t-27.5 -56l-176 67
q13 88 91.5 135.5t193.5 47.5q116 0 186 -49t70 -142q0 -77 -44.5 -120.5t-133.5 -61.5zM492 0l624 1206h178l-630 -1206h-172zM1444 0v131h-354v148l362 444h213v-434h96v-158h-96v-131h-221zM1448 285v118q0 31 2 68t4 59l2 21h-8q-16 -51 -53 -98l-60 -76
q-19 -24 -43 -48t-38 -36l-15 -12v-9q47 13 115 13h94z" />
    <glyph glyph-name="questiondown" unicode="&#xbf;" horiz-adv-x="929" 
d="M643 168l287 -102q-39 -177 -152.5 -264t-320.5 -87q-197 0 -322 106.5t-125 276.5q0 78 23 139t59 97.5t86.5 59.5t100 31.5t104.5 8.5v111h262v-275h-108q-108 0 -155.5 -32t-47.5 -117q0 -64 39 -101.5t104 -37.5q84 0 122.5 47t43.5 139zM696 788q0 -76 -52 -123
t-130 -47q-81 0 -133.5 46.5t-52.5 123.5q0 75 52.5 121.5t133.5 46.5q78 0 130 -46.5t52 -121.5z" />
    <glyph glyph-name="Agrave" unicode="&#xc0;" horiz-adv-x="1292" 
d="M942 0l-80 225h-444l-76 -225h-322l437 1206h374l441 -1206h-330zM537 575l-33 -94h268l-33 92q-32 89 -56 177.5t-32 131.5l-8 44h-8q-30 -154 -98 -351zM803 1321h-279l-231 307h377z" />
    <glyph glyph-name="Aacute" unicode="&#xc1;" horiz-adv-x="1292" 
d="M942 0l-80 225h-444l-76 -225h-322l437 1206h374l441 -1206h-330zM537 575l-33 -94h268l-33 92q-32 89 -56 177.5t-32 131.5l-8 44h-8q-30 -154 -98 -351zM764 1321h-279l133 307h377z" />
    <glyph glyph-name="Acircumflex" unicode="&#xc2;" horiz-adv-x="1292" 
d="M942 0l-80 225h-444l-76 -225h-322l437 1206h374l441 -1206h-330zM537 575l-33 -94h268l-33 92q-32 89 -56 177.5t-32 131.5l-8 44h-8q-30 -154 -98 -351zM545 1628h194l283 -307h-274l-62 61q-16 16 -25.5 31t-11.5 22l-2 7h-10q-4 -25 -39 -60l-61 -61h-275z" />
    <glyph glyph-name="Atilde" unicode="&#xc3;" horiz-adv-x="1292" 
d="M942 0l-80 225h-444l-76 -225h-322l437 1206h374l441 -1206h-330zM537 575l-33 -94h268l-33 92q-32 89 -56 177.5t-32 131.5l-8 44h-8q-30 -154 -98 -351zM801 1325q-50 0 -80 9.5t-74 35.5q-51 30 -73.5 40.5t-43.5 10.5q-33 0 -51.5 -25t-11.5 -75h-166
q-32 61 -29 122.5t28 110t75.5 79t113.5 30.5q66 0 132 -39q7 -4 20 -11.5t18.5 -11t15.5 -9.5t15 -8t13.5 -6t13.5 -6t11.5 -4t12 -2.5t11.5 -0.5q68 0 53 92h172q38 -90 28.5 -163.5t-65 -121t-139.5 -47.5z" />
    <glyph glyph-name="Adieresis" unicode="&#xc4;" horiz-adv-x="1292" 
d="M942 0l-80 225h-444l-76 -225h-322l437 1206h374l441 -1206h-330zM537 575l-33 -94h268l-33 92q-32 89 -56 177.5t-32 131.5l-8 44h-8q-30 -154 -98 -351zM244 1487q0 81 46 123.5t116 42.5q75 0 121 -42t46 -124q0 -79 -46 -121.5t-121 -42.5q-70 0 -116 43t-46 121z
M705 1487q0 81 45.5 123.5t115.5 42.5q75 0 121.5 -42t46.5 -124q0 -79 -46.5 -121.5t-121.5 -42.5q-70 0 -115.5 43t-45.5 121z" />
    <glyph glyph-name="Aring" unicode="&#xc5;" horiz-adv-x="1292" 
d="M942 0l-80 225h-444l-76 -225h-322l437 1206h374l441 -1206h-330zM537 575l-33 -94h268l-33 92q-32 89 -56 177.5t-32 131.5l-8 44h-8q-30 -154 -98 -351zM639 1286q-114 0 -179 67.5t-65 170.5q0 95 68 162t176 67t176 -67t68 -162q0 -103 -65 -170.5t-179 -67.5z
M639 1618q-45 0 -70.5 -26.5t-25.5 -69.5q0 -39 25.5 -67t70.5 -28t70.5 28t25.5 67q0 43 -25.5 69.5t-70.5 26.5z" />
    <glyph glyph-name="AE" unicode="&#xc6;" horiz-adv-x="1824" 
d="M1722 0h-831v225h-410l-141 -225h-340l713 1206h1009v-266h-524v-201h461v-256h-461v-217h524v-266zM895 983l-281 -502h277v166q0 94 3 178t6 121l3 37h-8z" />
    <glyph glyph-name="Ccedilla" unicode="&#xc7;" horiz-adv-x="1214" 
d="M903 -238q0 -94 -68.5 -144t-175.5 -50q-74 0 -134.5 20.5t-90.5 53.5l53 137q64 -70 136 -70q57 0 57 49q0 64 -96 78l16 141q-236 14 -377 179.5t-141 449.5q0 300 156.5 462.5t441.5 162.5q364 0 504 -311l-299 -146q-27 92 -74.5 138t-138.5 46q-128 0 -201.5 -96
t-73.5 -264t72 -259t211 -91q74 0 134 42.5t91 123.5l269 -154q-78 -133 -181.5 -200.5t-265.5 -79.5l-4 -52q180 -9 180 -166z" />
    <glyph glyph-name="Egrave" unicode="&#xc8;" horiz-adv-x="1087" 
d="M985 266v-266h-831v1206h831v-266h-524v-201h461v-256h-461v-217h524zM727 1321h-278l-232 307h377z" />
    <glyph glyph-name="Eacute" unicode="&#xc9;" horiz-adv-x="1087" 
d="M985 266v-266h-831v1206h831v-266h-524v-201h461v-256h-461v-217h524zM688 1321h-278l133 307h377z" />
    <glyph glyph-name="Ecircumflex" unicode="&#xca;" horiz-adv-x="1087" 
d="M985 266v-266h-831v1206h831v-266h-524v-201h461v-256h-461v-217h524zM473 1628h195l282 -307h-274l-62 61q-16 16 -25.5 31t-11.5 22l-2 7h-10q-4 -25 -39 -60l-61 -61h-275z" />
    <glyph glyph-name="Edieresis" unicode="&#xcb;" horiz-adv-x="1087" 
d="M985 266v-266h-831v1206h831v-266h-524v-201h461v-256h-461v-217h524zM168 1487q0 81 46 123.5t116 42.5q75 0 121.5 -42t46.5 -124q0 -79 -46.5 -121.5t-121.5 -42.5q-70 0 -116 43t-46 121zM629 1487q0 81 46 123.5t116 42.5q75 0 121 -42t46 -124q0 -79 -46 -121.5
t-121 -42.5q-70 0 -116 43t-46 121z" />
    <glyph glyph-name="Igrave" unicode="&#xcc;" horiz-adv-x="614" 
d="M154 1206h307v-1206h-307v1206zM459 1321h-279l-231 307h377z" />
    <glyph glyph-name="Iacute" unicode="&#xcd;" horiz-adv-x="614" 
d="M154 1206h307v-1206h-307v1206zM432 1321h-278l133 307h377z" />
    <glyph glyph-name="Icircumflex" unicode="&#xce;" horiz-adv-x="614" 
d="M154 1206h307v-1206h-307v1206zM211 1628h195l282 -307h-274l-62 61q-16 16 -25.5 31t-11.5 22l-2 7h-10q-4 -25 -39 -60l-61 -61h-275z" />
    <glyph glyph-name="Idieresis" unicode="&#xcf;" horiz-adv-x="614" 
d="M154 1206h307v-1206h-307v1206zM-94 1487q0 81 46 123.5t116 42.5q75 0 121.5 -42t46.5 -124q0 -79 -46.5 -121.5t-121.5 -42.5q-70 0 -116 43t-46 121zM367 1487q0 81 45.5 123.5t115.5 42.5q75 0 121.5 -42t46.5 -124q0 -79 -46.5 -121.5t-121.5 -42.5q-70 0 -115.5 43
t-45.5 121z" />
    <glyph glyph-name="Eth" unicode="&#xd0;" horiz-adv-x="1292" 
d="M598 0h-444v487h-138v246h138v473h467q102 0 189 -20.5t161.5 -65.5t127 -113t82 -167.5t29.5 -223.5q0 -131 -30 -235t-83.5 -175t-130.5 -117.5t-168 -67.5t-200 -21zM461 260h108q165 0 243.5 75.5t78.5 262.5q0 194 -75 271t-230 77h-125v-213h180v-246h-180v-227z
" />
    <glyph glyph-name="Ntilde" unicode="&#xd1;" horiz-adv-x="1400" 
d="M438 1206l410 -547q29 -39 51.5 -74.5t30.5 -50.5l8 -16h8q-6 94 -6 248v440h307v-1206h-274l-410 535q-35 44 -61.5 84.5t-35.5 58.5l-9 18h-8q12 -90 12 -268v-428h-307v1206h284zM860 1325q-50 0 -79.5 9.5t-73.5 35.5q-51 30 -73.5 40.5t-43.5 10.5q-33 0 -52 -25
t-12 -75h-166q-32 61 -29 122.5t28.5 110t76 79t113.5 30.5q65 0 131 -39q7 -4 20 -11.5t18.5 -11t15.5 -9.5t15 -8t13.5 -6t13.5 -6t11.5 -4t12 -2.5t11.5 -0.5q68 0 53 92h172q38 -90 28.5 -163.5t-65 -121t-139.5 -47.5z" />
    <glyph glyph-name="Ograve" unicode="&#xd2;" horiz-adv-x="1327" 
d="M664 -25q-275 0 -428.5 163.5t-153.5 463.5q0 302 153 465.5t429 163.5t428.5 -163t152.5 -466q0 -301 -153 -464t-428 -163zM664 956q-130 0 -196.5 -94.5t-66.5 -263.5q0 -170 66 -263t197 -93t196.5 93t65.5 263q0 169 -66.5 263.5t-195.5 94.5zM821 1321h-278
l-232 307h377z" />
    <glyph glyph-name="Oacute" unicode="&#xd3;" horiz-adv-x="1327" 
d="M664 -25q-275 0 -428.5 163.5t-153.5 463.5q0 302 153 465.5t429 163.5t428.5 -163t152.5 -466q0 -301 -153 -464t-428 -163zM664 956q-130 0 -196.5 -94.5t-66.5 -263.5q0 -170 66 -263t197 -93t196.5 93t65.5 263q0 169 -66.5 263.5t-195.5 94.5zM782 1321h-278
l133 307h377z" />
    <glyph glyph-name="Ocircumflex" unicode="&#xd4;" horiz-adv-x="1327" 
d="M664 -25q-275 0 -428.5 163.5t-153.5 463.5q0 302 153 465.5t429 163.5t428.5 -163t152.5 -466q0 -301 -153 -464t-428 -163zM664 956q-130 0 -196.5 -94.5t-66.5 -263.5q0 -170 66 -263t197 -93t196.5 93t65.5 263q0 169 -66.5 263.5t-195.5 94.5zM567 1628h195
l282 -307h-274l-61 61q-16 16 -25.5 31t-11.5 22l-2 7h-11q-3 -25 -38 -60l-62 -61h-274z" />
    <glyph glyph-name="Otilde" unicode="&#xd5;" horiz-adv-x="1327" 
d="M664 -25q-275 0 -428.5 163.5t-153.5 463.5q0 302 153 465.5t429 163.5t428.5 -163t152.5 -466q0 -301 -153 -464t-428 -163zM664 956q-130 0 -196.5 -94.5t-66.5 -263.5q0 -170 66 -263t197 -93t196.5 93t65.5 263q0 169 -66.5 263.5t-195.5 94.5zM823 1325
q-50 0 -79.5 9.5t-73.5 35.5q-51 30 -73.5 40.5t-43.5 10.5q-33 0 -52 -25t-12 -75h-165q-32 61 -29 122.5t28 110t75.5 79t113.5 30.5q65 0 131 -39q7 -4 20 -11.5t18.5 -11t15.5 -9.5t15 -8t13.5 -6t13.5 -6t11.5 -4t12 -2.5t11.5 -0.5q68 0 53 92h172q38 -90 28.5 -163.5
t-65 -121t-139.5 -47.5z" />
    <glyph glyph-name="Odieresis" unicode="&#xd6;" horiz-adv-x="1327" 
d="M664 -25q-275 0 -428.5 163.5t-153.5 463.5q0 302 153 465.5t429 163.5t428.5 -163t152.5 -466q0 -301 -153 -464t-428 -163zM664 956q-130 0 -196.5 -94.5t-66.5 -263.5q0 -170 66 -263t197 -93t196.5 93t65.5 263q0 169 -66.5 263.5t-195.5 94.5zM262 1487
q0 81 46 123.5t116 42.5q75 0 121.5 -42t46.5 -124q0 -79 -46.5 -121.5t-121.5 -42.5q-70 0 -116 43t-46 121zM723 1487q0 81 46 123.5t116 42.5q75 0 121.5 -42t46.5 -124q0 -79 -46.5 -121.5t-121.5 -42.5q-70 0 -116 43t-46 121z" />
    <glyph glyph-name="multiply" unicode="&#xd7;" horiz-adv-x="952" 
d="M92 252l258 258l-250 254l117 117l252 -250l264 264l121 -119l-266 -266l272 -272l-119 -117l-272 272l-258 -260z" />
    <glyph glyph-name="Oslash" unicode="&#xd8;" horiz-adv-x="1327" 
d="M197 -25l-97 82l105 117q-123 160 -123 428q0 302 153 465.5t429 163.5q225 0 372 -113l92 105l101 -82l-103 -117q119 -163 119 -422q0 -301 -153 -464t-428 -163q-226 0 -371 109zM926 598q0 97 -25 174l-412 -465q65 -65 175 -65q131 0 196.5 93t65.5 263zM664 956
q-130 0 -196.5 -94.5t-66.5 -263.5q0 -104 23 -174l412 465q-67 67 -172 67z" />
    <glyph glyph-name="Ugrave" unicode="&#xd9;" horiz-adv-x="1263" 
d="M834 1206h307v-800q0 -119 -39.5 -205t-111 -134t-159.5 -70t-198 -22q-87 0 -160.5 13t-139.5 44.5t-111.5 80t-72 123t-26.5 170.5v800h307v-712q0 -65 7.5 -108t28 -81t62 -56t105.5 -18q51 0 87.5 13t58.5 34.5t34.5 57t16.5 73t4 89.5v708zM788 1321h-278l-231 307
h376z" />
    <glyph glyph-name="Uacute" unicode="&#xda;" horiz-adv-x="1263" 
d="M834 1206h307v-800q0 -119 -39.5 -205t-111 -134t-159.5 -70t-198 -22q-87 0 -160.5 13t-139.5 44.5t-111.5 80t-72 123t-26.5 170.5v800h307v-712q0 -65 7.5 -108t28 -81t62 -56t105.5 -18q51 0 87.5 13t58.5 34.5t34.5 57t16.5 73t4 89.5v708zM750 1321h-279l133 307
h377z" />
    <glyph glyph-name="Ucircumflex" unicode="&#xdb;" horiz-adv-x="1263" 
d="M834 1206h307v-800q0 -119 -39.5 -205t-111 -134t-159.5 -70t-198 -22q-87 0 -160.5 13t-139.5 44.5t-111.5 80t-72 123t-26.5 170.5v800h307v-712q0 -65 7.5 -108t28 -81t62 -56t105.5 -18q51 0 87.5 13t58.5 34.5t34.5 57t16.5 73t4 89.5v708zM535 1628h194l283 -307
h-275l-61 61q-16 16 -25.5 31t-11.5 22l-2 7h-10q-4 -25 -39 -60l-62 -61h-274z" />
    <glyph glyph-name="Udieresis" unicode="&#xdc;" horiz-adv-x="1263" 
d="M834 1206h307v-800q0 -119 -39.5 -205t-111 -134t-159.5 -70t-198 -22q-87 0 -160.5 13t-139.5 44.5t-111.5 80t-72 123t-26.5 170.5v800h307v-712q0 -65 7.5 -108t28 -81t62 -56t105.5 -18q51 0 87.5 13t58.5 34.5t34.5 57t16.5 73t4 89.5v708zM229 1487q0 81 46 123.5
t116 42.5q75 0 121.5 -42t46.5 -124q0 -79 -46.5 -121.5t-121.5 -42.5q-70 0 -116 43t-46 121zM690 1487q0 81 46 123.5t116 42.5q75 0 121.5 -42t46.5 -124q0 -79 -46.5 -121.5t-121.5 -42.5q-70 0 -116 43t-46 121z" />
    <glyph glyph-name="Yacute" unicode="&#xdd;" 
d="M371 1206l123 -256q36 -75 59.5 -144.5t28.5 -101.5l6 -32h8q1 13 5 36.5t27.5 96t59.5 145.5l125 256h324l-392 -823v-383h-307v383l-418 823h351zM696 1321h-278l133 307h377z" />
    <glyph glyph-name="Thorn" unicode="&#xde;" horiz-adv-x="1089" 
d="M461 778v-305h133q79 0 115 33t36 110q0 88 -35 125t-114 37h-135zM461 0h-307v1206h307v-170h145q232 0 337.5 -99.5t105.5 -309.5q0 -195 -109.5 -300.5t-304.5 -105.5h-174v-221z" />
    <glyph glyph-name="germandbls" unicode="&#xdf;" horiz-adv-x="1218" 
d="M123 0v823q0 561 534 561q202 0 312 -95.5t110 -252.5q0 -241 -233 -278v-8q152 -13 231.5 -107t79.5 -260q0 -191 -106 -299.5t-299 -108.5q-180 0 -260 107l59 235q79 -100 182 -100q65 0 96 41.5t31 140.5q0 219 -225 219h-113v242h133q140 0 140 135q0 140 -164 140
q-105 0 -155 -72t-50 -225v-838h-303z" />
    <glyph glyph-name="agrave" unicode="&#xe0;" horiz-adv-x="1040" 
d="M580 301v82q-226 8 -226 -115q0 -36 24.5 -58t65.5 -22q54 0 95 27t41 86zM881 649v-342q0 -86 67 -86q24 0 62 17v-218q-56 -38 -172 -38q-186 0 -236 147q-31 -84 -99.5 -119t-174.5 -35q-127 0 -202 70.5t-75 192.5q0 161 133 239.5t396 63.5v80q0 120 -91 120
q-94 0 -100 -133l-305 58q10 147 122.5 225t291.5 78q190 0 286.5 -81.5t96.5 -238.5zM662 1075h-279l-240 320h377z" />
    <glyph glyph-name="aacute" unicode="&#xe1;" horiz-adv-x="1040" 
d="M580 301v82q-226 8 -226 -115q0 -36 24.5 -58t65.5 -22q54 0 95 27t41 86zM881 649v-342q0 -86 67 -86q24 0 62 17v-218q-56 -38 -172 -38q-186 0 -236 147q-31 -84 -99.5 -119t-174.5 -35q-127 0 -202 70.5t-75 192.5q0 161 133 239.5t396 63.5v80q0 120 -91 120
q-94 0 -100 -133l-305 58q10 147 122.5 225t291.5 78q190 0 286.5 -81.5t96.5 -238.5zM623 1075h-279l141 320h377z" />
    <glyph glyph-name="acircumflex" unicode="&#xe2;" horiz-adv-x="1040" 
d="M580 301v82q-226 8 -226 -115q0 -36 24.5 -58t65.5 -22q54 0 95 27t41 86zM881 649v-342q0 -86 67 -86q24 0 62 17v-218q-56 -38 -172 -38q-186 0 -236 147q-31 -84 -99.5 -119t-174.5 -35q-127 0 -202 70.5t-75 192.5q0 161 133 239.5t396 63.5v80q0 120 -91 120
q-94 0 -100 -133l-305 58q10 147 122.5 225t291.5 78q190 0 286.5 -81.5t96.5 -238.5zM393 1403h195l282 -334h-274l-61 66q-17 18 -27 34t-11 23l-1 6h-11q0 -22 -39 -63l-61 -66h-274z" />
    <glyph glyph-name="atilde" unicode="&#xe3;" horiz-adv-x="1040" 
d="M580 301v82q-226 8 -226 -115q0 -36 24.5 -58t65.5 -22q54 0 95 27t41 86zM881 649v-342q0 -86 67 -86q24 0 62 17v-218q-56 -38 -172 -38q-186 0 -236 147q-31 -84 -99.5 -119t-174.5 -35q-127 0 -202 70.5t-75 192.5q0 161 133 239.5t396 63.5v80q0 120 -91 120
q-94 0 -100 -133l-305 58q10 147 122.5 225t291.5 78q190 0 286.5 -81.5t96.5 -238.5zM649 1063q-50 0 -79.5 9.5t-73.5 35.5q-51 30 -73.5 40.5t-43.5 10.5q-33 0 -52 -25t-12 -75h-165q-32 61 -29 122.5t28 110t75.5 79t113.5 30.5q65 0 131 -39q7 -4 20 -11.5t18.5 -11
t15.5 -9.5t15 -8t13.5 -6t13.5 -6t11.5 -4t12 -2.5t11.5 -0.5q68 0 53 92h172q38 -90 28.5 -163.5t-65 -121t-139.5 -47.5z" />
    <glyph glyph-name="adieresis" unicode="&#xe4;" horiz-adv-x="1040" 
d="M580 301v82q-226 8 -226 -115q0 -36 24.5 -58t65.5 -22q54 0 95 27t41 86zM881 649v-342q0 -86 67 -86q24 0 62 17v-218q-56 -38 -172 -38q-186 0 -236 147q-31 -84 -99.5 -119t-174.5 -35q-127 0 -202 70.5t-75 192.5q0 161 133 239.5t396 63.5v80q0 120 -91 120
q-94 0 -100 -133l-305 58q10 147 122.5 225t291.5 78q190 0 286.5 -81.5t96.5 -238.5zM102 1221q0 81 46 123t116 42q76 0 122 -42t46 -123q0 -79 -46.5 -121.5t-121.5 -42.5q-70 0 -116 43t-46 121zM563 1221q0 81 46 123t116 42q76 0 122 -42t46 -123q0 -79 -46.5 -121.5
t-121.5 -42.5q-70 0 -116 43t-46 121z" />
    <glyph glyph-name="aring" unicode="&#xe5;" horiz-adv-x="1040" 
d="M580 301v82q-226 8 -226 -115q0 -36 24.5 -58t65.5 -22q54 0 95 27t41 86zM881 649v-342q0 -86 67 -86q24 0 62 17v-218q-56 -38 -172 -38q-186 0 -236 147q-31 -84 -99.5 -119t-174.5 -35q-127 0 -202 70.5t-75 192.5q0 161 133 239.5t396 63.5v80q0 120 -91 120
q-94 0 -100 -133l-305 58q10 147 122.5 225t291.5 78q190 0 286.5 -81.5t96.5 -238.5zM494 1028q-114 0 -179 67.5t-65 170.5q0 95 68 162t176 67q107 0 175 -67t68 -162q0 -103 -64.5 -170.5t-178.5 -67.5zM494 1360q-45 0 -71 -26.5t-26 -69.5q0 -39 26 -67t71 -28
t70.5 28t25.5 67q0 43 -25.5 69.5t-70.5 26.5z" />
    <glyph glyph-name="ae" unicode="&#xe6;" horiz-adv-x="1519" 
d="M1049 209q113 0 151 119l258 -92q-25 -91 -90 -151.5t-145.5 -85t-178.5 -24.5q-222 0 -348 144q-81 -144 -321 -144q-146 0 -235 72.5t-89 200.5q0 314 537 317q7 42 14 70q-3 53 -33 79.5t-80 26.5q-94 0 -100 -133l-305 58q10 146 120 224.5t279 78.5q184 0 269 -88
q117 88 295 88q197 0 302 -123.5t105 -317.5q0 -58 -12 -122h-574q6 -197 181 -197zM877 565h286q2 10 2 29q0 63 -33.5 107t-95.5 44q-77 0 -114.5 -50.5t-44.5 -129.5zM444 188q124 0 160 97q-17 64 -20 121q-230 -3 -230 -138q0 -36 24.5 -58t65.5 -22z" />
    <glyph glyph-name="ccedilla" unicode="&#xe7;" horiz-adv-x="970" 
d="M770 -238q0 -94 -68.5 -144t-175.5 -50q-74 0 -134.5 20.5t-90.5 53.5l53 137q64 -70 135 -70q58 0 58 49q0 64 -96 78l16 144q-189 17 -297.5 145.5t-108.5 343.5q0 234 127 367t342 133q172 0 278.5 -87t117.5 -229l-254 -75q-19 153 -142 153q-84 0 -129 -67.5
t-45 -188.5q0 -129 45.5 -197.5t130.5 -68.5q53 0 87.5 31.5t50.5 107.5l270 -88q-24 -125 -116.5 -196.5t-229.5 -83.5l-4 -52q180 -9 180 -166z" />
    <glyph glyph-name="egrave" unicode="&#xe8;" horiz-adv-x="1005" 
d="M535 209q113 0 151 119l258 -92q-25 -91 -90 -151.5t-145.5 -85t-178.5 -24.5q-210 0 -339.5 129t-129.5 353q0 244 125 378t346 134q199 0 303.5 -116t104.5 -308q0 -59 -12 -123h-574q3 -100 49.5 -156.5t131.5 -56.5zM362 582h287q2 10 2 28q0 61 -32.5 98t-96.5 37
q-67 0 -110.5 -46t-49.5 -117zM659 1075h-278l-240 320h377z" />
    <glyph glyph-name="eacute" unicode="&#xe9;" horiz-adv-x="1005" 
d="M535 209q113 0 151 119l258 -92q-25 -91 -90 -151.5t-145.5 -85t-178.5 -24.5q-210 0 -339.5 129t-129.5 353q0 244 125 378t346 134q199 0 303.5 -116t104.5 -308q0 -59 -12 -123h-574q3 -100 49.5 -156.5t131.5 -56.5zM362 582h287q2 10 2 28q0 61 -32.5 98t-96.5 37
q-67 0 -110.5 -46t-49.5 -117zM621 1075h-279l141 320h377z" />
    <glyph glyph-name="ecircumflex" unicode="&#xea;" horiz-adv-x="1005" 
d="M535 209q113 0 151 119l258 -92q-25 -91 -90 -151.5t-145.5 -85t-178.5 -24.5q-210 0 -339.5 129t-129.5 353q0 244 125 378t346 134q199 0 303.5 -116t104.5 -308q0 -59 -12 -123h-574q3 -100 49.5 -156.5t131.5 -56.5zM362 582h287q2 10 2 28q0 61 -32.5 98t-96.5 37
q-67 0 -110.5 -46t-49.5 -117zM422 1403h194l283 -334h-274l-62 66q-17 18 -27 34t-11 23l-1 6h-10q0 -22 -39 -63l-61 -66h-275z" />
    <glyph glyph-name="edieresis" unicode="&#xeb;" horiz-adv-x="1005" 
d="M535 209q113 0 151 119l258 -92q-25 -91 -90 -151.5t-145.5 -85t-178.5 -24.5q-210 0 -339.5 129t-129.5 353q0 244 125 378t346 134q199 0 303.5 -116t104.5 -308q0 -59 -12 -123h-574q3 -100 49.5 -156.5t131.5 -56.5zM362 582h287q2 10 2 28q0 61 -32.5 98t-96.5 37
q-67 0 -110.5 -46t-49.5 -117zM129 1221q0 81 46 123t116 42q76 0 122 -42t46 -123q0 -79 -46.5 -121.5t-121.5 -42.5q-70 0 -116 43t-46 121zM590 1221q0 81 46 123t116 42q76 0 122 -42t46 -123q0 -79 -46.5 -121.5t-121.5 -42.5q-70 0 -116 43t-46 121z" />
    <glyph glyph-name="igrave" unicode="&#xec;" horiz-adv-x="548" 
d="M426 1075h-279l-239 320h377zM123 946h303v-946h-303v946z" />
    <glyph glyph-name="iacute" unicode="&#xed;" horiz-adv-x="548" 
d="M401 1075h-278l141 320h377zM123 946h303v-946h-303v946z" />
    <glyph glyph-name="icircumflex" unicode="&#xee;" horiz-adv-x="548" 
d="M123 946h303v-946h-303v946zM178 1403h195l282 -334h-274l-62 66q-17 18 -26.5 34t-10.5 23l-1 6h-11q0 -22 -39 -63l-61 -66h-274z" />
    <glyph glyph-name="idieresis" unicode="&#xef;" horiz-adv-x="548" 
d="M-127 1221q0 81 46 123t116 42q76 0 122 -42t46 -123q0 -79 -46.5 -121.5t-121.5 -42.5q-70 0 -116 43t-46 121zM334 1221q0 81 46 123t116 42q76 0 122 -42t46 -123q0 -79 -46.5 -121.5t-121.5 -42.5q-70 0 -116 43t-46 121zM123 946h303v-946h-303v946z" />
    <glyph glyph-name="eth" unicode="&#xf0;" horiz-adv-x="1069" 
d="M221 985l-24 109l237 49q-94 73 -217 145l309 107q141 -90 209 -158l221 55l37 -110l-176 -41q191 -255 191 -590q0 -286 -127 -425.5t-351 -139.5q-220 0 -344.5 120.5t-124.5 366.5q0 122 36 216.5t95 148.5t126 81t137 27q91 0 145.5 -30.5t99.5 -92.5h9
q-34 78 -72.5 128t-101.5 104zM705 461q0 258 -173 258q-167 0 -167 -258q0 -244 170 -244q87 0 128.5 60t41.5 184z" />
    <glyph glyph-name="ntilde" unicode="&#xf1;" horiz-adv-x="1112" 
d="M385 946l37 -182q74 205 303 205q116 0 195 -75t79 -226v-668h-303v549q0 83 -24 124.5t-90 41.5q-67 0 -111.5 -47t-44.5 -156v-512h-303v946h262zM721 1063q-50 0 -80 9.5t-74 35.5q-37 22 -51.5 30t-32 14.5t-32.5 6.5q-33 0 -52 -25t-12 -75h-166q-32 61 -29 122.5
t28.5 110t76 79t113.5 30.5q65 0 131 -39q7 -4 20 -11.5t18.5 -11t15.5 -9.5t15 -8t13.5 -6t13.5 -6t11.5 -4t12 -2.5t11.5 -0.5q68 0 53 92h172q38 -90 28.5 -163.5t-65 -121t-139.5 -47.5z" />
    <glyph glyph-name="ograve" unicode="&#xf2;" horiz-adv-x="1056" 
d="M528 -25q-214 0 -340.5 132t-126.5 368q0 237 126 365.5t341 128.5t341 -128.5t126 -365.5q0 -236 -126.5 -368t-340.5 -132zM528 727q-168 0 -168 -254q0 -136 40.5 -199t127.5 -63t127.5 63t40.5 199q0 254 -168 254zM686 1075h-278l-240 320h377z" />
    <glyph glyph-name="oacute" unicode="&#xf3;" horiz-adv-x="1056" 
d="M528 -25q-214 0 -340.5 132t-126.5 368q0 237 126 365.5t341 128.5t341 -128.5t126 -365.5q0 -236 -126.5 -368t-340.5 -132zM528 727q-168 0 -168 -254q0 -136 40.5 -199t127.5 -63t127.5 63t40.5 199q0 254 -168 254zM647 1075h-278l141 320h377z" />
    <glyph glyph-name="ocircumflex" unicode="&#xf4;" horiz-adv-x="1056" 
d="M528 -25q-214 0 -340.5 132t-126.5 368q0 237 126 365.5t341 128.5t341 -128.5t126 -365.5q0 -236 -126.5 -368t-340.5 -132zM528 727q-168 0 -168 -254q0 -136 40.5 -199t127.5 -63t127.5 63t40.5 199q0 254 -168 254zM432 1403h195l282 -334h-274l-62 66
q-17 18 -26.5 34t-10.5 23l-1 6h-11q0 -22 -39 -63l-61 -66h-274z" />
    <glyph glyph-name="otilde" unicode="&#xf5;" horiz-adv-x="1056" 
d="M528 -25q-214 0 -340.5 132t-126.5 368q0 237 126 365.5t341 128.5t341 -128.5t126 -365.5q0 -236 -126.5 -368t-340.5 -132zM528 727q-168 0 -168 -254q0 -136 40.5 -199t127.5 -63t127.5 63t40.5 199q0 254 -168 254zM690 1063q-50 0 -79.5 9.5t-73.5 35.5
q-51 30 -73.5 40.5t-43.5 10.5q-33 0 -52 -25t-12 -75h-166q-32 61 -29 122.5t28.5 110t76 79t113.5 30.5q65 0 131 -39q7 -4 20 -11.5t18.5 -11t15.5 -9.5t15 -8t13.5 -6t13.5 -6t11.5 -4t12 -2.5t11.5 -0.5q68 0 53 92h172q38 -90 28.5 -163.5t-65 -121t-139.5 -47.5z" />
    <glyph glyph-name="odieresis" unicode="&#xf6;" horiz-adv-x="1056" 
d="M528 -25q-214 0 -340.5 132t-126.5 368q0 237 126 365.5t341 128.5t341 -128.5t126 -365.5q0 -236 -126.5 -368t-340.5 -132zM528 727q-168 0 -168 -254q0 -136 40.5 -199t127.5 -63t127.5 63t40.5 199q0 254 -168 254zM127 1221q0 81 46 123t116 42q76 0 122 -42
t46 -123q0 -79 -46.5 -121.5t-121.5 -42.5q-70 0 -116 43t-46 121zM588 1221q0 81 46 123t116 42q76 0 122 -42t46 -123q0 -79 -46.5 -121.5t-121.5 -42.5q-70 0 -116 43t-46 121z" />
    <glyph glyph-name="divide" unicode="&#xf7;" horiz-adv-x="1019" 
d="M928 424h-836v168h836v-168zM379 182q0 51 35 87t86 36t87 -36t36 -87q0 -49 -36 -84t-87 -35t-86 34.5t-35 84.5zM379 821q0 53 35 89t86 36t87 -36.5t36 -88.5q0 -49 -36 -84t-87 -35t-86 34.5t-35 84.5z" />
    <glyph glyph-name="oslash" unicode="&#xf8;" horiz-adv-x="1056" 
d="M152 -31l-91 86l91 97q-91 131 -91 323q0 237 126 365.5t341 128.5q178 0 297 -90l86 92l97 -84l-97 -103q84 -124 84 -309q0 -236 -126.5 -368t-340.5 -132q-172 0 -290 86zM528 727q-168 0 -168 -254q0 -56 5 -90l276 297q-41 47 -113 47zM696 473q0 30 -4 76
l-276 -295q40 -43 112 -43q87 0 127.5 63t40.5 199z" />
    <glyph glyph-name="ugrave" unicode="&#xf9;" horiz-adv-x="1101" 
d="M717 0l-37 178q-23 -99 -93 -151t-200 -52q-133 0 -209 74t-76 230v667h304v-575q0 -166 116 -166q72 0 113 60.5t41 189.5v491h303v-946h-262zM698 1075h-278l-240 320h377z" />
    <glyph glyph-name="uacute" unicode="&#xfa;" horiz-adv-x="1101" 
d="M717 0l-37 178q-23 -99 -93 -151t-200 -52q-133 0 -209 74t-76 230v667h304v-575q0 -166 116 -166q72 0 113 60.5t41 189.5v491h303v-946h-262zM659 1075h-278l141 320h377z" />
    <glyph glyph-name="ucircumflex" unicode="&#xfb;" horiz-adv-x="1101" 
d="M717 0l-37 178q-23 -99 -93 -151t-200 -52q-133 0 -209 74t-76 230v667h304v-575q0 -166 116 -166q72 0 113 60.5t41 189.5v491h303v-946h-262zM444 1403h195l283 -334h-275l-61 66q-17 18 -27 34t-11 23l-1 6h-10q0 -22 -39 -63l-62 -66h-274z" />
    <glyph glyph-name="udieresis" unicode="&#xfc;" horiz-adv-x="1101" 
d="M717 0l-37 178q-23 -99 -93 -151t-200 -52q-133 0 -209 74t-76 230v667h304v-575q0 -166 116 -166q72 0 113 60.5t41 189.5v491h303v-946h-262zM139 1221q0 81 46 123t116 42q76 0 122 -42t46 -123q0 -79 -46.5 -121.5t-121.5 -42.5q-70 0 -116 43t-46 121zM600 1221
q0 81 46 123t116 42q76 0 122 -42t46 -123q0 -79 -46.5 -121.5t-121.5 -42.5q-70 0 -116 43t-46 121z" />
    <glyph glyph-name="yacute" unicode="&#xfd;" horiz-adv-x="1019" 
d="M332 946l110 -401q23 -82 38.5 -158.5t19.5 -112.5l4 -36h8q11 125 66 307l122 401h320l-383 -1032q-33 -88 -70.5 -149.5t-76 -98.5t-88.5 -57.5t-98.5 -27.5t-115.5 -7q-76 0 -178 23l47 270q53 -35 125 -35q63 0 103.5 26.5t64.5 88.5l-350 999h332zM629 1075h-279
l142 320h376z" />
    <glyph glyph-name="thorn" unicode="&#xfe;" 
d="M424 510v-115q0 -106 49.5 -154t116.5 -48q87 0 144 71.5t57 204.5q0 258 -185 258q-72 0 -127 -58t-55 -159zM426 125v-541h-303v1784h303v-604q71 205 307 205q173 0 268 -124t95 -349q0 -240 -108 -380.5t-298 -140.5q-103 0 -173.5 43t-90.5 107z" />
    <glyph glyph-name="ydieresis" unicode="&#xff;" horiz-adv-x="1019" 
d="M332 946l110 -401q23 -82 38.5 -158.5t19.5 -112.5l4 -36h8q11 125 66 307l122 401h320l-383 -1032q-33 -88 -70.5 -149.5t-76 -98.5t-88.5 -57.5t-98.5 -27.5t-115.5 -7q-76 0 -178 23l47 270q53 -35 125 -35q63 0 103.5 26.5t64.5 88.5l-350 999h332zM109 1221
q0 81 45.5 123t115.5 42q76 0 122 -42t46 -123q0 -79 -46.5 -121.5t-121.5 -42.5q-70 0 -115.5 43t-45.5 121zM569 1221q0 81 46 123t116 42q76 0 122 -42t46 -123q0 -79 -46.5 -121.5t-121.5 -42.5q-70 0 -116 43t-46 121z" />
    <glyph glyph-name="Amacron" unicode="&#x100;" horiz-adv-x="1292" 
d="M942 0l-80 225h-444l-76 -225h-322l437 1206h374l441 -1206h-330zM537 575l-33 -94h268l-33 92q-32 89 -56 177.5t-32 131.5l-8 44h-8q-30 -154 -98 -351zM963 1354h-644v245h644v-245z" />
    <glyph glyph-name="amacron" unicode="&#x101;" horiz-adv-x="1040" 
d="M580 301v82q-226 8 -226 -115q0 -36 24.5 -58t65.5 -22q54 0 95 27t41 86zM881 649v-342q0 -86 67 -86q24 0 62 17v-218q-56 -38 -172 -38q-186 0 -236 147q-31 -84 -99.5 -119t-174.5 -35q-127 0 -202 70.5t-75 192.5q0 161 133 239.5t396 63.5v80q0 120 -91 120
q-94 0 -100 -133l-305 58q10 147 122.5 225t291.5 78q190 0 286.5 -81.5t96.5 -238.5zM811 1092h-625v245h625v-245z" />
    <glyph glyph-name="Abreve" unicode="&#x102;" horiz-adv-x="1292" 
d="M942 0l-80 225h-444l-76 -225h-322l437 1206h374l441 -1206h-330zM537 575l-33 -94h268l-33 92q-32 89 -56 177.5t-32 131.5l-8 44h-8q-30 -154 -98 -351zM639 1311q-164 0 -240.5 83t-76.5 232h223q0 -55 20.5 -79.5t73.5 -24.5t73.5 24.5t20.5 79.5h223
q0 -149 -76.5 -232t-240.5 -83z" />
    <glyph glyph-name="abreve" unicode="&#x103;" horiz-adv-x="1040" 
d="M580 301v82q-226 8 -226 -115q0 -36 24.5 -58t65.5 -22q54 0 95 27t41 86zM881 649v-342q0 -86 67 -86q24 0 62 17v-218q-56 -38 -172 -38q-186 0 -236 147q-31 -84 -99.5 -119t-174.5 -35q-127 0 -202 70.5t-75 192.5q0 161 133 239.5t396 63.5v80q0 120 -91 120
q-94 0 -100 -133l-305 58q10 147 122.5 225t291.5 78q190 0 286.5 -81.5t96.5 -238.5zM500 1061q-161 0 -239.5 93.5t-78.5 240.5h224q0 -62 18.5 -90.5t75.5 -28.5t75.5 28.5t18.5 90.5h223q0 -70 -18 -129t-55 -106t-99 -73t-145 -26z" />
    <glyph glyph-name="Aogonek" unicode="&#x104;" horiz-adv-x="1292" 
d="M662 -197q0 62 23 112.5t61.5 83t79 53t85.5 32.5l-49 141h-444l-76 -225h-322l437 1206h374l441 -1206h-207q-74 -3 -118 -38.5t-44 -98.5q0 -46 27 -72.5t71 -26.5q73 0 132 52l59 -156q-92 -92 -260 -92q-52 0 -98 12.5t-85.5 38.5t-63 73.5t-23.5 110.5zM537 575
l-33 -94h268l-33 92q-32 89 -56 177.5t-32 131.5l-8 44h-8q-30 -154 -98 -351z" />
    <glyph glyph-name="aogonek" unicode="&#x105;" horiz-adv-x="1040" 
d="M514 -197q0 82 43 142.5t107 91.5q-38 21 -62 92q-31 -84 -99.5 -119t-174.5 -35q-127 0 -202 70.5t-75 192.5q0 161 133 239.5t396 63.5v80q0 120 -91 120q-94 0 -100 -133l-305 58q10 147 122.5 225t291.5 78q190 0 286.5 -81.5t96.5 -238.5v-342q0 -86 67 -86
q24 0 62 17v-218q-12 -3 -50.5 -12t-58.5 -14.5t-52 -18.5t-49 -26.5t-30.5 -36t-13.5 -49.5q0 -46 27 -72.5t71 -26.5q72 0 131 52l59 -156q-92 -92 -260 -92q-52 0 -98 12.5t-85.5 38.5t-63 73.5t-23.5 110.5zM580 301v82q-226 8 -226 -115q0 -36 24.5 -58t65.5 -22
q54 0 95 27t41 86z" />
    <glyph glyph-name="Cacute" unicode="&#x106;" horiz-adv-x="1214" 
d="M905 414l269 -154q-58 -99 -125.5 -159.5t-168 -93t-237.5 -32.5q-253 0 -407 167.5t-154 463.5q0 300 156.5 462.5t441.5 162.5q364 0 504 -311l-299 -146q-27 92 -74.5 138t-138.5 46q-128 0 -201.5 -96t-73.5 -264t72 -259t211 -91q74 0 134 42.5t91 123.5zM797 1321
h-279l133 307h377z" />
    <glyph glyph-name="cacute" unicode="&#x107;" horiz-adv-x="970" 
d="M670 348l270 -88q-27 -138 -138 -211.5t-272 -73.5q-215 0 -342 131t-127 363q0 234 127 367t342 133q172 0 278.5 -87t117.5 -229l-254 -75q-19 153 -142 153q-84 0 -129 -67.5t-45 -188.5q0 -129 45.5 -197.5t130.5 -68.5q53 0 87.5 31.5t50.5 107.5zM664 1075h-279
l141 320h377z" />
    <glyph glyph-name="Ccircumflex" unicode="&#x108;" horiz-adv-x="1214" 
d="M905 414l269 -154q-58 -99 -125.5 -159.5t-168 -93t-237.5 -32.5q-253 0 -407 167.5t-154 463.5q0 300 156.5 462.5t441.5 162.5q364 0 504 -311l-299 -146q-27 92 -74.5 138t-138.5 46q-128 0 -201.5 -96t-73.5 -264t72 -259t211 -91q74 0 134 42.5t91 123.5zM573 1628
h195l283 -307h-275l-61 61q-16 16 -25.5 31t-11.5 22l-2 7h-10q-4 -25 -39 -60l-62 -61h-274z" />
    <glyph glyph-name="ccircumflex" unicode="&#x109;" horiz-adv-x="970" 
d="M670 348l270 -88q-27 -138 -138 -211.5t-272 -73.5q-215 0 -342 131t-127 363q0 234 127 367t342 133q172 0 278.5 -87t117.5 -229l-254 -75q-19 153 -142 153q-84 0 -129 -67.5t-45 -188.5q0 -129 45.5 -197.5t130.5 -68.5q53 0 87.5 31.5t50.5 107.5zM428 1403h195
l282 -334h-274l-62 66q-17 18 -27 34t-11 23l-1 6h-10q0 -22 -39 -63l-61 -66h-275z" />
    <glyph glyph-name="Cdotaccent" unicode="&#x10a;" horiz-adv-x="1214" 
d="M905 414l269 -154q-58 -99 -125.5 -159.5t-168 -93t-237.5 -32.5q-253 0 -407 167.5t-154 463.5q0 300 156.5 462.5t441.5 162.5q364 0 504 -311l-299 -146q-27 92 -74.5 138t-138.5 46q-128 0 -201.5 -96t-73.5 -264t72 -259t211 -91q74 0 134 42.5t91 123.5zM471 1489
q0 83 50.5 126.5t129.5 43.5q83 0 135 -43.5t52 -126.5q0 -80 -52 -124t-135 -44q-79 0 -129.5 44t-50.5 124z" />
    <glyph glyph-name="cdotaccent" unicode="&#x10b;" horiz-adv-x="970" 
d="M670 348l270 -88q-27 -138 -138 -211.5t-272 -73.5q-215 0 -342 131t-127 363q0 234 127 367t342 133q172 0 278.5 -87t117.5 -229l-254 -75q-19 153 -142 153q-84 0 -129 -67.5t-45 -188.5q0 -129 45.5 -197.5t130.5 -68.5q53 0 87.5 31.5t50.5 107.5zM342 1219
q0 82 51 126t129 44q85 0 136 -43.5t51 -126.5q0 -81 -51.5 -124.5t-135.5 -43.5q-77 0 -128.5 44t-51.5 124z" />
    <glyph glyph-name="Ccaron" unicode="&#x10c;" horiz-adv-x="1214" 
d="M905 414l269 -154q-58 -99 -125.5 -159.5t-168 -93t-237.5 -32.5q-253 0 -407 167.5t-154 463.5q0 300 156.5 462.5t441.5 162.5q364 0 504 -311l-299 -146q-27 92 -74.5 138t-138.5 46q-128 0 -201.5 -96t-73.5 -264t72 -259t211 -91q74 0 134 42.5t91 123.5zM745 1321
h-194l-283 307h275l61 -61q16 -16 25.5 -31t11.5 -22l2 -7h10q4 25 39 60l62 61h274z" />
    <glyph glyph-name="ccaron" unicode="&#x10d;" horiz-adv-x="970" 
d="M670 348l270 -88q-27 -138 -138 -211.5t-272 -73.5q-215 0 -342 131t-127 363q0 234 127 367t342 133q172 0 278.5 -87t117.5 -229l-254 -75q-19 153 -142 153q-84 0 -129 -67.5t-45 -188.5q0 -129 45.5 -197.5t130.5 -68.5q53 0 87.5 31.5t50.5 107.5zM631 1069h-195
l-282 334h274l61 -66q17 -18 27 -34t11 -23l1 -6h11q0 22 39 63l61 66h274z" />
    <glyph glyph-name="Dcaron" unicode="&#x10e;" horiz-adv-x="1292" 
d="M461 260h108q165 0 243.5 75.5t78.5 262.5q0 194 -75 271t-230 77h-125v-686zM598 0h-444v1206h467q102 0 189 -20.5t161.5 -65.5t127 -113t82 -167.5t29.5 -223.5q0 -131 -30 -235t-83.5 -175t-130.5 -117.5t-168 -67.5t-200 -21zM702 1321h-194l-283 307h275l61 -61
q16 -16 25.5 -31t11.5 -22l2 -7h10q4 25 39 60l62 61h274z" />
    <glyph glyph-name="dcaron" unicode="&#x10f;" 
d="M1483 1430l-121 -367h-217l31 367h307zM733 399v164q0 92 -47.5 137t-122.5 45q-82 0 -139 -67t-57 -211q0 -124 51 -192t141 -68q72 0 123 51.5t51 140.5zM731 823v545h303v-1368h-264l-37 164q-41 -189 -293 -189q-167 0 -273 126t-106 350q0 244 110.5 381t311.5 137
q92 0 160 -39t88 -107z" />
    <glyph glyph-name="Dcroat" unicode="&#x110;" horiz-adv-x="1292" 
d="M598 0h-444v487h-138v246h138v473h467q102 0 189 -20.5t161.5 -65.5t127 -113t82 -167.5t29.5 -223.5q0 -131 -30 -235t-83.5 -175t-130.5 -117.5t-168 -67.5t-200 -21zM461 260h108q165 0 243.5 75.5t78.5 262.5q0 194 -75 271t-230 77h-125v-213h180v-246h-180v-227z
" />
    <glyph glyph-name="dcroat" unicode="&#x111;" 
d="M444 1055v178h287v135h303v-135h146v-178h-146v-1055h-264l-37 164q-41 -189 -293 -189q-167 0 -273 126t-106 350q0 244 110.5 381t311.5 137q92 0 160 -39t88 -107v232h-287zM733 399v164q0 92 -47.5 137t-122.5 45q-82 0 -139 -67t-57 -211q0 -124 51 -192t141 -68
q72 0 123 51.5t51 140.5z" />
    <glyph glyph-name="Emacron" unicode="&#x112;" horiz-adv-x="1087" 
d="M985 266v-266h-831v1206h831v-266h-524v-201h461v-256h-461v-217h524zM891 1354h-643v245h643v-245z" />
    <glyph glyph-name="emacron" unicode="&#x113;" horiz-adv-x="1005" 
d="M535 209q113 0 151 119l258 -92q-25 -91 -90 -151.5t-145.5 -85t-178.5 -24.5q-210 0 -339.5 129t-129.5 353q0 244 125 378t346 134q199 0 303.5 -116t104.5 -308q0 -59 -12 -123h-574q3 -100 49.5 -156.5t131.5 -56.5zM362 582h287q2 10 2 28q0 61 -32.5 98t-96.5 37
q-67 0 -110.5 -46t-49.5 -117zM821 1092h-624v245h624v-245z" />
    <glyph glyph-name="Ebreve" unicode="&#x114;" horiz-adv-x="1087" 
d="M985 266v-266h-831v1206h831v-266h-524v-201h461v-256h-461v-217h524zM549 1311q-164 0 -241 83t-77 232h224q0 -55 20.5 -79.5t73.5 -24.5t73.5 24.5t20.5 79.5h223q0 -149 -76.5 -232t-240.5 -83z" />
    <glyph glyph-name="ebreve" unicode="&#x115;" horiz-adv-x="1005" 
d="M535 209q113 0 151 119l258 -92q-25 -91 -90 -151.5t-145.5 -85t-178.5 -24.5q-210 0 -339.5 129t-129.5 353q0 244 125 378t346 134q199 0 303.5 -116t104.5 -308q0 -59 -12 -123h-574q3 -100 49.5 -156.5t131.5 -56.5zM362 582h287q2 10 2 28q0 61 -32.5 98t-96.5 37
q-67 0 -110.5 -46t-49.5 -117zM518 1061q-83 0 -145 26t-99 73t-55 106t-18 129h223q0 -62 18.5 -90.5t75.5 -28.5t75.5 28.5t18.5 90.5h224q0 -147 -78.5 -240.5t-239.5 -93.5z" />
    <glyph glyph-name="Edotaccent" unicode="&#x116;" horiz-adv-x="1087" 
d="M985 266v-266h-831v1206h831v-266h-524v-201h461v-256h-461v-217h524zM387 1487q0 83 50.5 126.5t129.5 43.5q83 0 135 -43.5t52 -126.5q0 -80 -52 -124t-135 -44q-79 0 -129.5 44t-50.5 124z" />
    <glyph glyph-name="edotaccent" unicode="&#x117;" horiz-adv-x="1005" 
d="M535 209q113 0 151 119l258 -92q-25 -91 -90 -151.5t-145.5 -85t-178.5 -24.5q-210 0 -339.5 129t-129.5 353q0 244 125 378t346 134q199 0 303.5 -116t104.5 -308q0 -59 -12 -123h-574q3 -100 49.5 -156.5t131.5 -56.5zM362 582h287q2 10 2 28q0 61 -32.5 98t-96.5 37
q-67 0 -110.5 -46t-49.5 -117zM319 1219q0 82 51.5 126t129.5 44q85 0 135.5 -43t50.5 -127q0 -81 -51 -124.5t-135 -43.5q-78 0 -129.5 44t-51.5 124z" />
    <glyph glyph-name="Eogonek" unicode="&#x118;" horiz-adv-x="1087" 
d="M985 266v-266h-84q-162 0 -162 -129q0 -52 27 -79.5t72 -27.5q72 0 131 52l59 -156q-92 -92 -260 -92q-52 0 -98 12.5t-85.5 38.5t-63 73.5t-23.5 110.5q0 129 123 197h-467v1206h831v-266h-524v-201h461v-256h-461v-217h524z" />
    <glyph glyph-name="eogonek" unicode="&#x119;" horiz-adv-x="1005" 
d="M362 -197q0 108 70 181q-170 28 -270.5 152.5t-100.5 320.5q0 244 125 378t346 134q199 0 303.5 -116t104.5 -308q0 -59 -12 -123h-574q3 -100 49.5 -156.5t131.5 -56.5q113 0 151 119l258 -92q-47 -166 -223 -230q-64 -23 -90.5 -54t-26.5 -79q0 -54 26.5 -81.5
t71.5 -27.5q73 0 132 52l59 -156q-92 -92 -260 -92q-52 0 -98 12.5t-86 38.5t-63.5 73.5t-23.5 110.5zM362 582h287q2 10 2 28q0 61 -32.5 98t-96.5 37q-67 0 -110.5 -46t-49.5 -117z" />
    <glyph glyph-name="Ecaron" unicode="&#x11a;" horiz-adv-x="1087" 
d="M985 266v-266h-831v1206h831v-266h-524v-201h461v-256h-461v-217h524zM647 1321h-194l-283 307h274l62 -61q16 -16 25.5 -31t11.5 -22l2 -7h10q4 25 39 60l61 61h275z" />
    <glyph glyph-name="ecaron" unicode="&#x11b;" horiz-adv-x="1005" 
d="M535 209q113 0 151 119l258 -92q-25 -91 -90 -151.5t-145.5 -85t-178.5 -24.5q-210 0 -339.5 129t-129.5 353q0 244 125 378t346 134q199 0 303.5 -116t104.5 -308q0 -59 -12 -123h-574q3 -100 49.5 -156.5t131.5 -56.5zM362 582h287q2 10 2 28q0 61 -32.5 98t-96.5 37
q-67 0 -110.5 -46t-49.5 -117zM612 1069h-194l-283 334h275l61 -66q17 -18 27 -34t11 -23l1 -6h10q0 22 39 63l62 66h274z" />
    <glyph glyph-name="Gcircumflex" unicode="&#x11c;" horiz-adv-x="1300" 
d="M655 651h533v-651h-180l-52 129q-96 -154 -331 -154q-119 0 -217 37.5t-171.5 112t-114 195.5t-40.5 278q0 302 156.5 467.5t441.5 165.5q184 0 313.5 -81.5t190.5 -229.5l-299 -146q-52 184 -213 184q-34 0 -68 -8.5t-72.5 -33.5t-67.5 -64t-48 -106t-19 -154
q0 -78 14.5 -141.5t46.5 -115.5t88.5 -81t133.5 -29q113 0 164 45.5t51 114.5v25h-240v241zM588 1628h194l283 -307h-274l-62 61q-16 16 -25.5 31t-11.5 22l-2 7h-10q-4 -25 -39 -60l-61 -61h-275z" />
    <glyph glyph-name="gcircumflex" unicode="&#x11d;" horiz-adv-x="1040" 
d="M498 969q157 0 268 -54q28 33 40 58t30 86l235 -78q-7 -64 -59 -111.5t-117 -68.5q41 -68 41 -166q0 -105 -60.5 -180t-160 -110.5t-228.5 -35.5q-75 0 -112 13q-37 -23 -37 -72q0 -21 17 -35t48 -14h283q157 0 247.5 -80t90.5 -205q0 -80 -32.5 -142t-85 -100
t-127.5 -62.5t-152 -34t-166 -9.5q-95 0 -172.5 12t-142 37.5t-100.5 72.5t-36 111q0 83 61 128.5t191 54.5q-71 4 -115.5 55.5t-44.5 118.5q0 61 42 116t122 78q-102 40 -151 105.5t-49 177.5q0 163 116.5 248.5t315.5 85.5zM287 -135q0 -96 211 -96q93 0 147 11t74 31
t20 52q0 37 -23 50t-77 13h-244q-47 0 -77.5 -16t-30.5 -45zM375 635q0 -59 30.5 -94t92.5 -35t94.5 34t32.5 95q0 129 -127 129q-123 0 -123 -129zM444 1423h195l283 -333h-275l-61 65q-17 18 -27 34t-11 23l-1 7h-10q0 -23 -39 -64l-62 -65h-274z" />
    <glyph glyph-name="Gbreve" unicode="&#x11e;" horiz-adv-x="1300" 
d="M655 651h533v-651h-180l-52 129q-96 -154 -331 -154q-119 0 -217 37.5t-171.5 112t-114 195.5t-40.5 278q0 302 156.5 467.5t441.5 165.5q184 0 313.5 -81.5t190.5 -229.5l-299 -146q-52 184 -213 184q-34 0 -68 -8.5t-72.5 -33.5t-67.5 -64t-48 -106t-19 -154
q0 -78 14.5 -141.5t46.5 -115.5t88.5 -81t133.5 -29q113 0 164 45.5t51 114.5v25h-240v241zM684 1311q-164 0 -240.5 83t-76.5 232h223q0 -55 20.5 -79.5t73.5 -24.5t73.5 24.5t20.5 79.5h223q0 -149 -76.5 -232t-240.5 -83z" />
    <glyph glyph-name="gbreve" unicode="&#x11f;" horiz-adv-x="1040" 
d="M498 969q157 0 268 -54q28 33 40 58t30 86l235 -78q-7 -64 -59 -111.5t-117 -68.5q41 -68 41 -166q0 -105 -60.5 -180t-160 -110.5t-228.5 -35.5q-75 0 -112 13q-37 -23 -37 -72q0 -21 17 -35t48 -14h283q157 0 247.5 -80t90.5 -205q0 -80 -32.5 -142t-85 -100
t-127.5 -62.5t-152 -34t-166 -9.5q-95 0 -172.5 12t-142 37.5t-100.5 72.5t-36 111q0 83 61 128.5t191 54.5q-71 4 -115.5 55.5t-44.5 118.5q0 61 42 116t122 78q-102 40 -151 105.5t-49 177.5q0 163 116.5 248.5t315.5 85.5zM287 -135q0 -96 211 -96q93 0 147 11t74 31
t20 52q0 37 -23 50t-77 13h-244q-47 0 -77.5 -16t-30.5 -45zM375 635q0 -59 30.5 -94t92.5 -35t94.5 34t32.5 95q0 129 -127 129q-123 0 -123 -129zM506 1061q-161 0 -239.5 93.5t-78.5 240.5h224q0 -62 18.5 -90.5t75.5 -28.5t75.5 28.5t18.5 90.5h223q0 -70 -18 -129
t-55 -106t-99 -73t-145 -26z" />
    <glyph glyph-name="Gdotaccent" unicode="&#x120;" horiz-adv-x="1300" 
d="M655 651h533v-651h-180l-52 129q-96 -154 -331 -154q-119 0 -217 37.5t-171.5 112t-114 195.5t-40.5 278q0 302 156.5 467.5t441.5 165.5q184 0 313.5 -81.5t190.5 -229.5l-299 -146q-52 184 -213 184q-34 0 -68 -8.5t-72.5 -33.5t-67.5 -64t-48 -106t-19 -154
q0 -78 14.5 -141.5t46.5 -115.5t88.5 -81t133.5 -29q113 0 164 45.5t51 114.5v25h-240v241zM502 1491q0 83 50.5 126.5t129.5 43.5q83 0 134.5 -43.5t51.5 -126.5q0 -81 -51.5 -124.5t-134.5 -43.5q-79 0 -129.5 44t-50.5 124z" />
    <glyph glyph-name="gdotaccent" unicode="&#x121;" horiz-adv-x="1040" 
d="M498 969q157 0 268 -54q28 33 40 58t30 86l235 -78q-7 -64 -59 -111.5t-117 -68.5q41 -68 41 -166q0 -105 -60.5 -180t-160 -110.5t-228.5 -35.5q-75 0 -112 13q-37 -23 -37 -72q0 -21 17 -35t48 -14h283q157 0 247.5 -80t90.5 -205q0 -80 -32.5 -142t-85 -100
t-127.5 -62.5t-152 -34t-166 -9.5q-95 0 -172.5 12t-142 37.5t-100.5 72.5t-36 111q0 83 61 128.5t191 54.5q-71 4 -115.5 55.5t-44.5 118.5q0 61 42 116t122 78q-102 40 -151 105.5t-49 177.5q0 163 116.5 248.5t315.5 85.5zM287 -135q0 -96 211 -96q93 0 147 11t74 31
t20 52q0 37 -23 50t-77 13h-244q-47 0 -77.5 -16t-30.5 -45zM375 635q0 -59 30.5 -94t92.5 -35t94.5 34t32.5 95q0 129 -127 129q-123 0 -123 -129zM315 1223q0 82 51.5 126t129.5 44q85 0 135.5 -43t50.5 -127q0 -81 -51 -124.5t-135 -43.5q-78 0 -129.5 44t-51.5 124z" />
    <glyph glyph-name="Gcommaaccent" unicode="&#x122;" horiz-adv-x="1300" 
d="M655 651h533v-651h-180l-52 129q-96 -154 -331 -154q-119 0 -217 37.5t-171.5 112t-114 195.5t-40.5 278q0 302 156.5 467.5t441.5 165.5q184 0 313.5 -81.5t190.5 -229.5l-299 -146q-52 184 -213 184q-34 0 -68 -8.5t-72.5 -33.5t-67.5 -64t-48 -106t-19 -154
q0 -78 14.5 -141.5t46.5 -115.5t88.5 -81t133.5 -29q113 0 164 45.5t51 114.5v25h-240v241zM866 -287q0 -241 -309 -241v98q72 2 106.5 19t34.5 57q-63 -10 -109 20.5t-46 97.5q0 69 43 105.5t108 36.5q77 0 124.5 -53.5t47.5 -139.5z" />
    <glyph glyph-name="gcommaaccent" unicode="&#x123;" horiz-adv-x="1040" 
d="M498 969q157 0 268 -54q28 33 40 58t30 86l235 -78q-7 -64 -59 -111.5t-117 -68.5q41 -68 41 -166q0 -105 -60.5 -180t-160 -110.5t-228.5 -35.5q-75 0 -112 13q-37 -23 -37 -72q0 -21 17 -35t48 -14h283q157 0 247.5 -80t90.5 -205q0 -80 -32.5 -142t-85 -100
t-127.5 -62.5t-152 -34t-166 -9.5q-95 0 -172.5 12t-142 37.5t-100.5 72.5t-36 111q0 83 61 128.5t191 54.5q-71 4 -115.5 55.5t-44.5 118.5q0 61 42 116t122 78q-102 40 -151 105.5t-49 177.5q0 163 116.5 248.5t315.5 85.5zM287 -135q0 -96 211 -96q93 0 147 11t74 31
t20 52q0 37 -23 50t-77 13h-244q-47 0 -77.5 -16t-30.5 -45zM375 635q0 -59 30.5 -94t92.5 -35t94.5 34t32.5 95q0 129 -127 129q-123 0 -123 -129zM348 1253q0 242 309 242v-98q-72 -2 -106.5 -19t-34.5 -57q63 10 109.5 -21t46.5 -98q0 -69 -43 -105t-109 -36
q-77 0 -124.5 53t-47.5 139z" />
    <glyph glyph-name="Hcircumflex" unicode="&#x124;" horiz-adv-x="1349" 
d="M461 0h-307v1206h307v-461h428v461h307v-1206h-307v479h-428v-479zM578 1628h194l283 -307h-275l-61 61q-16 16 -25.5 31t-11.5 22l-2 7h-10q-4 -25 -39 -60l-62 -61h-274z" />
    <glyph glyph-name="hcircumflex" unicode="&#x125;" horiz-adv-x="1112" 
d="M426 1368v-602q73 203 299 203q116 0 195 -75t79 -226v-668h-303v549q0 83 -24 124.5t-90 41.5q-68 0 -112 -46t-44 -155v-514h-303v1368h303zM190 1767h195l283 -307h-275l-61 62q-16 16 -25.5 30.5t-11.5 21.5l-2 7h-10q-4 -24 -39 -59l-62 -62h-274z" />
    <glyph glyph-name="Hbar" unicode="&#x126;" horiz-adv-x="1368" 
d="M10 840v231h154v135h307v-135h428v135h307v-135h152v-231h-152v-840h-307v459h-428v-459h-307v840h-154zM471 702h428v138h-428v-138z" />
    <glyph glyph-name="hbar" unicode="&#x127;" horiz-adv-x="1112" 
d="M426 1368v-135h283v-178h-283v-289q73 203 299 203q116 0 195 -75t79 -226v-668h-303v549q0 83 -24 124.5t-90 41.5q-68 0 -112 -46t-44 -155v-514h-303v1055h-150v178h150v135h303z" />
    <glyph glyph-name="Itilde" unicode="&#x128;" horiz-adv-x="614" 
d="M154 1206h307v-1206h-307v1206zM469 1325q-50 0 -80 9.5t-74 35.5q-37 22 -51.5 30t-32 14.5t-32.5 6.5q-33 0 -52 -25t-12 -75h-166q-32 61 -29 122.5t28.5 110t76 79t113.5 30.5q65 0 131 -39q7 -4 20 -11.5t18.5 -11t15.5 -9.5t15 -8t13.5 -6t13.5 -6t11.5 -4t12 -2.5
t11.5 -0.5q68 0 53 92h172q38 -90 28.5 -163.5t-65 -121t-139.5 -47.5z" />
    <glyph glyph-name="itilde" unicode="&#x129;" horiz-adv-x="548" 
d="M436 1063q-50 0 -79.5 9.5t-73.5 35.5q-51 30 -73.5 40.5t-43.5 10.5q-33 0 -52 -25t-12 -75h-165q-32 61 -29 122.5t28 110t75.5 79t113.5 30.5q65 0 131 -39q7 -4 20 -11.5t18.5 -11t15.5 -9.5t15 -8t13.5 -6t13.5 -6t11.5 -4t12 -2.5t11.5 -0.5q68 0 53 92h172
q38 -90 28.5 -163.5t-65 -121t-139.5 -47.5zM123 946h303v-946h-303v946z" />
    <glyph glyph-name="Imacron" unicode="&#x12a;" horiz-adv-x="614" 
d="M154 1206h307v-1206h-307v1206zM629 1354h-643v245h643v-245z" />
    <glyph glyph-name="imacron" unicode="&#x12b;" horiz-adv-x="548" 
d="M551 1092h-553v245h553v-245zM123 946h303v-946h-303v946z" />
    <glyph glyph-name="Ibreve" unicode="&#x12c;" horiz-adv-x="614" 
d="M154 1206h307v-1206h-307v1206zM307 1311q-164 0 -240.5 83t-76.5 232h223q0 -55 20.5 -79.5t73.5 -24.5t73.5 24.5t20.5 79.5h224q0 -149 -77 -232t-241 -83z" />
    <glyph glyph-name="Iogonek" unicode="&#x12e;" horiz-adv-x="614" 
d="M41 -197q0 140 113 217v1186h307v-1206q-82 0 -130 -35.5t-48 -101.5q0 -46 27 -72.5t71 -26.5q72 0 131 52l59 -156q-92 -92 -260 -92q-52 0 -98 12.5t-85.5 38.5t-63 73.5t-23.5 110.5z" />
    <glyph glyph-name="iogonek" unicode="&#x12f;" horiz-adv-x="548" 
d="M6 -197q0 144 117 220v923h303v-946q-82 0 -130 -35.5t-48 -101.5q0 -46 27 -72.5t71 -26.5q72 0 131 52l60 -156q-92 -92 -261 -92q-52 0 -98 12.5t-85.5 38.5t-63 73.5t-23.5 110.5zM94 1231q0 82 51 126t129 44q83 0 135 -43.5t52 -126.5q0 -80 -52 -124t-135 -44
q-77 0 -128.5 44t-51.5 124z" />
    <glyph glyph-name="Idotaccent" unicode="&#x130;" horiz-adv-x="614" 
d="M154 1206h307v-1206h-307v1206zM125 1491q0 83 50.5 126.5t129.5 43.5q83 0 135 -43.5t52 -126.5q0 -80 -52 -124t-135 -44q-79 0 -129.5 44t-50.5 124z" />
    <glyph glyph-name="dotlessi" unicode="&#x131;" horiz-adv-x="548" 
d="M123 946h303v-946h-303v946z" />
    <glyph glyph-name="IJ" unicode="&#x132;" horiz-adv-x="1581" 
d="M154 1206h307v-1206h-307v1206zM1151 1206h307v-856q0 -99 -33.5 -173t-94 -117t-137.5 -64t-171 -21q-305 0 -424 230l223 211q36 -93 82 -141t113 -48q74 0 104.5 41t30.5 133v805z" />
    <glyph glyph-name="ij" unicode="&#x133;" horiz-adv-x="1095" 
d="M94 1231q0 82 51 126t129 44q83 0 135 -43.5t52 -126.5q0 -80 -52 -124t-135 -44q-77 0 -128.5 44t-51.5 124zM123 946h303v-946h-303v946zM670 946h303v-928q0 -228 -155.5 -339.5t-411.5 -92.5v256q86 -13 145 -1.5t89 68.5t30 169v868zM637 1231q0 83 50.5 126.5
t129.5 43.5q83 0 135 -43.5t52 -126.5q0 -80 -52 -124t-135 -44q-79 0 -129.5 44t-50.5 124z" />
    <glyph glyph-name="Jcircumflex" unicode="&#x134;" horiz-adv-x="983" 
d="M553 1206h307v-856q0 -99 -33.5 -173t-94 -117t-137.5 -64t-171 -21q-305 0 -424 230l223 211q36 -93 82 -141t113 -48q74 0 104.5 41t30.5 133v805zM600 1628h195l282 -307h-274l-62 61q-16 16 -25.5 31t-11.5 22l-2 7h-10q-4 -25 -39 -60l-61 -61h-275z" />
    <glyph glyph-name="jcircumflex" unicode="&#x135;" horiz-adv-x="546" 
d="M123 946h301v-928q0 -228 -155.5 -339.5t-411.5 -92.5v256q86 -13 145.5 -1.5t90 69t30.5 168.5v868zM170 1403h195l282 -334h-274l-62 66q-17 18 -27 34t-11 23l-1 6h-10q0 -22 -39 -63l-61 -66h-275z" />
    <glyph glyph-name="Kcommaaccent" unicode="&#x136;" horiz-adv-x="1220" 
d="M1200 0h-366l-308 479h-65v-479h-307v1206h307v-461h67l281 461h352l-368 -583zM784 -287q0 -241 -309 -241v98q72 2 106.5 19t34.5 57q-63 -10 -109 20.5t-46 97.5q0 69 43 105.5t108 36.5q77 0 124.5 -53.5t47.5 -139.5z" />
    <glyph glyph-name="kcommaaccent" unicode="&#x137;" horiz-adv-x="1097" 
d="M735 506l342 -506h-350l-244 379h-57v-379h-303v1368h303v-756h55l217 334h349zM721 -287q0 -241 -309 -241v98q72 2 106.5 19t34.5 57q-63 -10 -109.5 20.5t-46.5 97.5q0 69 43.5 105.5t108.5 36.5q77 0 124.5 -53.5t47.5 -139.5z" />
    <glyph glyph-name="kgreenlandic" unicode="&#x138;" horiz-adv-x="1097" 
d="M735 506l342 -506h-350l-244 379h-57v-379h-303v946h301v-334h57l217 334h349z" />
    <glyph glyph-name="Lacute" unicode="&#x139;" horiz-adv-x="972" 
d="M154 1206h307v-940h450v-266h-757v1206zM430 1321h-278l133 307h377z" />
    <glyph glyph-name="lacute" unicode="&#x13a;" horiz-adv-x="610" 
d="M569 262l-16 -254q-96 -28 -172 -28q-56 0 -104 13.5t-88.5 42t-63.5 79t-23 118.5v1135h304v-1040q0 -80 88 -80q40 0 75 14zM393 1487h-278l133 307h377z" />
    <glyph glyph-name="Lcommaaccent" unicode="&#x13b;" horiz-adv-x="972" 
d="M154 1206h307v-940h450v-266h-757v1206zM715 -287q0 -241 -309 -241v98q72 2 106.5 19t34.5 57q-63 -10 -109.5 20.5t-46.5 97.5q0 69 43.5 105.5t108.5 36.5q77 0 124.5 -53.5t47.5 -139.5z" />
    <glyph glyph-name="lcommaaccent" unicode="&#x13c;" horiz-adv-x="610" 
d="M569 262l-16 -254q-96 -28 -172 -28q-56 0 -104 13.5t-88.5 42t-63.5 79t-23 118.5v1135h304v-1040q0 -80 88 -80q40 0 75 14zM510 -287q0 -241 -309 -241v98q72 2 106.5 19t34.5 57q-63 -10 -109.5 20.5t-46.5 97.5q0 69 43.5 105.5t108.5 36.5q77 0 124.5 -53.5
t47.5 -139.5z" />
    <glyph glyph-name="Lcaron" unicode="&#x13d;" horiz-adv-x="972" 
d="M154 1206h307v-940h450v-266h-757v1206zM975 1274l-121 -408h-217l31 408h307z" />
    <glyph glyph-name="lcaron" unicode="&#x13e;" horiz-adv-x="610" 
d="M856 1430l-121 -367h-217l31 367h307zM569 262l-16 -254q-96 -28 -172 -28q-56 0 -104 13.5t-88.5 42t-63.5 79t-23 118.5v1135h304v-1040q0 -80 88 -80q40 0 75 14z" />
    <glyph glyph-name="Ldot" unicode="&#x13f;" horiz-adv-x="972" 
d="M154 1206h307v-940h450v-266h-757v1206zM551 709q0 82 53.5 137t130.5 55q83 0 138 -54.5t55 -137.5q0 -77 -55.5 -131t-137.5 -54q-76 0 -130 54t-54 131z" />
    <glyph glyph-name="ldot" unicode="&#x140;" horiz-adv-x="813" 
d="M569 262l-16 -254q-96 -28 -172 -28q-56 0 -104 13.5t-88.5 42t-63.5 79t-23 118.5v1135h304v-1040q0 -80 88 -80q40 0 75 14zM489 676q0 82 54 137t131 55q83 0 137.5 -54.5t54.5 -137.5q0 -77 -55 -130.5t-137 -53.5q-77 0 -131 54t-54 130z" />
    <glyph glyph-name="Lslash" unicode="&#x141;" horiz-adv-x="1003" 
d="M61 432v193l123 43v538h308v-432l270 96v-194l-270 -94v-316h450v-266h-758v475z" />
    <glyph glyph-name="lslash" unicode="&#x142;" horiz-adv-x="653" 
d="M0 469v213l133 63v623h303v-475l176 86v-209l-176 -88v-354q0 -80 88 -80q41 0 76 14l-16 -254q-96 -28 -172 -28q-56 0 -104 13.5t-88.5 42t-63.5 79t-23 118.5v302z" />
    <glyph glyph-name="Nacute" unicode="&#x143;" horiz-adv-x="1400" 
d="M438 1206l410 -547q29 -39 51.5 -74.5t30.5 -50.5l8 -16h8q-6 94 -6 248v440h307v-1206h-274l-410 535q-35 44 -61.5 84.5t-35.5 58.5l-9 18h-8q12 -90 12 -268v-428h-307v1206h284zM819 1321h-278l133 307h377z" />
    <glyph glyph-name="nacute" unicode="&#x144;" horiz-adv-x="1112" 
d="M385 946l37 -182q74 205 303 205q116 0 195 -75t79 -226v-668h-303v549q0 83 -24 124.5t-90 41.5q-67 0 -111.5 -47t-44.5 -156v-512h-303v946h262zM680 1075h-279l142 320h377z" />
    <glyph glyph-name="Ncommaaccent" unicode="&#x145;" horiz-adv-x="1400" 
d="M438 1206l410 -547q29 -39 51.5 -74.5t30.5 -50.5l8 -16h8q-6 94 -6 248v440h307v-1206h-274l-410 535q-35 44 -61.5 84.5t-35.5 58.5l-9 18h-8q12 -90 12 -268v-428h-307v1206h284zM883 -287q0 -241 -310 -241v98q72 2 107 19t35 57q-63 -10 -109.5 20.5t-46.5 97.5
q0 69 43.5 105.5t108.5 36.5q77 0 124.5 -53.5t47.5 -139.5z" />
    <glyph glyph-name="ncommaaccent" unicode="&#x146;" horiz-adv-x="1112" 
d="M385 946l37 -182q74 205 303 205q116 0 195 -75t79 -226v-668h-303v549q0 83 -24 124.5t-90 41.5q-67 0 -111.5 -47t-44.5 -156v-512h-303v946h262zM725 -287q0 -241 -309 -241v98q72 2 106.5 19t34.5 57q-63 -10 -109.5 20.5t-46.5 97.5q0 69 43.5 105.5t108.5 36.5
q77 0 124.5 -53.5t47.5 -139.5z" />
    <glyph glyph-name="Ncaron" unicode="&#x147;" horiz-adv-x="1400" 
d="M438 1206l410 -547q29 -39 51.5 -74.5t30.5 -50.5l8 -16h8q-6 94 -6 248v440h307v-1206h-274l-410 535q-35 44 -61.5 84.5t-35.5 58.5l-9 18h-8q12 -90 12 -268v-428h-307v1206h284zM799 1321h-195l-282 307h274l61 -61q16 -16 25.5 -31t11.5 -22l2 -7h11q3 25 38 60
l62 61h274z" />
    <glyph glyph-name="ncaron" unicode="&#x148;" horiz-adv-x="1112" 
d="M385 946l37 -182q74 205 303 205q116 0 195 -75t79 -226v-668h-303v549q0 83 -24 124.5t-90 41.5q-67 0 -111.5 -47t-44.5 -156v-512h-303v946h262zM659 1069h-194l-283 334h275l61 -66q17 -18 27 -34t11 -23l1 -6h10q0 22 39 63l62 66h274z" />
    <glyph glyph-name="Eng" unicode="&#x14a;" horiz-adv-x="1400" 
d="M1247 1206v-1263q0 -83 -24.5 -149t-65 -107.5t-97 -69t-117 -38.5t-128.5 -11q-262 0 -403 151l166 254q33 -71 94 -110t121 -39q81 0 114 39t33 131v49l-377 492q-35 44 -61.5 84.5t-35.5 58.5l-9 18h-8q12 -90 12 -268v-428h-307v1206h284l410 -547q29 -39 51.5 -74.5
t30.5 -50.5l8 -16h8q-6 94 -6 248v440h307z" />
    <glyph glyph-name="eng" unicode="&#x14b;" horiz-adv-x="1112" 
d="M426 0h-303v946h262l37 -182q74 205 303 205q116 0 195 -75t79 -226v-650q0 -228 -155.5 -339.5t-411.5 -92.5v256q86 -13 145 -1.5t89 68.5t30 169v471q0 83 -24 124.5t-90 41.5q-67 0 -111.5 -47t-44.5 -156v-512z" />
    <glyph glyph-name="Omacron" unicode="&#x14c;" horiz-adv-x="1327" 
d="M664 -25q-275 0 -428.5 163.5t-153.5 463.5q0 302 153 465.5t429 163.5t428.5 -163t152.5 -466q0 -301 -153 -464t-428 -163zM664 956q-130 0 -196.5 -94.5t-66.5 -263.5q0 -170 66 -263t197 -93t196.5 93t65.5 263q0 169 -66.5 263.5t-195.5 94.5zM985 1354h-643v245
h643v-245z" />
    <glyph glyph-name="omacron" unicode="&#x14d;" horiz-adv-x="1056" 
d="M528 -25q-214 0 -340.5 132t-126.5 368q0 237 126 365.5t341 128.5t341 -128.5t126 -365.5q0 -236 -126.5 -368t-340.5 -132zM528 727q-168 0 -168 -254q0 -136 40.5 -199t127.5 -63t127.5 63t40.5 199q0 254 -168 254zM842 1092h-625v245h625v-245z" />
    <glyph glyph-name="Obreve" unicode="&#x14e;" horiz-adv-x="1327" 
d="M664 -25q-275 0 -428.5 163.5t-153.5 463.5q0 302 153 465.5t429 163.5t428.5 -163t152.5 -466q0 -301 -153 -464t-428 -163zM664 956q-130 0 -196.5 -94.5t-66.5 -263.5q0 -170 66 -263t197 -93t196.5 93t65.5 263q0 169 -66.5 263.5t-195.5 94.5zM664 1311
q-164 0 -241 83t-77 232h223q0 -55 20.5 -79.5t74.5 -24.5q53 0 73.5 24.5t20.5 79.5h223q0 -149 -76.5 -232t-240.5 -83z" />
    <glyph glyph-name="obreve" unicode="&#x14f;" horiz-adv-x="1056" 
d="M528 -25q-214 0 -340.5 132t-126.5 368q0 237 126 365.5t341 128.5t341 -128.5t126 -365.5q0 -236 -126.5 -368t-340.5 -132zM528 727q-168 0 -168 -254q0 -136 40.5 -199t127.5 -63t127.5 63t40.5 199q0 254 -168 254zM528 1061q-83 0 -145 26t-99 73t-55 106t-18 129
h223q0 -62 18.5 -90.5t75.5 -28.5t76 28.5t19 90.5h223q0 -147 -78.5 -240.5t-239.5 -93.5z" />
    <glyph glyph-name="Ohungarumlaut" unicode="&#x150;" horiz-adv-x="1327" 
d="M664 -25q-275 0 -428.5 163.5t-153.5 463.5q0 302 153 465.5t429 163.5t428.5 -163t152.5 -466q0 -301 -153 -464t-428 -163zM664 956q-130 0 -196.5 -94.5t-66.5 -263.5q0 -170 66 -263t197 -93t196.5 93t65.5 263q0 169 -66.5 263.5t-195.5 94.5zM590 1321h-213
l100 307h311zM965 1321h-236l141 307h334z" />
    <glyph glyph-name="ohungarumlaut" unicode="&#x151;" horiz-adv-x="1056" 
d="M528 -25q-214 0 -340.5 132t-126.5 368q0 237 126 365.5t341 128.5t341 -128.5t126 -365.5q0 -236 -126.5 -368t-340.5 -132zM528 727q-168 0 -168 -254q0 -136 40.5 -199t127.5 -63t127.5 63t40.5 199q0 254 -168 254zM446 1075h-213l101 320h311zM821 1075h-235
l141 320h334z" />
    <glyph glyph-name="OE" unicode="&#x152;" horiz-adv-x="1802" 
d="M664 -25q-275 0 -428.5 163.5t-153.5 463.5q0 302 153 465.5t429 163.5q100 0 192 -25h844v-266h-522q42 -93 57 -201h401v-256h-397q-15 -119 -61 -217h522v-266h-844q-92 -25 -192 -25zM664 956q-130 0 -196.5 -94.5t-66.5 -263.5q0 -170 66 -263t197 -93t196.5 93
t65.5 263q0 169 -66.5 263.5t-195.5 94.5z" />
    <glyph glyph-name="oe" unicode="&#x153;" horiz-adv-x="1642" 
d="M1171 209q114 0 152 119l258 -92q-25 -91 -90 -151.5t-145.5 -85t-178.5 -24.5q-102 0 -186 35t-137 99q-98 -134 -316 -134q-214 0 -340.5 132t-126.5 368q0 237 126 365.5t341 128.5q115 0 191 -37t129 -111q99 148 321 148q199 0 303.5 -116t104.5 -308
q0 -59 -12 -123h-574q3 -100 49 -156.5t131 -56.5zM528 727q-168 0 -168 -254q0 -136 40.5 -199t127.5 -63t127.5 63t40.5 199q0 254 -168 254zM999 582h287q2 10 2 28q0 61 -32.5 98t-96.5 37q-67 0 -110.5 -46t-49.5 -117z" />
    <glyph glyph-name="Racute" unicode="&#x154;" horiz-adv-x="1214" 
d="M1163 0h-342q-44 33 -67 129l-43 170q-16 64 -46.5 84t-97.5 20h-106v-403h-307v1206h493q105 0 184 -19t140 -62t93 -117.5t32 -178.5q0 -136 -69 -212.5t-191 -90.5v-6q84 -14 129 -52.5t67 -115.5l62 -221q24 -84 69 -131zM461 946v-287h164q77 0 117 33t40 109
q0 70 -40 107.5t-115 37.5h-166zM698 1321h-278l133 307h377z" />
    <glyph glyph-name="racute" unicode="&#x155;" horiz-adv-x="833" 
d="M813 967l-37 -334q-59 18 -114 18q-33 0 -62.5 -5t-62.5 -20.5t-56.5 -40t-39 -67.5t-15.5 -100v-418h-303v946h264l37 -262q17 67 42 116.5t68.5 91.5t113.5 61.5t165 13.5zM586 1075h-279l142 320h376z" />
    <glyph glyph-name="Rcommaaccent" unicode="&#x156;" horiz-adv-x="1214" 
d="M1163 0h-342q-44 33 -67 129l-43 170q-16 64 -46.5 84t-97.5 20h-106v-403h-307v1206h493q105 0 184 -19t140 -62t93 -117.5t32 -178.5q0 -136 -69 -212.5t-191 -90.5v-6q84 -14 129 -52.5t67 -115.5l62 -221q24 -84 69 -131zM461 946v-287h164q77 0 117 33t40 109
q0 70 -40 107.5t-115 37.5h-166zM762 -287q0 -241 -309 -241v98q72 2 106.5 19t34.5 57q-63 -10 -109.5 20.5t-46.5 97.5q0 69 43.5 105.5t108.5 36.5q77 0 124.5 -53.5t47.5 -139.5z" />
    <glyph glyph-name="rcommaaccent" unicode="&#x157;" horiz-adv-x="833" 
d="M813 967l-37 -334q-59 18 -114 18q-33 0 -62.5 -5t-62.5 -20.5t-56.5 -40t-39 -67.5t-15.5 -100v-418h-303v946h264l37 -262q17 67 42 116.5t68.5 91.5t113.5 61.5t165 13.5zM432 -287q0 -241 -309 -241v98q72 2 106.5 19t34.5 57q-63 -10 -109 20.5t-46 97.5
q0 69 43 105.5t108 36.5q77 0 124.5 -53.5t47.5 -139.5z" />
    <glyph glyph-name="Rcaron" unicode="&#x158;" horiz-adv-x="1214" 
d="M1163 0h-342q-44 33 -67 129l-43 170q-16 64 -46.5 84t-97.5 20h-106v-403h-307v1206h493q105 0 184 -19t140 -62t93 -117.5t32 -178.5q0 -136 -69 -212.5t-191 -90.5v-6q84 -14 129 -52.5t67 -115.5l62 -221q24 -84 69 -131zM461 946v-287h164q77 0 117 33t40 109
q0 70 -40 107.5t-115 37.5h-166zM678 1321h-195l-282 307h274l62 -61q16 -16 25.5 -31t11.5 -22l1 -7h11q4 25 39 60l61 61h275z" />
    <glyph glyph-name="rcaron" unicode="&#x159;" horiz-adv-x="833" 
d="M813 967l-37 -334q-59 18 -114 18q-33 0 -62.5 -5t-62.5 -20.5t-56.5 -40t-39 -67.5t-15.5 -100v-418h-303v946h264l37 -262q17 67 42 116.5t68.5 91.5t113.5 61.5t165 13.5zM551 1069h-195l-282 334h274l62 -66q17 -18 27 -34t11 -23l1 -6h10q0 22 39 63l61 66h275z" />
    <glyph glyph-name="Sacute" unicode="&#x15a;" horiz-adv-x="1081" 
d="M41 264l278 133q17 -83 77 -134.5t141 -51.5q64 0 102.5 25t38.5 75q0 52 -38 82t-146 62q-226 69 -316 162t-90 245q0 101 37 175.5t101 116t138.5 60.5t161.5 19q436 0 473 -311l-307 -82q-7 69 -53 103t-107 34q-52 0 -85 -22t-33 -70q0 -51 42.5 -81t145.5 -59
q109 -33 178.5 -66t121 -80t73.5 -109.5t22 -149.5q0 -79 -25 -141.5t-68.5 -104t-106 -68.5t-133 -39t-152.5 -12q-186 0 -303.5 67t-167.5 222zM664 1321h-279l133 307h377z" />
    <glyph glyph-name="sacute" unicode="&#x15b;" horiz-adv-x="927" 
d="M31 221l245 105q16 -71 63.5 -104.5t113.5 -33.5q51 0 80.5 17t29.5 49q0 34 -26 52t-86 32l-140 33q-243 64 -243 284q0 71 22.5 126.5t59 90.5t89 57t107.5 31t119 9q178 0 277 -67t108 -204l-283 -41q-7 50 -34.5 69t-81.5 19q-38 0 -62 -16t-24 -45q0 -57 79 -72
l136 -26q286 -58 286 -312q0 -79 -31 -137.5t-87.5 -93t-130.5 -51.5t-166 -17q-186 0 -289 57.5t-131 188.5zM600 1075h-278l141 320h377z" />
    <glyph glyph-name="Scircumflex" unicode="&#x15c;" horiz-adv-x="1081" 
d="M41 264l278 133q17 -83 77 -134.5t141 -51.5q64 0 102.5 25t38.5 75q0 52 -38 82t-146 62q-226 69 -316 162t-90 245q0 101 37 175.5t101 116t138.5 60.5t161.5 19q436 0 473 -311l-307 -82q-7 69 -53 103t-107 34q-52 0 -85 -22t-33 -70q0 -51 42.5 -81t145.5 -59
q109 -33 178.5 -66t121 -80t73.5 -109.5t22 -149.5q0 -79 -25 -141.5t-68.5 -104t-106 -68.5t-133 -39t-152.5 -12q-186 0 -303.5 67t-167.5 222zM449 1628h194l283 -307h-275l-61 61q-16 16 -25.5 31t-11.5 22l-2 7h-10q-4 -25 -39 -60l-62 -61h-274z" />
    <glyph glyph-name="scircumflex" unicode="&#x15d;" horiz-adv-x="927" 
d="M31 221l245 105q16 -71 63.5 -104.5t113.5 -33.5q51 0 80.5 17t29.5 49q0 34 -26 52t-86 32l-140 33q-243 64 -243 284q0 71 22.5 126.5t59 90.5t89 57t107.5 31t119 9q178 0 277 -67t108 -204l-283 -41q-7 50 -34.5 69t-81.5 19q-38 0 -62 -16t-24 -45q0 -57 79 -72
l136 -26q286 -58 286 -312q0 -79 -31 -137.5t-87.5 -93t-130.5 -51.5t-166 -17q-186 0 -289 57.5t-131 188.5zM385 1403h195l282 -334h-274l-62 66q-17 18 -27 34t-11 23l-1 6h-10q0 -22 -39 -63l-61 -66h-275z" />
    <glyph glyph-name="Scedilla" unicode="&#x15e;" horiz-adv-x="1081" 
d="M770 -238q0 -94 -68.5 -144t-175.5 -50q-74 0 -134.5 20.5t-90.5 53.5l53 137q64 -70 135 -70q58 0 58 49q0 64 -96 78l16 141q-166 6 -272 73.5t-154 213.5l278 133q17 -83 77 -134.5t141 -51.5q64 0 102.5 25t38.5 75q0 52 -38 82t-146 62q-226 69 -316 162t-90 245
q0 101 37 175.5t101 116t138.5 60.5t161.5 19q436 0 473 -311l-307 -82q-7 69 -53 103t-107 34q-52 0 -85 -22t-33 -70q0 -51 42.5 -81t145.5 -59q109 -33 178.5 -66t121 -80t73.5 -109.5t22 -149.5q0 -88 -30.5 -155.5t-86.5 -109t-127 -65t-159 -30.5l-4 -52
q180 -9 180 -166z" />
    <glyph glyph-name="scedilla" unicode="&#x15f;" horiz-adv-x="927" 
d="M684 -238q0 -94 -68.5 -144t-175.5 -50q-74 0 -134.5 20.5t-90.5 53.5l53 137q64 -70 135 -70q58 0 58 49q0 64 -96 78l16 141q-153 9 -238.5 67t-111.5 177l245 105q16 -71 63.5 -104.5t113.5 -33.5q51 0 80.5 17t29.5 49q0 34 -26 52t-86 32l-140 33q-243 64 -243 284
q0 71 22.5 126.5t59 90.5t89 57t107.5 31t119 9q178 0 277 -67t108 -204l-283 -41q-7 50 -34.5 69t-81.5 19q-38 0 -62 -16t-24 -45q0 -57 79 -72l136 -26q286 -58 286 -312q0 -142 -96.5 -214.5t-261.5 -82.5l-4 -49q180 -9 180 -166z" />
    <glyph glyph-name="Scaron" unicode="&#x160;" horiz-adv-x="1081" 
d="M41 264l278 133q17 -83 77 -134.5t141 -51.5q64 0 102.5 25t38.5 75q0 52 -38 82t-146 62q-226 69 -316 162t-90 245q0 101 37 175.5t101 116t138.5 60.5t161.5 19q436 0 473 -311l-307 -82q-7 69 -53 103t-107 34q-52 0 -85 -22t-33 -70q0 -51 42.5 -81t145.5 -59
q109 -33 178.5 -66t121 -80t73.5 -109.5t22 -149.5q0 -79 -25 -141.5t-68.5 -104t-106 -68.5t-133 -39t-152.5 -12q-186 0 -303.5 67t-167.5 222zM643 1321h-194l-283 307h274l62 -61q16 -16 25.5 -31t11.5 -22l2 -7h10q4 25 39 60l61 61h275z" />
    <glyph glyph-name="scaron" unicode="&#x161;" horiz-adv-x="927" 
d="M31 221l245 105q16 -71 63.5 -104.5t113.5 -33.5q51 0 80.5 17t29.5 49q0 34 -26 52t-86 32l-140 33q-243 64 -243 284q0 71 22.5 126.5t59 90.5t89 57t107.5 31t119 9q178 0 277 -67t108 -204l-283 -41q-7 50 -34.5 69t-81.5 19q-38 0 -62 -16t-24 -45q0 -57 79 -72
l136 -26q286 -58 286 -312q0 -79 -31 -137.5t-87.5 -93t-130.5 -51.5t-166 -17q-186 0 -289 57.5t-131 188.5zM559 1069h-194l-283 334h274l62 -66q17 -18 27 -34t11 -23l1 -6h10q0 22 39 63l61 66h275z" />
    <glyph glyph-name="Tcommaaccent" unicode="&#x162;" horiz-adv-x="995" 
d="M647 0h-305v940h-322v266h955v-266h-328v-940zM651 -287q0 -241 -309 -241v98q72 2 106.5 19t34.5 57q-63 -10 -109 20.5t-46 97.5q0 69 43 105.5t108 36.5q77 0 124.5 -53.5t47.5 -139.5z" />
    <glyph glyph-name="tcommaaccent" unicode="&#x163;" horiz-adv-x="823" 
d="M741 295l52 -256q-128 -64 -312 -64q-152 0 -237.5 76.5t-85.5 241.5v420h-138v233h140v201l303 35v-236h280v-233h-282v-351q0 -71 27 -100t85 -29q81 0 168 62zM588 -287q0 -241 -309 -241v98q72 2 106.5 19t34.5 57q-63 -10 -109.5 20.5t-46.5 97.5q0 69 43.5 105.5
t108.5 36.5q77 0 124.5 -53.5t47.5 -139.5z" />
    <glyph glyph-name="Tcaron" unicode="&#x164;" horiz-adv-x="995" 
d="M647 0h-305v940h-322v266h955v-266h-328v-940zM596 1321h-195l-282 307h274l62 -61q16 -16 25.5 -31t11.5 -22l2 -7h10q4 25 39 60l61 61h275z" />
    <glyph glyph-name="tcaron" unicode="&#x165;" horiz-adv-x="823" 
d="M741 295l52 -256q-128 -64 -312 -64q-152 0 -237.5 76.5t-85.5 241.5v420h-138v233h140v201l303 35v-236h280v-233h-282v-351q0 -71 27 -100t85 -29q81 0 168 62zM893 1466l-121 -407h-217l31 407h307z" />
    <glyph glyph-name="Tbar" unicode="&#x166;" horiz-adv-x="995" 
d="M647 0h-305v432h-199v246h199v262h-322v266h955v-266h-328v-262h207v-246h-207v-432z" />
    <glyph glyph-name="tbar" unicode="&#x167;" horiz-adv-x="823" 
d="M20 393v219h138v101h-138v233h140v201l303 35v-236h280v-233h-282v-101h282v-219h-282v-31q0 -71 27 -100t85 -29q81 0 168 62l52 -256q-128 -64 -312 -64q-152 0 -237.5 76.5t-85.5 241.5v100h-138z" />
    <glyph glyph-name="Utilde" unicode="&#x168;" horiz-adv-x="1263" 
d="M834 1206h307v-800q0 -119 -39.5 -205t-111 -134t-159.5 -70t-198 -22q-87 0 -160.5 13t-139.5 44.5t-111.5 80t-72 123t-26.5 170.5v800h307v-712q0 -65 7.5 -108t28 -81t62 -56t105.5 -18q51 0 87.5 13t58.5 34.5t34.5 57t16.5 73t4 89.5v708zM791 1325q-50 0 -80 9.5
t-74 35.5q-51 30 -73.5 40.5t-43.5 10.5q-33 0 -51.5 -25t-11.5 -75h-166q-32 61 -29 122.5t28 110t75.5 79t113.5 30.5q65 0 131 -39q7 -4 20 -11.5t18.5 -11t15.5 -9.5t15 -8t13.5 -6t13.5 -6t11.5 -4t12 -2.5t11.5 -0.5q69 0 54 92h172q38 -90 28.5 -163.5t-65 -121
t-139.5 -47.5z" />
    <glyph glyph-name="utilde" unicode="&#x169;" horiz-adv-x="1101" 
d="M717 0l-37 178q-23 -99 -93 -151t-200 -52q-133 0 -209 74t-76 230v667h304v-575q0 -166 116 -166q72 0 113 60.5t41 189.5v491h303v-946h-262zM700 1063q-50 0 -79.5 9.5t-73.5 35.5q-51 30 -73.5 40.5t-43.5 10.5q-33 0 -51.5 -25t-11.5 -75h-166q-32 61 -29 122.5
t28 110t75.5 79t113.5 30.5q65 0 131 -39q7 -4 20 -11.5t18.5 -11t15.5 -9.5t15 -8t13.5 -6t13.5 -6t11.5 -4t12 -2.5t11.5 -0.5q69 0 54 92h172q38 -90 28.5 -163.5t-65.5 -121t-140 -47.5z" />
    <glyph glyph-name="Umacron" unicode="&#x16a;" horiz-adv-x="1263" 
d="M834 1206h307v-800q0 -119 -39.5 -205t-111 -134t-159.5 -70t-198 -22q-87 0 -160.5 13t-139.5 44.5t-111.5 80t-72 123t-26.5 170.5v800h307v-712q0 -65 7.5 -108t28 -81t62 -56t105.5 -18q51 0 87.5 13t58.5 34.5t34.5 57t16.5 73t4 89.5v708zM952 1354h-643v245h643
v-245z" />
    <glyph glyph-name="umacron" unicode="&#x16b;" horiz-adv-x="1101" 
d="M717 0l-37 178q-23 -99 -93 -151t-200 -52q-133 0 -209 74t-76 230v667h304v-575q0 -166 116 -166q72 0 113 60.5t41 189.5v491h303v-946h-262zM854 1092h-625v245h625v-245z" />
    <glyph glyph-name="Ubreve" unicode="&#x16c;" horiz-adv-x="1263" 
d="M834 1206h307v-800q0 -119 -39.5 -205t-111 -134t-159.5 -70t-198 -22q-87 0 -160.5 13t-139.5 44.5t-111.5 80t-72 123t-26.5 170.5v800h307v-712q0 -65 7.5 -108t28 -81t62 -56t105.5 -18q51 0 87.5 13t58.5 34.5t34.5 57t16.5 73t4 89.5v708zM631 1311q-164 0 -241 83
t-77 232h224q0 -55 20.5 -79.5t73.5 -24.5t73.5 24.5t20.5 79.5h223q0 -149 -76.5 -232t-240.5 -83z" />
    <glyph glyph-name="ubreve" unicode="&#x16d;" horiz-adv-x="1101" 
d="M717 0l-37 178q-23 -99 -93 -151t-200 -52q-133 0 -209 74t-76 230v667h304v-575q0 -166 116 -166q72 0 113 60.5t41 189.5v491h303v-946h-262zM541 1061q-161 0 -239.5 93.5t-78.5 240.5h223q0 -62 19 -90.5t76 -28.5t75.5 28.5t18.5 90.5h223q0 -70 -18 -129t-55 -106
t-99 -73t-145 -26z" />
    <glyph glyph-name="Uring" unicode="&#x16e;" horiz-adv-x="1263" 
d="M834 1206h307v-800q0 -119 -39.5 -205t-111 -134t-159.5 -70t-198 -22q-87 0 -160.5 13t-139.5 44.5t-111.5 80t-72 123t-26.5 170.5v800h307v-712q0 -65 7.5 -108t28 -81t62 -56t105.5 -18q51 0 87.5 13t58.5 34.5t34.5 57t16.5 73t4 89.5v708zM643 1286
q-114 0 -179 67.5t-65 170.5q0 95 68 162t176 67t176 -67t68 -162q0 -103 -65 -170.5t-179 -67.5zM643 1618q-45 0 -70.5 -26.5t-25.5 -69.5q0 -39 25.5 -67t70.5 -28t70.5 28t25.5 67q0 43 -25.5 69.5t-70.5 26.5z" />
    <glyph glyph-name="uring" unicode="&#x16f;" horiz-adv-x="1101" 
d="M717 0l-37 178q-23 -99 -93 -151t-200 -52q-133 0 -209 74t-76 230v667h304v-575q0 -166 116 -166q72 0 113 60.5t41 189.5v491h303v-946h-262zM541 1028q-114 0 -179 67.5t-65 170.5q0 95 68 162t176 67q107 0 175 -67t68 -162q0 -103 -64.5 -170.5t-178.5 -67.5z
M541 1360q-45 0 -71 -26.5t-26 -69.5q0 -39 26 -67t71 -28t70.5 28t25.5 67q0 43 -25.5 69.5t-70.5 26.5z" />
    <glyph glyph-name="Uhungarumlaut" unicode="&#x170;" horiz-adv-x="1263" 
d="M834 1206h307v-800q0 -119 -39.5 -205t-111 -134t-159.5 -70t-198 -22q-87 0 -160.5 13t-139.5 44.5t-111.5 80t-72 123t-26.5 170.5v800h307v-712q0 -65 7.5 -108t28 -81t62 -56t105.5 -18q51 0 87.5 13t58.5 34.5t34.5 57t16.5 73t4 89.5v708zM557 1321h-213l100 307
h312zM932 1321h-236l142 307h333z" />
    <glyph glyph-name="uhungarumlaut" unicode="&#x171;" horiz-adv-x="1101" 
d="M717 0l-37 178q-23 -99 -93 -151t-200 -52q-133 0 -209 74t-76 230v667h304v-575q0 -166 116 -166q72 0 113 60.5t41 189.5v491h303v-946h-262zM459 1075h-213l100 320h311zM834 1075h-236l141 320h334z" />
    <glyph glyph-name="Uogonek" unicode="&#x172;" horiz-adv-x="1263" 
d="M414 -197q0 111 71 185q-362 57 -362 418v800h307v-712q0 -65 7.5 -108t28 -81t62 -56t105.5 -18q51 0 87.5 13t58.5 34.5t34.5 57t16.5 73t4 89.5v708h307v-800q0 -105 -31 -184.5t-88.5 -129t-129.5 -76.5t-163 -36q-74 -31 -74 -117q0 -46 27.5 -72.5t71.5 -26.5
q72 0 131 52l59 -156q-92 -92 -260 -92q-52 0 -98 12.5t-85.5 38.5t-63 73.5t-23.5 110.5z" />
    <glyph glyph-name="uogonek" unicode="&#x173;" horiz-adv-x="1101" 
d="M559 -197q0 153 150 230l-29 145q-23 -99 -93 -151t-200 -52q-133 0 -209 74t-76 230v667h304v-575q0 -166 116 -166q72 0 113 60.5t41 189.5v491h303v-946q-86 -3 -132 -38t-46 -99q0 -46 27 -72.5t71 -26.5q72 0 131 52l60 -156q-92 -92 -261 -92q-52 0 -98 12.5
t-85.5 38.5t-63 73.5t-23.5 110.5z" />
    <glyph glyph-name="Wcircumflex" unicode="&#x174;" horiz-adv-x="1820" 
d="M1102 1206l135 -633q16 -75 29.5 -161.5t19.5 -135.5l6 -49h8q17 182 48 344l118 635h314l-250 -1206h-449l-123 557q-16 73 -27.5 159t-14.5 136l-3 49h-8q-10 -178 -49 -346l-131 -555h-434l-250 1206h326l125 -633q15 -75 27.5 -161.5t18.5 -135.5l5 -49h8
q18 180 51 344l129 635h371zM813 1628h195l282 -307h-274l-62 61q-16 16 -25.5 31t-11.5 22l-2 7h-10q-4 -25 -39 -60l-61 -61h-275z" />
    <glyph glyph-name="wcircumflex" unicode="&#x175;" horiz-adv-x="1511" 
d="M895 946l92 -336q24 -84 40 -180t20 -150l4 -53h8q10 189 53 379l78 340h301l-244 -946h-360l-80 301q-16 64 -28 140.5t-15 121.5l-4 45h-8q-10 -162 -45 -309l-70 -299h-358l-259 946h308l88 -340q22 -84 36.5 -179t18.5 -147l4 -53h8q11 193 56 383l82 336h274z
M659 1403h195l283 -334h-275l-61 66q-17 18 -27 34t-11 23l-1 6h-10q0 -22 -39 -63l-62 -66h-274z" />
    <glyph glyph-name="Ycircumflex" unicode="&#x176;" 
d="M371 1206l123 -256q36 -75 59.5 -144.5t28.5 -101.5l6 -32h8q1 13 5 36.5t27.5 96t59.5 145.5l125 256h324l-392 -823v-383h-307v383l-418 823h351zM481 1628h195l282 -307h-274l-61 61q-16 16 -25.5 31t-11.5 22l-2 7h-11q-3 -25 -38 -60l-62 -61h-274z" />
    <glyph glyph-name="ycircumflex" unicode="&#x177;" horiz-adv-x="1019" 
d="M332 946l110 -401q23 -82 38.5 -158.5t19.5 -112.5l4 -36h8q11 125 66 307l122 401h320l-383 -1032q-33 -88 -70.5 -149.5t-76 -98.5t-88.5 -57.5t-98.5 -27.5t-115.5 -7q-76 0 -178 23l47 270q53 -35 125 -35q63 0 103.5 26.5t64.5 88.5l-350 999h332zM414 1403h194
l283 -334h-275l-61 66q-17 18 -27 34t-11 23l-1 6h-10q0 -22 -39 -63l-61 -66h-275z" />
    <glyph glyph-name="Ydieresis" unicode="&#x178;" 
d="M371 1206l123 -256q36 -75 59.5 -144.5t28.5 -101.5l6 -32h8q1 13 5 36.5t27.5 96t59.5 145.5l125 256h324l-392 -823v-383h-307v383l-418 823h351zM176 1487q0 81 46 123.5t116 42.5q75 0 121.5 -42t46.5 -124q0 -79 -46.5 -121.5t-121.5 -42.5q-70 0 -116 43t-46 121z
M637 1487q0 81 46 123.5t116 42.5q75 0 121.5 -42t46.5 -124q0 -79 -46.5 -121.5t-121.5 -42.5q-70 0 -116 43t-46 121z" />
    <glyph glyph-name="Zacute" unicode="&#x179;" horiz-adv-x="1077" 
d="M993 989l-432 -575q-34 -44 -67 -81.5t-50 -52.5l-16 -16v-8q60 10 160 10h428v-266h-955v229l416 564q33 44 66 81.5t50 52.5l17 15v8q-59 -10 -159 -10h-379v266h921v-217zM657 1321h-278l133 307h377z" />
    <glyph glyph-name="zacute" unicode="&#x17a;" horiz-adv-x="897" 
d="M817 758l-285 -377q-34 -44 -67 -81.5t-49 -53.5l-17 -15v-8q60 10 160 10h277v-233h-775v186l271 375q33 44 66 81.5t50 53.5l17 15v8q-60 -10 -160 -10h-229v237h741v-188zM567 1075h-278l141 320h377z" />
    <glyph glyph-name="Zdotaccent" unicode="&#x17b;" horiz-adv-x="1077" 
d="M993 989l-432 -575q-34 -44 -67 -81.5t-50 -52.5l-16 -16v-8q60 10 160 10h428v-266h-955v229l416 564q33 44 66 81.5t50 52.5l17 15v8q-59 -10 -159 -10h-379v266h921v-217zM356 1501q0 83 51 126.5t130 43.5q83 0 134.5 -43.5t51.5 -126.5q0 -81 -51.5 -124.5
t-134.5 -43.5q-79 0 -130 44t-51 124z" />
    <glyph glyph-name="zdotaccent" unicode="&#x17c;" horiz-adv-x="897" 
d="M817 758l-285 -377q-34 -44 -67 -81.5t-49 -53.5l-17 -15v-8q60 10 160 10h277v-233h-775v186l271 375q33 44 66 81.5t50 53.5l17 15v8q-60 -10 -160 -10h-229v237h741v-188zM266 1219q0 82 51 126t129 44q85 0 136 -43.5t51 -126.5q0 -81 -51.5 -124.5t-135.5 -43.5
q-77 0 -128.5 44t-51.5 124z" />
    <glyph glyph-name="Zcaron" unicode="&#x17d;" horiz-adv-x="1077" 
d="M993 989l-432 -575q-34 -44 -67 -81.5t-50 -52.5l-16 -16v-8q60 10 160 10h428v-266h-955v229l416 564q33 44 66 81.5t50 52.5l17 15v8q-59 -10 -159 -10h-379v266h921v-217zM637 1321h-195l-282 307h274l62 -61q16 -16 25.5 -31t11.5 -22l2 -7h10q4 25 39 60l61 61h275z
" />
    <glyph glyph-name="zcaron" unicode="&#x17e;" horiz-adv-x="897" 
d="M817 758l-285 -377q-34 -44 -67 -81.5t-49 -53.5l-17 -15v-8q60 10 160 10h277v-233h-775v186l271 375q33 44 66 81.5t50 53.5l17 15v8q-60 -10 -160 -10h-229v237h741v-188zM565 1069h-194l-283 334h274l62 -66q17 -18 27 -34t11 -23l1 -6h10q0 22 39 63l61 66h275z" />
    <glyph glyph-name="Schwa" unicode="&#x18f;" horiz-adv-x="1226" 
d="M82 897q29 118 106.5 195t174.5 108t215 31q258 0 412.5 -159.5t154.5 -448.5q0 -313 -150 -480.5t-420 -167.5q-162 0 -274.5 69.5t-165.5 188t-53 275.5q0 118 24 188h719q-8 112 -74.5 185t-179.5 73q-74 0 -133 -41t-86 -118zM825 467h-430q-4 -12 -4 -39
q3 -86 54.5 -139t142.5 -53q110 0 168.5 65t68.5 166z" />
    <glyph glyph-name="florin" unicode="&#x192;" horiz-adv-x="1062" 
d="M61 -248l117 488h-137l39 225h141l37 180q15 77 49 139.5t79 104t101 69.5t114.5 40t121.5 12q85 0 171.5 -31.5t147.5 -106.5l-180 -229q-24 45 -65 73.5t-86 28.5q-57 0 -91.5 -32.5t-52.5 -98.5l-37 -149h242l-39 -225h-246l-118 -488h-308z" />
    <glyph glyph-name="Khook" unicode="&#x198;" horiz-adv-x="1220" 
d="M874 842l-90 -226l416 -616h-366l-308 461h-65v-461h-307v1206h307v-469h67l84 230q95 264 324 264q188 0 276 -170l-168 -211q-36 61 -83 61q-28 0 -49 -14t-38 -55z" />
    <glyph glyph-name="khook" unicode="&#x199;" horiz-adv-x="1097" 
d="M426 379v-379h-303v1018q0 90 27.5 159t75.5 110.5t110.5 65.5t134.5 27.5t145.5 -7t145.5 -34.5l-43 -274q-41 28 -82 44.5t-79.5 17t-68 -16t-47.5 -58.5t-18 -106v-334h57l217 334h349l-312 -440l342 -506h-350l-244 379h-57z" />
    <glyph glyph-name="Ezh" unicode="&#x1b7;" horiz-adv-x="1054" 
d="M313 561l156 232q31 45 64.5 82.5t50.5 52.5l18 14v8q-60 -10 -160 -10h-354v266h881v-217l-353 -461v-6q102 -7 178.5 -46t121.5 -100.5t66.5 -135t21.5 -158.5q0 -206 -130 -326.5t-364 -120.5q-221 0 -358 93t-172 272l258 141q19 -132 88 -201t176 -69
q100 0 151.5 52.5t51.5 148.5q0 55 -20.5 102.5t-65 87.5t-122.5 64t-184 28v207z" />
    <glyph glyph-name="Acaron" unicode="&#x1cd;" horiz-adv-x="1292" 
d="M942 0l-80 225h-444l-76 -225h-322l437 1206h374l441 -1206h-330zM537 575l-33 -94h268l-33 92q-32 89 -56 177.5t-32 131.5l-8 44h-8q-30 -154 -98 -351zM737 1321h-194l-283 307h275l61 -61q16 -16 25.5 -31t11.5 -22l2 -7h10q4 25 39 60l61 61h275z" />
    <glyph glyph-name="acaron" unicode="&#x1ce;" horiz-adv-x="1040" 
d="M580 301v82q-226 8 -226 -115q0 -36 24.5 -58t65.5 -22q54 0 95 27t41 86zM881 649v-342q0 -86 67 -86q24 0 62 17v-218q-56 -38 -172 -38q-186 0 -236 147q-31 -84 -99.5 -119t-174.5 -35q-127 0 -202 70.5t-75 192.5q0 161 133 239.5t396 63.5v80q0 120 -91 120
q-94 0 -100 -133l-305 58q10 147 122.5 225t291.5 78q190 0 286.5 -81.5t96.5 -238.5zM602 1069h-194l-283 334h274l62 -66q17 -18 27 -34t11 -23l1 -6h10q0 22 39 63l61 66h275z" />
    <glyph glyph-name="Icaron" unicode="&#x1cf;" horiz-adv-x="614" 
d="M154 1206h307v-1206h-307v1206zM406 1321h-195l-283 307h275l61 -61q16 -16 25.5 -31t11.5 -22l2 -7h10q4 25 39 60l62 61h274z" />
    <glyph glyph-name="icaron" unicode="&#x1d0;" horiz-adv-x="548" 
d="M373 1069h-195l-282 334h274l61 -66q17 -18 27 -34t11 -23l1 -6h11q-1 22 38 63l62 66h274zM123 946h303v-946h-303v946z" />
    <glyph glyph-name="Ocaron" unicode="&#x1d1;" horiz-adv-x="1327" 
d="M664 -25q-275 0 -428.5 163.5t-153.5 463.5q0 302 153 465.5t429 163.5t428.5 -163t152.5 -466q0 -301 -153 -464t-428 -163zM664 956q-130 0 -196.5 -94.5t-66.5 -263.5q0 -170 66 -263t197 -93t196.5 93t65.5 263q0 169 -66.5 263.5t-195.5 94.5zM762 1321h-195
l-282 307h274l62 -61q16 -16 25.5 -31t11.5 -22l1 -7h11q4 25 39 60l61 61h274z" />
    <glyph glyph-name="ocaron" unicode="&#x1d2;" horiz-adv-x="1056" 
d="M528 -25q-214 0 -340.5 132t-126.5 368q0 237 126 365.5t341 128.5t341 -128.5t126 -365.5q0 -236 -126.5 -368t-340.5 -132zM528 727q-168 0 -168 -254q0 -136 40.5 -199t127.5 -63t127.5 63t40.5 199q0 254 -168 254zM627 1069h-195l-282 334h274l61 -66q17 -18 27 -34
t11 -23l1 -6h11q-1 22 38 63l62 66h274z" />
    <glyph glyph-name="Ucaron" unicode="&#x1d3;" horiz-adv-x="1263" 
d="M834 1206h307v-800q0 -119 -39.5 -205t-111 -134t-159.5 -70t-198 -22q-87 0 -160.5 13t-139.5 44.5t-111.5 80t-72 123t-26.5 170.5v800h307v-712q0 -65 7.5 -108t28 -81t62 -56t105.5 -18q51 0 87.5 13t58.5 34.5t34.5 57t16.5 73t4 89.5v708zM729 1321h-194l-283 307
h274l62 -61q16 -16 25.5 -31t11.5 -22l2 -7h10q4 25 39 60l61 61h275z" />
    <glyph glyph-name="ucaron" unicode="&#x1d4;" horiz-adv-x="1101" 
d="M717 0l-37 178q-23 -99 -93 -151t-200 -52q-133 0 -209 74t-76 230v667h304v-575q0 -166 116 -166q72 0 113 60.5t41 189.5v491h303v-946h-262zM639 1069h-195l-282 334h274l62 -66q17 -18 27 -34t11 -23l1 -6h10q0 22 39 63l61 66h275z" />
    <glyph glyph-name="uni01D9" unicode="&#x1d9;" horiz-adv-x="1263" 
d="M834 1206h307v-800q0 -119 -39.5 -205t-111 -134t-159.5 -70t-198 -22q-87 0 -160.5 13t-139.5 44.5t-111.5 80t-72 123t-26.5 170.5v800h307v-712q0 -65 7.5 -108t28 -81t62 -56t105.5 -18q51 0 87.5 13t58.5 34.5t34.5 57t16.5 73t4 89.5v708zM229 1425q0 81 46 123.5
t116 42.5q75 0 121.5 -42t46.5 -124q0 -79 -46.5 -121t-121.5 -42q-70 0 -116 42.5t-46 120.5zM690 1425q0 81 46 123.5t116 42.5q75 0 121.5 -42t46.5 -124q0 -79 -46.5 -121t-121.5 -42q-70 0 -116 42.5t-46 120.5zM723 1599h-195l-282 308h274l62 -62q16 -16 25.5 -30.5
t11.5 -21.5l2 -7h10q4 24 39 59l61 62h275z" />
    <glyph glyph-name="uni01DA" unicode="&#x1da;" horiz-adv-x="1101" 
d="M717 0l-37 178q-23 -99 -93 -151t-200 -52q-133 0 -209 74t-76 230v667h304v-575q0 -166 116 -166q72 0 113 60.5t41 189.5v491h303v-946h-262zM139 1161q0 81 46 123.5t116 42.5q75 0 121.5 -42t46.5 -124q0 -79 -46.5 -121.5t-121.5 -42.5q-70 0 -116 43t-46 121z
M600 1161q0 81 46 123.5t116 42.5q75 0 121.5 -42t46.5 -124q0 -79 -46.5 -121.5t-121.5 -42.5q-70 0 -116 43t-46 121zM633 1335h-195l-282 307h274l62 -61q16 -16 25.5 -30.5t10.5 -21.5l2 -7h11q4 24 39 59l61 61h274z" />
    <glyph glyph-name="uni004100A800AF" unicode="&#x1de;" horiz-adv-x="1292" 
d="M942 0l-80 225h-444l-76 -225h-322l437 1206h374l441 -1206h-330zM537 575l-33 -94h268l-33 92q-32 89 -56 177.5t-32 131.5l-8 44h-8q-30 -154 -98 -351zM961 1720h-644v246h644v-246zM244 1458q0 81 46 123.5t116 42.5q75 0 121 -42t46 -124q0 -79 -46 -121.5
t-121 -42.5q-70 0 -116 43t-46 121zM705 1458q0 81 45.5 123.5t115.5 42.5q75 0 121.5 -42t46.5 -124q0 -79 -46.5 -121.5t-121.5 -42.5q-70 0 -115.5 43t-45.5 121z" />
    <glyph glyph-name="adieresismacron" unicode="&#x1df;" horiz-adv-x="1040" 
d="M580 301v82q-226 8 -226 -115q0 -36 24.5 -58t65.5 -22q54 0 95 27t41 86zM881 649v-342q0 -86 67 -86q24 0 62 17v-218q-56 -38 -172 -38q-186 0 -236 147q-31 -84 -99.5 -119t-174.5 -35q-127 0 -202 70.5t-75 192.5q0 161 133 239.5t396 63.5v80q0 120 -91 120
q-94 0 -100 -133l-305 58q10 147 122.5 225t291.5 78q190 0 286.5 -81.5t96.5 -238.5zM817 1438h-624v245h624v-245zM102 1186q0 81 46 123.5t116 42.5q75 0 121.5 -42t46.5 -124q0 -79 -46.5 -121.5t-121.5 -42.5q-70 0 -116 43t-46 121zM563 1186q0 81 46 123.5t116 42.5
q75 0 121.5 -42t46.5 -124q0 -79 -46.5 -121.5t-121.5 -42.5q-70 0 -116 43t-46 121z" />
    <glyph glyph-name="AEmacron" unicode="&#x1e2;" horiz-adv-x="1824" 
d="M1722 0h-831v225h-410l-141 -225h-340l713 1206h1009v-266h-524v-201h461v-256h-461v-217h524v-266zM895 983l-281 -502h277v166q0 94 3 178t6 121l3 37h-8zM1485 1354h-643v245h643v-245z" />
    <glyph glyph-name="aemacron" unicode="&#x1e3;" horiz-adv-x="1521" 
d="M1051 221q100 0 151 111l258 -96q-25 -91 -89.5 -151.5t-145 -85t-178.5 -24.5q-226 0 -353 142q-44 -67 -130.5 -104.5t-207.5 -37.5q-141 0 -223 69t-82 194q0 154 133 240t400 87q8 53 14 74q-6 49 -33.5 75.5t-70.5 26.5q-95 0 -101 -133l-305 58q10 146 125 224.5
t295 78.5q160 0 262 -76q115 76 279 76q100 0 179 -33.5t128 -92t74.5 -133t25.5 -159.5q0 -81 -12 -145h-557q0 -81 41 -133t123 -52zM889 565h272q2 10 2 45q0 61 -30 98t-89 37q-69 0 -110.5 -54t-44.5 -126zM465 195q43 0 83 23t54 63q-19 62 -22 125
q-104 -3 -154.5 -36t-50.5 -87q0 -43 23.5 -65.5t66.5 -22.5zM1061 1092h-625v245h625v-245z" />
    <glyph glyph-name="Gstroke" unicode="&#x1e4;" horiz-adv-x="1363" 
d="M655 692h533v-239h115v-154h-115v-299h-180l-52 129q-96 -154 -331 -154q-119 0 -217 37.5t-171.5 112t-114 195.5t-40.5 278q0 302 156.5 467.5t441.5 165.5q184 0 313.5 -81.5t190.5 -229.5l-299 -146q-52 184 -213 184q-34 0 -68 -8.5t-72.5 -33.5t-67.5 -64t-48 -106
t-19 -154q0 -78 14.5 -143t46.5 -119t88.5 -84.5t133.5 -30.5q155 0 215 84h-240v154h240v77h-240v162z" />
    <glyph glyph-name="gstroke" unicode="&#x1e5;" horiz-adv-x="1198" 
d="M573 969q158 0 269 -54q28 32 39.5 56.5t29.5 87.5l236 -78q-7 -64 -59 -111.5t-117 -68.5q41 -68 41 -166q0 -105 -60.5 -180t-160 -110.5t-228.5 -35.5q-75 0 -112 13q-37 -23 -37 -72q0 -21 17 -35t48 -14h283q157 0 247.5 -80t90.5 -205q0 -6 -1 -19.5t-1 -19.5h100
v-72h-117q-25 -66 -79.5 -114t-130.5 -74t-158 -37.5t-176 -11.5q-95 0 -172.5 12t-142 37.5t-100.5 72.5t-36 111v4h-86v72h100q48 95 238 107q-71 4 -115.5 55.5t-44.5 118.5q0 61 42 116t122 78q-102 40 -151.5 105.5t-49.5 177.5q0 163 116.5 248.5t315.5 85.5zM451 635
q0 -59 30 -94t92 -35t94.5 34t32.5 95q0 129 -127 129q-122 0 -122 -129zM473 -66q-44 0 -75 -14.5t-38 -42.5h469q-4 33 -28.5 45t-73.5 12h-254zM580 -250q189 0 235 55h-436q46 -55 201 -55z" />
    <glyph glyph-name="Gcaron" unicode="&#x1e6;" horiz-adv-x="1300" 
d="M655 651h533v-651h-180l-52 129q-96 -154 -331 -154q-119 0 -217 37.5t-171.5 112t-114 195.5t-40.5 278q0 302 156.5 467.5t441.5 165.5q184 0 313.5 -81.5t190.5 -229.5l-299 -146q-52 184 -213 184q-34 0 -68 -8.5t-72.5 -33.5t-67.5 -64t-48 -106t-19 -154
q0 -78 14.5 -141.5t46.5 -115.5t88.5 -81t133.5 -29q113 0 164 45.5t51 114.5v25h-240v241zM782 1321h-194l-283 307h275l61 -61q16 -16 25.5 -31t11.5 -22l2 -7h10q4 25 39 60l62 61h274z" />
    <glyph glyph-name="gcaron" unicode="&#x1e7;" horiz-adv-x="1040" 
d="M498 969q157 0 268 -54q28 33 40 58t30 86l235 -78q-7 -64 -59 -111.5t-117 -68.5q41 -68 41 -166q0 -105 -60.5 -180t-160 -110.5t-228.5 -35.5q-75 0 -112 13q-37 -23 -37 -72q0 -21 17 -35t48 -14h283q157 0 247.5 -80t90.5 -205q0 -80 -32.5 -142t-85 -100
t-127.5 -62.5t-152 -34t-166 -9.5q-95 0 -172.5 12t-142 37.5t-100.5 72.5t-36 111q0 83 61 128.5t191 54.5q-71 4 -115.5 55.5t-44.5 118.5q0 61 42 116t122 78q-102 40 -151 105.5t-49 177.5q0 163 116.5 248.5t315.5 85.5zM287 -135q0 -96 211 -96q93 0 147 11t74 31
t20 52q0 37 -23 50t-77 13h-244q-47 0 -77.5 -16t-30.5 -45zM375 635q0 -59 30.5 -94t92.5 -35t94.5 34t32.5 95q0 129 -127 129q-123 0 -123 -129zM606 1069h-194l-283 334h274l62 -66q17 -18 27 -34t11 -23l1 -6h10q0 22 39 63l61 66h275z" />
    <glyph glyph-name="Kcaron" unicode="&#x1e8;" horiz-adv-x="1220" 
d="M1200 0h-366l-308 479h-65v-479h-307v1206h307v-461h67l281 461h352l-368 -583zM700 1321h-194l-283 307h275l61 -61q16 -16 25.5 -31t11.5 -22l2 -7h10q4 25 39 60l62 61h274z" />
    <glyph glyph-name="kcaron" unicode="&#x1e9;" horiz-adv-x="1097" 
d="M735 506l342 -506h-350l-244 379h-57v-379h-303v1368h303v-756h55l217 334h349zM377 1456h-195l-282 307h274l62 -61q16 -16 25.5 -31t10.5 -22l2 -7h11q4 25 39 60l61 61h274z" />
    <glyph glyph-name="Oogonek" unicode="&#x1ea;" horiz-adv-x="1327" 
d="M434 -197q0 113 76 189q-204 40 -316 197t-112 413q0 302 153 465.5t429 163.5t428.5 -163t152.5 -466q0 -276 -130 -436.5t-365 -183.5q-74 -36 -74 -119q0 -46 27 -72.5t71 -26.5q72 0 131 52l60 -156q-92 -92 -260 -92q-52 0 -98 12.5t-86 38.5t-63.5 73.5
t-23.5 110.5zM664 956q-130 0 -196.5 -94.5t-66.5 -263.5q0 -170 66 -263t197 -93t196.5 93t65.5 263q0 169 -66.5 263.5t-195.5 94.5z" />
    <glyph glyph-name="oogonek" unicode="&#x1eb;" horiz-adv-x="1056" 
d="M274 -197q0 118 86 197q-141 45 -220 167t-79 308q0 237 126 365.5t341 128.5t341 -128.5t126 -365.5q0 -219 -110 -348t-299 -147q-70 -37 -70 -117q0 -46 27 -72.5t71 -26.5q72 0 131 52l60 -156q-92 -92 -260 -92q-52 0 -98 12.5t-86 38.5t-63.5 73.5t-23.5 110.5z
M528 727q-168 0 -168 -254q0 -136 40.5 -199t127.5 -63t127.5 63t40.5 199q0 254 -168 254z" />
    <glyph glyph-name="uni004F02DB00AF" unicode="&#x1ec;" horiz-adv-x="1327" 
d="M985 1354h-643v245h643v-245zM434 -197q0 113 76 189q-204 40 -316 197t-112 413q0 302 153 465.5t429 163.5t428.5 -163t152.5 -466q0 -276 -130 -436.5t-365 -183.5q-74 -36 -74 -119q0 -46 27 -72.5t71 -26.5q72 0 131 52l60 -156q-92 -92 -260 -92q-52 0 -98 12.5
t-86 38.5t-63.5 73.5t-23.5 110.5zM664 956q-130 0 -196.5 -94.5t-66.5 -263.5q0 -170 66 -263t197 -93t196.5 93t65.5 263q0 169 -66.5 263.5t-195.5 94.5z" />
    <glyph glyph-name="oogonekmacron" unicode="&#x1ed;" horiz-adv-x="1056" 
d="M842 1092h-625v245h625v-245zM274 -197q0 118 86 197q-141 45 -220 167t-79 308q0 237 126 365.5t341 128.5t341 -128.5t126 -365.5q0 -219 -110 -348t-299 -147q-70 -37 -70 -117q0 -46 27 -72.5t71 -26.5q72 0 131 52l60 -156q-92 -92 -260 -92q-52 0 -98 12.5
t-86 38.5t-63.5 73.5t-23.5 110.5zM528 727q-168 0 -168 -254q0 -136 40.5 -199t127.5 -63t127.5 63t40.5 199q0 254 -168 254z" />
    <glyph glyph-name="Ezhcaron" unicode="&#x1ee;" horiz-adv-x="1054" 
d="M313 561l156 232q31 45 64.5 82.5t50.5 52.5l18 14v8q-60 -10 -160 -10h-354v266h881v-217l-353 -461v-6q102 -7 178.5 -46t121.5 -100.5t66.5 -135t21.5 -158.5q0 -206 -130 -326.5t-364 -120.5q-221 0 -358 93t-172 272l258 141q19 -132 88 -201t176 -69
q100 0 151.5 52.5t51.5 148.5q0 55 -20.5 102.5t-65 87.5t-122.5 64t-184 28v207zM651 1321h-194l-283 307h275l61 -61q16 -16 25.5 -31t11.5 -22l2 -7h10q4 25 39 60l61 61h275z" />
    <glyph glyph-name="ezhcaron" unicode="&#x1ef;" horiz-adv-x="901" 
d="M244 465l69 96q33 44 66 81.5t50 53.5l17 15v8q-59 -10 -159 -10h-230v237h744v-188l-285 -334v-6q158 -15 241 -114t83 -251q0 -175 -118 -270.5t-335 -95.5q-169 0 -279 73.5t-139 212.5l283 113q4 -80 49.5 -121t114.5 -41q57 0 92 34t35 87q0 30 -5 55.5t-23.5 56.5
t-50 54t-88 43t-132.5 29v182zM547 1069h-195l-282 334h274l62 -66q17 -18 26.5 -34t10.5 -23l1 -6h11q0 22 39 63l61 66h274z" />
    <glyph glyph-name="jcaron" unicode="&#x1f0;" horiz-adv-x="546" 
d="M365 1069h-195l-283 334h275l61 -66q17 -18 27 -34t11 -23l1 -6h10q0 22 39 63l62 66h274zM123 946h301v-928q0 -228 -155.5 -339.5t-411.5 -92.5v256q86 -13 145.5 -1.5t90 69t30.5 168.5v868z" />
    <glyph glyph-name="jcaron" unicode="&#xe10c;" horiz-adv-x="546" 
d="M365 1069h-195l-283 334h275l61 -66q17 -18 27 -34t11 -23l1 -6h10q0 22 39 63l62 66h274zM123 946h301v-928q0 -228 -155.5 -339.5t-411.5 -92.5v256q86 -13 145.5 -1.5t90 69t30.5 168.5v868z" />
    <glyph glyph-name="Gacute" unicode="&#x1f4;" horiz-adv-x="1300" 
d="M655 651h533v-651h-180l-52 129q-96 -154 -331 -154q-119 0 -217 37.5t-171.5 112t-114 195.5t-40.5 278q0 302 156.5 467.5t441.5 165.5q184 0 313.5 -81.5t190.5 -229.5l-299 -146q-52 184 -213 184q-34 0 -68 -8.5t-72.5 -33.5t-67.5 -64t-48 -106t-19 -154
q0 -78 14.5 -141.5t46.5 -115.5t88.5 -81t133.5 -29q113 0 164 45.5t51 114.5v25h-240v241zM803 1321h-279l133 307h377z" />
    <glyph glyph-name="gacute" unicode="&#x1f5;" horiz-adv-x="1040" 
d="M498 969q157 0 268 -54q28 33 40 58t30 86l235 -78q-7 -64 -59 -111.5t-117 -68.5q41 -68 41 -166q0 -105 -60.5 -180t-160 -110.5t-228.5 -35.5q-75 0 -112 13q-37 -23 -37 -72q0 -21 17 -35t48 -14h283q157 0 247.5 -80t90.5 -205q0 -80 -32.5 -142t-85 -100
t-127.5 -62.5t-152 -34t-166 -9.5q-95 0 -172.5 12t-142 37.5t-100.5 72.5t-36 111q0 83 61 128.5t191 54.5q-71 4 -115.5 55.5t-44.5 118.5q0 61 42 116t122 78q-102 40 -151 105.5t-49 177.5q0 163 116.5 248.5t315.5 85.5zM287 -135q0 -96 211 -96q93 0 147 11t74 31
t20 52q0 37 -23 50t-77 13h-244q-47 0 -77.5 -16t-30.5 -45zM375 635q0 -59 30.5 -94t92.5 -35t94.5 34t32.5 95q0 129 -127 129q-123 0 -123 -129zM659 1075h-278l141 320h377z" />
    <glyph glyph-name="Ngrave" unicode="&#x1f8;" horiz-adv-x="1400" 
d="M438 1206l410 -547q29 -39 51.5 -74.5t30.5 -50.5l8 -16h8q-6 94 -6 248v440h307v-1206h-274l-410 535q-35 44 -61.5 84.5t-35.5 58.5l-9 18h-8q12 -90 12 -268v-428h-307v1206h284zM858 1321h-278l-232 307h377z" />
    <glyph glyph-name="ngrave" unicode="&#x1f9;" horiz-adv-x="1112" 
d="M385 946l37 -182q74 205 303 205q116 0 195 -75t79 -226v-668h-303v549q0 83 -24 124.5t-90 41.5q-67 0 -111.5 -47t-44.5 -156v-512h-303v946h262zM719 1075h-279l-239 320h377z" />
    <glyph glyph-name="uni004102DA00B4" unicode="&#x1fa;" horiz-adv-x="1292" 
d="M942 0l-80 225h-444l-76 -225h-322l437 1206h374l441 -1206h-330zM537 575l-33 -94h268l-33 92q-32 89 -56 177.5t-32 131.5l-8 44h-8q-30 -154 -98 -351zM639 1266q-115 0 -179.5 67.5t-64.5 169.5q0 95 68.5 162.5t175.5 67.5t175.5 -67.5t68.5 -162.5
q0 -102 -64.5 -169.5t-179.5 -67.5zM639 1597q-45 0 -70.5 -26.5t-25.5 -69.5q0 -39 25.5 -66.5t70.5 -27.5t70.5 27.5t25.5 66.5q0 43 -25.5 69.5t-70.5 26.5zM780 1800h-278l133 307h377z" />
    <glyph glyph-name="aringacute" unicode="&#x1fb;" horiz-adv-x="1040" 
d="M580 301v82q-226 8 -226 -115q0 -36 24.5 -58t65.5 -22q54 0 95 27t41 86zM881 649v-342q0 -86 67 -86q24 0 62 17v-218q-56 -38 -172 -38q-186 0 -236 147q-31 -84 -99.5 -119t-174.5 -35q-127 0 -202 70.5t-75 192.5q0 161 133 239.5t396 63.5v80q0 120 -91 120
q-94 0 -100 -133l-305 58q10 147 122.5 225t291.5 78q190 0 286.5 -81.5t96.5 -238.5zM504 1022q-114 0 -179 67.5t-65 170.5q0 95 68 162t176 67t176 -67t68 -162q0 -103 -65 -170.5t-179 -67.5zM504 1354q-45 0 -70.5 -26.5t-25.5 -70.5q0 -39 25.5 -66.5t70.5 -27.5
t70.5 27.5t25.5 66.5q0 44 -25.5 70.5t-70.5 26.5zM623 1548h-279l133 307h377z" />
    <glyph glyph-name="AEacute" unicode="&#x1fc;" horiz-adv-x="1824" 
d="M1722 0h-831v225h-410l-141 -225h-340l713 1206h1009v-266h-524v-201h461v-256h-461v-217h524v-266zM895 983l-281 -502h277v166q0 94 3 178t6 121l3 37h-8zM1282 1321h-278l133 307h376z" />
    <glyph glyph-name="aeacute" unicode="&#x1fd;" horiz-adv-x="1521" 
d="M1051 221q100 0 151 111l258 -96q-25 -91 -89.5 -151.5t-145 -85t-178.5 -24.5q-226 0 -353 142q-44 -67 -130.5 -104.5t-207.5 -37.5q-141 0 -223 69t-82 194q0 154 133 240t400 87q8 53 14 74q-6 49 -33.5 75.5t-70.5 26.5q-95 0 -101 -133l-305 58q10 146 125 224.5
t295 78.5q160 0 262 -76q115 76 279 76q100 0 179 -33.5t128 -92t74.5 -133t25.5 -159.5q0 -81 -12 -145h-557q0 -81 41 -133t123 -52zM889 565h272q2 10 2 45q0 61 -30 98t-89 37q-69 0 -110.5 -54t-44.5 -126zM465 195q43 0 83 23t54 63q-19 62 -22 125
q-104 -3 -154.5 -36t-50.5 -87q0 -43 23.5 -65.5t66.5 -22.5zM866 1075h-278l141 320h377z" />
    <glyph glyph-name="Oslashacute" unicode="&#x1fe;" horiz-adv-x="1327" 
d="M197 -25l-97 82l105 117q-123 160 -123 428q0 302 153 465.5t429 163.5q225 0 372 -113l92 105l101 -82l-103 -117q119 -163 119 -422q0 -301 -153 -464t-428 -163q-226 0 -371 109zM926 598q0 97 -25 174l-412 -465q65 -65 175 -65q131 0 196.5 93t65.5 263zM664 956
q-130 0 -196.5 -94.5t-66.5 -263.5q0 -104 23 -174l412 465q-67 67 -172 67zM782 1321h-278l133 307h377z" />
    <glyph glyph-name="oslashacute" unicode="&#x1ff;" horiz-adv-x="1056" 
d="M152 -31l-91 86l91 97q-91 131 -91 323q0 237 126 365.5t341 128.5q178 0 297 -90l86 92l97 -84l-97 -103q84 -124 84 -309q0 -236 -126.5 -368t-340.5 -132q-172 0 -290 86zM649 1075h-278l141 320h377zM528 727q-168 0 -168 -254q0 -56 5 -90l276 297q-41 47 -113 47z
M696 473q0 30 -4 76l-276 -295q40 -43 112 -43q87 0 127.5 63t40.5 199z" />
    <glyph glyph-name="Adoublegrave" unicode="&#x200;" horiz-adv-x="1292" 
d="M942 0l-80 225h-444l-76 -225h-322l437 1206h374l441 -1206h-330zM537 575l-33 -94h268l-33 92q-32 89 -56 177.5t-32 131.5l-8 44h-8q-30 -154 -98 -351zM940 1321h-213l-199 307h312zM588 1321h-236l-239 307h333z" />
    <glyph glyph-name="edoublegrave" unicode="&#x201;" horiz-adv-x="1005" 
d="M535 209q113 0 151 119l258 -92q-25 -91 -90 -151.5t-145.5 -85t-178.5 -24.5q-210 0 -339.5 129t-129.5 353q0 244 125 378t346 134q199 0 303.5 -116t104.5 -308q0 -59 -12 -123h-574q3 -100 49.5 -156.5t131.5 -56.5zM362 582h287q2 10 2 28q0 61 -32.5 98t-96.5 37
q-67 0 -110.5 -46t-49.5 -117zM825 1075h-213l-198 320h311zM473 1075h-235l-240 320h334z" />
    <glyph glyph-name="edoublegrave" unicode="&#x205;" horiz-adv-x="1005" 
d="M535 209q113 0 151 119l258 -92q-25 -91 -90 -151.5t-145.5 -85t-178.5 -24.5q-210 0 -339.5 129t-129.5 353q0 244 125 378t346 134q199 0 303.5 -116t104.5 -308q0 -59 -12 -123h-574q3 -100 49.5 -156.5t131.5 -56.5zM362 582h287q2 10 2 28q0 61 -32.5 98t-96.5 37
q-67 0 -110.5 -46t-49.5 -117zM825 1075h-213l-198 320h311zM473 1075h-235l-240 320h334z" />
    <glyph glyph-name="Ainvertedbreve" unicode="&#x202;" horiz-adv-x="1292" 
d="M942 0l-80 225h-444l-76 -225h-322l437 1206h374l441 -1206h-330zM537 575l-33 -94h268l-33 92q-32 89 -56 177.5t-32 131.5l-8 44h-8q-30 -154 -98 -351zM639 1642q164 0 240.5 -83t76.5 -232h-223q0 55 -20.5 80t-73.5 25t-73.5 -25t-20.5 -80h-223q0 149 76.5 232
t240.5 83z" />
    <glyph glyph-name="ainvertedbreve" unicode="&#x203;" horiz-adv-x="1040" 
d="M580 301v82q-226 8 -226 -115q0 -36 24.5 -58t65.5 -22q54 0 95 27t41 86zM881 649v-342q0 -86 67 -86q24 0 62 17v-218q-56 -38 -172 -38q-186 0 -236 147q-31 -84 -99.5 -119t-174.5 -35q-127 0 -202 70.5t-75 192.5q0 161 133 239.5t396 63.5v80q0 120 -91 120
q-94 0 -100 -133l-305 58q10 147 122.5 225t291.5 78q190 0 286.5 -81.5t96.5 -238.5zM492 1413q83 0 145 -26t99 -73t55 -106t18 -129h-223q0 62 -18.5 90.5t-75.5 28.5t-76 -28.5t-19 -90.5h-223q0 147 78.5 240.5t239.5 93.5z" />
    <glyph glyph-name="Edoublegrave" unicode="&#x204;" horiz-adv-x="1087" 
d="M985 266v-266h-831v1206h831v-266h-524v-201h461v-256h-461v-217h524zM864 1321h-213l-198 307h311zM512 1321h-236l-239 307h334z" />
    <glyph glyph-name="Einvertedbreve" unicode="&#x206;" horiz-adv-x="1087" 
d="M985 266v-266h-831v1206h831v-266h-524v-201h461v-256h-461v-217h524zM563 1642q164 0 241 -83t77 -232h-224q0 55 -20.5 80t-73.5 25t-73.5 -25t-20.5 -80h-223q0 149 76.5 232t240.5 83z" />
    <glyph glyph-name="einvertedbreve" unicode="&#x207;" horiz-adv-x="1005" 
d="M535 209q113 0 151 119l258 -92q-25 -91 -90 -151.5t-145.5 -85t-178.5 -24.5q-210 0 -339.5 129t-129.5 353q0 244 125 378t346 134q199 0 303.5 -116t104.5 -308q0 -59 -12 -123h-574q3 -100 49.5 -156.5t131.5 -56.5zM362 582h287q2 10 2 28q0 61 -32.5 98t-96.5 37
q-67 0 -110.5 -46t-49.5 -117zM524 1413q161 0 239.5 -93.5t78.5 -240.5h-224q0 62 -18.5 90.5t-75.5 28.5t-75.5 -28.5t-18.5 -90.5h-223q0 70 18 129t55 106t99 73t145 26z" />
    <glyph glyph-name="Idoublegrave" unicode="&#x208;" horiz-adv-x="614" 
d="M154 1206h307v-1206h-307v1206zM602 1321h-213l-199 307h312zM250 1321h-236l-239 307h334z" />
    <glyph glyph-name="idoublegrave" unicode="&#x209;" horiz-adv-x="548" 
d="M123 946h303v-946h-303v946zM578 1075h-213l-199 320h311zM225 1075h-235l-240 320h334z" />
    <glyph glyph-name="Iinvertedbreve" unicode="&#x20a;" horiz-adv-x="614" 
d="M154 1206h307v-1206h-307v1206zM307 1642q164 0 241 -83t77 -232h-224q0 55 -20.5 80t-73.5 25t-73.5 -25t-20.5 -80h-223q0 149 76.5 232t240.5 83z" />
    <glyph glyph-name="iinvertedbreve" unicode="&#x20b;" horiz-adv-x="548" 
d="M123 946h303v-946h-303v946zM274 1413q161 0 239.5 -93.5t78.5 -240.5h-223q0 62 -19 90.5t-76 28.5t-75.5 -28.5t-18.5 -90.5h-223q0 70 18 129t55 106t99 73t145 26z" />
    <glyph glyph-name="Odoublegrave" unicode="&#x20c;" horiz-adv-x="1327" 
d="M664 -25q-275 0 -428.5 163.5t-153.5 463.5q0 302 153 465.5t429 163.5t428.5 -163t152.5 -466q0 -301 -153 -464t-428 -163zM664 956q-130 0 -196.5 -94.5t-66.5 -263.5q0 -170 66 -263t197 -93t196.5 93t65.5 263q0 169 -66.5 263.5t-195.5 94.5zM958 1321h-213
l-198 307h311zM606 1321h-235l-240 307h334z" />
    <glyph glyph-name="odoublegrave" unicode="&#x20d;" horiz-adv-x="1056" 
d="M528 -25q-214 0 -340.5 132t-126.5 368q0 237 126 365.5t341 128.5t341 -128.5t126 -365.5q0 -236 -126.5 -368t-340.5 -132zM528 727q-168 0 -168 -254q0 -136 40.5 -199t127.5 -63t127.5 63t40.5 199q0 254 -168 254zM831 1075h-213l-198 320h311zM479 1075h-235
l-240 320h334z" />
    <glyph glyph-name="Oinvertedbreve" unicode="&#x20e;" horiz-adv-x="1327" 
d="M664 -25q-275 0 -428.5 163.5t-153.5 463.5q0 302 153 465.5t429 163.5t428.5 -163t152.5 -466q0 -301 -153 -464t-428 -163zM664 956q-130 0 -196.5 -94.5t-66.5 -263.5q0 -170 66 -263t197 -93t196.5 93t65.5 263q0 169 -66.5 263.5t-195.5 94.5zM664 1642
q164 0 240.5 -83t76.5 -232h-223q0 55 -20.5 80t-73.5 25q-54 0 -74.5 -25t-20.5 -80h-223q0 149 77 232t241 83z" />
    <glyph glyph-name="oinvertedbreve" unicode="&#x20f;" horiz-adv-x="1056" 
d="M528 -25q-214 0 -340.5 132t-126.5 368q0 237 126 365.5t341 128.5t341 -128.5t126 -365.5q0 -236 -126.5 -368t-340.5 -132zM528 727q-168 0 -168 -254q0 -136 40.5 -199t127.5 -63t127.5 63t40.5 199q0 254 -168 254zM528 1413q161 0 239.5 -93.5t78.5 -240.5h-223
q0 62 -19 90.5t-76 28.5t-75.5 -28.5t-18.5 -90.5h-223q0 70 18 129t55 106t99 73t145 26z" />
    <glyph glyph-name="Rinvertedbreve" unicode="&#x212;" horiz-adv-x="1214" 
d="M1163 0h-342q-44 33 -67 129l-43 170q-16 64 -46.5 84t-97.5 20h-106v-403h-307v1206h493q105 0 184 -19t140 -62t93 -117.5t32 -178.5q0 -136 -69 -212.5t-191 -90.5v-6q84 -14 129 -52.5t67 -115.5l62 -221q24 -84 69 -131zM461 946v-287h164q77 0 117 33t40 109
q0 70 -40 107.5t-115 37.5h-166zM580 1642q164 0 240.5 -83t76.5 -232h-223q0 55 -20.5 80t-73.5 25q-54 0 -74.5 -25t-20.5 -80h-223q0 149 77 232t241 83z" />
    <glyph glyph-name="rinvertedbreve" unicode="&#x213;" horiz-adv-x="833" 
d="M813 967l-37 -334q-59 18 -114 18q-33 0 -62.5 -5t-62.5 -20.5t-56.5 -40t-39 -67.5t-15.5 -100v-418h-303v946h264l37 -262q17 67 42 116.5t68.5 91.5t113.5 61.5t165 13.5zM467 1413q83 0 145 -26t99 -73t55 -106t18 -129h-223q0 62 -18.5 90.5t-75.5 28.5t-75.5 -28.5
t-18.5 -90.5h-223q0 70 18 129t55 106t99 73t145 26z" />
    <glyph glyph-name="Udoublegrave" unicode="&#x214;" horiz-adv-x="1263" 
d="M834 1206h307v-800q0 -119 -39.5 -205t-111 -134t-159.5 -70t-198 -22q-87 0 -160.5 13t-139.5 44.5t-111.5 80t-72 123t-26.5 170.5v800h307v-712q0 -65 7.5 -108t28 -81t62 -56t105.5 -18q51 0 87.5 13t58.5 34.5t34.5 57t16.5 73t4 89.5v708zM926 1321h-213l-199 307
h311zM573 1321h-235l-240 307h334z" />
    <glyph glyph-name="udoublegrave" unicode="&#x215;" horiz-adv-x="1101" 
d="M717 0l-37 178q-23 -99 -93 -151t-200 -52q-133 0 -209 74t-76 230v667h304v-575q0 -166 116 -166q72 0 113 60.5t41 189.5v491h303v-946h-262zM844 1075h-213l-199 320h311zM492 1075h-236l-240 320h334z" />
    <glyph glyph-name="Uinvertedbreve" unicode="&#x216;" horiz-adv-x="1263" 
d="M834 1206h307v-800q0 -119 -39.5 -205t-111 -134t-159.5 -70t-198 -22q-87 0 -160.5 13t-139.5 44.5t-111.5 80t-72 123t-26.5 170.5v800h307v-712q0 -65 7.5 -108t28 -81t62 -56t105.5 -18q51 0 87.5 13t58.5 34.5t34.5 57t16.5 73t4 89.5v708zM631 1642
q164 0 240.5 -83t76.5 -232h-223q0 55 -20.5 80t-73.5 25t-73.5 -25t-20.5 -80h-224q0 149 77 232t241 83z" />
    <glyph glyph-name="uinvertedbreve" unicode="&#x217;" horiz-adv-x="1101" 
d="M717 0l-37 178q-23 -99 -93 -151t-200 -52q-133 0 -209 74t-76 230v667h304v-575q0 -166 116 -166q72 0 113 60.5t41 189.5v491h303v-946h-262zM541 1413q83 0 145 -26t99 -73t55 -106t18 -129h-223q0 62 -18.5 90.5t-75.5 28.5t-76 -28.5t-19 -90.5h-223
q0 147 78.5 240.5t239.5 93.5z" />
    <glyph glyph-name="Scommaaccent" unicode="&#x218;" horiz-adv-x="1081" 
d="M41 264l278 133q17 -83 77 -134.5t141 -51.5q64 0 102.5 25t38.5 75q0 52 -38 82t-146 62q-226 69 -316 162t-90 245q0 101 37 175.5t101 116t138.5 60.5t161.5 19q436 0 473 -311l-307 -82q-7 69 -53 103t-107 34q-52 0 -85 -22t-33 -70q0 -51 42.5 -81t145.5 -59
q109 -33 178.5 -66t121 -80t73.5 -109.5t22 -149.5q0 -79 -25 -141.5t-68.5 -104t-106 -68.5t-133 -39t-152.5 -12q-186 0 -303.5 67t-167.5 222zM727 -287q0 -241 -309 -241v98q72 2 106.5 19t34.5 57q-63 -10 -109.5 20.5t-46.5 97.5q0 69 43.5 105.5t108.5 36.5
q77 0 124.5 -53.5t47.5 -139.5z" />
    <glyph glyph-name="scommaaccent" unicode="&#x219;" horiz-adv-x="927" 
d="M31 221l245 105q16 -71 63.5 -104.5t113.5 -33.5q51 0 80.5 17t29.5 49q0 34 -26 52t-86 32l-140 33q-243 64 -243 284q0 71 22.5 126.5t59 90.5t89 57t107.5 31t119 9q178 0 277 -67t108 -204l-283 -41q-7 50 -34.5 69t-81.5 19q-38 0 -62 -16t-24 -45q0 -57 79 -72
l136 -26q286 -58 286 -312q0 -79 -31 -137.5t-87.5 -93t-130.5 -51.5t-166 -17q-186 0 -289 57.5t-131 188.5zM627 -287q0 -241 -310 -241v98q72 2 107 19t35 57q-63 -10 -109.5 20.5t-46.5 97.5q0 69 43.5 105.5t108.5 36.5q77 0 124.5 -53.5t47.5 -139.5z" />
    <glyph glyph-name="Hcaron" unicode="&#x21e;" horiz-adv-x="1349" 
d="M461 0h-307v1206h307v-461h428v461h307v-1206h-307v479h-428v-479zM772 1321h-194l-283 307h274l62 -61q16 -16 25.5 -31t11.5 -22l2 -7h10q4 25 39 60l61 61h275z" />
    <glyph glyph-name="hcaron" unicode="&#x21f;" horiz-adv-x="1112" 
d="M426 1368v-602q73 203 299 203q116 0 195 -75t79 -226v-668h-303v549q0 83 -24 124.5t-90 41.5q-68 0 -112 -46t-44 -155v-514h-303v1368h303zM377 1456h-195l-282 307h274l62 -61q16 -16 25.5 -31t10.5 -22l2 -7h11q4 25 39 60l61 61h274z" />
    <glyph glyph-name="Adotabove" unicode="&#x226;" horiz-adv-x="1292" 
d="M942 0l-80 225h-444l-76 -225h-322l437 1206h374l441 -1206h-330zM537 575l-33 -94h268l-33 92q-32 89 -56 177.5t-32 131.5l-8 44h-8q-30 -154 -98 -351zM459 1485q0 83 50.5 126.5t129.5 43.5q83 0 134.5 -43.5t51.5 -126.5q0 -81 -51.5 -124.5t-134.5 -43.5
q-79 0 -129.5 44t-50.5 124z" />
    <glyph glyph-name="adotabove" unicode="&#x227;" horiz-adv-x="1040" 
d="M580 301v82q-226 8 -226 -115q0 -36 24.5 -58t65.5 -22q54 0 95 27t41 86zM881 649v-342q0 -86 67 -86q24 0 62 17v-218q-56 -38 -172 -38q-186 0 -236 147q-31 -84 -99.5 -119t-174.5 -35q-127 0 -202 70.5t-75 192.5q0 161 133 239.5t396 63.5v80q0 120 -91 120
q-94 0 -100 -133l-305 58q10 147 122.5 225t291.5 78q190 0 286.5 -81.5t96.5 -238.5zM305 1219q0 82 51 126t129 44q85 0 136 -43.5t51 -126.5q0 -81 -51.5 -124.5t-135.5 -43.5q-77 0 -128.5 44t-51.5 124z" />
    <glyph glyph-name="Otildemacron" unicode="&#x22c;" horiz-adv-x="1327" 
d="M664 -25q-275 0 -428.5 163.5t-153.5 463.5q0 302 153 465.5t429 163.5t428.5 -163t152.5 -466q0 -301 -153 -464t-428 -163zM664 956q-130 0 -196.5 -94.5t-66.5 -263.5q0 -170 66 -263t197 -93t196.5 93t65.5 263q0 169 -66.5 263.5t-195.5 94.5zM823 1305
q-50 0 -79.5 9.5t-73.5 35.5q-51 30 -73.5 40.5t-43.5 10.5q-33 0 -52 -25.5t-12 -75.5h-165q-32 62 -29 123t28 109.5t75.5 79t113.5 30.5q67 0 131 -38q9 -5 25 -14.5t23 -13.5t19 -11t18 -9.5t15 -6t16.5 -4.5t14.5 -1q68 0 53 92h172q38 -90 28.5 -163.5t-65 -120.5
t-139.5 -47zM985 1731h-643v245h643v-245z" />
    <glyph glyph-name="otildemacron" unicode="&#x22d;" horiz-adv-x="1056" 
d="M528 -25q-214 0 -340.5 132t-126.5 368q0 237 126 365.5t341 128.5t341 -128.5t126 -365.5q0 -236 -126.5 -368t-340.5 -132zM528 727q-168 0 -168 -254q0 -136 40.5 -199t127.5 -63t127.5 63t40.5 199q0 254 -168 254zM690 1034q-50 0 -79.5 9.5t-73.5 35.5
q-51 30 -73.5 40.5t-43.5 10.5q-33 0 -52 -25t-12 -75h-166q-32 62 -29 123t28.5 109.5t76 79t113.5 30.5q65 0 131 -39q7 -4 20 -11.5t18.5 -11t15.5 -9.5t15 -8t13.5 -6t13.5 -6t11.5 -4t12 -2.5t11.5 -0.5q68 0 53 92h172q38 -90 28.5 -163.5t-65 -121t-139.5 -47.5z
M842 1446h-625v246h625v-246z" />
    <glyph glyph-name="Odotabove" unicode="&#x22e;" horiz-adv-x="1327" 
d="M664 -25q-275 0 -428.5 163.5t-153.5 463.5q0 302 153 465.5t429 163.5t428.5 -163t152.5 -466q0 -301 -153 -464t-428 -163zM664 956q-130 0 -196.5 -94.5t-66.5 -263.5q0 -170 66 -263t197 -93t196.5 93t65.5 263q0 169 -66.5 263.5t-195.5 94.5zM481 1487
q0 83 51 126.5t130 43.5q83 0 134.5 -43.5t51.5 -126.5q0 -81 -51.5 -124.5t-134.5 -43.5q-79 0 -130 44t-51 124z" />
    <glyph glyph-name="odotabove" unicode="&#x22f;" horiz-adv-x="1056" 
d="M528 -25q-214 0 -340.5 132t-126.5 368q0 237 126 365.5t341 128.5t341 -128.5t126 -365.5q0 -236 -126.5 -368t-340.5 -132zM528 727q-168 0 -168 -254q0 -136 40.5 -199t127.5 -63t127.5 63t40.5 199q0 254 -168 254zM346 1219q0 82 51 126t129 44q85 0 136 -43.5
t51 -126.5q0 -81 -51.5 -124.5t-135.5 -43.5q-77 0 -128.5 44t-51.5 124z" />
    <glyph glyph-name="odotabovemacron" unicode="&#x231;" horiz-adv-x="1056" 
d="M528 -25q-214 0 -340.5 132t-126.5 368q0 237 126 365.5t341 128.5t341 -128.5t126 -365.5q0 -236 -126.5 -368t-340.5 -132zM528 727q-168 0 -168 -254q0 -136 40.5 -199t127.5 -63t127.5 63t40.5 199q0 254 -168 254zM842 1446h-625v246h625v-246zM346 1208
q0 82 51 126t129 44q85 0 136 -43.5t51 -126.5q0 -81 -51.5 -124.5t-135.5 -43.5q-77 0 -128.5 44t-51.5 124z" />
    <glyph glyph-name="odotabovemacron" unicode="&#xe11e;" horiz-adv-x="1056" 
d="M528 -25q-214 0 -340.5 132t-126.5 368q0 237 126 365.5t341 128.5t341 -128.5t126 -365.5q0 -236 -126.5 -368t-340.5 -132zM528 727q-168 0 -168 -254q0 -136 40.5 -199t127.5 -63t127.5 63t40.5 199q0 254 -168 254zM842 1446h-625v246h625v-246zM346 1208
q0 82 51 126t129 44q85 0 136 -43.5t51 -126.5q0 -81 -51.5 -124.5t-135.5 -43.5q-77 0 -128.5 44t-51.5 124z" />
    <glyph glyph-name="Ymacron" unicode="&#x232;" 
d="M371 1206l123 -256q36 -75 59.5 -144.5t28.5 -101.5l6 -32h8q1 13 5 36.5t27.5 96t59.5 145.5l125 256h324l-392 -823v-383h-307v383l-418 823h351zM899 1354h-643v245h643v-245z" />
    <glyph glyph-name="ymacron" unicode="&#x233;" horiz-adv-x="1019" 
d="M332 946l110 -401q23 -82 38.5 -158.5t19.5 -112.5l4 -36h8q11 125 66 307l122 401h320l-383 -1032q-33 -88 -70.5 -149.5t-76 -98.5t-88.5 -57.5t-98.5 -27.5t-115.5 -7q-76 0 -178 23l47 270q53 -35 125 -35q63 0 103.5 26.5t64.5 88.5l-350 999h332zM823 1092h-624
v245h624v-245z" />
    <glyph glyph-name="dotlessj" unicode="&#x237;" horiz-adv-x="546" 
d="M123 946h301v-928q0 -228 -155.5 -339.5t-411.5 -92.5v256q86 -13 145.5 -1.5t90 69t30.5 168.5v868z" />
    <glyph glyph-name="schwa" unicode="&#x259;" horiz-adv-x="1005" 
d="M475 723q-104 0 -156 -115l-258 88q38 136 151.5 204.5t262.5 68.5q210 0 339.5 -129t129.5 -353q0 -244 -125 -378t-346 -134q-199 0 -303 116t-104 308q0 59 12 123h557q0 92 -41.5 146.5t-118.5 54.5zM633 358h-273q-2 -10 -2 -28q0 -61 30 -98t89 -37
q70 0 111.5 46.5t44.5 116.5z" />
    <glyph glyph-name="ezh" unicode="&#x292;" horiz-adv-x="901" 
d="M244 465l69 96q33 44 66 81.5t50 53.5l17 15v8q-59 -10 -159 -10h-230v237h744v-188l-285 -334v-6q158 -15 241 -114t83 -251q0 -175 -118 -270.5t-335 -95.5q-169 0 -279 73.5t-139 212.5l283 113q4 -80 49.5 -121t114.5 -41q57 0 92 34t35 87q0 30 -5 55.5t-23.5 56.5
t-50 54t-88 43t-132.5 29v182z" />
    <glyph glyph-name="circumflex" unicode="&#x2c6;" horiz-adv-x="1087" 
d="M446 1403h195l283 -334h-275l-61 66q-17 18 -27 34t-11 23l-1 6h-10q0 -22 -39 -63l-62 -66h-274z" />
    <glyph glyph-name="caron" unicode="&#x2c7;" horiz-adv-x="1087" 
d="M641 1069h-195l-282 334h274l62 -66q17 -18 27 -34t11 -23l1 -6h10q0 22 39 63l61 66h275z" />
    <glyph glyph-name="breve" unicode="&#x2d8;" horiz-adv-x="962" 
d="M481 1061q-83 0 -145 26t-99 73t-55 106t-18 129h223q0 -62 18.5 -90.5t75.5 -28.5t75.5 28.5t18.5 90.5h224q0 -147 -78.5 -240.5t-239.5 -93.5z" />
    <glyph glyph-name="dotaccent" unicode="&#x2d9;" horiz-adv-x="694" 
d="M164 1219q0 82 51 126t129 44q85 0 135.5 -43t50.5 -127q0 -81 -51 -124.5t-135 -43.5q-77 0 -128.5 44t-51.5 124z" />
    <glyph glyph-name="ring" unicode="&#x2da;" horiz-adv-x="815" 
d="M408 1028q-114 0 -179 67.5t-65 170.5q0 95 68 162t176 67q107 0 175 -67t68 -162q0 -103 -64.5 -170.5t-178.5 -67.5zM408 1360q-45 0 -71 -26.5t-26 -69.5q0 -39 26 -67t71 -28t70.5 28t25.5 67q0 43 -25.5 69.5t-70.5 26.5z" />
    <glyph glyph-name="ogonek" unicode="&#x2db;" horiz-adv-x="856" 
d="M143 -197q0 56 19.5 103.5t51.5 78.5t69.5 54t78 35.5t72 18t55.5 5.5l74 -98q-82 0 -130 -35.5t-48 -101.5q0 -46 27 -72.5t71 -26.5q72 0 131 52l60 -156q-92 -92 -260 -92q-52 0 -98 12.5t-86 38.5t-63.5 73.5t-23.5 110.5z" />
    <glyph glyph-name="tilde" unicode="&#x2dc;" horiz-adv-x="1067" 
d="M694 1063q-50 0 -79.5 9.5t-73.5 35.5q-51 30 -73.5 40.5t-43.5 10.5q-33 0 -52 -25t-12 -75h-165q-32 61 -29 122.5t28 110t75.5 79t113.5 30.5q65 0 131 -39q7 -4 20 -11.5t18.5 -11t15.5 -9.5t15 -8t13.5 -6t13.5 -6t11.5 -4t12 -2.5t11.5 -0.5q68 0 53 92h172
q38 -90 28.5 -163.5t-65 -121t-139.5 -47.5z" />
    <glyph glyph-name="hungarumlaut" unicode="&#x2dd;" horiz-adv-x="1155" 
d="M377 1075h-213l100 320h311zM752 1075h-236l141 320h334z" />
    <glyph glyph-name="uni0312" unicode="&#x312;" horiz-adv-x="651" 
d="M164 1509q0 242 309 242v-98q-72 -2 -106.5 -19t-34.5 -57q63 10 109 -21t46 -98q0 -69 -43 -105t-108 -36q-77 0 -124.5 53t-47.5 139z" />
    <glyph glyph-name="uni0320" unicode="&#x320;" horiz-adv-x="952" 
d="M788 -401h-624v245h624v-245z" />
    <glyph glyph-name="uni0323" unicode="&#x323;" horiz-adv-x="694" 
d="M164 -264q0 83 50.5 126.5t129.5 43.5q83 0 134.5 -43.5t51.5 -126.5q0 -81 -51.5 -124.5t-134.5 -43.5q-79 0 -129.5 44t-50.5 124z" />
    <glyph glyph-name="uni0329" unicode="&#x329;" horiz-adv-x="630" 
d="M164 -449v369h303v-346z" />
    <glyph glyph-name="pi" unicode="&#x3c0;" horiz-adv-x="1492" 
d="M322 985h999v-225h-197v-430q0 -53 18.5 -77t59.5 -24q78 0 139 95l91 -187q-71 -162 -306 -162q-74 0 -128 15.5t-96.5 52.5t-63.5 103.5t-21 162.5v451h-153l-99 -760h-309l104 760h-22q-39 0 -62 -26t-30 -89h-226q0 69 12 123.5t43 106.5t93.5 81t153.5 29z" />
    <glyph glyph-name="uni0E3F" unicode="&#xe3f;" horiz-adv-x="1189" 
d="M571 -217v217h-407v985h407v191h103v-191h69q152 0 237 -63t85 -185q0 -95 -49.5 -155t-153.5 -74v-10q119 -14 182.5 -72.5t63.5 -159.5q0 -266 -367 -266h-67v-217h-103zM676 406h-2v-203h2q68 0 99.5 23t31.5 81q0 47 -29 73t-102 26zM469 582h102v209h-102v-209z
M469 406v-203h102v203h-102zM774 684q0 98 -100 104v-206q100 3 100 102z" />
    <glyph glyph-name="Ddotbelow" unicode="&#x1e0c;" horiz-adv-x="1292" 
d="M461 260h108q165 0 243.5 75.5t78.5 262.5q0 194 -75 271t-230 77h-125v-686zM598 0h-444v1206h467q102 0 189 -20.5t161.5 -65.5t127 -113t82 -167.5t29.5 -223.5q0 -131 -30 -235t-83.5 -175t-130.5 -117.5t-168 -67.5t-200 -21zM422 -264q0 83 50.5 126.5t129.5 43.5
q83 0 134.5 -43.5t51.5 -126.5q0 -81 -51.5 -124.5t-134.5 -43.5q-79 0 -129.5 44t-50.5 124z" />
    <glyph glyph-name="ddotbelow" unicode="&#x1e0d;" 
d="M733 399v164q0 92 -47.5 137t-122.5 45q-82 0 -139 -67t-57 -211q0 -124 51 -192t141 -68q72 0 123 51.5t51 140.5zM731 823v545h303v-1368h-264l-37 164q-41 -189 -293 -189q-167 0 -273 126t-106 350q0 244 110.5 381t311.5 137q92 0 160 -39t88 -107zM365 -264
q0 83 50.5 126.5t129.5 43.5q83 0 134.5 -43.5t51.5 -126.5q0 -81 -51.5 -124.5t-134.5 -43.5q-79 0 -129.5 44t-50.5 124z" />
    <glyph glyph-name="Dcedilla" unicode="&#x1e10;" horiz-adv-x="1292" 
d="M829 -238q0 -94 -68 -144t-175 -50q-74 0 -135 20.5t-91 53.5l54 137q64 -70 135 -70q57 0 57 49q0 64 -96 78l18 164h-374v1206h467q102 0 189 -20.5t161.5 -65.5t127 -113t82 -167.5t29.5 -223.5q0 -154 -40.5 -271t-116 -189.5t-174.5 -110.5t-224 -45l-6 -72
q180 -9 180 -166zM461 260h108q165 0 243.5 75.5t78.5 262.5q0 194 -75 271t-230 77h-125v-686z" />
    <glyph glyph-name="dcedilla" unicode="&#x1e11;" 
d="M772 -238q0 -94 -68.5 -144t-175.5 -50q-74 0 -134.5 20.5t-90.5 53.5l53 137q64 -70 136 -70q57 0 57 49q0 64 -96 78l16 139h-29q-167 0 -273 126t-106 350q0 244 110.5 381t311.5 137q92 0 160 -39t88 -107v545h303v-1368h-264l-37 164q-25 -120 -135 -164l-6 -72
q180 -9 180 -166zM733 399v164q0 92 -47.5 137t-122.5 45q-82 0 -139 -67t-57 -211q0 -124 51 -192t141 -68q72 0 123 51.5t51 140.5z" />
    <glyph glyph-name="Hdotbelow" unicode="&#x1e24;" horiz-adv-x="1349" 
d="M461 0h-307v1206h307v-461h428v461h307v-1206h-307v479h-428v-479zM492 -264q0 83 50.5 126.5t129.5 43.5q83 0 134.5 -43.5t51.5 -126.5q0 -81 -51.5 -124.5t-134.5 -43.5q-79 0 -129.5 44t-50.5 124z" />
    <glyph glyph-name="hdotbelow" unicode="&#x1e25;" horiz-adv-x="1112" 
d="M426 1368v-602q73 203 299 203q116 0 195 -75t79 -226v-668h-303v549q0 83 -24 124.5t-90 41.5q-68 0 -112 -46t-44 -155v-514h-303v1368h303zM379 -264q0 83 50.5 126.5t129.5 43.5q83 0 134.5 -43.5t51.5 -126.5q0 -81 -51.5 -124.5t-134.5 -43.5q-79 0 -129.5 44
t-50.5 124z" />
    <glyph glyph-name="Ldotbelow" unicode="&#x1e36;" horiz-adv-x="972" 
d="M154 1206h307v-940h450v-266h-757v1206zM350 -264q0 83 50.5 126.5t129.5 43.5q83 0 135 -43.5t52 -126.5q0 -80 -52 -124t-135 -44q-79 0 -129.5 44t-50.5 124z" />
    <glyph glyph-name="ldotbelow" unicode="&#x1e37;" horiz-adv-x="610" 
d="M569 262l-16 -254q-96 -28 -172 -28q-56 0 -104 13.5t-88.5 42t-63.5 79t-23 118.5v1135h304v-1040q0 -80 88 -80q40 0 75 14zM154 -264q0 83 50.5 126.5t129.5 43.5q83 0 134.5 -43.5t51.5 -126.5q0 -81 -51.5 -124.5t-134.5 -43.5q-79 0 -129.5 44t-50.5 124z" />
    <glyph glyph-name="uni004C032300AF" unicode="&#x1e38;" horiz-adv-x="972" 
d="M154 1206h307v-940h450v-266h-757v1206zM350 -264q0 83 50.5 126.5t129.5 43.5q83 0 135 -43.5t52 -126.5q0 -80 -52 -124t-135 -44q-79 0 -129.5 44t-50.5 124zM674 1354h-643v245h643v-245z" />
    <glyph glyph-name="ldotbelowmacron" unicode="&#x1e39;" horiz-adv-x="610" 
d="M569 262l-16 -254q-96 -28 -172 -28q-56 0 -104 13.5t-88.5 42t-63.5 79t-23 118.5v1135h304v-1040q0 -80 88 -80q40 0 75 14zM154 -264q0 83 50.5 126.5t129.5 43.5q83 0 134.5 -43.5t51.5 -126.5q0 -81 -51.5 -124.5t-134.5 -43.5q-79 0 -129.5 44t-50.5 124zM588 1493
h-643v246h643v-246z" />
    <glyph glyph-name="Mdotbelow" unicode="&#x1e42;" horiz-adv-x="1527" 
d="M831 272h-135l-147 230q-26 41 -49 85.5t-33 68.5l-10 24h-8q12 -66 12 -201v-479h-307v1206h303l209 -356q34 -57 57.5 -104t30.5 -66l6 -18h8q18 59 94 188l209 356h303v-1206h-307v479q0 60 3 110t6 71l3 20h-8q-33 -86 -92 -178zM582 -264q0 83 50.5 126.5
t129.5 43.5q83 0 134.5 -43.5t51.5 -126.5q0 -81 -51.5 -124.5t-134.5 -43.5q-79 0 -129.5 44t-50.5 124z" />
    <glyph glyph-name="mdotbelow" unicode="&#x1e43;" horiz-adv-x="1648" 
d="M958 762q38 102 118.5 154.5t191.5 52.5q123 0 195.5 -73.5t72.5 -227.5v-668h-303v549q0 82 -25 124t-90 42t-101 -45t-36 -156v-514h-303v549q0 83 -24.5 124.5t-90.5 41.5q-64 0 -100.5 -46t-36.5 -157v-512h-303v946h262l37 -182q74 205 291 205q213 0 245 -207z
M647 -264q0 83 50.5 126.5t129.5 43.5q83 0 135 -43.5t52 -126.5q0 -80 -52 -124t-135 -44q-79 0 -129.5 44t-50.5 124z" />
    <glyph glyph-name="Ndotaccent" unicode="&#x1e44;" horiz-adv-x="1400" 
d="M438 1206l410 -547q29 -39 51.5 -74.5t30.5 -50.5l8 -16h8q-6 94 -6 248v440h307v-1206h-274l-410 535q-35 44 -61.5 84.5t-35.5 58.5l-9 18h-8q12 -90 12 -268v-428h-307v1206h284zM518 1487q0 83 50.5 126.5t129.5 43.5q83 0 135 -43.5t52 -126.5q0 -80 -52 -124
t-135 -44q-79 0 -129.5 44t-50.5 124z" />
    <glyph glyph-name="ndotaccent" unicode="&#x1e45;" horiz-adv-x="1112" 
d="M385 946l37 -182q74 205 303 205q116 0 195 -75t79 -226v-668h-303v549q0 83 -24 124.5t-90 41.5q-67 0 -111.5 -47t-44.5 -156v-512h-303v946h262zM379 1219q0 82 51 126t129 44q85 0 135.5 -43t50.5 -127q0 -81 -51 -124.5t-135 -43.5q-77 0 -128.5 44t-51.5 124z" />
    <glyph glyph-name="Ndotbelow" unicode="&#x1e46;" horiz-adv-x="1400" 
d="M438 1206l410 -547q29 -39 51.5 -74.5t30.5 -50.5l8 -16h8q-6 94 -6 248v440h307v-1206h-274l-410 535q-35 44 -61.5 84.5t-35.5 58.5l-9 18h-8q12 -90 12 -268v-428h-307v1206h284zM518 -264q0 83 50.5 126.5t129.5 43.5q83 0 135 -43.5t52 -126.5q0 -80 -52 -124
t-135 -44q-79 0 -129.5 44t-50.5 124z" />
    <glyph glyph-name="ndotbelow" unicode="&#x1e47;" horiz-adv-x="1112" 
d="M385 946l37 -182q74 205 303 205q116 0 195 -75t79 -226v-668h-303v549q0 83 -24 124.5t-90 41.5q-67 0 -111.5 -47t-44.5 -156v-512h-303v946h262zM379 -264q0 83 50.5 126.5t129.5 43.5q83 0 134.5 -43.5t51.5 -126.5q0 -81 -51.5 -124.5t-134.5 -43.5q-79 0 -129.5 44
t-50.5 124z" />
    <glyph glyph-name="Rdotbelow" unicode="&#x1e5a;" horiz-adv-x="1214" 
d="M1163 0h-342q-44 33 -67 129l-43 170q-16 64 -46.5 84t-97.5 20h-106v-403h-307v1206h493q105 0 184 -19t140 -62t93 -117.5t32 -178.5q0 -136 -69 -212.5t-191 -90.5v-6q84 -14 129 -52.5t67 -115.5l62 -221q24 -84 69 -131zM461 946v-287h164q77 0 117 33t40 109
q0 70 -40 107.5t-115 37.5h-166zM397 -264q0 83 51 126.5t130 43.5q83 0 134.5 -43.5t51.5 -126.5q0 -81 -51.5 -124.5t-134.5 -43.5q-79 0 -130 44t-51 124z" />
    <glyph glyph-name="rdotbelow" unicode="&#x1e5b;" horiz-adv-x="833" 
d="M813 967l-37 -334q-59 18 -114 18q-33 0 -62.5 -5t-62.5 -20.5t-56.5 -40t-39 -67.5t-15.5 -100v-418h-303v946h264l37 -262q17 67 42 116.5t68.5 91.5t113.5 61.5t165 13.5zM92 -264q0 83 50.5 126.5t129.5 43.5q83 0 135 -43.5t52 -126.5q0 -80 -52 -124t-135 -44
q-79 0 -129.5 44t-50.5 124z" />
    <glyph glyph-name="Rdotbelowmacron" unicode="&#x1e5c;" horiz-adv-x="1214" 
d="M1163 0h-342q-44 33 -67 129l-43 170q-16 64 -46.5 84t-97.5 20h-106v-403h-307v1206h493q105 0 184 -19t140 -62t93 -117.5t32 -178.5q0 -136 -69 -212.5t-191 -90.5v-6q84 -14 129 -52.5t67 -115.5l62 -221q24 -84 69 -131zM461 946v-287h164q77 0 117 33t40 109
q0 70 -40 107.5t-115 37.5h-166zM397 -264q0 83 51 126.5t130 43.5q83 0 134.5 -43.5t51.5 -126.5q0 -81 -51.5 -124.5t-134.5 -43.5q-79 0 -130 44t-51 124zM901 1354h-643v245h643v-245z" />
    <glyph glyph-name="rdotbelowmacron" unicode="&#x1e5d;" horiz-adv-x="833" 
d="M813 967l-37 -334q-59 18 -114 18q-33 0 -62.5 -5t-62.5 -20.5t-56.5 -40t-39 -67.5t-15.5 -100v-418h-303v946h264l37 -262q17 67 42 116.5t68.5 91.5t113.5 61.5t165 13.5zM780 1092h-624v245h624v-245zM92 -264q0 83 50.5 126.5t129.5 43.5q83 0 135 -43.5t52 -126.5
q0 -80 -52 -124t-135 -44q-79 0 -129.5 44t-50.5 124z" />
    <glyph glyph-name="Sdotbelow" unicode="&#x1e62;" horiz-adv-x="1081" 
d="M41 264l278 133q17 -83 77 -134.5t141 -51.5q64 0 102.5 25t38.5 75q0 52 -38 82t-146 62q-226 69 -316 162t-90 245q0 101 37 175.5t101 116t138.5 60.5t161.5 19q436 0 473 -311l-307 -82q-7 69 -53 103t-107 34q-52 0 -85 -22t-33 -70q0 -51 42.5 -81t145.5 -59
q109 -33 178.5 -66t121 -80t73.5 -109.5t22 -149.5q0 -79 -25 -141.5t-68.5 -104t-106 -68.5t-133 -39t-152.5 -12q-186 0 -303.5 67t-167.5 222zM362 -264q0 83 51 126.5t130 43.5q83 0 134.5 -43.5t51.5 -126.5q0 -81 -51.5 -124.5t-134.5 -43.5q-79 0 -130 44t-51 124z
" />
    <glyph glyph-name="sdotbelow" unicode="&#x1e63;" horiz-adv-x="927" 
d="M31 221l245 105q16 -71 63.5 -104.5t113.5 -33.5q51 0 80.5 17t29.5 49q0 34 -26 52t-86 32l-140 33q-243 64 -243 284q0 71 22.5 126.5t59 90.5t89 57t107.5 31t119 9q178 0 277 -67t108 -204l-283 -41q-7 50 -34.5 69t-81.5 19q-38 0 -62 -16t-24 -45q0 -57 79 -72
l136 -26q286 -58 286 -312q0 -79 -31 -137.5t-87.5 -93t-130.5 -51.5t-166 -17q-186 0 -289 57.5t-131 188.5zM279 -264q0 83 50.5 126.5t129.5 43.5q83 0 134.5 -43.5t51.5 -126.5q0 -81 -51.5 -124.5t-134.5 -43.5q-79 0 -129.5 44t-50.5 124z" />
    <glyph glyph-name="Tdotbelow" unicode="&#x1e6c;" horiz-adv-x="995" 
d="M647 0h-305v940h-322v266h955v-266h-328v-940zM315 -264q0 83 51 126.5t130 43.5q83 0 134.5 -43.5t51.5 -126.5q0 -81 -51.5 -124.5t-134.5 -43.5q-79 0 -130 44t-51 124z" />
    <glyph glyph-name="tdotbelow" unicode="&#x1e6d;" horiz-adv-x="823" 
d="M741 295l52 -256q-128 -64 -312 -64q-152 0 -237.5 76.5t-85.5 241.5v420h-138v233h140v201l303 35v-236h280v-233h-282v-351q0 -71 27 -100t85 -29q81 0 168 62zM227 -264q0 83 51 126.5t130 43.5q83 0 134.5 -43.5t51.5 -126.5q0 -81 -51.5 -124.5t-134.5 -43.5
q-79 0 -130 44t-51 124z" />
    <glyph glyph-name="Wgrave" unicode="&#x1e80;" horiz-adv-x="1820" 
d="M1102 1206l135 -633q16 -75 29.5 -161.5t19.5 -135.5l6 -49h8q17 182 48 344l118 635h314l-250 -1206h-449l-123 557q-16 73 -27.5 159t-14.5 136l-3 49h-8q-10 -178 -49 -346l-131 -555h-434l-250 1206h326l125 -633q15 -75 27.5 -161.5t18.5 -135.5l5 -49h8
q18 180 51 344l129 635h371zM1067 1321h-279l-231 307h377z" />
    <glyph glyph-name="wgrave" unicode="&#x1e81;" horiz-adv-x="1511" 
d="M895 946l92 -336q24 -84 40 -180t20 -150l4 -53h8q10 189 53 379l78 340h301l-244 -946h-360l-80 301q-16 64 -28 140.5t-15 121.5l-4 45h-8q-10 -162 -45 -309l-70 -299h-358l-259 946h308l88 -340q22 -84 36.5 -179t18.5 -147l4 -53h8q11 193 56 383l82 336h274z
M913 1075h-278l-240 320h377z" />
    <glyph glyph-name="Wacute" unicode="&#x1e82;" horiz-adv-x="1820" 
d="M1102 1206l135 -633q16 -75 29.5 -161.5t19.5 -135.5l6 -49h8q17 182 48 344l118 635h314l-250 -1206h-449l-123 557q-16 73 -27.5 159t-14.5 136l-3 49h-8q-10 -178 -49 -346l-131 -555h-434l-250 1206h326l125 -633q15 -75 27.5 -161.5t18.5 -135.5l5 -49h8
q18 180 51 344l129 635h371zM1028 1321h-278l133 307h377z" />
    <glyph glyph-name="wacute" unicode="&#x1e83;" horiz-adv-x="1511" 
d="M895 946l92 -336q24 -84 40 -180t20 -150l4 -53h8q10 189 53 379l78 340h301l-244 -946h-360l-80 301q-16 64 -28 140.5t-15 121.5l-4 45h-8q-10 -162 -45 -309l-70 -299h-358l-259 946h308l88 -340q22 -84 36.5 -179t18.5 -147l4 -53h8q11 193 56 383l82 336h274z
M874 1075h-278l141 320h377z" />
    <glyph glyph-name="Wdieresis" unicode="&#x1e84;" horiz-adv-x="1820" 
d="M1102 1206l135 -633q16 -75 29.5 -161.5t19.5 -135.5l6 -49h8q17 182 48 344l118 635h314l-250 -1206h-449l-123 557q-16 73 -27.5 159t-14.5 136l-3 49h-8q-10 -178 -49 -346l-131 -555h-434l-250 1206h326l125 -633q15 -75 27.5 -161.5t18.5 -135.5l5 -49h8
q18 180 51 344l129 635h371zM508 1487q0 81 46 123.5t116 42.5q75 0 121.5 -42t46.5 -124q0 -79 -46.5 -121.5t-121.5 -42.5q-70 0 -116 43t-46 121zM969 1487q0 81 45.5 123.5t115.5 42.5q75 0 121.5 -42t46.5 -124q0 -79 -46.5 -121.5t-121.5 -42.5q-70 0 -115.5 43
t-45.5 121z" />
    <glyph glyph-name="wdieresis" unicode="&#x1e85;" horiz-adv-x="1511" 
d="M895 946l92 -336q24 -84 40 -180t20 -150l4 -53h8q10 189 53 379l78 340h301l-244 -946h-360l-80 301q-16 64 -28 140.5t-15 121.5l-4 45h-8q-10 -162 -45 -309l-70 -299h-358l-259 946h308l88 -340q22 -84 36.5 -179t18.5 -147l4 -53h8q11 193 56 383l82 336h274z
M354 1221q0 81 46 123t116 42q76 0 122 -42t46 -123q0 -79 -46.5 -121.5t-121.5 -42.5q-70 0 -116 43t-46 121zM815 1221q0 81 46 123t116 42q76 0 122 -42t46 -123q0 -79 -46.5 -121.5t-121.5 -42.5q-70 0 -116 43t-46 121z" />
    <glyph glyph-name="Idotbelow" unicode="&#x1eca;" horiz-adv-x="614" 
d="M154 1206h307v-1206h-307v1206zM125 -264q0 83 50.5 126.5t129.5 43.5q83 0 135 -43.5t52 -126.5q0 -80 -52 -124t-135 -44q-79 0 -129.5 44t-50.5 124z" />
    <glyph glyph-name="idotbelow" unicode="&#x1ecb;" horiz-adv-x="548" 
d="M94 1231q0 82 51 126t129 44q83 0 135 -43.5t52 -126.5q0 -80 -52 -124t-135 -44q-77 0 -128.5 44t-51.5 124zM123 946h303v-946h-303v946zM94 -264q0 83 50.5 126.5t129.5 43.5q83 0 135 -43.5t52 -126.5q0 -80 -52 -124t-135 -44q-79 0 -129.5 44t-50.5 124z" />
    <glyph glyph-name="Odotbelow" unicode="&#x1ecc;" horiz-adv-x="1327" 
d="M664 -25q-275 0 -428.5 163.5t-153.5 463.5q0 302 153 465.5t429 163.5t428.5 -163t152.5 -466q0 -301 -153 -464t-428 -163zM664 956q-130 0 -196.5 -94.5t-66.5 -263.5q0 -170 66 -263t197 -93t196.5 93t65.5 263q0 169 -66.5 263.5t-195.5 94.5zM481 -264
q0 83 51 126.5t130 43.5q83 0 134.5 -43.5t51.5 -126.5q0 -81 -51.5 -124.5t-134.5 -43.5q-79 0 -130 44t-51 124z" />
    <glyph glyph-name="odotbelow" unicode="&#x1ecd;" horiz-adv-x="1056" 
d="M528 -25q-214 0 -340.5 132t-126.5 368q0 237 126 365.5t341 128.5t341 -128.5t126 -365.5q0 -236 -126.5 -368t-340.5 -132zM528 727q-168 0 -168 -254q0 -136 40.5 -199t127.5 -63t127.5 63t40.5 199q0 254 -168 254zM346 -264q0 83 50.5 126.5t129.5 43.5
q83 0 135 -43.5t52 -126.5q0 -80 -52 -124t-135 -44q-79 0 -129.5 44t-50.5 124z" />
    <glyph glyph-name="Udotbelow" unicode="&#x1ee4;" horiz-adv-x="1263" 
d="M834 1206h307v-800q0 -119 -39.5 -205t-111 -134t-159.5 -70t-198 -22q-87 0 -160.5 13t-139.5 44.5t-111.5 80t-72 123t-26.5 170.5v800h307v-712q0 -65 7.5 -108t28 -81t62 -56t105.5 -18q51 0 87.5 13t58.5 34.5t34.5 57t16.5 73t4 89.5v708zM449 -264
q0 83 50.5 126.5t129.5 43.5q83 0 134.5 -43.5t51.5 -126.5q0 -81 -51.5 -124.5t-134.5 -43.5q-79 0 -129.5 44t-50.5 124z" />
    <glyph glyph-name="udotbelow" unicode="&#x1ee5;" horiz-adv-x="1101" 
d="M717 0l-37 178q-23 -99 -93 -151t-200 -52q-133 0 -209 74t-76 230v667h304v-575q0 -166 116 -166q72 0 113 60.5t41 189.5v491h303v-946h-262zM358 -264q0 83 51 126.5t130 43.5q83 0 134.5 -43.5t51.5 -126.5q0 -81 -51.5 -124.5t-134.5 -43.5q-79 0 -130 44t-51 124z
" />
    <glyph glyph-name="Ygrave" unicode="&#x1ef2;" 
d="M371 1206l123 -256q36 -75 59.5 -144.5t28.5 -101.5l6 -32h8q1 13 5 36.5t27.5 96t59.5 145.5l125 256h324l-392 -823v-383h-307v383l-418 823h351zM735 1321h-278l-232 307h377z" />
    <glyph glyph-name="ygrave" unicode="&#x1ef3;" horiz-adv-x="1019" 
d="M332 946l110 -401q23 -82 38.5 -158.5t19.5 -112.5l4 -36h8q11 125 66 307l122 401h320l-383 -1032q-33 -88 -70.5 -149.5t-76 -98.5t-88.5 -57.5t-98.5 -27.5t-115.5 -7q-76 0 -178 23l47 270q53 -35 125 -35q63 0 103.5 26.5t64.5 88.5l-350 999h332zM668 1075h-279
l-239 320h376z" />
    <glyph glyph-name="Ytilde" unicode="&#x1ef8;" 
d="M371 1206l123 -256q36 -75 59.5 -144.5t28.5 -101.5l6 -32h8q1 13 5 36.5t27.5 96t59.5 145.5l125 256h324l-392 -823v-383h-307v383l-418 823h351zM737 1325q-50 0 -79.5 9.5t-73.5 35.5q-51 30 -73.5 40.5t-43.5 10.5q-33 0 -52 -25t-12 -75h-165q-32 61 -29 122.5
t28 110t75.5 79t113.5 30.5q65 0 131 -39q7 -4 20 -11.5t18.5 -11t15.5 -9.5t15 -8t13.5 -6t13.5 -6t11.5 -4t12 -2.5t11.5 -0.5q68 0 53 92h172q38 -90 28.5 -163.5t-65 -121t-139.5 -47.5z" />
    <glyph glyph-name="ytilde" unicode="&#x1ef9;" horiz-adv-x="1019" 
d="M332 946l110 -401q23 -82 38.5 -158.5t19.5 -112.5l4 -36h8q11 125 66 307l122 401h320l-383 -1032q-33 -88 -70.5 -149.5t-76 -98.5t-88.5 -57.5t-98.5 -27.5t-115.5 -7q-76 0 -178 23l47 270q53 -35 125 -35q63 0 103.5 26.5t64.5 88.5l-350 999h332zM672 1063
q-50 0 -80 9.5t-74 35.5q-51 30 -73.5 40.5t-43.5 10.5q-33 0 -51.5 -25t-11.5 -75h-166q-32 61 -29 122.5t28 110t75.5 79t113.5 30.5q66 0 132 -39q7 -4 20 -11.5t18.5 -11t15.5 -9.5t15 -8t13.5 -6t13.5 -6t11.5 -4t12 -2.5t11.5 -0.5q68 0 53 92h172q38 -90 28.5 -163.5
t-65 -121t-139.5 -47.5z" />
    <glyph glyph-name="enspace" unicode="&#x2002;" horiz-adv-x="921" 
 />
    <glyph glyph-name="emspace" unicode="&#x2003;" horiz-adv-x="1843" 
 />
    <glyph glyph-name="threeperemspace" unicode="&#x2004;" horiz-adv-x="614" 
 />
    <glyph glyph-name="fourperemspace" unicode="&#x2005;" horiz-adv-x="460" 
 />
    <glyph glyph-name="sixperemspace" unicode="&#x2006;" horiz-adv-x="307" 
 />
    <glyph glyph-name="figurespace" unicode="&#x2007;" horiz-adv-x="1050" 
 />
    <glyph glyph-name="punctuationspace" unicode="&#x2008;" horiz-adv-x="350" 
 />
    <glyph glyph-name="thinspace" unicode="&#x2009;" horiz-adv-x="184" 
 />
    <glyph glyph-name="hairspace" unicode="&#x200a;" horiz-adv-x="92" 
 />
    <glyph glyph-name="zerowidthspace" unicode="&#x200b;" horiz-adv-x="0" 
 />
    <glyph glyph-name="figuredash" unicode="&#x2012;" horiz-adv-x="1185" 
d="M123 422v201h940v-201h-940z" />
    <glyph glyph-name="endash" unicode="&#x2013;" horiz-adv-x="1024" 
d="M123 422v201h778v-201h-778z" />
    <glyph glyph-name="emdash" unicode="&#x2014;" horiz-adv-x="2048" 
d="M123 422v201h1802v-201h-1802z" />
    <glyph glyph-name="uni2015" unicode="&#x2015;" horiz-adv-x="2560" 
d="M123 422v201h2314v-201h-2314z" />
    <glyph glyph-name="doublebar" unicode="&#x2016;" horiz-adv-x="1087" 
d="M444 -416h-239v1784h239v-1784zM883 -416h-240v1784h240v-1784z" />
    <glyph glyph-name="quoteleft" unicode="&#x2018;" horiz-adv-x="526" 
d="M61 1026q0 99 30 171.5t85 115.5t127 63.5t162 20.5v-121q-203 -17 -203 -156q77 11 137 -31.5t60 -127.5q0 -84 -53.5 -128.5t-133.5 -44.5q-94 0 -152.5 66t-58.5 172z" />
    <glyph glyph-name="quoteright" unicode="&#x2019;" horiz-adv-x="526" 
d="M465 1159q0 -99 -30 -171.5t-85 -115.5t-127 -63.5t-162 -20.5v121q203 17 203 156q-77 -11 -136.5 32t-59.5 128q0 84 53 128t133 44q94 0 152.5 -66t58.5 -172z" />
    <glyph glyph-name="quotesinglbase" unicode="&#x201a;" horiz-adv-x="526" 
d="M465 96q0 -99 -30 -171.5t-85 -115t-127 -63t-162 -20.5v120q203 17 203 156q-77 -11 -136.5 32t-59.5 128q0 84 53 128t133 44q94 0 152.5 -66t58.5 -172z" />
    <glyph glyph-name="reversequoteleft" unicode="&#x201b;" horiz-adv-x="526" 
d="M61 1159q0 106 58.5 172t152.5 66q80 0 133.5 -44.5t53.5 -127.5q0 -85 -60 -128t-137 -32q0 -139 203 -156v-121q-90 0 -162 20.5t-127 63.5t-85 115.5t-30 171.5z" />
    <glyph glyph-name="quotedblleft" unicode="&#x201c;" horiz-adv-x="1028" 
d="M61 1026q0 99 30 171.5t85 115.5t127 63.5t162 20.5v-121q-203 -17 -203 -156q77 11 137 -31.5t60 -127.5q0 -84 -53.5 -128.5t-133.5 -44.5q-94 0 -152.5 66t-58.5 172zM563 1026q0 99 30 171.5t85 115.5t127 63.5t162 20.5v-121q-203 -17 -203 -156q77 11 137 -31.5
t60 -127.5q0 -84 -53.5 -128.5t-133.5 -44.5q-94 0 -152.5 66t-58.5 172z" />
    <glyph glyph-name="quotedblright" unicode="&#x201d;" horiz-adv-x="1028" 
d="M465 1159q0 -99 -30 -171.5t-85 -115.5t-127 -63.5t-162 -20.5v121q203 17 203 156q-77 -11 -136.5 32t-59.5 128q0 84 53 128t133 44q94 0 152.5 -66t58.5 -172zM967 1159q0 -99 -30 -171.5t-85 -115.5t-127 -63.5t-162 -20.5v121q203 17 203 156q-77 -11 -137 32
t-60 128q0 83 53.5 127.5t133.5 44.5q94 0 152.5 -66t58.5 -172z" />
    <glyph glyph-name="quotedblbase" unicode="&#x201e;" horiz-adv-x="1028" 
d="M465 96q0 -99 -30 -171.5t-85 -115t-127 -63t-162 -20.5v120q203 17 203 156q-77 -11 -136.5 32t-59.5 128q0 84 53 128t133 44q94 0 152.5 -66t58.5 -172zM967 96q0 -99 -30 -171.5t-85 -115t-127 -63t-162 -20.5v120q203 17 203 156q-77 -11 -137 32t-60 128
q0 83 53.5 127.5t133.5 44.5q94 0 152.5 -66t58.5 -172z" />
    <glyph glyph-name="reversequotedblleft" unicode="&#x201f;" horiz-adv-x="1028" 
d="M61 1159q0 106 58.5 172t152.5 66q80 0 133.5 -44.5t53.5 -127.5q0 -85 -60 -128t-137 -32q0 -139 203 -156v-121q-90 0 -162 20.5t-127 63.5t-85 115.5t-30 171.5zM563 1159q0 106 58.5 172t152.5 66q80 0 133.5 -44.5t53.5 -127.5q0 -85 -60 -128t-137 -32
q0 -139 203 -156v-121q-90 0 -162 20.5t-127 63.5t-85 115.5t-30 171.5z" />
    <glyph glyph-name="dagger" unicode="&#x2020;" horiz-adv-x="1138" 
d="M442 498l-360 -23v273l358 -21l-20 479h299l-21 -479l359 21v-273l-359 23l21 -805h-297z" />
    <glyph glyph-name="daggerdbl" unicode="&#x2021;" horiz-adv-x="1140" 
d="M698 600v-262l361 20v-272l-361 23l21 -416h-295l22 416l-364 -23v272l360 -20v262l-360 -22v274l360 -23l-20 377h297l-21 -377l361 23v-274z" />
    <glyph glyph-name="bullet" unicode="&#x2022;" horiz-adv-x="755" 
d="M113 537q0 107 78.5 185.5t185.5 78.5q109 0 187.5 -78.5t78.5 -185.5q0 -109 -78.5 -188t-187.5 -79q-107 0 -185.5 79t-78.5 188z" />
    <glyph glyph-name="ellipsis" unicode="&#x2026;" horiz-adv-x="1806" 
d="M113 174q0 83 53.5 138t130.5 55q83 0 137.5 -55t54.5 -138q0 -77 -55 -130.5t-137 -53.5q-77 0 -130.5 54t-53.5 130zM715 174q0 83 53.5 138t130.5 55q83 0 138 -55t55 -138q0 -77 -55 -130.5t-138 -53.5q-77 0 -130.5 54t-53.5 130zM1317 174q0 83 53.5 138t130.5 55
q83 0 138 -55t55 -138q0 -77 -55 -130.5t-138 -53.5q-77 0 -130.5 54t-53.5 130z" />
    <glyph glyph-name="perthousand" unicode="&#x2030;" horiz-adv-x="2539" 
d="M371 469q-108 0 -181.5 51t-106 134t-32.5 192q0 164 84.5 270.5t235.5 106.5t235 -106.5t84 -270.5q0 -109 -32.5 -192t-105.5 -134t-181 -51zM371 1032q-48 0 -75.5 -50.5t-27.5 -139.5q0 -85 28.5 -137t74.5 -52q47 0 75.5 52t28.5 137q0 90 -27.5 140t-76.5 50z
M504 0l624 1206h179l-631 -1206h-172zM1452 -14q-108 0 -181 51t-105.5 133.5t-32.5 191.5q0 164 84 270.5t235 106.5t235.5 -106.5t84.5 -270.5q0 -109 -32.5 -191.5t-106 -133.5t-181.5 -51zM1452 549q-47 0 -74.5 -51t-27.5 -140q0 -85 28 -136.5t74 -51.5
q47 0 75.5 51.5t28.5 136.5q0 90 -27.5 140.5t-76.5 50.5zM2169 -14q-108 0 -181.5 51t-106 133.5t-32.5 191.5q0 164 84.5 270.5t235.5 106.5t235 -106.5t84 -270.5q0 -109 -32.5 -191.5t-105.5 -133.5t-181 -51zM2169 549q-47 0 -75 -51t-28 -140q0 -84 28.5 -136
t74.5 -52q47 0 75.5 51.5t28.5 136.5q0 90 -27.5 140.5t-76.5 50.5z" />
    <glyph glyph-name="tripleprime" unicode="&#x2034;" horiz-adv-x="1273" 
d="M133 844v524h291l-111 -524h-180zM512 844v524h291l-111 -524h-180zM891 844v524h291l-111 -524h-180z" />
    <glyph glyph-name="guilsinglleft" unicode="&#x2039;" horiz-adv-x="688" 
d="M336 485v-8q47 -13 104 -74l187 -204l-150 -148l-416 434l416 435l148 -150l-187 -205q-25 -27 -50.5 -47t-38.5 -26z" />
    <glyph glyph-name="guilsinglright" unicode="&#x203a;" horiz-adv-x="688" 
d="M352 477v8q-45 19 -102 80l-187 205l148 150l416 -435l-416 -434l-150 148l187 204q25 27 51 45.5t39 23.5z" />
    <glyph glyph-name="fraction" unicode="&#x2044;" horiz-adv-x="352" 
d="M-225 0l624 1206h179l-631 -1206h-172z" />
    <glyph glyph-name="uni2070" unicode="&#x2070;" horiz-adv-x="741" 
d="M371 469q-108 0 -181.5 51t-106 134t-32.5 192q0 164 84.5 270.5t235.5 106.5t235 -106.5t84 -270.5q0 -109 -32.5 -192t-105.5 -134t-181 -51zM371 1032q-48 0 -75.5 -50.5t-27.5 -139.5q0 -85 28.5 -137t74.5 -52q47 0 75.5 52t28.5 137q0 90 -27.5 140t-76.5 50z" />
    <glyph glyph-name="uni2074" unicode="&#x2074;" horiz-adv-x="733" 
d="M375 483v131h-355v148l363 444h213v-434h96v-158h-96v-131h-221zM379 768v119q0 31 2 68t4 58l2 21h-8q-16 -51 -53 -98l-60 -76q-19 -24 -43 -48t-39 -36l-14 -12v-8q47 12 115 12h94z" />
    <glyph glyph-name="uni2075" unicode="&#x2075;" horiz-adv-x="681" 
d="M82 780l18 426h488v-180h-320l-8 -121q44 47 148 47q98 0 160.5 -63t62.5 -166q0 -126 -89 -190t-225 -64q-260 0 -297 172l191 88q5 -41 33 -68.5t75 -27.5q45 0 73 23t28 67q0 40 -22.5 64t-59.5 24q-46 0 -74 -31h-182z" />
    <glyph glyph-name="uni2076" unicode="&#x2076;" horiz-adv-x="708" 
d="M641 1110l-145 -129q-32 66 -107 66q-129 0 -129 -209h8q38 100 172 100q98 0 157.5 -61.5t59.5 -161.5q0 -115 -78.5 -180.5t-216.5 -65.5q-151 0 -231 92t-80 270q0 189 98 290.5t246 101.5q159 0 246 -113zM291 715q0 -36 24.5 -59t63.5 -23q37 0 61.5 23t24.5 59
q0 39 -24.5 62.5t-61.5 23.5q-39 0 -63.5 -23.5t-24.5 -62.5z" />
    <glyph glyph-name="uni2077" unicode="&#x2077;" horiz-adv-x="671" 
d="M406 1026h-193v-113h-182v293h610v-166l-266 -557h-238z" />
    <glyph glyph-name="uni2078" unicode="&#x2078;" horiz-adv-x="700" 
d="M350 776q-35 0 -58.5 -18t-23.5 -58q0 -31 23 -52t59 -21t59 21t23 52q0 40 -23.5 58t-58.5 18zM350 469q-138 0 -218.5 52.5t-80.5 152.5q0 69 42.5 115t127.5 59v8q-72 4 -110.5 50.5t-38.5 103.5q0 99 73 156t205 57t205.5 -57t73.5 -156q0 -57 -39 -103.5t-111 -50.5
v-8q85 -13 127.5 -59t42.5 -115q0 -100 -80.5 -152.5t-218.5 -52.5zM350 1071q-36 0 -55 -20t-19 -50q0 -32 21 -48.5t53 -16.5t53 16.5t21 48.5q0 30 -19 50t-55 20z" />
    <glyph glyph-name="uni2079" unicode="&#x2079;" horiz-adv-x="708" 
d="M68 582l145 129q32 -66 106 -66q130 0 130 209h-9q-38 -100 -172 -100q-98 0 -157.5 61.5t-59.5 161.5q0 115 78.5 180.5t216.5 65.5q151 0 231 -92.5t80 -270.5q0 -189 -98 -290t-246 -101q-158 0 -245 113zM418 975q0 36 -24.5 59t-63.5 23q-37 0 -61.5 -23t-24.5 -59
q0 -39 24.5 -62.5t61.5 -23.5q39 0 63.5 23.5t24.5 62.5z" />
    <glyph glyph-name="uni207A" unicode="&#x207a;" horiz-adv-x="907" 
d="M92 930h285v276h147v-276h291v-148h-291v-299h-147v299h-285v148z" />
    <glyph glyph-name="uni207B" unicode="&#x207b;" horiz-adv-x="907" 
d="M815 782h-723v148h723v-148z" />
    <glyph glyph-name="uni207C" unicode="&#x207c;" horiz-adv-x="907" 
d="M815 655h-723v146h723v-146zM815 934h-723v145h723v-145z" />
    <glyph glyph-name="uni207D" unicode="&#x207d;" horiz-adv-x="477" 
d="M254 836q0 -60 10.5 -117t21.5 -95t39 -92.5t41.5 -77t49.5 -81.5h-170q-33 49 -53 83.5t-46.5 94.5t-39.5 131t-13 154q0 84 13 156t39.5 132t46.5 95t53 84h170q-41 -67 -61.5 -104t-48.5 -99.5t-40 -126.5t-12 -137z" />
    <glyph glyph-name="uni207E" unicode="&#x207e;" horiz-adv-x="477" 
d="M256 836q0 73 -12 137t-40 126.5t-48.5 99.5t-61.5 104h172q34 -52 52 -84.5t45 -94t40 -133.5t13 -155q0 -67 -10.5 -129.5t-23 -104.5t-37.5 -92t-38.5 -72.5t-40.5 -64.5h-172q36 59 49.5 81.5t41.5 77t39 92.5t21.5 95t10.5 117z" />
    <glyph glyph-name="n.superior" unicode="&#x207f;" horiz-adv-x="864" 
d="M322 1214l26 -120q47 137 207 137q91 0 149 -52t58 -161v-430h-236v358q0 55 -15.5 83t-59.5 28t-73.5 -30.5t-29.5 -102.5v-336h-235v626h209z" />
    <glyph glyph-name="uni2080" unicode="&#x2080;" horiz-adv-x="741" 
d="M371 -14q-108 0 -181.5 51t-106 133.5t-32.5 191.5q0 164 84.5 270.5t235.5 106.5t235 -106.5t84 -270.5q0 -109 -32.5 -191.5t-105.5 -133.5t-181 -51zM371 549q-47 0 -75 -51t-28 -140q0 -84 28.5 -136t74.5 -52q47 0 75.5 51.5t28.5 136.5q0 90 -27.5 140.5
t-76.5 50.5z" />
    <glyph glyph-name="uni2081" unicode="&#x2081;" horiz-adv-x="655" 
d="M614 0h-534v162h166v362l-185 -14v172l402 41v-561h151v-162z" />
    <glyph glyph-name="uni2082" unicode="&#x2082;" horiz-adv-x="698" 
d="M643 172v-172h-580v139q194 140 262 205.5t68 128.5q0 76 -74 76q-36 0 -64 -29.5t-28 -91.5l-186 70q7 103 82 172t217 69q128 0 205.5 -61t77.5 -176q0 -62 -26 -116t-70 -93.5t-87.5 -66t-91.5 -46.5v-8h295z" />
    <glyph glyph-name="uni2083" unicode="&#x2083;" horiz-adv-x="671" 
d="M416 367v-5q205 -15 205 -180q0 -96 -81 -146t-231 -50q-114 0 -192.5 42.5t-96.5 123.5l179 73q11 -43 37 -62.5t77 -19.5q32 0 53 13.5t21 42.5q0 39 -35 63t-137 27v123q97 3 129.5 28.5t32.5 63.5q0 30 -17.5 45.5t-42.5 15.5q-36 0 -60.5 -20t-27.5 -56l-176 68
q13 88 91.5 135t193.5 47q116 0 186 -49t70 -141q0 -77 -44.5 -120.5t-133.5 -61.5z" />
    <glyph glyph-name="uni2084" unicode="&#x2084;" horiz-adv-x="733" 
d="M375 0v131h-355v148l363 444h213v-434h96v-158h-96v-131h-221zM379 285v118q0 31 2 68t4 59l2 21h-8q-16 -51 -53 -98l-60 -76q-19 -24 -43 -48t-39 -36l-14 -12v-9q47 13 115 13h94z" />
    <glyph glyph-name="uni2085" unicode="&#x2085;" horiz-adv-x="681" 
d="M82 297l18 426h488v-180h-320l-8 -121q44 47 148 47q98 0 160.5 -63t62.5 -166q0 -126 -89 -190t-225 -64q-260 0 -297 172l191 88q5 -41 33 -68.5t75 -27.5q45 0 73 23t28 67q0 40 -22.5 64t-59.5 24q-46 0 -74 -31h-182z" />
    <glyph glyph-name="uni2086" unicode="&#x2086;" horiz-adv-x="708" 
d="M641 627l-145 -129q-32 65 -107 65q-129 0 -129 -209h8q38 101 172 101q98 0 157.5 -62t59.5 -162q0 -115 -78.5 -180t-216.5 -65q-151 0 -231 92t-80 270q0 189 98 290t246 101q160 0 246 -112zM291 231q0 -36 24.5 -58.5t63.5 -22.5q37 0 61.5 22.5t24.5 58.5
q0 39 -24.5 62.5t-61.5 23.5q-39 0 -63.5 -23.5t-24.5 -62.5z" />
    <glyph glyph-name="uni2087" unicode="&#x2087;" horiz-adv-x="671" 
d="M406 543h-193v-113h-182v293h610v-166l-266 -557h-238z" />
    <glyph glyph-name="uni2088" unicode="&#x2088;" horiz-adv-x="700" 
d="M350 293q-35 0 -58.5 -18t-23.5 -58q0 -31 23 -52.5t59 -21.5t59 21.5t23 52.5q0 40 -23.5 58t-58.5 18zM350 -14q-138 0 -218.5 52t-80.5 152q0 69 42.5 115.5t127.5 59.5v8q-72 4 -110.5 50t-38.5 103q0 99 73 156t205 57t205.5 -57t73.5 -156q0 -57 -38.5 -103
t-111.5 -50v-8q85 -13 127.5 -59.5t42.5 -115.5q0 -100 -80.5 -152t-218.5 -52zM350 588q-36 0 -55 -20t-19 -50q0 -32 21 -48.5t53 -16.5t53 16.5t21 48.5q0 30 -19 50t-55 20z" />
    <glyph glyph-name="uni2089" unicode="&#x2089;" horiz-adv-x="708" 
d="M68 98l145 129q32 -65 106 -65q130 0 130 209h-9q-38 -101 -172 -101q-98 0 -157.5 62t-59.5 162q0 115 78.5 180t216.5 65q151 0 231 -92t80 -270q0 -189 -98 -290t-246 -101q-78 0 -138 25.5t-107 86.5zM418 492q0 36 -24.5 58.5t-63.5 22.5q-37 0 -61.5 -22.5
t-24.5 -58.5q0 -39 24.5 -62.5t61.5 -23.5q39 0 63.5 23.5t24.5 62.5z" />
    <glyph glyph-name="uni208A" unicode="&#x208a;" horiz-adv-x="907" 
d="M92 446h285v277h147v-277h291v-145h-291v-301h-147v301h-285v145z" />
    <glyph glyph-name="uni208B" unicode="&#x208b;" horiz-adv-x="907" 
d="M815 301h-723v145h723v-145z" />
    <glyph glyph-name="uni208C" unicode="&#x208c;" horiz-adv-x="907" 
d="M815 174h-723v145h723v-145zM815 451h-723v147h723v-147z" />
    <glyph glyph-name="uni208D" unicode="&#x208d;" horiz-adv-x="477" 
d="M254 352q0 -60 10.5 -117t21.5 -95t39 -92.5t41.5 -77t49.5 -81.5h-170q-34 52 -53 85t-46 93.5t-40 131t-13 153.5q0 84 13 156t39.5 132t46.5 95t53 84h170q-40 -65 -61.5 -102.5t-49 -99.5t-39.5 -126.5t-12 -138.5z" />
    <glyph glyph-name="uni208E" unicode="&#x208e;" horiz-adv-x="477" 
d="M256 352q0 74 -12 138.5t-39.5 126.5t-49 99.5t-61.5 102.5h172q34 -52 52 -84.5t45 -94t40 -133.5t13 -155q0 -67 -11 -130t-22.5 -103t-37.5 -92.5t-38 -71.5t-41 -66h-172q36 59 49.5 81.5t41.5 77t39 92.5t21.5 95t10.5 117z" />
    <glyph glyph-name="uni20A1" unicode="&#x20a1;" horiz-adv-x="1062" 
d="M231 -137l66 178q-215 127 -215 448q0 251 133.5 386t380.5 135q9 0 28.5 -1t28.5 -1l60 161l96 -36l-53 -144q37 -9 67 -24l56 149l96 -35l-66 -174q65 -57 111 -164l-209 -104l-158 -424q88 25 127 141l242 -143q-66 -125 -171.5 -180.5t-277.5 -55.5h-8l-73 -202
l-97 34l66 179q-42 7 -70 14l-63 -174zM477 231q30 -20 66 -26l186 504q-22 36 -57 53zM379 494q0 -100 24 -164l168 456q-88 0 -140 -71t-52 -221z" />
    <glyph glyph-name="uni20A2" unicode="&#x20a2;" horiz-adv-x="1062" 
d="M809 336l213 -125q-66 -125 -171.5 -180.5t-277.5 -55.5q-228 0 -359.5 131.5t-131.5 382.5t133.5 386t380.5 135q162 0 265 -66t159 -203l-254 -127q-10 39 -23 67t-35 53.5t-56 38.5t-81 13q-88 0 -140 -71t-52 -221q0 -225 119 -291v370h168l20 -137q11 49 30.5 80
t65 51.5t117.5 20.5l-27 -209q-25 10 -61 10q-125 0 -125 -110v-76q89 39 123 133z" />
    <glyph glyph-name="franc" unicode="&#x20a3;" horiz-adv-x="970" 
d="M786 287h-280v-287h-305v287h-119v108h119v97h-119v108h119v385h739v-246h-434v-139h280v-108h-280v-97h280v-108z" />
    <glyph glyph-name="lira" unicode="&#x20a4;" horiz-adv-x="1069" 
d="M705 328h-201q-19 -58 -62 -82h228q35 0 58.5 5t50.5 27.5t42 63.5l207 -123q-15 -104 -98 -161.5t-203 -57.5h-635v246h66q83 0 102 82h-178v108h170q-8 19 -29 56h-141v108h90q-12 44 -12 102q0 134 110.5 221t261.5 87q76 0 140 -14.5t119.5 -46t92 -88.5t46.5 -136
l-266 -72q-12 56 -45.5 87.5t-75.5 31.5q-115 0 -115 -104q0 -38 23 -68h254v-108h-191q6 -24 6 -54v-2h185v-108z" />
    <glyph glyph-name="uni20A6" unicode="&#x20a6;" horiz-adv-x="1435" 
d="M1384 307h-149v-307h-274l-338 412q-36 44 -63 84t-36 58l-10 19h-8q12 -90 12 -268v-305h-305v307h-162v109h162v116h-160v109h160v344h326l299 -377q31 -38 54 -73.5t30 -51.5l8 -16h8q-8 94 -8 248v270h305v-344h147v-109h-147v-116h149v-109z" />
    <glyph glyph-name="peseta" unicode="&#x20a7;" horiz-adv-x="2611" 
d="M449 0h-306v985h424q312 0 396 -184h729q20 58 60.5 100t95 65t114 33.5t127.5 10.5q186 0 292 -72.5t109 -208.5l-292 -33q-4 53 -34.5 75t-86.5 22q-47 0 -75 -20.5t-28 -55.5q0 -68 94 -86l142 -29q151 -30 225 -114.5t74 -202.5q0 -81 -32.5 -142t-91.5 -97
t-135 -53.5t-169 -17.5q-390 0 -436 248l227 107q42 -137 221 -137q119 0 119 65q0 35 -21 48.5t-86 30.5l-12 3l-149 35q-188 42 -246 180h-213v-555h-307v555h-179q-13 -159 -117.5 -242.5t-285.5 -83.5h-147v-229zM449 743v-272h106q74 0 109.5 30.5t35.5 102.5
q0 76 -34.5 107.5t-108.5 31.5h-108z" />
    <glyph glyph-name="uni20A8" unicode="&#x20a8;" horiz-adv-x="1822" 
d="M449 743v-231h133q64 0 95.5 28t31.5 89q0 114 -127 114h-133zM604 985q414 0 414 -326q0 -123 -71 -187.5t-187 -74.5v-8q22 -1 39.5 -2.5t35 -5.5t26.5 -6t26.5 -10t22 -10.5t26.5 -14t27 -14.5l188 -99q123 -65 231 -65q38 0 57 7.5t19 29.5q0 21 -15.5 32.5
t-56.5 20.5l-129 29q-94 22 -140 75.5t-46 145.5q0 55 18.5 98t48.5 70t73 44t88 24t96 7q147 0 229.5 -52.5t83.5 -155.5l-227 -25q-8 70 -92 70q-32 0 -48 -13.5t-16 -33.5q0 -23 14 -35t58 -21l88 -18q122 -23 178.5 -86.5t56.5 -171.5q0 -117 -94.5 -172.5t-259.5 -55.5
q-174 0 -302 32t-235 102l-137 90q-68 43 -112.5 63.5t-90.5 20.5h-40v-283h-306v985h461z" />
    <glyph glyph-name="uni20A9" unicode="&#x20a9;" horiz-adv-x="1857" 
d="M1776 324h-246l-76 -324h-377l-102 397q-16 58 -27 132.5t-14 119.5l-4 45h-8q-8 -162 -43 -299l-99 -395h-377l-75 324h-246v108h221l-27 117h-192v108h166l-76 328h320l98 -471q13 -61 21.5 -133.5t10.5 -114.5l3 -43h6q12 156 41 289l102 473h314l110 -467
q15 -61 24.5 -133.5t11.5 -114.5l3 -43h6q2 156 31 289l102 469h305l-75 -328h166v-108h-193l-27 -117h222v-108z" />
    <glyph glyph-name="uni20AA" unicode="&#x20aa;" horiz-adv-x="1763" 
d="M1202 328h-252v325q0 55 -27 83t-92 28h-362v-764h-305v985h706q332 0 332 -311v-346zM1315 985h305v-674q0 -311 -332 -311h-698v655h250v-434h364q51 0 81 29t30 76v659z" />
    <glyph glyph-name="Euro" unicode="&#x20ac;" horiz-adv-x="1159" 
d="M702 336h-196q44 -117 162 -117q74 0 117 34.5t69 106.5l244 -149q-65 -125 -168 -180.5t-271 -55.5q-184 0 -305 92t-159 269h-154v108h139v88h-139v109h154q35 180 160.5 274.5t326.5 94.5q158 0 259 -66t155 -203l-256 -133q-11 37 -22.5 62t-31.5 49.5t-51.5 36.5
t-75.5 12q-115 0 -157 -127h256l-21 -109h-256v-38q0 -36 2 -50h240z" />
    <glyph glyph-name="uni20AE" unicode="&#x20ae;" horiz-adv-x="997" 
d="M649 0h-307v219l-201 -35v109l201 35v96l-201 -35v109l201 34v207h-301v246h915v-246h-307v-155l207 37v-109l-207 -37v-96l207 37v-109l-207 -37v-270z" />
    <glyph glyph-name="uni20B1" unicode="&#x20b1;" horiz-adv-x="1236" 
d="M1196 549h-139q-15 -156 -119.5 -238t-284.5 -82h-147v-229h-305v549h-140v108h140v328h424q207 0 313 -79.5t119 -248.5h139v-108zM506 760v-103h248q-10 56 -44 79.5t-96 23.5h-108zM612 451q123 0 142 98h-248v-98h106z" />
    <glyph glyph-name="afii61289" unicode="&#x2113;" horiz-adv-x="845" 
d="M80 244l-62 116l172 119v473q0 225 83.5 321.5t248.5 96.5q287 0 287 -262q0 -116 -24.5 -214t-72.5 -178t-103.5 -141.5t-131.5 -125.5v-56q0 -89 29.5 -123t91.5 -34q67 0 133 32l-18 -256q-122 -37 -224 -37q-59 0 -110.5 13.5t-95 42.5t-68.5 81.5t-25 123.5v79z
M477 1010v-389q61 61 96 116t58.5 146.5t23.5 216.5q0 108 -90 108q-47 0 -67.5 -47t-20.5 -151z" />
    <glyph glyph-name="afii61352" unicode="&#x2116;" horiz-adv-x="2168" 
d="M1419 0v215h641v-215h-641zM465 381v-37q0 -108 -25.5 -182.5t-77 -117t-117 -62t-157.5 -23.5l-47 287q58 0 87.5 32.5t29.5 108.5v819h284l369 -506q29 -39 51.5 -74.5t30.5 -51.5l8 -15h8q-6 94 -6 248v37q0 108 25.5 182.5t77 117t117 62t157.5 23.5l47 -287
q-58 0 -87.5 -32.5t-29.5 -108.5v-801h-274l-369 494q-35 44 -61.5 84.5t-35.5 58.5l-9 18h-8q12 -96 12 -274zM1735 311q-152 0 -242 87.5t-90 244.5q0 156 90 242t242 86t241.5 -86t89.5 -242q0 -157 -89.5 -244.5t-241.5 -87.5zM1735 799q-84 0 -84 -162q0 -158 84 -158
t84 158q0 162 -84 162z" />
    <glyph glyph-name="published" unicode="&#x2117;" horiz-adv-x="1439" 
d="M774 434h-80v-205h-248v764h338q156 0 234 -69t78 -201q0 -289 -322 -289zM694 795v-177h60q48 0 72 20t24 69q0 88 -96 88h-60zM92 602q0 179 84.5 323.5t227.5 225t315 80.5q128 0 244 -47.5t200.5 -129.5t134.5 -200t50 -252t-50 -251.5t-134.5 -199.5t-200.5 -129
t-244 -47t-243.5 47t-200 129t-134 199.5t-49.5 251.5zM156 602q0 -163 77 -294t206 -202t284 -71q115 0 218 42t179.5 115.5t121 180t44.5 229.5q0 122 -44.5 228.5t-120.5 181t-179.5 117t-218.5 42.5t-219.5 -42.5t-181 -117t-121.5 -181t-45 -228.5z" />
    <glyph glyph-name="servicemark" unicode="&#x2120;" horiz-adv-x="1290" 
d="M41 823l133 56q27 -74 100 -74q27 0 41.5 9.5t14.5 25.5q0 31 -60 43l-82 20q-64 15 -97.5 54.5t-33.5 95.5q0 89 63.5 127.5t162.5 38.5q100 0 159 -37.5t60 -106.5l-162 -22q-2 47 -61 47q-23 0 -34.5 -10t-11.5 -23q0 -16 10.5 -25.5t39.5 -15.5l63 -12
q84 -14 124 -59t40 -107q0 -158 -231 -158q-215 0 -238 133zM1208 698h-166v265h-8l-78 -138h-92l-73 138h-11v-265h-166v508h174l121 -198h2l119 198h178v-508z" />
    <glyph glyph-name="trademark" unicode="&#x2122;" horiz-adv-x="1265" 
d="M344 698h-166v375h-137v133h440v-133h-137v-375zM1184 698h-166v265h-8l-78 -138h-92l-74 138h-10v-265h-166v508h174l121 -198h2l119 198h178v-508z" />
    <glyph glyph-name="ohm" unicode="&#x2126;" horiz-adv-x="1411" 
d="M705 956q-128 0 -195.5 -89t-67.5 -236q0 -137 48.5 -228t117.5 -127v-276h-506v276h252q-97 39 -164 141.5t-67 250.5q0 257 155.5 410t426.5 153t427 -153t156 -410q0 -149 -67.5 -251t-165.5 -141h254v-276h-508v276q71 36 119.5 127t48.5 228q0 147 -67.5 236
t-196.5 89z" />
    <glyph glyph-name="estimated" unicode="&#x212e;" horiz-adv-x="1325" 
d="M662 1231q145 0 257.5 -53t179.5 -143t100.5 -199.5t33.5 -233.5v-53h-883v-346q119 -119 312 -119q266 0 376 213h136q-62 -149 -190.5 -235.5t-321.5 -86.5q-116 0 -211.5 35t-161 94.5t-111 140t-66 170.5t-20.5 187q0 98 21 188t66 171t110.5 140.5t161 94.5
t211.5 35zM662 1122q-197 0 -312 -118v-349h625v349q-115 118 -313 118z" />
    <glyph glyph-name="uni2153" unicode="&#x2153;" horiz-adv-x="1785" 
d="M633 483h-535v162h166v363l-184 -15v172l401 41v-561h152v-162zM492 0l624 1206h178l-630 -1206h-172zM1485 367v-5q205 -15 205 -180q0 -96 -81 -146t-231 -50q-114 0 -192 42.5t-96 123.5l178 73q11 -43 37 -62.5t77 -19.5q32 0 53 13.5t21 42.5q0 39 -35 63t-137 27
v123q97 3 129.5 28.5t32.5 63.5q0 30 -17.5 45.5t-42.5 15.5q-36 0 -60.5 -20t-27.5 -56l-176 68q13 88 91.5 135t193.5 47q116 0 186 -49t70 -141q0 -77 -44.5 -120.5t-133.5 -61.5z" />
    <glyph glyph-name="uni2154" unicode="&#x2154;" horiz-adv-x="1785" 
d="M662 655v-172h-580v140q195 140 262.5 205t67.5 128q0 76 -74 76q-36 0 -64 -29.5t-28 -91.5l-187 70q7 103 82 172.5t217 69.5q127 0 205 -61.5t78 -176.5q0 -62 -26 -116t-69.5 -93t-86.5 -65.5t-92 -46.5v-9h295zM492 0l624 1206h178l-630 -1206h-172zM1485 367v-5
q205 -15 205 -180q0 -96 -81 -146t-231 -50q-114 0 -192 42.5t-96 123.5l178 73q11 -43 37 -62.5t77 -19.5q32 0 53 13.5t21 42.5q0 39 -35 63t-137 27v123q97 3 129.5 28.5t32.5 63.5q0 30 -17.5 45.5t-42.5 15.5q-36 0 -60.5 -20t-27.5 -56l-176 68q13 88 91.5 135
t193.5 47q116 0 186 -49t70 -141q0 -77 -44.5 -120.5t-133.5 -61.5z" />
    <glyph glyph-name="uni215B" unicode="&#x215b;" horiz-adv-x="1785" 
d="M633 483h-535v162h166v363l-184 -15v172l401 41v-561h152v-162zM492 0l624 1206h178l-630 -1206h-172zM1419 293q-35 0 -58.5 -18t-23.5 -58q0 -31 23 -52.5t59 -21.5t59 21.5t23 52.5q0 40 -23.5 58t-58.5 18zM1419 -14q-138 0 -218.5 52t-80.5 152q0 69 42.5 115.5
t127.5 59.5v8q-72 4 -110.5 50t-38.5 103q0 99 73 156t205 57t205.5 -57t73.5 -156q0 -57 -38.5 -103t-111.5 -50v-8q85 -13 127.5 -59.5t42.5 -115.5q0 -100 -80.5 -152t-218.5 -52zM1419 588q-36 0 -54.5 -20t-18.5 -50q0 -32 21 -48.5t52 -16.5q32 0 53 16.5t21 48.5
q0 30 -19 50t-55 20z" />
    <glyph glyph-name="uni215C" unicode="&#x215c;" horiz-adv-x="1785" 
d="M455 850v-4q204 -14 204 -180q0 -96 -80.5 -146.5t-230.5 -50.5q-114 0 -192.5 42.5t-96.5 123.5l179 74q11 -43 37 -62.5t77 -19.5q74 0 74 55q0 39 -35 63t-137 27v123q97 3 129.5 28.5t32.5 63.5q0 30 -17.5 46t-42.5 16q-36 0 -60.5 -20t-27.5 -56l-176 67
q13 88 91.5 135.5t193.5 47.5q116 0 186 -49t70 -142q0 -77 -44.5 -120.5t-133.5 -61.5zM492 0l624 1206h178l-630 -1206h-172zM1419 293q-35 0 -58.5 -18t-23.5 -58q0 -31 23 -52.5t59 -21.5t59 21.5t23 52.5q0 40 -23.5 58t-58.5 18zM1419 -14q-138 0 -218.5 52t-80.5 152
q0 69 42.5 115.5t127.5 59.5v8q-72 4 -110.5 50t-38.5 103q0 99 73 156t205 57t205.5 -57t73.5 -156q0 -57 -38.5 -103t-111.5 -50v-8q85 -13 127.5 -59.5t42.5 -115.5q0 -100 -80.5 -152t-218.5 -52zM1419 588q-36 0 -54.5 -20t-18.5 -50q0 -32 21 -48.5t52 -16.5
q32 0 53 16.5t21 48.5q0 30 -19 50t-55 20z" />
    <glyph glyph-name="uni215D" unicode="&#x215d;" horiz-adv-x="1785" 
d="M115 780l18 426h488v-180h-320l-8 -121q44 47 147 47q98 0 161 -63t63 -166q0 -126 -89 -190t-225 -64q-260 0 -297 172l191 88q5 -41 33 -68.5t75 -27.5q45 0 73 23t28 67q0 40 -22.5 64t-59.5 24q-46 0 -74 -31h-182zM492 0l624 1206h178l-630 -1206h-172zM1419 293
q-35 0 -58.5 -18t-23.5 -58q0 -31 23 -52.5t59 -21.5t59 21.5t23 52.5q0 40 -23.5 58t-58.5 18zM1419 -14q-138 0 -218.5 52t-80.5 152q0 69 42.5 115.5t127.5 59.5v8q-72 4 -110.5 50t-38.5 103q0 99 73 156t205 57t205.5 -57t73.5 -156q0 -57 -38.5 -103t-111.5 -50v-8
q85 -13 127.5 -59.5t42.5 -115.5q0 -100 -80.5 -152t-218.5 -52zM1419 588q-36 0 -54.5 -20t-18.5 -50q0 -32 21 -48.5t52 -16.5q32 0 53 16.5t21 48.5q0 30 -19 50t-55 20z" />
    <glyph glyph-name="uni215E" unicode="&#x215e;" horiz-adv-x="1701" 
d="M430 1026h-192v-113h-183v293h611v-166l-267 -557h-237zM424 0l625 1206h178l-631 -1206h-172zM1352 293q-35 0 -58.5 -18t-23.5 -58q0 -31 23 -52.5t59 -21.5t59 21.5t23 52.5q0 40 -23.5 58t-58.5 18zM1352 -14q-138 0 -218.5 52t-80.5 152q0 69 42.5 115.5t127.5 59.5
v8q-73 4 -111.5 50t-38.5 103q0 99 73.5 156t205.5 57t205 -57t73 -156q0 -57 -38.5 -103t-110.5 -50v-8q85 -13 127.5 -59.5t42.5 -115.5q0 -100 -80.5 -152t-218.5 -52zM1352 588q-36 0 -55 -20t-19 -50q0 -32 21 -48.5t53 -16.5q31 0 52 16.5t21 48.5q0 30 -18.5 50
t-54.5 20z" />
    <glyph glyph-name="arrowleft" unicode="&#x2190;" horiz-adv-x="1468" 
d="M516 733h860v-258h-860l318 -317l-181 -183l-598 629l594 627l182 -184z" />
    <glyph glyph-name="arrowup" unicode="&#x2191;" horiz-adv-x="1402" 
d="M831 770v-770h-258v770l-317 -317l-182 182l628 596l627 -594l-184 -182z" />
    <glyph glyph-name="arrowright" unicode="&#x2192;" horiz-adv-x="1468" 
d="M55 733h860l-315 314l182 184l594 -627l-596 -629l-182 183l317 317h-860v258z" />
    <glyph glyph-name="arrowdown" unicode="&#x2193;" horiz-adv-x="1402" 
d="M571 436v770h258v-770l318 318l182 -181l-629 -598l-626 594l184 183z" />
    <glyph glyph-name="uni2196" unicode="&#x2196;" horiz-adv-x="1400" 
d="M1182 0l-783 782v-583h-252v1007h981v-241h-546l782 -783z" />
    <glyph glyph-name="uni2197" unicode="&#x2197;" horiz-adv-x="1400" 
d="M1001 782l-782 -782l-182 182l782 783h-547v241h981v-1007h-252v583z" />
    <glyph glyph-name="uni2198" unicode="&#x2198;" horiz-adv-x="1400" 
d="M219 1206l782 -780v582h252v-1008h-981v244h547l-782 780z" />
    <glyph glyph-name="uni2199" unicode="&#x2199;" horiz-adv-x="1400" 
d="M399 426l783 780l182 -182l-782 -780h546v-244h-981v1008h252v-582z" />
    <glyph glyph-name="partialdiff" unicode="&#x2202;" horiz-adv-x="1101" 
d="M276 1260l263 145q481 -286 481 -854q0 -287 -123 -426t-346 -139q-216 0 -342.5 128t-126.5 359q0 113 36 203.5t94 144t125 81.5t136 28q94 0 150.5 -34.5t103.5 -98.5q-70 151 -178.5 260.5t-272.5 202.5zM725 453q0 112 -45 171.5t-129 59.5q-166 0 -166 -231
q0 -112 43.5 -174t126.5 -62q85 0 127.5 62t42.5 174z" />
    <glyph glyph-name="increment" unicode="&#x2206;" horiz-adv-x="1292" 
d="M1272 0h-1252l437 1206h374zM852 256l-113 317q-32 89 -56 177.5t-32 131.5l-8 44h-8q-32 -154 -98 -351l-107 -319h422z" />
    <glyph glyph-name="product" unicode="&#x220f;" horiz-adv-x="1347" 
d="M459 -416h-305v1622h1040v-1622h-305v1346h-430v-1346z" />
    <glyph glyph-name="summation" unicode="&#x2211;" horiz-adv-x="991" 
d="M868 940h-299q-44 0 -76.5 2t-42.5 4l-10 2v-8q24 -12 90 -121l129 -215l-127 -217q-28 -48 -50.5 -78.5t-31.5 -36.5l-8 -6v-8q29 8 129 8h297v-266h-868l336 606l-336 600h868v-266z" />
    <glyph glyph-name="minus" unicode="&#x2212;" horiz-adv-x="1019" 
d="M928 424h-836v168h836v-168z" />
    <glyph glyph-name="radical" unicode="&#x221a;" horiz-adv-x="1333" 
d="M471 961l258 -662h8l295 1081l281 -39l-434 -1341h-279l-287 629l-188 -86l-105 217z" />
    <glyph glyph-name="infinity" unicode="&#x221e;" horiz-adv-x="1767" 
d="M313 492q0 -91 46 -138t114 -47q94 0 178 84l103 101l-103 100q-84 84 -178 84q-68 0 -114 -46.5t-46 -137.5zM885 344l-92 -86q-98 -90 -138 -117q-89 -59 -206 -59q-70 0 -132.5 24.5t-113.5 73t-81 129t-30 183.5t30 183.5t81 128.5t113.5 72.5t132.5 24.5
q58 0 103 -10.5t88.5 -38.5t71.5 -52t81 -75l90 -86l92 86q98 90 138 117q89 59 206 59q70 0 132 -24.5t113 -72.5t81 -128.5t30 -183.5t-30 -183.5t-81 -129t-113 -73t-132 -24.5q-58 0 -103 10.5t-88.5 38.5t-71.5 52t-81 75zM1454 492q0 91 -46 137.5t-114 46.5
q-94 0 -178 -84l-102 -100l102 -101q84 -84 178 -84q68 0 114 47t46 138z" />
    <glyph glyph-name="integral" unicode="&#x222b;" horiz-adv-x="649" 
d="M152 -8v1063q0 87 32.5 152t89 102.5t125.5 55.5t150 19q132 0 244 -36l-45 -283q-68 51 -156 51q-63 0 -100 -30.5t-37 -110.5v-1061q0 -87 -32.5 -152.5t-89.5 -103t-126 -56t-150 -18.5q-129 0 -241 37l43 281q73 -52 157 -52q136 0 136 142z" />
    <glyph glyph-name="approxequal" unicode="&#x2248;" horiz-adv-x="1019" 
d="M733 496q-61 0 -219 41t-205 41q-121 0 -217 -80v161q59 50 110.5 69.5t119.5 19.5q64 0 204.5 -38t194.5 -38q65 0 110 14t97 55v-170q-38 -41 -84.5 -58t-110.5 -17zM733 219q-61 0 -219 41t-205 41q-121 0 -217 -80v162q58 50 110 69t120 19q64 0 204.5 -38t194.5 -38
q65 0 110 14.5t97 55.5v-170q-71 -76 -195 -76z" />
    <glyph glyph-name="notequal" unicode="&#x2260;" horiz-adv-x="1019" 
d="M928 578h-254l-103 -148h357v-168h-475l-168 -242l-135 97l100 145h-158v168h275l102 148h-377v167h496l155 224l138 -95l-90 -129h137v-167z" />
    <glyph glyph-name="lessequal" unicode="&#x2264;" horiz-adv-x="905" 
d="M754 823l-340 -205l338 -212l-117 -152l-531 360l543 353zM813 39h-721v168h721v-168z" />
    <glyph glyph-name="greaterequal" unicode="&#x2265;" horiz-adv-x="905" 
d="M489 618l-337 205l106 144l543 -353l-533 -360l-114 152zM813 39h-721v168h721v-168z" />
    <glyph glyph-name="blacksquare" unicode="&#x25a0;" horiz-adv-x="1513" 
d="M154 0v1206h1206v-1206h-1206z" />
    <glyph glyph-name="whitesquare" unicode="&#x25a1;" horiz-adv-x="1513" 
d="M154 0v1206h1206v-1206h-1206zM242 1118v-1030h1032v1030h-1032z" />
    <glyph glyph-name="blacksmallsquare" unicode="&#x25aa;" horiz-adv-x="970" 
d="M154 285v665h663v-665h-663z" />
    <glyph glyph-name="whitesmallsquare" unicode="&#x25ab;" horiz-adv-x="974" 
d="M154 285v665h667v-665h-667zM242 862v-489h491v489h-491z" />
    <glyph glyph-name="triagup" unicode="&#x25b2;" horiz-adv-x="1167" 
d="M82 0l502 1231l501 -1231h-1003z" />
    <glyph glyph-name="triagrt" unicode="&#x25ba;" horiz-adv-x="1384" 
d="M154 1098l1230 -502l-1230 -502v1004z" />
    <glyph glyph-name="triagdn" unicode="&#x25bc;" horiz-adv-x="1167" 
d="M584 -25l-502 1231h1003z" />
    <glyph glyph-name="triaglf" unicode="&#x25c4;" horiz-adv-x="1384" 
d="M0 596l1231 502v-1004z" />
    <glyph glyph-name="lozenge" unicode="&#x25ca;" horiz-adv-x="1069" 
d="M987 616l-342 -686h-223l-340 686l340 674h223zM756 614l-217 451l-215 -451l215 -460z" />
    <glyph glyph-name="circle" unicode="&#x25cb;" horiz-adv-x="1056" 
d="M82 604q0 121 59.5 224t162 163t224.5 60q183 0 315 -131.5t132 -315.5t-132 -315t-315 -131q-122 0 -224.5 60t-162 162.5t-59.5 223.5zM178 602q0 -148 101.5 -252t248.5 -104q143 0 247 104.5t104 251.5q0 148 -104 253.5t-247 105.5q-147 0 -248.5 -104.5
t-101.5 -254.5z" />
    <glyph glyph-name="blackcircle" unicode="&#x25cf;" horiz-adv-x="1419" 
d="M82 602q0 170 84 315t228.5 229.5t314.5 84.5q127 0 243.5 -50t200.5 -134.5t134 -201t50 -243.5t-50 -243.5t-134 -200.5t-200.5 -133.5t-243.5 -49.5q-170 0 -314.5 84t-228.5 228.5t-84 314.5z" />
    <glyph glyph-name="whitecircle" unicode="&#x25ef;" horiz-adv-x="1419" 
d="M82 602q0 170 84 315t228.5 229.5t314.5 84.5q127 0 243.5 -50t200.5 -134.5t134 -201t50 -243.5t-50 -243.5t-134 -200.5t-200.5 -133.5t-243.5 -49.5q-170 0 -314.5 84t-228.5 228.5t-84 314.5zM172 602q0 -148 72 -273.5t195.5 -198.5t269.5 -73q145 0 268.5 73
t195.5 198.5t72 273.5q0 147 -72 272.5t-195.5 199t-268.5 73.5q-146 0 -270 -73.5t-195.5 -199t-71.5 -272.5z" />
    <glyph glyph-name="anglebracketleft" unicode="&#x3008;" horiz-adv-x="716" 
d="M676 -416h-311l-314 899l314 885h311l-311 -891z" />
    <glyph glyph-name="anglebracketright" unicode="&#x3009;" horiz-adv-x="716" 
d="M352 -416h-311l311 893l-311 891h311l314 -885z" />
    <glyph glyph-name="lcedilla" unicode="&#xe100;" horiz-adv-x="610" 
d="M561 -238q0 -94 -68.5 -144t-175.5 -50q-74 0 -134.5 20.5t-90.5 53.5l53 137q64 -70 136 -70q57 0 57 49q0 64 -96 78l18 162q-158 54 -158 235v1135h304v-1040q0 -80 88 -80q40 0 75 14l-16 -254q-86 -25 -168 -28l-4 -52q180 -9 180 -166z" />
    <glyph glyph-name="uni004500600323" unicode="&#xe101;" horiz-adv-x="1087" 
d="M985 266v-266h-831v1206h831v-266h-524v-201h461v-256h-461v-217h524zM387 -264q0 83 50.5 126.5t129.5 43.5q83 0 135 -43.5t52 -126.5q0 -80 -52 -124t-135 -44q-79 0 -129.5 44t-50.5 124zM688 1321h-278l133 307h377z" />
    <glyph glyph-name="uni006500600323" unicode="&#xe102;" horiz-adv-x="1005" 
d="M535 209q113 0 151 119l258 -92q-25 -91 -90 -151.5t-145.5 -85t-178.5 -24.5q-210 0 -339.5 129t-129.5 353q0 244 125 378t346 134q199 0 303.5 -116t104.5 -308q0 -59 -12 -123h-574q3 -100 49.5 -156.5t131.5 -56.5zM362 582h287q2 10 2 28q0 61 -32.5 98t-96.5 37
q-67 0 -110.5 -46t-49.5 -117zM621 1075h-279l141 320h377zM319 -264q0 83 51 126.5t130 43.5q83 0 134.5 -43.5t51.5 -126.5q0 -81 -51.5 -124.5t-134.5 -43.5q-79 0 -130 44t-51 124z" />
    <glyph glyph-name="uni004500B40323" unicode="&#xe103;" horiz-adv-x="1087" 
d="M985 266v-266h-831v1206h831v-266h-524v-201h461v-256h-461v-217h524zM387 -264q0 83 50.5 126.5t129.5 43.5q83 0 135 -43.5t52 -126.5q0 -80 -52 -124t-135 -44q-79 0 -129.5 44t-50.5 124zM727 1321h-278l-232 307h377z" />
    <glyph glyph-name="uni006500B40323" unicode="&#xe104;" horiz-adv-x="1005" 
d="M535 209q113 0 151 119l258 -92q-25 -91 -90 -151.5t-145.5 -85t-178.5 -24.5q-210 0 -339.5 129t-129.5 353q0 244 125 378t346 134q199 0 303.5 -116t104.5 -308q0 -59 -12 -123h-574q3 -100 49.5 -156.5t131.5 -56.5zM362 582h287q2 10 2 28q0 61 -32.5 98t-96.5 37
q-67 0 -110.5 -46t-49.5 -117zM659 1075h-278l-240 320h377zM319 -264q0 83 51 126.5t130 43.5q83 0 134.5 -43.5t51.5 -126.5q0 -81 -51.5 -124.5t-134.5 -43.5q-79 0 -130 44t-51 124z" />
    <glyph glyph-name="Gtilde" unicode="&#xe105;" horiz-adv-x="1300" 
d="M655 651h533v-651h-180l-52 129q-96 -154 -331 -154q-119 0 -217 37.5t-171.5 112t-114 195.5t-40.5 278q0 302 156.5 467.5t441.5 165.5q184 0 313.5 -81.5t190.5 -229.5l-299 -146q-52 184 -213 184q-34 0 -68 -8.5t-72.5 -33.5t-67.5 -64t-48 -106t-19 -154
q0 -78 14.5 -141.5t46.5 -115.5t88.5 -81t133.5 -29q113 0 164 45.5t51 114.5v25h-240v241zM844 1325q-50 0 -80 9.5t-74 35.5q-51 30 -73.5 40.5t-43.5 10.5q-33 0 -51.5 -25t-11.5 -75h-166q-32 61 -29 122.5t28 110t75.5 79t113.5 30.5q66 0 132 -39q7 -4 20 -11.5
t18.5 -11t15.5 -9.5t15 -8t13.5 -6t13.5 -6t11.5 -4t12 -2.5t11.5 -0.5q68 0 53 92h172q38 -90 28.5 -163.5t-65 -121t-139.5 -47.5z" />
    <glyph glyph-name="gtilde" unicode="&#xe106;" horiz-adv-x="1040" 
d="M498 969q157 0 268 -54q28 33 40 58t30 86l235 -78q-7 -64 -59 -111.5t-117 -68.5q41 -68 41 -166q0 -105 -60.5 -180t-160 -110.5t-228.5 -35.5q-75 0 -112 13q-37 -23 -37 -72q0 -21 17 -35t48 -14h283q157 0 247.5 -80t90.5 -205q0 -80 -32.5 -142t-85 -100
t-127.5 -62.5t-152 -34t-166 -9.5q-95 0 -172.5 12t-142 37.5t-100.5 72.5t-36 111q0 83 61 128.5t191 54.5q-71 4 -115.5 55.5t-44.5 118.5q0 61 42 116t122 78q-102 40 -151 105.5t-49 177.5q0 163 116.5 248.5t315.5 85.5zM287 -135q0 -96 211 -96q93 0 147 11t74 31
t20 52q0 37 -23 50t-77 13h-244q-47 0 -77.5 -16t-30.5 -45zM375 635q0 -59 30.5 -94t92.5 -35t94.5 34t32.5 95q0 129 -127 129q-123 0 -123 -129zM662 1063q-50 0 -80 9.5t-74 35.5q-51 30 -73.5 40.5t-43.5 10.5q-33 0 -51.5 -25t-11.5 -75h-166q-32 61 -29 122.5t28 110
t75.5 79t113.5 30.5q65 0 131 -39q7 -4 20 -11.5t18.5 -11t15.5 -9.5t15 -8t13.5 -6t13.5 -6t11.5 -4t12 -2.5t11.5 -0.5q69 0 54 92h172q38 -90 28.5 -163.5t-65 -121t-139.5 -47.5z" />
    <glyph glyph-name="Gcommaturnedabove" unicode="&#xe107;" horiz-adv-x="1300" 
d="M655 651h533v-651h-180l-52 129q-96 -154 -331 -154q-119 0 -217 37.5t-171.5 112t-114 195.5t-40.5 278q0 302 156.5 467.5t441.5 165.5q184 0 313.5 -81.5t190.5 -229.5l-299 -146q-52 184 -213 184q-34 0 -68 -8.5t-72.5 -33.5t-67.5 -64t-48 -106t-19 -154
q0 -78 14.5 -141.5t46.5 -115.5t88.5 -81t133.5 -29q113 0 164 45.5t51 114.5v25h-240v241zM492 1509q0 242 309 242v-98q-72 -2 -107 -19t-35 -57q63 10 109.5 -21t46.5 -98q0 -69 -43 -105t-108 -36q-77 0 -124.5 53t-47.5 139z" />
    <glyph glyph-name="gcommaturnedabove" unicode="&#xe108;" horiz-adv-x="1040" 
d="M498 969q157 0 268 -54q28 33 40 58t30 86l235 -78q-7 -64 -59 -111.5t-117 -68.5q41 -68 41 -166q0 -105 -60.5 -180t-160 -110.5t-228.5 -35.5q-75 0 -112 13q-37 -23 -37 -72q0 -21 17 -35t48 -14h283q157 0 247.5 -80t90.5 -205q0 -80 -32.5 -142t-85 -100
t-127.5 -62.5t-152 -34t-166 -9.5q-95 0 -172.5 12t-142 37.5t-100.5 72.5t-36 111q0 83 61 128.5t191 54.5q-71 4 -115.5 55.5t-44.5 118.5q0 61 42 116t122 78q-102 40 -151 105.5t-49 177.5q0 163 116.5 248.5t315.5 85.5zM287 -135q0 -96 211 -96q93 0 147 11t74 31
t20 52q0 37 -23 50t-77 13h-244q-47 0 -77.5 -16t-30.5 -45zM375 635q0 -59 30.5 -94t92.5 -35t94.5 34t32.5 95q0 129 -127 129q-123 0 -123 -129zM348 1253q0 242 309 242v-98q-72 -2 -106.5 -19t-34.5 -57q63 10 109.5 -21t46.5 -98q0 -69 -43 -105t-109 -36
q-77 0 -124.5 53t-47.5 139z" />
    <glyph glyph-name="Hmacronbelow" unicode="&#xe109;" horiz-adv-x="1349" 
d="M461 0h-307v1206h307v-461h428v461h307v-1206h-307v479h-428v-479zM987 -401h-625v245h625v-245z" />
    <glyph glyph-name="hmacronbelow" unicode="&#xe10a;" horiz-adv-x="1112" 
d="M426 1368v-602q73 203 299 203q116 0 195 -75t79 -226v-668h-303v549q0 83 -24 124.5t-90 41.5q-68 0 -112 -46t-44 -155v-514h-303v1368h303zM874 -401h-624v245h624v-245z" />
    <glyph glyph-name="Jcaron" unicode="&#xe10b;" horiz-adv-x="983" 
d="M553 1206h307v-856q0 -99 -33.5 -173t-94 -117t-137.5 -64t-171 -21q-305 0 -424 230l223 211q36 -93 82 -141t113 -48q74 0 104.5 41t30.5 133v805zM799 1321h-195l-282 307h274l61 -61q16 -16 25.5 -31t11.5 -22l2 -7h11q3 25 38 60l62 61h274z" />
    </font>
</defs>
</svg>
