<?xml version="1.0" standalone="no"?>
<!DOCTYPE svg PUBLIC "-//W3C//DTD SVG 1.1//EN" "http://www.w3.org/Graphics/SVG/1.1/DTD/svg11.dtd" >
<svg xmlns="http://www.w3.org/2000/svg" xmlns:xlink="http://www.w3.org/1999/xlink" version="1.1">
<metadata>
Created by FontForge 20170731 at Fri Sep 17 22:21:25 2021
 By Aleksey,,,
Copyright (c) 2004-9 by Kris Sowersby. All rights reserved.
</metadata>
<defs>
<font id="National-BookItalic" horiz-adv-x="1032" >
  <font-face 
    font-family="National Book Italic"
    font-weight="490"
    font-style="italic"
    font-stretch="normal"
    units-per-em="2048"
    panose-1="2 0 5 3 0 0 0 2 0 4"
    ascent="1638"
    descent="-410"
    x-height="946"
    cap-height="1206"
    bbox="-348 -526 2427 1898"
    underline-thickness="116"
    underline-position="-173"
    unicode-range="U+0020-F778"
  />
<missing-glyph horiz-adv-x="1546" 
d="M170 0v1206h1206v-1206h-1206zM772 541l-453 -453h908zM319 1118l453 -454l455 454h-908zM834 602l454 -452v907zM711 602l-453 455v-907z" />
    <glyph glyph-name="f_b" unicode="fb" horiz-adv-x="1626" 
d="M889 541l-33 -189q-10 -62 8.5 -121.5t70.5 -102t128 -42.5q98 0 171.5 66.5t110.5 176.5t37 244q0 126 -51.5 198.5t-146.5 72.5q-106 0 -189 -84.5t-106 -218.5zM639 0l211 1210q-37 25 -88 40.5t-98 15.5q-182 0 -220 -209l-18 -111h197l-23 -125h-197l-182 -1034
q-23 -128 -80 -173.5t-157 -45.5q-109 0 -168 53l37 123q57 -51 114 -51q44 0 67.5 20t33.5 76l184 1032h-146l25 125h141l21 113q17 89 52.5 153.5t85 100.5t104.5 52.5t120 16.5q57 0 123.5 -14.5t93.5 -32.5l162 33l-106 -604q99 205 307 205q149 0 229 -100.5t80 -288.5
q0 -169 -56 -306t-164 -218t-249 -81q-103 0 -176 52t-88 129l-61 -156h-111z" />
    <glyph glyph-name="f_f_b" unicode="ffb" horiz-adv-x="2158" 
d="M1421 541l-32 -189q-10 -62 8 -121.5t70 -102t128 -42.5q98 0 171.5 66.5t111 176.5t37.5 244q0 126 -52 198.5t-147 72.5q-106 0 -189 -84.5t-106 -218.5zM1171 0l211 1210q-37 25 -88 40.5t-98 15.5q-181 0 -219 -209l-19 -111h193l-23 -125h-192l-178 -1007
q-23 -128 -80.5 -174t-157.5 -46q-107 0 -168 54l37 123q58 -52 115 -52q44 0 67 20.5t33 76.5l180 1005h-381l-182 -1034q-23 -128 -80 -173.5t-157 -45.5q-109 0 -168 53l37 123q57 -51 114 -51q44 0 67.5 20t33.5 76l184 1032h-146l25 125h141l27 146q28 145 98.5 210.5
t184.5 65.5q107 0 188 -59l-63 -129q-37 32 -61.5 44.5t-61.5 12.5q-59 0 -89 -36t-44 -116l-25 -139h379l20 113q33 172 130 247.5t233 75.5q57 0 123.5 -14.5t93.5 -32.5l162 33l-107 -604q99 205 307 205q149 0 229.5 -101t80.5 -288q0 -169 -56 -306t-164 -218t-249 -81
q-103 0 -176.5 52t-88.5 129l-61 -156h-111z" />
    <glyph glyph-name="f_f_h" unicode="ffh" horiz-adv-x="2121" 
d="M1169 0l213 1210q-37 25 -88 40.5t-98 15.5q-181 0 -219 -209l-19 -111h193l-23 -125h-192l-178 -1007q-23 -128 -80.5 -174t-157.5 -46q-107 0 -168 54l37 123q58 -52 115 -52q44 0 67 20.5t33 76.5l180 1005h-381l-182 -1034q-23 -128 -80 -173.5t-157 -45.5
q-109 0 -168 53l37 123q57 -51 114 -51q44 0 67.5 20t33.5 76l184 1032h-146l25 125h141l27 146q28 145 98.5 210.5t184.5 65.5q107 0 188 -59l-63 -129q-37 32 -61.5 44.5t-61.5 12.5q-59 0 -89 -36t-44 -116l-25 -139h379l20 113q33 172 130 247.5t233 75.5
q57 0 123.5 -14.5t93.5 -32.5l162 33l-111 -614q105 215 305 215q111 0 176.5 -58t65.5 -166q0 -47 -8 -94l-78 -448q-16 -92 53 -92q27 0 60 8l-21 -113q-46 -16 -98 -16q-95 0 -131.5 54t-18.5 151l82 458q33 185 -129 185q-42 0 -85 -16t-86.5 -51t-78 -100t-49.5 -153
l-90 -518h-156z" />
    <glyph glyph-name="f_f_j" unicode="ffj" horiz-adv-x="1544" 
d="M1317 821h-381l-178 -1007q-23 -128 -80.5 -174t-157.5 -46q-107 0 -168 54l37 123q58 -52 115 -52q44 0 67 20.5t33 76.5l180 1005h-381l-182 -1034q-23 -128 -80 -173.5t-157 -45.5q-109 0 -168 53l37 123q57 -51 114 -51q44 0 67.5 20t33.5 76l184 1032h-146l25 125
h141l27 146q28 145 98.5 210.5t184.5 65.5q107 0 188 -59l-63 -129q-37 32 -61.5 44.5t-61.5 12.5q-59 0 -89 -36t-44 -116l-25 -139h379l20 113q59 323 353 323q119 0 217 -59l-64 -129q-42 30 -75.5 43.5t-84.5 13.5q-79 0 -126 -44.5t-68 -157.5l-19 -103h535l-199 -1132
q-23 -128 -82 -174t-159 -46q-107 0 -168 54l37 123q58 -52 114 -52q44 0 67.5 20.5t33.5 76.5z" />
    <glyph glyph-name="f_f_k" unicode="ffk" horiz-adv-x="1982" 
d="M1169 0l213 1210q-37 25 -88 40.5t-98 15.5q-181 0 -219 -209l-19 -111h193l-23 -125h-192l-178 -1007q-23 -128 -80.5 -174t-157.5 -46q-107 0 -168 54l37 123q58 -52 115 -52q44 0 67 20.5t33 76.5l180 1005h-381l-182 -1034q-23 -128 -80 -173.5t-157 -45.5
q-109 0 -168 53l37 123q57 -51 114 -51q44 0 67.5 20t33.5 76l184 1032h-146l25 125h141l27 146q28 145 98.5 210.5t184.5 65.5q107 0 188 -59l-63 -129q-37 32 -61.5 44.5t-61.5 12.5q-59 0 -89 -36t-44 -116l-25 -139h379l20 113q33 172 130 247.5t233 75.5
q57 0 123.5 -14.5t93.5 -32.5l162 33l-140 -788h46l350 366h190l-416 -414l166 -348q28 -57 66 -68t104 7l-22 -117q-49 -16 -109 -16q-52 0 -88 22.5t-63 77.5l-187 377h-57l-82 -467h-156z" />
    <glyph glyph-name="f_h" unicode="fh" horiz-adv-x="1589" 
d="M637 0l213 1210q-37 25 -88 40.5t-98 15.5q-182 0 -220 -209l-18 -111h197l-23 -125h-197l-182 -1034q-23 -128 -80 -173.5t-157 -45.5q-109 0 -168 53l37 123q57 -51 114 -51q44 0 67.5 20t33.5 76l184 1032h-146l25 125h141l21 113q17 89 52.5 153.5t85 100.5
t104.5 52.5t120 16.5q57 0 123.5 -14.5t93.5 -32.5l162 33l-110 -614q105 215 305 215q111 0 176 -58t65 -166q0 -47 -8 -94l-78 -448q-16 -92 54 -92q26 0 59 8l-20 -113q-46 -16 -99 -16q-95 0 -131 54t-18 151l82 458q33 185 -129 185q-42 0 -85 -16t-86.5 -51t-78 -100
t-49.5 -153l-90 -518h-156z" />
    <glyph glyph-name="f_j" unicode="fj" horiz-adv-x="1011" 
d="M961 946l-199 -1132q-16 -88 -51.5 -138t-80 -66t-110.5 -16q-107 0 -168 54l37 123q58 -52 115 -52q44 0 67 20.5t33 76.5l180 1005h-381l-182 -1034q-23 -128 -80 -173.5t-157 -45.5q-109 0 -168 53l37 123q57 -51 114 -51q44 0 67.5 20t33.5 76l184 1032h-146l25 125
h141l21 113q59 323 352 323q119 0 217 -59l-63 -129q-42 30 -75.5 43.5t-84.5 13.5q-79 0 -126.5 -44.5t-68.5 -157.5l-18 -103h535z" />
    <glyph glyph-name="f_k" unicode="fk" horiz-adv-x="1449" 
d="M637 0l213 1210q-37 25 -88 40.5t-98 15.5q-182 0 -220 -209l-18 -111h192l-22 -125h-193l-182 -1034q-23 -128 -80 -173.5t-157 -45.5q-109 0 -168 53l37 123q57 -51 114 -51q44 0 67.5 20t33.5 76l184 1032h-146l25 125h141l21 113q17 89 52.5 153.5t85 100.5
t104.5 52.5t120 16.5q57 0 123.5 -14.5t93.5 -32.5l162 33l-139 -788h45l350 366h191l-416 -414l166 -348q28 -57 66 -68t104 7l-23 -117q-49 -16 -108 -16q-52 0 -88.5 22.5t-63.5 77.5l-186 377h-58l-81 -467h-156z" />
    <glyph glyph-name="ff" unicode="ff" horiz-adv-x="1118" 
d="M936 821l-178 -1007q-23 -128 -80.5 -174t-157.5 -46q-107 0 -168 54l37 123q58 -52 115 -52q44 0 67 20.5t33 76.5l180 1005h-381l-182 -1034q-23 -128 -80 -173.5t-157 -45.5q-109 0 -168 53l37 123q57 -51 114 -51q44 0 67.5 20t33.5 76l184 1032h-146l25 125h141
l27 146q28 145 98.5 210.5t184.5 65.5q107 0 188 -59l-63 -129q-37 32 -61.5 44.5t-61.5 12.5q-59 0 -89 -36t-44 -116l-25 -139h379l24 131q31 163 111.5 234t210.5 71q115 0 213 -59l-64 -129q-42 30 -73 43.5t-72 13.5q-75 0 -116 -39.5t-58 -134.5l-23 -131h238
l-22 -125h-238z" />
    <glyph glyph-name="ffi" unicode="ffi" horiz-adv-x="1595" 
d="M1493 946l-131 -743q-16 -92 53 -92q27 0 60 8l-21 -113q-46 -16 -98 -16q-95 0 -131.5 54t-18.5 151l109 626h-379l-178 -1007q-23 -128 -80.5 -174t-157.5 -46q-107 0 -168 54l37 123q58 -52 115 -52q44 0 67 20.5t33 76.5l180 1005h-381l-182 -1034
q-23 -128 -80 -173.5t-157 -45.5q-109 0 -168 53l37 123q57 -51 114 -51q44 0 67.5 20t33.5 76l184 1032h-146l25 125h141l27 146q28 145 98.5 210.5t184.5 65.5q107 0 188 -59l-63 -129q-37 32 -61.5 44.5t-61.5 12.5q-59 0 -89 -36t-44 -116l-25 -139h379l20 113
q59 323 353 323q119 0 217 -59l-64 -129q-42 30 -75.5 43.5t-84.5 13.5q-79 0 -126 -44.5t-68 -157.5l-19 -103h535z" />
    <glyph glyph-name="ffl" unicode="ffl" horiz-adv-x="1587" 
d="M936 821l-178 -1007q-23 -128 -80.5 -174t-157.5 -46q-107 0 -168 54l37 123q58 -52 115 -52q44 0 67 20.5t33 76.5l180 1005h-381l-182 -1034q-23 -128 -80 -173.5t-157 -45.5q-109 0 -168 53l37 123q57 -51 114 -51q44 0 67.5 20t33.5 76l184 1032h-146l25 125h141
l27 146q28 145 98.5 210.5t184.5 65.5q107 0 188 -59l-63 -129q-37 32 -61.5 44.5t-61.5 12.5q-59 0 -89 -36t-44 -116l-25 -139h379l20 113q33 172 130 247.5t233 75.5q57 0 123.5 -14.5t93.5 -32.5l162 33l-205 -1165q-16 -92 53 -92q27 0 60 8l-21 -113q-46 -16 -98 -16
q-95 0 -131.5 54t-18.5 151l176 1015q-37 25 -88 40.5t-98 15.5q-181 0 -219 -209l-19 -111h197l-22 -125h-197z" />
    <glyph glyph-name="fi" unicode="fi" horiz-adv-x="1062" 
d="M961 946l-132 -743q-16 -92 54 -92q26 0 59 8l-20 -113q-46 -16 -99 -16q-95 0 -131 54t-18 151l108 626h-379l-182 -1034q-23 -128 -80 -173.5t-157 -45.5q-109 0 -168 53l37 123q57 -51 114 -51q44 0 67.5 20t33.5 76l184 1032h-146l25 125h141l21 113q59 323 352 323
q119 0 217 -59l-63 -129q-42 30 -75.5 43.5t-84.5 13.5q-79 0 -126.5 -44.5t-68.5 -157.5l-18 -103h535z" />
    <glyph glyph-name="fl" unicode="fl" horiz-adv-x="1054" 
d="M403 821l-182 -1034q-23 -128 -80 -173.5t-157 -45.5q-109 0 -168 53l37 123q57 -51 114 -51q44 0 67.5 20t33.5 76l184 1032h-146l25 125h141l21 113q17 89 52.5 153.5t85 100.5t104.5 52.5t120 16.5q57 0 123.5 -14.5t93.5 -32.5l162 33l-205 -1165q-16 -92 54 -92
q26 0 59 8l-20 -113q-46 -16 -99 -16q-95 0 -131 54t-18 151l176 1015q-37 25 -88 40.5t-98 15.5q-182 0 -220 -209l-18 -111h197l-23 -125h-197z" />
    <glyph glyph-name=".notdef" horiz-adv-x="1546" 
d="M170 0v1206h1206v-1206h-1206zM772 541l-453 -453h908zM319 1118l453 -454l455 454h-908zM834 602l454 -452v907zM711 602l-453 455v-907z" />
    <glyph glyph-name=".null" horiz-adv-x="0" 
 />
    <glyph glyph-name="nonmarkingreturn" horiz-adv-x="682" 
 />
    <glyph glyph-name="space" unicode=" " horiz-adv-x="460" 
 />
    <glyph glyph-name="exclam" unicode="!" horiz-adv-x="436" 
d="M252 1206h205l-201 -866h-106zM53 104q0 50 33.5 83.5t83.5 33.5t83.5 -33.5t33.5 -83.5q0 -49 -33.5 -82.5t-83.5 -33.5t-83.5 33.5t-33.5 82.5z" />
    <glyph glyph-name="quotedbl" unicode="&#x22;" horiz-adv-x="575" 
d="M154 844l92 524h178l-172 -524h-98zM438 844l92 524h179l-172 -524h-99z" />
    <glyph glyph-name="numbersign" unicode="#" horiz-adv-x="1290" 
d="M1112 309h-319l-146 -309h-143l145 309h-203l-145 -309h-143l145 309h-221l22 121h256l89 186h-271l21 121h307l117 248h145l-119 -248h203l117 248h145l-119 -248h234l-21 -121h-270l-88 -186h285zM592 616l-88 -186h203l88 186h-203z" />
    <glyph glyph-name="dollar" unicode="$" horiz-adv-x="911" 
d="M31 250l135 31q-1 -77 49.5 -127.5t126.5 -65.5l66 365q-40 13 -84 34q-78 40 -117 95.5t-39 136.5q0 139 93.5 212t244.5 79l29 166h102l-31 -170q129 -15 196.5 -80.5t67.5 -177.5l-141 -25q2 64 -35.5 107.5t-107.5 58.5l-60 -334h4q133 -53 185.5 -117.5t52.5 -165.5
q0 -139 -93.5 -213t-250.5 -82l-33 -194h-102l35 197q-134 14 -213.5 85.5t-79.5 184.5zM623 254q0 59 -25.5 94t-95.5 68l-58 -330q80 8 129.5 49t49.5 119zM311 741q0 -51 27.5 -83t93.5 -62l53 297q-85 -7 -129.5 -46.5t-44.5 -105.5z" />
    <glyph glyph-name="percent" unicode="%" horiz-adv-x="1738" 
d="M324 469q-119 0 -181.5 79.5t-62.5 219.5q0 80 21 158.5t60 146t104.5 109t146.5 41.5q114 0 178.5 -83.5t64.5 -224.5q0 -80 -20.5 -157.5t-59.5 -143t-104 -105.5t-147 -40zM399 1110q-42 0 -76 -25t-54.5 -63t-34.5 -85.5t-19.5 -89t-5.5 -77.5q2 -90 34.5 -144.5
t94.5 -54.5q51 0 90.5 38t59.5 95.5t30 112.5t10 101q0 89 -32.5 140.5t-96.5 51.5zM389 0l840 1208h121l-838 -1208h-123zM1327 -14q-119 0 -181.5 79.5t-62.5 219.5q0 80 21 158.5t60 145.5t104.5 108.5t146.5 41.5q114 0 179 -83t65 -224q0 -64 -12.5 -126t-39.5 -120
t-65 -102.5t-93.5 -71t-121.5 -26.5zM1403 627q-52 0 -91.5 -37t-60 -93t-30 -110t-9.5 -100q2 -90 34.5 -144.5t94.5 -54.5q51 0 90.5 38t60 95t30.5 112t10 101q0 89 -32.5 141t-96.5 52z" />
    <glyph glyph-name="ampersand" unicode="&#x26;" horiz-adv-x="1132" 
d="M1044 78l-118 -92l-121 149q-178 -160 -422 -160q-165 0 -253.5 73.5t-88.5 213.5q0 134 90 224.5t268 166.5l-45 56q-46 57 -71 112t-25 123q0 87 48.5 153.5t125.5 100t166 33.5q145 0 217 -70t72 -190q0 -213 -287 -346l219 -275q55 78 90 240l142 -31
q-63 -208 -150 -311zM190 272q0 -79 53.5 -128.5t145.5 -49.5q196 0 344 135l-268 334q-11 -6 -43.5 -24t-43.5 -24.5t-38 -22.5t-37.5 -24t-31 -24.5t-28.5 -28t-21 -29t-18 -34t-9.5 -37.5t-4.5 -43zM584 1120q-77 0 -129.5 -46.5t-53.5 -121.5q0 -68 54 -139l71 -96
q113 54 164 112t51 140q0 151 -157 151z" />
    <glyph glyph-name="quotesingle" unicode="'" horiz-adv-x="290" 
d="M154 844l92 524h178l-172 -524h-98z" />
    <glyph glyph-name="parenleft" unicode="(" horiz-adv-x="675" 
d="M297 301q0 -190 53.5 -358.5t173.5 -356.5h-164q-107 165 -162 337.5t-55 375.5q0 309 142.5 597.5t371.5 471.5h183q-93 -81 -168 -161.5t-147 -183t-120.5 -210t-78 -239.5t-29.5 -273z" />
    <glyph glyph-name="parenright" unicode=")" horiz-adv-x="675" 
d="M399 653q0 190 -53.5 358.5t-173.5 356.5h164q107 -165 162 -337.5t55 -375.5q0 -309 -142.5 -597.5t-371.5 -471.5h-182q93 81 168 161.5t147 183t120 210t77.5 239.5t29.5 273z" />
    <glyph glyph-name="asterisk" unicode="*" horiz-adv-x="722" 
d="M563 1180l-76 -191l197 37l8 -133l-205 20l95 -188l-127 -45l-47 201l-144 -150l-80 109l176 108l-186 90l76 109l151 -133l31 203z" />
    <glyph glyph-name="plus" unicode="+" horiz-adv-x="1015" 
d="M98 555h363l63 356h103l-64 -356h371l-16 -94h-371l-68 -385h-102l67 385h-362z" />
    <glyph glyph-name="comma" unicode="," horiz-adv-x="581" 
d="M379 55q0 -89 -46.5 -152.5t-118 -93.5t-163.5 -36v80q52 8 95.5 24.5t76.5 49.5t33 75q-60 -12 -97.5 18.5t-37.5 85.5q0 53 33.5 84t89.5 31q59 0 97 -45t38 -121z" />
    <glyph glyph-name="hyphen" unicode="-" horiz-adv-x="768" 
d="M143 459l23 131h459l-23 -131h-459z" />
    <glyph glyph-name="period" unicode="." horiz-adv-x="581" 
d="M102 115q0 54 36.5 90.5t90.5 36.5t90.5 -36.5t36.5 -90.5t-36.5 -90.5t-90.5 -36.5t-90.5 36.5t-36.5 90.5z" />
    <glyph glyph-name="slash" unicode="/" horiz-adv-x="741" 
d="M-174 -416l868 1786h150l-873 -1786h-145z" />
    <glyph glyph-name="zero" unicode="0" horiz-adv-x="1185" 
d="M541 -25q-113 0 -200 37.5t-138 103t-76 146t-25 174.5q0 129 43 238t117 182t172.5 113.5t208.5 40.5q115 0 202 -37.5t137.5 -103t75.5 -146t25 -174.5q0 -128 -43 -236.5t-116.5 -182t-172.5 -114.5t-210 -41zM262 436q0 -152 75 -242t214 -90q162 0 267.5 127.5
t105.5 315.5q0 150 -77 240t-214 90q-164 0 -267.5 -126t-103.5 -315z" />
    <glyph glyph-name="one" unicode="1" horiz-adv-x="724" 
d="M406 0h-160l145 831l-299 -55l25 131l465 94z" />
    <glyph glyph-name="two" unicode="2" horiz-adv-x="919" 
d="M766 131l-23 -131h-723l21 123q151 73 258.5 137.5t190 136t123 148t40.5 160.5q0 82 -46 127t-130 45q-86 0 -142 -51t-56 -164l-146 30q6 75 33 133t64 92t85.5 55.5t91.5 29.5t87 8q153 0 238 -77t85 -224q0 -87 -38.5 -168.5t-100 -144t-141 -115.5t-157.5 -87.5
t-153 -54.5v-8h539z" />
    <glyph glyph-name="three" unicode="3" horiz-adv-x="905" 
d="M412 385v-6q158 -13 236.5 -90t78.5 -207q0 -92 -34.5 -163.5t-94 -114.5t-134 -65t-159.5 -22q-173 0 -264.5 79t-91.5 208l149 31q0 -97 59.5 -147t166.5 -50t175 61t68 171q0 50 -13.5 89t-47.5 73.5t-98 57t-158 32.5l18 124q209 22 302.5 88t93.5 187
q0 78 -49.5 120t-133.5 42q-176 0 -213 -193l-145 33q26 133 117.5 210t253.5 77q147 0 238 -70t91 -205q0 -166 -111.5 -257t-299.5 -93z" />
    <glyph glyph-name="four" unicode="4" horiz-adv-x="1085" 
d="M535 -268l67 379h-582l19 102l711 772h163l-131 -749h201l-22 -125h-199l-68 -379h-159zM387 236h236l55 319q12 69 25 130.5t21 88.5l7 27h-8q-55 -76 -174 -211l-195 -219q-36 -42 -69.5 -75t-48.5 -46l-15 -12v-9q35 7 166 7z" />
    <glyph glyph-name="five" unicode="5" horiz-adv-x="919" 
d="M143 328l140 657h596l-23 -133h-457l-94 -426q62 55 166 55q143 0 223 -93.5t78 -229.5q-1 -140 -62 -241.5t-161 -150.5t-227 -49q-166 0 -254 78.5t-88 208.5l149 33q0 -101 55.5 -150t157.5 -49q111 0 191.5 75t80.5 222q0 107 -54.5 170.5t-153.5 63.5
q-81 0 -138 -41h-125z" />
    <glyph glyph-name="six" unicode="6" horiz-adv-x="1052" 
d="M1032 987l-147 -55q-36 176 -199 176q-161 0 -281.5 -152.5t-158.5 -418.5h8q44 116 140 172.5t208 56.5q161 0 252.5 -90t91.5 -242q0 -208 -121.5 -333.5t-330.5 -125.5q-190 0 -291 116t-101 349q0 109 23.5 219.5t72.5 213.5t117 182.5t166 127.5t211 48
q288 0 340 -244zM565 637q-128 0 -211.5 -81.5t-83.5 -219.5q0 -113 60.5 -175.5t167.5 -62.5q128 0 210.5 86t82.5 232q0 102 -60.5 161.5t-165.5 59.5z" />
    <glyph glyph-name="seven" unicode="7" horiz-adv-x="970" 
d="M612 850h-350l-29 -154h-149l51 289h805l-18 -104l-684 -1149h-166l579 975q31 52 57.5 88.5t37.5 46.5l10 10v8q-42 -10 -144 -10z" />
    <glyph glyph-name="eight" unicode="8" horiz-adv-x="999" 
d="M436 -25q-169 0 -272 80t-103 213t75.5 222.5t203.5 119.5l2 11q-77 21 -120.5 85t-43.5 146q0 176 126.5 277.5t311.5 101.5q152 0 247 -81t95 -216q0 -119 -75.5 -206t-188.5 -114l-2 -10q90 -28 141.5 -98t51.5 -166q0 -94 -37 -166t-101 -114.5t-142.5 -63.5
t-168.5 -21zM598 1106q-115 0 -184.5 -69t-69.5 -175q0 -92 52 -138t139 -46q115 0 185.5 71t70.5 181q0 79 -50 127.5t-143 48.5zM510 547q-122 0 -202.5 -71t-80.5 -187q0 -91 60.5 -143t158.5 -52q125 0 203 67.5t78 186.5q0 94 -60.5 146.5t-156.5 52.5z" />
    <glyph glyph-name="nine" unicode="9" horiz-adv-x="1050" 
d="M10 -39l131 66q31 -86 92 -136.5t150 -50.5q343 0 422 604h-8q-44 -118 -136 -174.5t-202 -56.5q-162 0 -257.5 95t-95.5 255q0 198 122.5 322.5t328.5 124.5q189 0 290 -119.5t101 -349.5q0 -134 -22.5 -255.5t-69.5 -225.5t-114 -180t-161.5 -119.5t-207.5 -43.5
q-290 0 -363 244zM487 342q126 0 209.5 83t83.5 222q0 114 -62 177t-177 63q-118 0 -198.5 -87t-80.5 -229q0 -103 60.5 -166t164.5 -63z" />
    <glyph glyph-name="colon" unicode=":" horiz-adv-x="581" 
d="M102 115q0 54 36.5 90.5t90.5 36.5t90.5 -36.5t36.5 -90.5t-36.5 -90.5t-90.5 -36.5t-90.5 36.5t-36.5 90.5zM233 856q0 54 36.5 90.5t90.5 36.5t90.5 -36.5t36.5 -90.5t-36.5 -90.5t-90.5 -36.5t-90.5 36.5t-36.5 90.5z" />
    <glyph glyph-name="semicolon" unicode=";" horiz-adv-x="581" 
d="M379 55q0 -89 -46.5 -152.5t-118 -93.5t-163.5 -36v80q52 8 95.5 24.5t76.5 49.5t33 75q-60 -12 -97.5 18.5t-37.5 85.5q0 53 33.5 84t89.5 31q59 0 97 -45t38 -121zM250 856q0 54 36.5 90.5t90.5 36.5t90.5 -36.5t36.5 -90.5t-36.5 -90.5t-90.5 -36.5t-90.5 36.5
t-36.5 90.5z" />
    <glyph glyph-name="less" unicode="&#x3c;" horiz-adv-x="841" 
d="M780 852l-491 -358l354 -349l-80 -77l-440 438l594 434z" />
    <glyph glyph-name="equal" unicode="=" horiz-adv-x="1060" 
d="M918 328h-836l16 94h836zM963 586h-836l16 94h836z" />
    <glyph glyph-name="greater" unicode="&#x3e;" horiz-adv-x="841" 
d="M61 156l492 358l-354 348l80 78l440 -438l-594 -434z" />
    <glyph glyph-name="question" unicode="?" horiz-adv-x="835" 
d="M268 905l-125 53q88 273 375 273q163 0 250.5 -85t87.5 -239q0 -98 -37.5 -177.5t-98.5 -127.5t-132 -73t-144 -25l-32 -182h-144l51 276h46q144 0 236.5 72.5t92.5 222.5q0 100 -51.5 153.5t-148.5 53.5q-169 0 -226 -195zM193 104q0 50 33.5 83.5t82.5 33.5t83 -33.5
t34 -83.5q0 -49 -33.5 -82.5t-83.5 -33.5q-49 0 -82.5 33t-33.5 83z" />
    <glyph glyph-name="at" unicode="@" horiz-adv-x="1794" 
d="M1063 373l14 86q19 113 -34 186.5t-134 73.5q-112 0 -185 -106.5t-73 -286.5q0 -228 156 -228q91 0 164 72t92 203zM1249 -25q-208 0 -211 189q-23 -73 -66.5 -117t-90 -58t-107.5 -14q-130 0 -203 91.5t-73 259.5q0 227 113 367.5t276 140.5q89 0 153.5 -43.5
t75.5 -131.5l64 162h116l-114 -590q-12 -74 10 -108.5t86 -34.5q127 0 206 124t79 316q0 116 -34.5 212.5t-94.5 163t-142 113t-175 68t-195 21.5q-106 0 -205 -26t-187 -82t-153 -136t-103 -195t-38 -253q0 -146 40 -265.5t109 -200t164.5 -135.5t203 -79.5t228.5 -24.5
q210 0 369 60l28 -117q-186 -62 -399 -62q-137 0 -260 25t-240 85.5t-201 152.5t-135 235t-51 324q0 176 58.5 325t165.5 256t265 167.5t349 60.5q152 0 279.5 -36t217.5 -99t152.5 -148t92.5 -183t30 -204q0 -264 -119 -420t-334 -156z" />
    <glyph glyph-name="A" unicode="A" horiz-adv-x="1181" 
d="M887 0l-64 356h-506l-186 -356h-172l651 1206h217l226 -1206h-166zM553 803l-168 -316h414q-30 150 -54 305t-33 236.5t-7 81.5h-9q-45 -121 -143 -307z" />
    <glyph glyph-name="B" unicode="B" horiz-adv-x="1036" 
d="M702 614v-8q108 -8 168 -65.5t60 -159.5q0 -99 -34 -173.5t-97 -119.5t-144.5 -66.5t-183.5 -21.5h-389l211 1206h354q171 0 249.5 -68t78.5 -202q0 -141 -78.5 -226t-194.5 -96zM362 670h187q121 0 190.5 58t69.5 183q0 85 -48.5 123.5t-152.5 38.5h-174zM340 539
l-72 -406h221q281 0 281 234q0 82 -48 127t-163 45h-219z" />
    <glyph glyph-name="C" unicode="C" horiz-adv-x="1128" 
d="M907 295l125 -70q-140 -250 -457 -250q-217 0 -339.5 135t-122.5 355q0 177 49 323.5t133 242t195 148t237 52.5q322 0 391 -285l-160 -65q-19 108 -86 161.5t-161 53.5q-133 0 -233 -88t-149.5 -227t-49.5 -304q0 -169 81.5 -267.5t233.5 -98.5q108 0 179 38.5
t134 145.5z" />
    <glyph glyph-name="D" unicode="D" horiz-adv-x="1193" 
d="M268 133h195q80 0 151 21t133.5 68t107 116.5t70 171t25.5 227.5q0 336 -354 336h-162zM471 0h-389l211 1206h328q252 0 376.5 -118t124.5 -338q0 -159 -38 -287.5t-101 -213.5t-148 -142t-176 -82t-188 -25z" />
    <glyph glyph-name="E" unicode="E" horiz-adv-x="983" 
d="M825 139l-22 -139h-721l211 1206h721l-25 -139h-557l-70 -395h494l-25 -140h-493l-70 -393h557z" />
    <glyph glyph-name="F" unicode="F" horiz-adv-x="925" 
d="M246 0h-164l211 1206h684l-25 -139h-520l-70 -395h457l-24 -140h-457z" />
    <glyph glyph-name="G" unicode="G" horiz-adv-x="1212" 
d="M649 614h467l-106 -614h-127l-2 154q-39 -85 -117 -132t-191 -47q-216 0 -338 135t-122 355q0 177 49 323.5t133.5 242t196 148t237.5 52.5q322 0 391 -285l-159 -65q-19 108 -86.5 161.5t-161.5 53.5q-133 0 -233.5 -88t-150.5 -227t-50 -304q0 -171 79.5 -268.5
t235.5 -97.5q275 0 324 282l14 78h-307z" />
    <glyph glyph-name="H" unicode="H" horiz-adv-x="1257" 
d="M246 0h-164l211 1206h164l-92 -524h606l92 524h164l-211 -1206h-164l94 543h-606z" />
    <glyph glyph-name="I" unicode="I" horiz-adv-x="487" 
d="M293 1206h164l-211 -1206h-164z" />
    <glyph glyph-name="J" unicode="J" horiz-adv-x="858" 
d="M674 1206h164l-158 -889q-32 -184 -121.5 -263t-263.5 -79q-134 0 -218 68t-108 180l131 84q46 -203 205 -203q107 0 149.5 54t65.5 188z" />
    <glyph glyph-name="K" unicode="K" horiz-adv-x="1040" 
d="M940 0h-182l-301 543h-117l-94 -543h-164l211 1206h164l-92 -528h96l467 528h194l-534 -585z" />
    <glyph glyph-name="L" unicode="L" horiz-adv-x="937" 
d="M293 1206h164l-189 -1067h557l-22 -139h-721z" />
    <glyph glyph-name="M" unicode="M" horiz-adv-x="1413" 
d="M748 301h-123l-158 449q-22 62 -34.5 119t-14.5 83l-2 27h-8q-4 -76 -29 -221l-133 -758h-164l211 1206h192l187 -579q14 -45 23 -87.5t11 -62.5l3 -20h8q16 64 84 164l389 585h192l-211 -1206h-163l133 758q11 64 23.5 119.5t19.5 78.5l6 23h-8q-33 -78 -127 -219z" />
    <glyph glyph-name="N" unicode="N" horiz-adv-x="1255" 
d="M463 1206l325 -712q29 -64 54.5 -132t35.5 -104l11 -37h8q16 145 43 297l121 688h164l-211 -1206h-166l-334 709q-28 61 -54 129t-38 106l-12 37h-9q-7 -141 -34 -293l-121 -688h-164l211 1206h170z" />
    <glyph glyph-name="O" unicode="O" horiz-adv-x="1261" 
d="M575 -25q-217 0 -339.5 135t-122.5 355q0 177 49 323.5t133 242t195 148t237 52.5q217 0 340 -136t123 -356q0 -177 -49 -323t-133.5 -241.5t-195.5 -147.5t-237 -52zM711 1094q-133 0 -233 -87.5t-149.5 -226t-49.5 -303.5q0 -169 81.5 -267.5t233.5 -98.5
q100 0 182.5 50.5t136 136t82.5 196.5t29 233q0 78 -17.5 142.5t-54 116t-98 80t-143.5 28.5z" />
    <glyph glyph-name="P" unicode="P" horiz-adv-x="983" 
d="M434 1073l-86 -481h180q141 0 219 79t78 222q0 92 -50.5 136t-164.5 44h-176zM246 0h-164l211 1206h336q188 0 276 -73.5t88 -227.5q0 -213 -131 -328.5t-342 -115.5h-194z" />
    <glyph glyph-name="Q" unicode="Q" horiz-adv-x="1271" 
d="M1200 739q0 -173 -46.5 -316t-127 -238t-187 -149t-227.5 -59q28 -46 70 -75t87.5 -38.5t97.5 -12t100 3.5l-54 -148q-193 -5 -317.5 71t-149.5 216q-155 39 -239 164.5t-84 306.5q0 177 49 323.5t133 242t195 148t237 52.5q217 0 340 -136t123 -356zM721 1094
q-133 0 -233 -87.5t-149.5 -226t-49.5 -303.5q0 -169 81.5 -267.5t233.5 -98.5q100 0 182.5 50.5t136 136t82.5 196.5t29 233q0 78 -17.5 142.5t-54 116t-98 80t-143.5 28.5z" />
    <glyph glyph-name="R" unicode="R" horiz-adv-x="1095" 
d="M979 0h-174q-29 37 -41 109l-37 219q-18 110 -66 147t-155 37h-170l-90 -512h-164l211 1206h399q187 0 264.5 -72.5t77.5 -211.5q0 -86 -30.5 -154.5t-80.5 -109.5t-107 -63t-116 -24v-8q85 -11 125.5 -53.5t59.5 -142.5l43 -242q12 -70 51 -125zM434 1073l-76 -430h232
q129 0 202.5 62.5t73.5 193.5q0 90 -46.5 132t-153.5 42h-232z" />
    <glyph glyph-name="S" unicode="S" horiz-adv-x="980" 
d="M41 295l147 27q-3 -224 240 -224q119 0 185.5 54t66.5 163q0 93 -47.5 144.5t-173.5 99.5q-52 20 -86 36t-73.5 44t-62 59t-38 78.5t-15.5 106.5q0 76 26 137t67 99.5t95 64.5t107.5 36.5t106.5 10.5q181 0 272.5 -74.5t91.5 -243.5l-153 -24q3 106 -54.5 162.5
t-169.5 56.5q-106 0 -171.5 -54.5t-65.5 -148.5q0 -31 5.5 -55.5t20.5 -44.5t29 -33.5t46 -30t54.5 -26.5t69.5 -29q72 -30 119.5 -59t86.5 -69.5t57 -95t18 -126.5q0 -92 -34.5 -162.5t-94.5 -113t-136 -64t-165 -21.5q-371 0 -371 320z" />
    <glyph glyph-name="T" unicode="T" horiz-adv-x="968" 
d="M479 0h-164l187 1067h-359l25 139h883l-25 -139h-360z" />
    <glyph glyph-name="U" unicode="U" horiz-adv-x="1191" 
d="M1018 1206h164l-146 -827q-19 -113 -65 -193.5t-115 -125.5t-148 -65t-178 -20q-78 0 -143.5 16.5t-120.5 51.5t-88 91t-46 135t7 182l131 755h164l-135 -774q-29 -166 40.5 -244.5t209.5 -78.5q136 0 219 70t111 233z" />
    <glyph glyph-name="V" unicode="V" horiz-adv-x="1083" 
d="M330 1206l112 -800q12 -84 19 -159.5t7 -108.5l1 -34h8q37 111 129 299l398 803h172l-611 -1206h-217l-184 1206h166z" />
    <glyph glyph-name="W" unicode="W" horiz-adv-x="1683" 
d="M1049 1206l71 -786q8 -86 12 -166.5t4 -117.5l1 -38h8q32 127 110 320l322 788h168l-514 -1206h-225l-68 750q-7 98 -6.5 168t4.5 110l4 39h-8q-29 -124 -113 -317l-325 -750h-226l-63 1206h160l32 -782q2 -53 3.5 -106t2 -91t0.5 -68.5v-45.5v-15h9q26 134 112 324
l344 784h181z" />
    <glyph glyph-name="X" unicode="X" horiz-adv-x="1097" 
d="M801 0l-185 354q-25 49 -39.5 86t-16.5 50l-1 12h-8q-9 -31 -107 -150l-292 -352h-193l526 616l-295 590h179l157 -323q25 -52 39.5 -91t16.5 -52l2 -13h6q6 27 108 154l263 325h188l-494 -585l314 -621h-168z" />
    <glyph glyph-name="Y" unicode="Y" horiz-adv-x="1011" 
d="M342 1206l139 -413q19 -58 31 -110.5t14 -75.5l2 -23h9q24 78 106 207l266 415h174l-487 -731l-82 -475h-164l82 475l-258 731h168z" />
    <glyph glyph-name="Z" unicode="Z" horiz-adv-x="1040" 
d="M14 84l703 840q44 52 83 89t56 47l18 11v8q-67 -12 -196 -12h-463l25 139h831l-20 -104l-689 -819q-44 -52 -83 -89t-57 -48l-17 -11v-8q67 12 196 12h486l-23 -139h-864z" />
    <glyph glyph-name="bracketleft" unicode="[" horiz-adv-x="649" 
d="M479 1253l-272 -1552h293l-21 -117h-438l313 1786h439l-21 -117h-293z" />
    <glyph glyph-name="backslash" unicode="\" horiz-adv-x="690" 
d="M338 1370l250 -1786h-133l-250 1786h133z" />
    <glyph glyph-name="bracketright" unicode="]" horiz-adv-x="649" 
d="M170 -299l272 1552h-292l20 117h438l-313 -1786h-438l20 117h293z" />
    <glyph glyph-name="asciicircum" unicode="^" horiz-adv-x="1021" 
d="M911 657l-120 359q-26 78 -39.5 138.5t-13.5 81.5l-1 21h-8q-16 -65 -139 -239l-254 -361h-160l514 711h123l262 -711h-164z" />
    <glyph glyph-name="underscore" unicode="_" horiz-adv-x="987" 
d="M0 -170l23 125h780l-23 -125h-780z" />
    <glyph glyph-name="grave" unicode="`" horiz-adv-x="696" 
d="M532 1085h-133l-235 293h215z" />
    <glyph glyph-name="a" unicode="a" horiz-adv-x="1075" 
d="M719 395l29 160q20 115 -29.5 203t-157.5 88q-141 0 -234.5 -131.5t-93.5 -333.5q0 -125 54 -201t155 -76q107 0 180.5 77.5t96.5 213.5zM973 946l-131 -743q-16 -92 53 -92q26 0 59 8l-20 -113q-46 -16 -98 -16q-77 0 -115.5 43.5t-32.5 124.5q-41 -92 -117.5 -137.5
t-171.5 -45.5q-141 0 -229 102t-88 285q0 162 57 300t165 222.5t243 84.5q209 0 246 -183l51 160h129z" />
    <glyph glyph-name="b" unicode="b" horiz-adv-x="1069" 
d="M332 547l-33 -182q-10 -61 8.5 -119.5t70.5 -100t128 -41.5q147 0 234 137t87 339q0 123 -51.5 193.5t-146.5 70.5q-108 0 -191 -82.5t-106 -214.5zM254 156l-61 -156h-111l240 1368h155l-106 -604q99 205 307 205q149 0 229 -100.5t80 -288.5q0 -169 -56 -306t-164 -218
t-249 -81q-103 0 -176 52t-88 129z" />
    <glyph glyph-name="c" unicode="c" horiz-adv-x="901" 
d="M690 289l144 -33q-54 -144 -151 -212.5t-247 -68.5q-160 0 -257 106t-97 294q0 90 19 176t59 161.5t95.5 133t134 90.5t169.5 33q153 0 227 -77t74 -220l-145 -25q-2 94 -42 143.5t-132 49.5q-95 0 -167.5 -68.5t-106.5 -167.5t-34 -207q0 -147 59 -224t165 -77
q92 0 146.5 50t86.5 143z" />
    <glyph glyph-name="d" unicode="d" horiz-adv-x="1067" 
d="M719 393l31 162q20 113 -30.5 201t-158.5 88q-143 0 -236.5 -131.5t-93.5 -333.5q0 -123 54 -199t155 -76q108 0 182 77.5t97 211.5zM1047 1368l-205 -1165q-16 -92 53 -92q26 0 59 8l-20 -113q-46 -16 -98 -16q-77 0 -115.5 43.5t-32.5 124.5q-36 -96 -113 -139.5
t-176 -43.5q-141 0 -229 102t-88 285q0 162 57 300t165 222.5t243 84.5q207 0 244 -183l102 582h154z" />
    <glyph glyph-name="e" unicode="e" horiz-adv-x="940" 
d="M457 96q100 0 152.5 40t80.5 122l141 -35q-50 -137 -145.5 -192.5t-243.5 -55.5q-168 0 -264 109t-96 293q0 139 40 254t105.5 187.5t147 111.5t168.5 39t154 -28t105.5 -76.5t57.5 -107t19 -126.5q0 -107 -41 -193h-611q-5 -64 5.5 -123.5t36.5 -109.5t74.5 -79.5
t113.5 -29.5zM246 563h473q10 29 10 72q0 91 -49.5 151t-144.5 60q-111 0 -185 -80t-104 -203z" />
    <glyph glyph-name="f" unicode="f" horiz-adv-x="585" 
d="M68 -211l184 1032h-146l25 125h141l25 131q31 164 111.5 234.5t209.5 70.5q115 0 213 -59l-63 -129q-42 30 -73 43.5t-72 13.5q-75 0 -116 -39.5t-58 -134.5l-23 -131h238l-23 -125h-238l-182 -1034q-23 -128 -80 -173.5t-157 -45.5q-109 0 -168 53l37 123
q57 -51 114 -51q44 0 67.5 20t33.5 76z" />
    <glyph glyph-name="g" unicode="g" horiz-adv-x="1024" 
d="M719 389l31 166q13 73 -1.5 138t-62.5 109t-121 44q-145 0 -238.5 -132.5t-93.5 -334.5q0 -125 52.5 -200t154.5 -75q111 0 183 75t96 210zM973 946l-172 -977q-37 -207 -146 -304t-313 -97q-176 0 -262.5 73t-99.5 189l139 47q6 -85 68 -139.5t165 -54.5q127 0 195.5 70
t95.5 210l37 191q-78 -177 -277 -177q-142 0 -231.5 102.5t-89.5 285.5q0 161 58 298.5t167 221.5t246 84q203 0 240 -183l51 160h129z" />
    <glyph glyph-name="h" unicode="h" horiz-adv-x="1034" 
d="M907 651l-78 -448q-16 -92 54 -92q26 0 59 8l-20 -113q-46 -16 -99 -16q-95 0 -131 54t-18 151l82 458q33 185 -129 185q-42 0 -85 -16t-86.5 -51t-78 -100t-49.5 -153l-90 -518h-156l237 1368h160l-110 -614q105 215 305 215q111 0 176 -58t65 -166q0 -47 -8 -94z" />
    <glyph glyph-name="i" unicode="i" horiz-adv-x="497" 
d="M395 946l-131 -743q-16 -92 53 -92q27 0 60 8l-21 -113q-46 -16 -98 -16q-95 0 -131 54t-18 151l131 751h155zM256 1253q0 47 32 80t77 33q46 0 79 -33t33 -80q0 -44 -33 -77t-79 -33q-44 0 -76.5 33t-32.5 77z" />
    <glyph glyph-name="j" unicode="j" horiz-adv-x="446" 
d="M395 946l-192 -1089q-28 -159 -106.5 -224t-205.5 -65q-51 0 -100 15t-78 38l54 123q66 -51 139 -51q54 0 88.5 36t50.5 124l195 1093h155zM256 1253q0 47 32 80t77 33q46 0 79 -33t33 -80q0 -44 -33 -77t-79 -33q-44 0 -76.5 33t-32.5 77z" />
    <glyph glyph-name="k" unicode="k" horiz-adv-x="894" 
d="M561 90l-186 377h-56l-81 -467h-156l240 1368h157l-139 -788h45l350 366h191l-416 -414l166 -348q28 -57 66 -68t104 7l-23 -117q-49 -16 -108 -16q-52 0 -89.5 22.5t-64.5 77.5z" />
    <glyph glyph-name="l" unicode="l" horiz-adv-x="489" 
d="M469 1368l-205 -1165q-16 -92 53 -92q27 0 60 8l-21 -113q-46 -16 -98 -16q-95 0 -131 54t-18 151l204 1173h156z" />
    <glyph glyph-name="m" unicode="m" horiz-adv-x="1546" 
d="M770 0h-154l117 653q33 185 -129 185q-37 0 -76 -16t-79 -50.5t-73 -100.5t-48 -153l-90 -518h-156l166 946h135l-14 -192q54 111 120.5 163t176.5 52q101 0 164 -61t63 -169q52 116 124 173t183 57q102 0 164.5 -58.5t62.5 -165.5q0 -47 -8 -94l-78 -448q-16 -92 54 -92
q26 0 59 8l-20 -113q-46 -16 -99 -16q-95 0 -131 54t-18 151l82 458q33 185 -129 185q-29 0 -59.5 -9.5t-64.5 -33t-63 -58.5t-53.5 -91.5t-36.5 -127.5z" />
    <glyph glyph-name="n" unicode="n" horiz-adv-x="1034" 
d="M907 651l-78 -448q-16 -92 54 -92q26 0 59 8l-20 -113q-46 -16 -99 -16q-95 0 -131 54t-18 151l82 458q33 185 -129 185q-42 0 -85 -16t-86.5 -51t-78 -100t-49.5 -153l-90 -518h-156l166 946h135l-14 -192q105 215 305 215q111 0 176 -58t65 -166q0 -47 -8 -94z" />
    <glyph glyph-name="o" unicode="o" horiz-adv-x="1005" 
d="M567 969q169 0 263 -109t94 -297q0 -160 -55.5 -292t-167.5 -214t-261 -82q-162 0 -260 106t-98 296q0 118 32.5 224.5t92 188.5t153 130.5t207.5 48.5zM543 840q-93 0 -165 -63.5t-108.5 -164t-36.5 -217.5q0 -144 60.5 -221.5t167.5 -77.5q93 0 164.5 66t107 169
t35.5 222q0 135 -59 211t-166 76z" />
    <glyph glyph-name="p" unicode="p" horiz-adv-x="1071" 
d="M332 547l-33 -185q-13 -59 6.5 -117.5t73 -99.5t129.5 -41q98 0 171.5 65t110.5 172.5t37 238.5q0 122 -51.5 192t-146.5 70q-107 0 -190.5 -82t-106.5 -213zM264 156l-100 -572h-154l240 1362h135l-16 -182q99 205 311 205q149 0 229 -100.5t80 -288.5q0 -169 -56 -306
t-164 -218t-249 -81q-102 0 -171 51.5t-85 129.5z" />
    <glyph glyph-name="q" unicode="q" horiz-adv-x="1013" 
d="M719 391l29 164q13 72 -2.5 137t-63.5 108.5t-121 43.5q-141 0 -234.5 -132.5t-93.5 -334.5q0 -123 54 -199t155 -76q107 0 180.5 77.5t96.5 211.5zM733 -416h-155l100 568q-78 -177 -279 -177q-141 0 -229 102t-88 285q0 162 57 300t165 222.5t243 84.5q209 0 246 -183
l51 160h129z" />
    <glyph glyph-name="r" unicode="r" horiz-adv-x="679" 
d="M721 965l-41 -183q-111 23 -217.5 -42t-128.5 -193l-96 -547h-156l166 946h135l-18 -215q50 114 148 183t208 51z" />
    <glyph glyph-name="s" unicode="s" horiz-adv-x="817" 
d="M41 252l141 29q0 -96 50 -144.5t137 -48.5q176 0 176 148q0 71 -38 112t-136 78q-110 41 -164.5 104t-54.5 164q0 131 89.5 203t231.5 72q283 0 283 -248l-146 -16q0 71 -38.5 109t-112.5 38q-75 0 -120.5 -37t-45.5 -104q0 -57 36 -94t146 -82q119 -50 168 -116.5
t49 -170.5q0 -135 -88.5 -204t-241.5 -69t-237 74t-84 203z" />
    <glyph glyph-name="t" unicode="t" horiz-adv-x="618" 
d="M510 154v-131q-83 -48 -186 -48q-124 0 -180 70.5t-29 216.5l98 559h-131l22 125h134l34 199l158 22l-39 -221h248l-23 -125h-245l-103 -575q-13 -70 11 -105t69 -35q43 0 78 10t84 38z" />
    <glyph glyph-name="u" unicode="u" 
d="M647 178q-42 -106 -115.5 -154.5t-181.5 -48.5q-147 0 -207 93t-30 264l106 614h156l-113 -643q-17 -100 17.5 -155.5t117.5 -55.5q94 0 174.5 75.5t102.5 203.5l100 575h156l-131 -743q-16 -92 53 -92q26 0 59 8l-20 -113q-46 -16 -98 -16q-92 0 -125.5 47.5
t-20.5 140.5z" />
    <glyph glyph-name="v" unicode="v" horiz-adv-x="843" 
d="M225 0l-143 946h160l67 -549q10 -84 16 -159t7 -108v-34h8q29 111 123 299l274 551h168l-502 -946h-178z" />
    <glyph glyph-name="w" unicode="w" horiz-adv-x="1361" 
d="M836 946l51 -530q9 -84 11.5 -161t0.5 -111l-2 -35h8q23 114 105 307l231 530h162l-426 -946h-186l-56 485q-8 84 -10.5 158t-0.5 107l1 32h-8q-29 -107 -115 -297l-213 -485h-186l-101 946h160l45 -528q8 -84 10.5 -161.5t0.5 -112.5l-1 -35h9q26 121 110 309l240 528
h160z" />
    <glyph glyph-name="x" unicode="x" horiz-adv-x="864" 
d="M592 0l-113 236q-25 53 -37.5 89t-11.5 46v10h-8q-5 -25 -105 -148l-194 -233h-174l401 477l-219 469h166l94 -219q24 -56 37 -92.5t14 -45.5l2 -9h9q6 24 100 145l174 221h178l-383 -465l232 -481h-162z" />
    <glyph glyph-name="y" unicode="y" horiz-adv-x="856" 
d="M256 946l63 -549q12 -83 18 -157.5t5 -107.5v-34h8q29 113 123 297l279 551h166l-560 -1061q-52 -100 -100.5 -164t-97.5 -97t-92.5 -44.5t-100.5 -11.5q-77 0 -141 35l33 116q62 -32 116 -32q77 0 137.5 58.5t131.5 199.5l-152 1001h164z" />
    <glyph glyph-name="z" unicode="z" horiz-adv-x="847" 
d="M-2 84l512 584q45 52 83.5 89t54.5 49l16 11v8q-64 -14 -193 -14h-303l22 135h678l-20 -106l-506 -566q-45 -51 -84.5 -88t-56.5 -48l-17 -11v-8q68 12 197 12h326l-21 -131h-706z" />
    <glyph glyph-name="braceleft" unicode="{" horiz-adv-x="780" 
d="M303 479v-8q75 -10 108.5 -54t14.5 -147l-72 -417q-16 -87 4 -127.5t88 -40.5q63 0 132 30l8 -114q-94 -31 -191 -31q-130 0 -171.5 70t-16.5 204l72 414q5 35 6 60.5t-8 43t-18.5 28.5t-26.5 16.5t-31.5 7.5t-34.5 2h-84l20 119h84q31 0 54 5t49 20t44 48.5t27 83.5
l68 414q25 134 93 204t198 70q94 0 174 -30l-47 -115q-60 31 -121 31q-68 0 -103 -41t-49 -127l-73 -418q-19 -106 -66.5 -147.5t-130.5 -53.5z" />
    <glyph glyph-name="bar" unicode="|" horiz-adv-x="460" 
d="M147 -416h-137l314 1786h137z" />
    <glyph glyph-name="braceright" unicode="}" horiz-adv-x="780" 
d="M467 471v8q-75 10 -108.5 54t-14.5 147l72 418q16 87 -4 127.5t-88 40.5q-59 0 -131 -31l-9 115q91 30 191 30q130 0 171.5 -70t16.5 -204l-71 -414q-5 -35 -6 -60.5t7.5 -43t18 -28t26.5 -16t31.5 -7.5t34.5 -2h84l-20 -119h-84q-31 0 -54 -5.5t-49 -20.5t-44 -48.5
t-27 -83.5l-68 -414q-25 -134 -93 -204t-198 -70q-92 0 -174 31l47 114q58 -30 121 -30q68 0 103 41t49 127l73 417q19 106 66.5 147.5t130.5 53.5z" />
    <glyph glyph-name="asciitilde" unicode="~" horiz-adv-x="720" 
d="M377 455l-96 51q-42 22 -66 22q-31 0 -50 -18.5t-26 -65.5l-61 29q-6 27 -6 49q0 62 45 99.5t108 37.5q51 0 109 -30l98 -56q30 -18 70 -18q66 0 71 92l70 -31q4 -14 4 -41q-3 -65 -47 -108t-111 -43q-48 0 -112 31z" />
    <glyph glyph-name="nbspace" unicode="&#xa0;" horiz-adv-x="313" 
 />
    <glyph glyph-name="exclamdown" unicode="&#xa1;" horiz-adv-x="436" 
d="M186 -260h-204l200 866h107zM385 842q0 -50 -33.5 -83.5t-83.5 -33.5q-49 0 -82.5 33.5t-33.5 83.5t33 83t83 33t83.5 -33.5t33.5 -82.5z" />
    <glyph glyph-name="cent" unicode="&#xa2;" horiz-adv-x="999" 
d="M799 281l114 -84q-72 -114 -168 -166.5t-237 -55.5l-33 -192h-102l35 201q-140 27 -223 134t-83 273q0 167 56 301.5t167 219t263 96.5l30 168h103l-31 -168q229 -20 289 -234l-152 -74q-27 149 -159 174l-138 -774q165 3 269 181zM262 412q0 -115 43.5 -192t126.5 -105
l133 762q-134 -22 -218.5 -152.5t-84.5 -312.5z" />
    <glyph glyph-name="sterling" unicode="&#xa3;" horiz-adv-x="997" 
d="M713 428h-275q2 -14 2 -43q0 -93 -42.5 -162t-108.5 -90h370q59 0 101.5 20.5t66.5 79.5l109 -61q-72 -172 -283 -172h-633l23 139h100q55 0 105.5 56t50.5 127q0 60 -12 106h-199l16 102h160q-10 62 -10 146q0 72 22 130.5t57.5 95.5t83 62t95.5 35.5t98 10.5
q149 0 229.5 -68.5t80.5 -204.5l-150 -24q-3 172 -174 172q-90 0 -141.5 -50t-51.5 -157q0 -67 15 -148h311z" />
    <glyph glyph-name="currency" unicode="&#xa4;" horiz-adv-x="964" 
d="M41 272l176 152q-18 50 -18 115q0 151 80 260l-115 139l78 66l108 -136q84 62 199 62q117 0 184 -70l172 148l60 -72l-181 -154q23 -61 23 -125q0 -142 -76 -251l117 -138l-78 -65l-108 131q-83 -64 -201 -64q-125 0 -193 74l-168 -143zM532 825q-94 0 -151 -80.5
t-57 -193.5q0 -89 39.5 -135.5t109.5 -46.5q62 0 110 41t71.5 104.5t23.5 136.5q0 83 -38.5 128.5t-107.5 45.5z" />
    <glyph glyph-name="yen" unicode="&#xa5;" horiz-adv-x="999" 
d="M866 496h-215l-73 -103h278l-8 -102h-313l-50 -291h-159l49 291h-293l8 102h277l-37 103h-230l9 102h184l-141 387h167l111 -332q19 -58 31 -106.5t14 -68.5l2 -19h8q25 65 111 192l227 334h176l-276 -387h151z" />
    <glyph glyph-name="brokenbar" unicode="&#xa6;" horiz-adv-x="460" 
d="M322 569h-138l140 801h137zM147 -416h-137l142 801h137z" />
    <glyph glyph-name="section" unicode="&#xa7;" horiz-adv-x="808" 
d="M53 492q0 110 63.5 176t164.5 88q-93 74 -93 192q0 72 28.5 126.5t76.5 86t104.5 47t118.5 15.5q283 0 283 -248l-146 -17q1 72 -40.5 109t-116.5 37q-68 0 -115 -36.5t-47 -102.5q0 -55 35.5 -91t154.5 -98q113 -59 163 -121t50 -153q0 -107 -61.5 -171t-167.5 -87
q94 -82 94 -199q0 -70 -27.5 -123.5t-76.5 -85.5t-111 -47.5t-135 -15.5q-303 0 -303 245l133 21q3 -156 180 -156q83 0 138 35.5t55 101.5q0 63 -36 102t-149 99q-58 31 -93 54.5t-66 55.5t-44.5 71t-13.5 90zM389 319q11 -7 19 -10q74 5 128 54t54 114q0 63 -35.5 102
t-148.5 99q-3 2 -11.5 5t-11.5 5q-89 -13 -136.5 -62t-47.5 -118q0 -55 35.5 -91t154.5 -98z" />
    <glyph glyph-name="dieresis" unicode="&#xa8;" horiz-adv-x="935" 
d="M164 1219q0 45 32.5 77.5t77.5 32.5q46 0 78.5 -32t32.5 -78q0 -45 -33 -78t-78 -33q-44 0 -77 33.5t-33 77.5zM551 1217q0 45 33 77.5t78 32.5q46 0 78 -32t32 -78q0 -45 -32.5 -78t-77.5 -33q-44 0 -77.5 33.5t-33.5 77.5z" />
    <glyph glyph-name="copyright" unicode="&#xa9;" horiz-adv-x="1429" 
d="M922 449l96 -70q-56 -91 -133 -132.5t-191 -41.5q-137 0 -221 86t-84 233q0 207 110 341t302 134q214 0 268 -184l-127 -59q-10 67 -52.5 102t-107.5 35q-114 0 -188 -101t-74 -251q0 -106 52 -170t143 -64q126 0 207 142zM113 602q0 179 84 323.5t227 225t315 80.5
q128 0 244 -47.5t200.5 -129.5t134.5 -200t50 -252t-50 -251.5t-134.5 -199.5t-200.5 -129t-244 -47t-243.5 47t-199.5 129t-133.5 199.5t-49.5 251.5zM176 602q0 -122 44.5 -228.5t121 -180t180.5 -116t219 -42.5q155 0 284 71.5t205.5 202.5t76.5 293t-76.5 293.5
t-205.5 203.5t-284 72q-115 0 -219 -42.5t-180.5 -117t-121 -181t-44.5 -228.5z" />
    <glyph glyph-name="ordfeminine" unicode="&#xaa;" horiz-adv-x="808" 
d="M530 850l21 102q14 72 -19.5 127.5t-107.5 55.5q-100 0 -165.5 -83t-65.5 -214q0 -78 37.5 -126t107.5 -48q73 0 124 49t68 137zM737 1214l-98 -485q-8 -49 31 -49q18 0 53 8l-16 -94q-41 -12 -80 -12q-51 0 -83 25t-38 65q-36 -46 -89.5 -73.5t-111.5 -27.5
q-109 0 -176.5 68.5t-67.5 191.5q0 167 99 283.5t254 116.5q127 0 176 -111l35 94h112z" />
    <glyph glyph-name="guillemotleft" unicode="&#xab;" horiz-adv-x="1019" 
d="M571 477v-8q18 -4 86 -100l174 -248l-102 -80l-295 436l449 436l75 -82l-245 -245q-35 -35 -70.5 -62t-53.5 -37zM199 477v-8q18 -4 86 -100l174 -248l-103 -80l-295 436l449 436l76 -82l-246 -245q-35 -35 -70 -62t-53 -37z" />
    <glyph glyph-name="logicalnot" unicode="&#xac;" horiz-adv-x="1015" 
d="M803 551h-721l16 94h836l-68 -385h-114z" />
    <glyph glyph-name="uni00AD" unicode="&#xad;" horiz-adv-x="768" 
d="M143 459l23 131h459l-23 -131h-459z" />
    <glyph glyph-name="registered" unicode="&#xae;" horiz-adv-x="1429" 
d="M1012 244h-140q-19 27 -22 82l-6 104q-3 57 -27.5 81t-87.5 24h-131l-51 -291h-129l131 741h285q229 0 229 -190q0 -103 -63 -156.5t-158 -58.5v-5q64 -5 96 -32t35 -86l8 -121q3 -57 31 -92zM657 883l-43 -250h144q87 0 130.5 35t43.5 116q0 46 -30.5 72.5t-86.5 26.5
h-158zM113 602q0 179 84 323.5t227 225t315 80.5q128 0 244 -47.5t200.5 -129.5t134.5 -200t50 -252t-50 -251.5t-134.5 -199.5t-200.5 -129t-244 -47t-243.5 47t-199.5 129t-133.5 199.5t-49.5 251.5zM176 602q0 -122 44.5 -228.5t121 -180t180.5 -116t219 -42.5
q155 0 284 71.5t205.5 202.5t76.5 293t-76.5 293.5t-205.5 203.5t-284 72q-115 0 -219 -42.5t-180.5 -117t-121 -181t-44.5 -228.5z" />
    <glyph glyph-name="macron" unicode="&#xaf;" horiz-adv-x="864" 
d="M678 1155h-514l22 125h514z" />
    <glyph glyph-name="degree" unicode="&#xb0;" horiz-adv-x="567" 
d="M113 983q0 104 70.5 176t183.5 72q95 0 153 -59.5t58 -147.5q0 -104 -72 -176t-180 -72q-101 0 -157 58t-56 149zM354 1153q-65 0 -107 -47t-42 -113q0 -64 35.5 -100.5t97.5 -36.5t103.5 46.5t41.5 111.5q0 64 -35.5 101.5t-93.5 37.5z" />
    <glyph glyph-name="plusminus" unicode="&#xb1;" horiz-adv-x="1101" 
d="M174 682h363l51 283h102l-51 -283h371l-17 -94h-370l-56 -312h-102l55 312h-362zM907 100h-835l16 95h836z" />
    <glyph glyph-name="twosuperior" unicode="&#xb2;" horiz-adv-x="653" 
d="M553 586l-18 -103h-535l18 99q104 58 177.5 106t137 100.5t95 103t31.5 99.5q0 123 -119 123q-66 0 -105.5 -40.5t-50.5 -108.5l-98 51q18 94 89.5 150.5t180.5 56.5q110 0 173 -55t63 -158q0 -61 -29.5 -119t-70.5 -99.5t-103.5 -83t-108 -65t-104.5 -49.5v-8h377z" />
    <glyph glyph-name="threesuperior" unicode="&#xb3;" horiz-adv-x="628" 
d="M373 862v-6q82 -9 123 -54.5t41 -115.5q0 -106 -82.5 -161.5t-200.5 -55.5q-120 0 -179.5 55.5t-64.5 139.5l115 26q12 -127 129 -127q68 0 111 31t43 92q0 60 -43.5 91t-159.5 32l16 90q113 5 169 36.5t56 96.5q0 40 -28 64t-78 24q-55 0 -86.5 -27t-46.5 -83l-105 41
q59 172 250 172q98 0 162 -44t64 -132q0 -76 -54 -125.5t-151 -59.5z" />
    <glyph glyph-name="acute" unicode="&#xb4;" horiz-adv-x="696" 
d="M297 1085h-133l153 293h215z" />
    <glyph glyph-name="mu" unicode="&#xb5;" 
d="M647 178q-42 -107 -111 -155t-176 -48q-54 0 -97.5 21.5t-49.5 52.5l-82 -465h-145l233 1362h156l-113 -643q-17 -100 17.5 -155.5t117.5 -55.5q94 0 174.5 75.5t102.5 203.5l100 575h156l-131 -743q-16 -92 53 -92q26 0 59 8l-20 -113q-46 -16 -98 -16
q-92 0 -125.5 47.5t-20.5 140.5z" />
    <glyph glyph-name="mu" unicode="&#x3bc;" 
d="M647 178q-42 -107 -111 -155t-176 -48q-54 0 -97.5 21.5t-49.5 52.5l-82 -465h-145l233 1362h156l-113 -643q-17 -100 17.5 -155.5t117.5 -55.5q94 0 174.5 75.5t102.5 203.5l100 575h156l-131 -743q-16 -92 53 -92q26 0 59 8l-20 -113q-46 -16 -98 -16
q-92 0 -125.5 47.5t-20.5 140.5z" />
    <glyph glyph-name="paragraph" unicode="&#xb6;" horiz-adv-x="1044" 
d="M981 1083l-201 -1132q-25 -147 -110 -216t-215 -69q-113 0 -203 55l74 144q59 -62 147 -62q59 0 94.5 27.5t46.5 93.5l76 432h-98q-228 0 -330.5 102.5t-64.5 309.5q76 438 632 438h334l-20 -123h-162z" />
    <glyph glyph-name="periodcentered" unicode="&#xb7;" horiz-adv-x="581" 
d="M164 545q0 54 36.5 90.5t90.5 36.5t90.5 -36.5t36.5 -90.5t-36.5 -90.5t-90.5 -36.5t-90.5 36.5t-36.5 90.5z" />
    <glyph glyph-name="cedilla" unicode="&#xb8;" horiz-adv-x="714" 
d="M551 -258q0 -84 -60.5 -129t-152.5 -45q-115 0 -174 78l47 98q51 -76 127 -76q38 0 61 19t23 55q0 90 -141 90l67 178h84l-41 -96q83 -19 121.5 -60t38.5 -112z" />
    <glyph glyph-name="onesuperior" unicode="&#xb9;" horiz-adv-x="587" 
d="M518 483h-498l19 103h184l86 493l-223 -22l18 104l361 47l-111 -622h183z" />
    <glyph glyph-name="ordmasculine" unicode="&#xba;" horiz-adv-x="731" 
d="M412 1231q122 0 190 -73.5t68 -199.5q0 -163 -93.5 -275t-252.5 -112q-118 0 -190.5 71.5t-72.5 197.5q0 163 94.5 277t256.5 114zM395 1126q-95 0 -152 -81t-57 -193q0 -89 40 -135.5t110 -46.5q62 0 110 41t71.5 104.5t23.5 136.5q0 83 -38.5 128.5t-107.5 45.5z" />
    <glyph glyph-name="guillemotright" unicode="&#xbb;" horiz-adv-x="1019" 
d="M449 477v8q-19 5 -87 101l-174 248l103 79l295 -436l-449 -436l-76 82l246 246q35 35 70.5 62t53.5 37zM821 477v8q-18 5 -86 101l-174 248l103 79l294 -436l-448 -436l-76 82l246 246q35 35 70 62t53 37z" />
    <glyph glyph-name="onequarter" unicode="&#xbc;" horiz-adv-x="1738" 
d="M578 483h-498l18 103h185l86 493l-224 -22l19 104l360 47l-110 -622h182zM389 0l840 1208h121l-838 -1208h-123zM1358 0l33 188h-369l18 101l437 434h137l-76 -436h123l-19 -99h-122l-33 -188h-129zM1413 285l33 186q6 37 15 73t15 53l5 17h-8q-33 -53 -101 -127
l-110 -108q-28 -27 -56.5 -50.5t-43.5 -33.5l-15 -10l-2 -9q29 9 117 9h151z" />
    <glyph glyph-name="onehalf" unicode="&#xbd;" horiz-adv-x="1738" 
d="M578 483h-498l18 103h185l86 493l-224 -22l19 104l360 47l-110 -622h182zM389 0l840 1208h121l-838 -1208h-123zM1554 102l-18 -102h-535l19 98q214 121 327 218.5t113 191.5q0 123 -119 123q-66 0 -105 -41t-50 -109l-99 51q18 94 90 150.5t181 56.5q110 0 172.5 -55
t62.5 -158q0 -61 -29.5 -119t-70.5 -99.5t-103 -82.5t-107.5 -64.5t-104.5 -49.5v-9h376z" />
    <glyph glyph-name="threequarters" unicode="&#xbe;" horiz-adv-x="1738" 
d="M426 862v-6q82 -9 123 -54.5t41 -115.5q0 -106 -82.5 -161.5t-200.5 -55.5q-120 0 -179.5 55.5t-64.5 139.5l115 26q12 -127 129 -127q68 0 111 31t43 92q0 60 -43.5 91t-159.5 32l16 90q226 9 226 133q0 40 -28.5 64t-78.5 24q-55 0 -86.5 -27t-46.5 -83l-104 41
q59 172 250 172q98 0 161.5 -43.5t63.5 -132.5q0 -76 -54 -125.5t-151 -59.5zM389 0l840 1208h121l-838 -1208h-123zM1358 0l33 188h-369l18 101l437 434h137l-76 -436h123l-19 -99h-122l-33 -188h-129zM1413 285l33 186q6 37 15 73t15 53l5 17h-8q-33 -53 -101 -127
l-110 -108q-28 -27 -56.5 -50.5t-43.5 -33.5l-15 -10l-2 -9q29 9 117 9h151z" />
    <glyph glyph-name="questiondown" unicode="&#xbf;" horiz-adv-x="835" 
d="M629 41l125 -53q-88 -273 -375 -273q-163 0 -250.5 85t-87.5 239q0 98 37.5 177.5t98.5 127.5t132 73t144 25l32 183h144l-51 -277h-46q-144 0 -236.5 -72.5t-92.5 -222.5q0 -100 51.5 -153.5t148.5 -53.5q169 0 226 195zM705 842q0 -50 -33.5 -83.5t-83.5 -33.5
t-83.5 33.5t-33.5 83.5q0 49 33.5 82.5t83.5 33.5t83.5 -33.5t33.5 -82.5z" />
    <glyph glyph-name="Agrave" unicode="&#xc0;" horiz-adv-x="1181" 
d="M887 0l-64 356h-506l-186 -356h-172l651 1206h217l226 -1206h-166zM809 1341h-141l-199 238h213zM553 803l-168 -316h414q-30 150 -54 305t-33 236.5t-7 81.5h-9q-45 -121 -143 -307z" />
    <glyph glyph-name="Aacute" unicode="&#xc1;" horiz-adv-x="1181" 
d="M887 0l-64 356h-506l-186 -356h-172l651 1206h217l226 -1206h-166zM793 1341h-142l127 238h213zM553 803l-168 -316h414q-30 150 -54 305t-33 236.5t-7 81.5h-9q-45 -121 -143 -307z" />
    <glyph glyph-name="Acircumflex" unicode="&#xc2;" horiz-adv-x="1181" 
d="M887 0l-64 356h-506l-186 -356h-172l651 1206h217l226 -1206h-166zM553 803l-168 -316h414q-30 150 -54 305t-33 236.5t-7 81.5h-9q-45 -121 -143 -307zM713 1595h94l203 -254h-174l-54 70q-14 19 -23 37t-11 26l-3 9h-4q1 -2 -17.5 -25t-53 -57.5t-68.5 -59.5h-182z" />
    <glyph glyph-name="Atilde" unicode="&#xc3;" horiz-adv-x="1181" 
d="M887 0l-64 356h-506l-186 -356h-172l651 1206h217l226 -1206h-166zM854 1341q-42 0 -82.5 16.5t-67 36t-57 36t-55.5 16.5q-34 0 -55.5 -25t-24.5 -75h-98q-17 94 36.5 162.5t145.5 68.5q66 0 125 -39q12 -8 32.5 -21.5t27 -18t20 -12.5t20 -10t16.5 -4t21 -2
q65 0 76 107h104q12 -103 -38.5 -169.5t-145.5 -66.5zM553 803l-168 -316h414q-30 150 -54 305t-33 236.5t-7 81.5h-9q-45 -121 -143 -307z" />
    <glyph glyph-name="Adieresis" unicode="&#xc4;" horiz-adv-x="1181" 
d="M887 0l-64 356h-506l-186 -356h-172l651 1206h217l226 -1206h-166zM825 1452q0 45 33 78t78 33q46 0 78.5 -32.5t32.5 -78.5q0 -45 -33 -78t-78 -33q-44 0 -77.5 33.5t-33.5 77.5zM438 1454q0 45 33 78t78 33q46 0 78 -32.5t32 -78.5q0 -45 -32.5 -78t-77.5 -33
q-44 0 -77.5 33.5t-33.5 77.5zM553 803l-168 -316h414q-30 150 -54 305t-33 236.5t-7 81.5h-9q-45 -121 -143 -307z" />
    <glyph glyph-name="Aring" unicode="&#xc5;" horiz-adv-x="1181" 
d="M887 0l-64 356h-506l-186 -356h-172l651 1206h217l226 -1206h-166zM567 1481q0 88 59.5 148.5t153.5 60.5q81 0 129.5 -50t48.5 -124q0 -88 -58.5 -148.5t-151.5 -60.5q-86 0 -133.5 48.5t-47.5 125.5zM553 803l-168 -316h414q-30 150 -54 305t-33 236.5t-7 81.5h-9
q-45 -121 -143 -307zM772 1614q-49 0 -83 -36.5t-34 -86.5q0 -51 28 -80t77 -29q47 0 79.5 36.5t32.5 86.5t-26.5 79.5t-73.5 29.5z" />
    <glyph glyph-name="AE" unicode="&#xc6;" horiz-adv-x="1712" 
d="M811 0l61 356h-452l-279 -356h-182l944 1206h840l-25 -139h-557l-69 -395h493l-24 -140h-494l-70 -393h557l-22 -139h-721zM1006 1104l-484 -617h373l70 394q15 83 27 138.5t17 70.5l5 14h-8z" />
    <glyph glyph-name="Ccedilla" unicode="&#xc7;" horiz-adv-x="1128" 
d="M666 -258q0 -84 -60.5 -129t-152.5 -45q-115 0 -174 78l47 98q51 -76 127 -76q38 0 61 19t23 55q0 90 -142 90l60 156q-162 35 -252 162.5t-90 314.5q0 177 49 323.5t133 242t195 148t237 52.5q322 0 391 -285l-160 -65q-19 108 -86 161.5t-161 53.5q-133 0 -233 -88
t-149.5 -227t-49.5 -304q0 -169 81.5 -267.5t233.5 -98.5q108 0 179 38.5t134 145.5l125 -70q-140 -250 -457 -250q-29 0 -43 2l-26 -63q83 -19 121.5 -60t38.5 -112z" />
    <glyph glyph-name="Egrave" unicode="&#xc8;" horiz-adv-x="983" 
d="M825 139l-22 -139h-721l211 1206h721l-25 -139h-557l-70 -395h494l-25 -140h-493l-70 -393h557zM725 1341h-141l-199 238h213z" />
    <glyph glyph-name="Eacute" unicode="&#xc9;" horiz-adv-x="983" 
d="M825 139l-22 -139h-721l211 1206h721l-25 -139h-557l-70 -395h494l-25 -140h-493l-70 -393h557zM709 1341h-142l127 238h213z" />
    <glyph glyph-name="Ecircumflex" unicode="&#xca;" horiz-adv-x="983" 
d="M825 139l-22 -139h-721l211 1206h721l-25 -139h-557l-70 -395h494l-25 -140h-493l-70 -393h557zM629 1595h94l203 -254h-174l-54 70q-14 19 -23 37t-11 26l-2 9h-5q-14 -29 -61 -72l-78 -70h-182z" />
    <glyph glyph-name="Edieresis" unicode="&#xcb;" horiz-adv-x="983" 
d="M825 139l-22 -139h-721l211 1206h721l-25 -139h-557l-70 -395h494l-25 -140h-493l-70 -393h557zM354 1454q0 45 33 78t78 33q46 0 78 -32.5t32 -78.5q0 -45 -32.5 -78t-77.5 -33q-44 0 -77.5 33.5t-33.5 77.5zM741 1452q0 45 33 78t78 33q46 0 78.5 -32.5t32.5 -78.5
q0 -45 -33 -78t-78 -33q-44 0 -77.5 33.5t-33.5 77.5z" />
    <glyph glyph-name="Igrave" unicode="&#xcc;" horiz-adv-x="487" 
d="M293 1206h164l-211 -1206h-164zM473 1341h-141l-199 238h213z" />
    <glyph glyph-name="Iacute" unicode="&#xcd;" horiz-adv-x="487" 
d="M293 1206h164l-211 -1206h-164zM457 1341h-142l127 238h213z" />
    <glyph glyph-name="Icircumflex" unicode="&#xce;" horiz-adv-x="487" 
d="M293 1206h164l-211 -1206h-164zM379 1595h94l203 -254h-174l-53 70q-14 19 -23 37t-12 26l-2 9h-4q-15 -29 -62 -72l-78 -70h-182z" />
    <glyph glyph-name="Idieresis" unicode="&#xcf;" horiz-adv-x="487" 
d="M293 1206h164l-211 -1206h-164zM102 1454q0 45 33 78t78 33q46 0 78.5 -32.5t32.5 -78.5q0 -45 -33 -78t-78 -33q-44 0 -77.5 33.5t-33.5 77.5zM489 1452q0 45 33 78t78 33q46 0 78.5 -32.5t32.5 -78.5q0 -45 -33 -78t-78 -33q-44 0 -77.5 33.5t-33.5 77.5z" />
    <glyph glyph-name="Eth" unicode="&#xd0;" horiz-adv-x="1204" 
d="M471 0h-389l92 532h-133l25 140h133l94 534h328q252 0 376.5 -118t124.5 -338q0 -159 -38 -287.5t-101 -213.5t-148 -142t-176 -82t-188 -25zM268 133h195q80 0 151 21t133.5 68t107 116.5t70 171t25.5 227.5q0 336 -354 336h-162l-72 -401h259l-25 -140h-258z" />
    <glyph glyph-name="Ntilde" unicode="&#xd1;" horiz-adv-x="1255" 
d="M463 1206l325 -712q29 -64 54.5 -132t35.5 -104l11 -37h8q16 145 43 297l121 688h164l-211 -1206h-166l-334 709q-28 61 -54 129t-38 106l-12 37h-9q-7 -141 -34 -293l-121 -688h-164l211 1206h170zM881 1341q-21 0 -37.5 2t-34 10t-24 10.5t-28 16t-24.5 15.5
q-7 5 -22 14.5t-20.5 13t-16.5 9.5t-18 8t-17 4t-21 2q-73 0 -79 -100h-99q-17 94 37 162.5t146 68.5q12 0 23.5 -1t22 -3.5t18 -4t18 -6.5t15.5 -7t16 -9t14.5 -9t16 -10.5t15.5 -10.5q56 -38 76 -43q12 -3 27 -3q65 0 76 107h104q12 -103 -38.5 -169.5t-145.5 -66.5z" />
    <glyph glyph-name="Ograve" unicode="&#xd2;" horiz-adv-x="1261" 
d="M575 -25q-217 0 -339.5 135t-122.5 355q0 177 49 323.5t133 242t195 148t237 52.5q217 0 340 -136t123 -356q0 -177 -49 -323t-133.5 -241.5t-195.5 -147.5t-237 -52zM711 1094q-133 0 -233 -87.5t-149.5 -226t-49.5 -303.5q0 -169 81.5 -267.5t233.5 -98.5
q100 0 182.5 50.5t136 136t82.5 196.5t29 233q0 78 -17.5 142.5t-54 116t-98 80t-143.5 28.5zM836 1341h-142l-198 238h213z" />
    <glyph glyph-name="Oacute" unicode="&#xd3;" horiz-adv-x="1261" 
d="M575 -25q-217 0 -339.5 135t-122.5 355q0 177 49 323.5t133 242t195 148t237 52.5q217 0 340 -136t123 -356q0 -177 -49 -323t-133.5 -241.5t-195.5 -147.5t-237 -52zM711 1094q-133 0 -233 -87.5t-149.5 -226t-49.5 -303.5q0 -169 81.5 -267.5t233.5 -98.5
q100 0 182.5 50.5t136 136t82.5 196.5t29 233q0 78 -17.5 142.5t-54 116t-98 80t-143.5 28.5zM819 1341h-141l127 238h213z" />
    <glyph glyph-name="Ocircumflex" unicode="&#xd4;" horiz-adv-x="1261" 
d="M575 -25q-217 0 -339.5 135t-122.5 355q0 177 49 323.5t133 242t195 148t237 52.5q217 0 340 -136t123 -356q0 -177 -49 -323t-133.5 -241.5t-195.5 -147.5t-237 -52zM711 1094q-133 0 -233 -87.5t-149.5 -226t-49.5 -303.5q0 -169 81.5 -267.5t233.5 -98.5
q100 0 182.5 50.5t136 136t82.5 196.5t29 233q0 78 -17.5 142.5t-54 116t-98 80t-143.5 28.5zM741 1595h95l202 -254h-174l-53 70q-14 19 -23 37t-12 26l-2 9h-4q-14 -29 -61 -72l-78 -70h-182z" />
    <glyph glyph-name="Otilde" unicode="&#xd5;" horiz-adv-x="1261" 
d="M575 -25q-217 0 -339.5 135t-122.5 355q0 177 49 323.5t133 242t195 148t237 52.5q217 0 340 -136t123 -356q0 -177 -49 -323t-133.5 -241.5t-195.5 -147.5t-237 -52zM711 1094q-133 0 -233 -87.5t-149.5 -226t-49.5 -303.5q0 -169 81.5 -267.5t233.5 -98.5
q100 0 182.5 50.5t136 136t82.5 196.5t29 233q0 78 -17.5 142.5t-54 116t-98 80t-143.5 28.5zM883 1341q-21 0 -37.5 2t-34 10t-24 10.5t-28 16t-24.5 15.5q-7 5 -25.5 17t-24.5 15t-18.5 9.5t-22.5 8t-23 1.5q-34 0 -55.5 -25t-24.5 -75h-99q-17 94 37 162.5t146 68.5
q12 0 23.5 -1t22 -3.5t18 -4t18 -6.5t15.5 -7t16 -9t14.5 -9t16 -10.5t15.5 -10.5q56 -38 76 -43q12 -3 27 -3q65 0 76 107h104q12 -103 -38.5 -169.5t-145.5 -66.5z" />
    <glyph glyph-name="Odieresis" unicode="&#xd6;" horiz-adv-x="1261" 
d="M575 -25q-217 0 -339.5 135t-122.5 355q0 177 49 323.5t133 242t195 148t237 52.5q217 0 340 -136t123 -356q0 -177 -49 -323t-133.5 -241.5t-195.5 -147.5t-237 -52zM711 1094q-133 0 -233 -87.5t-149.5 -226t-49.5 -303.5q0 -169 81.5 -267.5t233.5 -98.5
q100 0 182.5 50.5t136 136t82.5 196.5t29 233q0 78 -17.5 142.5t-54 116t-98 80t-143.5 28.5zM465 1454q0 46 32.5 78.5t77.5 32.5q46 0 78.5 -32.5t32.5 -78.5q0 -45 -33 -78t-78 -33q-44 0 -77 33.5t-33 77.5zM852 1452q0 45 33 78t78 33q46 0 78 -32.5t32 -78.5
q0 -45 -32.5 -78t-77.5 -33q-44 0 -77.5 33.5t-33.5 77.5z" />
    <glyph glyph-name="multiply" unicode="&#xd7;" horiz-adv-x="972" 
d="M76 227l334 285l-222 274l78 68l223 -274l342 288l64 -75l-342 -291l244 -289l-78 -68l-242 289l-338 -284z" />
    <glyph glyph-name="Oslash" unicode="&#xd8;" horiz-adv-x="1261" 
d="M121 -29l-86 82l139 144q-61 110 -61 268q0 177 49 323.5t133 242t195 148t237 52.5q203 0 328 -125l123 125l92 -84l-140 -143q60 -117 60 -265q0 -177 -49 -323t-133.5 -241.5t-195.5 -147.5t-237 -52q-203 0 -329 123zM1024 727q0 83 -20 147l-648 -663
q84 -100 238 -100q100 0 182.5 50.5t136 136t82.5 196.5t29 233zM711 1094q-133 0 -233 -87.5t-149.5 -226t-49.5 -303.5q0 -87 20 -151l647 665q-83 103 -235 103z" />
    <glyph glyph-name="Ugrave" unicode="&#xd9;" horiz-adv-x="1191" 
d="M1018 1206h164l-146 -827q-19 -113 -65 -193.5t-115 -125.5t-148 -65t-178 -20q-78 0 -143.5 16.5t-120.5 51.5t-88 91t-46 135t7 182l131 755h164l-135 -774q-29 -166 40.5 -244.5t209.5 -78.5q136 0 219 70t111 233zM815 1341h-141l-199 238h213z" />
    <glyph glyph-name="Uacute" unicode="&#xda;" horiz-adv-x="1191" 
d="M1018 1206h164l-146 -827q-19 -113 -65 -193.5t-115 -125.5t-148 -65t-178 -20q-78 0 -143.5 16.5t-120.5 51.5t-88 91t-46 135t7 182l131 755h164l-135 -774q-29 -166 40.5 -244.5t209.5 -78.5q136 0 219 70t111 233zM801 1341h-142l127 238h213z" />
    <glyph glyph-name="Ucircumflex" unicode="&#xdb;" horiz-adv-x="1191" 
d="M1018 1206h164l-146 -827q-19 -113 -65 -193.5t-115 -125.5t-148 -65t-178 -20q-78 0 -143.5 16.5t-120.5 51.5t-88 91t-46 135t7 182l131 755h164l-135 -774q-29 -166 40.5 -244.5t209.5 -78.5q136 0 219 70t111 233zM721 1595h94l203 -254h-174l-53 70q-14 19 -23 37
t-12 26l-2 9h-4q-15 -29 -62 -72l-78 -70h-182z" />
    <glyph glyph-name="Udieresis" unicode="&#xdc;" horiz-adv-x="1191" 
d="M1018 1206h164l-146 -827q-19 -113 -65 -193.5t-115 -125.5t-148 -65t-178 -20q-78 0 -143.5 16.5t-120.5 51.5t-88 91t-46 135t7 182l131 755h164l-135 -774q-29 -166 40.5 -244.5t209.5 -78.5q136 0 219 70t111 233zM444 1454q0 45 33 78t78 33q46 0 78.5 -32.5
t32.5 -78.5q0 -45 -33 -78t-78 -33q-44 0 -77.5 33.5t-33.5 77.5zM831 1452q0 45 33 78t78 33q46 0 78.5 -32.5t32.5 -78.5q0 -45 -33 -78t-78 -33q-44 0 -77.5 33.5t-33.5 77.5z" />
    <glyph glyph-name="Yacute" unicode="&#xdd;" horiz-adv-x="1011" 
d="M342 1206l139 -413q19 -58 31 -110.5t14 -75.5l2 -23h9q24 78 106 207l266 415h174l-487 -731l-82 -475h-164l82 475l-258 731h168zM717 1341h-142l127 238h213z" />
    <glyph glyph-name="Thorn" unicode="&#xde;" horiz-adv-x="999" 
d="M393 846l-80 -461h181q143 0 220 70.5t77 210.5q0 92 -53 136t-167 44h-178zM246 0h-164l211 1206h164l-41 -227h174q189 0 278.5 -73.5t89.5 -227.5q0 -211 -129.5 -317.5t-343.5 -106.5h-194z" />
    <glyph glyph-name="germandbls" unicode="&#xdf;" horiz-adv-x="1071" 
d="M47 -211l207 1172q38 217 158 319t299 102q159 0 239 -78t80 -202q0 -76 -25 -136t-68 -97.5t-93 -59t-107 -29.5v-8q125 -17 189.5 -102t64.5 -221q0 -223 -115 -348.5t-290 -125.5q-205 0 -254 148l108 96q29 -125 152 -125q47 0 88 19.5t75.5 59t55 108.5t20.5 159
q0 275 -262 275h-84l23 125h72q137 0 215.5 62t78.5 179q0 81 -43.5 131t-134.5 50q-41 0 -75 -8t-68 -29t-61 -55.5t-49 -90t-35 -129.5l-203 -1163q-23 -127 -82 -173t-160 -46q-109 0 -168 53l37 123q57 -51 115 -51q44 0 67 20t33 76z" />
    <glyph glyph-name="agrave" unicode="&#xe0;" horiz-adv-x="1075" 
d="M719 395l29 160q20 115 -29.5 203t-157.5 88q-141 0 -234.5 -131.5t-93.5 -333.5q0 -125 54 -201t155 -76q107 0 180.5 77.5t96.5 213.5zM973 946l-131 -743q-16 -92 53 -92q26 0 59 8l-20 -113q-46 -16 -98 -16q-77 0 -115.5 43.5t-32.5 124.5q-41 -92 -117.5 -137.5
t-171.5 -45.5q-141 0 -229 102t-88 285q0 162 57 300t165 222.5t243 84.5q209 0 246 -183l51 160h129zM688 1085h-133l-236 293h216z" />
    <glyph glyph-name="aacute" unicode="&#xe1;" horiz-adv-x="1075" 
d="M719 395l29 160q20 115 -29.5 203t-157.5 88q-141 0 -234.5 -131.5t-93.5 -333.5q0 -125 54 -201t155 -76q107 0 180.5 77.5t96.5 213.5zM973 946l-131 -743q-16 -92 53 -92q26 0 59 8l-20 -113q-46 -16 -98 -16q-77 0 -115.5 43.5t-32.5 124.5q-41 -92 -117.5 -137.5
t-171.5 -45.5q-141 0 -229 102t-88 285q0 162 57 300t165 222.5t243 84.5q209 0 246 -183l51 160h129zM655 1085h-133l154 293h215z" />
    <glyph glyph-name="acircumflex" unicode="&#xe2;" horiz-adv-x="1075" 
d="M719 395l29 160q20 115 -29.5 203t-157.5 88q-141 0 -234.5 -131.5t-93.5 -333.5q0 -125 54 -201t155 -76q107 0 180.5 77.5t96.5 213.5zM973 946l-131 -743q-16 -92 53 -92q26 0 59 8l-20 -113q-46 -16 -98 -16q-77 0 -115.5 43.5t-32.5 124.5q-41 -92 -117.5 -137.5
t-171.5 -45.5q-141 0 -229 102t-88 285q0 162 57 300t165 222.5t243 84.5q209 0 246 -183l51 160h129zM594 1378h86l199 -293h-162l-58 91q-14 22 -22.5 42t-10.5 30l-1 9h-9q-16 -32 -63 -81l-90 -91h-170z" />
    <glyph glyph-name="atilde" unicode="&#xe3;" horiz-adv-x="1075" 
d="M719 395l29 160q20 115 -29.5 203t-157.5 88q-141 0 -234.5 -131.5t-93.5 -333.5q0 -125 54 -201t155 -76q107 0 180.5 77.5t96.5 213.5zM973 946l-131 -743q-16 -92 53 -92q26 0 59 8l-20 -113q-46 -16 -98 -16q-77 0 -115.5 43.5t-32.5 124.5q-41 -92 -117.5 -137.5
t-171.5 -45.5q-141 0 -229 102t-88 285q0 162 57 300t165 222.5t243 84.5q209 0 246 -183l51 160h129zM748 1087q-21 0 -37.5 2t-34 10t-24 10.5t-28 16t-24.5 15.5q-7 5 -22 14.5t-20.5 13t-16.5 9.5t-18 8t-17 4t-21 2q-73 0 -79 -100h-99q-17 94 36.5 162.5t145.5 68.5
q11 0 22 -1t19 -2t18 -4t16 -4.5t15.5 -6.5t13.5 -7t14.5 -8.5t13 -8.5t14.5 -9.5t14 -9.5q30 -20 42 -27t27.5 -12.5t33.5 -5.5q64 0 75 106h105q12 -103 -38.5 -169.5t-145.5 -66.5z" />
    <glyph glyph-name="adieresis" unicode="&#xe4;" horiz-adv-x="1075" 
d="M719 395l29 160q20 115 -29.5 203t-157.5 88q-141 0 -234.5 -131.5t-93.5 -333.5q0 -125 54 -201t155 -76q107 0 180.5 77.5t96.5 213.5zM973 946l-131 -743q-16 -92 53 -92q26 0 59 8l-20 -113q-46 -16 -98 -16q-77 0 -115.5 43.5t-32.5 124.5q-41 -92 -117.5 -137.5
t-171.5 -45.5q-141 0 -229 102t-88 285q0 162 57 300t165 222.5t243 84.5q209 0 246 -183l51 160h129zM317 1219q0 45 33 77.5t78 32.5q46 0 78.5 -32t32.5 -78q0 -45 -33 -78t-78 -33q-44 0 -77.5 33.5t-33.5 77.5zM705 1217q0 45 32.5 77.5t77.5 32.5q46 0 78.5 -32
t32.5 -78q0 -45 -33 -78t-78 -33q-44 0 -77 33.5t-33 77.5z" />
    <glyph glyph-name="aring" unicode="&#xe5;" horiz-adv-x="1075" 
d="M719 395l29 160q20 115 -29.5 203t-157.5 88q-141 0 -234.5 -131.5t-93.5 -333.5q0 -125 54 -201t155 -76q107 0 180.5 77.5t96.5 213.5zM973 946l-131 -743q-16 -92 53 -92q26 0 59 8l-20 -113q-46 -16 -98 -16q-77 0 -115.5 43.5t-32.5 124.5q-41 -92 -117.5 -137.5
t-171.5 -45.5q-141 0 -229 102t-88 285q0 162 57 300t165 222.5t243 84.5q209 0 246 -183l51 160h129zM436 1251q0 88 59.5 148.5t153.5 60.5q81 0 129.5 -50t48.5 -124q0 -88 -59 -148.5t-152 -60.5q-86 0 -133 48.5t-47 125.5zM641 1384q-49 0 -83 -36t-34 -86
q0 -51 28 -80t77 -29q47 0 79.5 36.5t32.5 86.5t-26.5 79t-73.5 29z" />
    <glyph glyph-name="ae" unicode="&#xe6;" horiz-adv-x="1503" 
d="M1020 96q100 0 152.5 40t80.5 122l142 -35q-50 -137 -145.5 -192.5t-243.5 -55.5q-103 0 -181 42t-123 118q-106 -160 -346 -160q-143 0 -213.5 64t-70.5 180q0 335 592 338q10 43 28 94q17 97 -28 145t-134 48q-173 0 -215 -160l-143 21q18 72 57.5 125.5t93.5 82.5
t111 42.5t119 13.5q209 0 266 -121q124 121 287 121q87 0 154 -28t105.5 -76.5t57.5 -107t19 -126.5q0 -113 -41 -199h-610q-7 -88 12.5 -161.5t75 -124t141.5 -50.5zM659 246q-14 55 -14 131q0 37 2 55q-197 -2 -309.5 -51t-112.5 -154q0 -65 39.5 -100t112.5 -35
q91 0 160 34.5t122 119.5zM809 557h473q10 29 10 78q0 91 -49.5 151t-144.5 60q-111 0 -184.5 -82.5t-104.5 -206.5z" />
    <glyph glyph-name="ccedilla" unicode="&#xe7;" horiz-adv-x="901" 
d="M545 -258q0 -84 -60.5 -129t-152.5 -45q-115 0 -174 78l47 98q51 -76 127 -76q38 0 61 19t23 55q0 90 -142 90l60 158q-118 30 -185 129t-67 256q0 90 19 176t59 161.5t95.5 133t134 90.5t169.5 33q153 0 227 -77t74 -220l-145 -25q-2 94 -42 143.5t-132 49.5
q-95 0 -167.5 -68.5t-106.5 -167.5t-34 -207q0 -147 59 -224t165 -77q92 0 146.5 50t86.5 143l144 -33q-54 -144 -151 -212.5t-247 -68.5q-4 0 -12 1t-12 1l-27 -63q83 -19 121.5 -60t38.5 -112z" />
    <glyph glyph-name="egrave" unicode="&#xe8;" horiz-adv-x="940" 
d="M457 96q100 0 152.5 40t80.5 122l141 -35q-50 -137 -145.5 -192.5t-243.5 -55.5q-168 0 -264 109t-96 293q0 139 40 254t105.5 187.5t147 111.5t168.5 39t154 -28t105.5 -76.5t57.5 -107t19 -126.5q0 -107 -41 -193h-611q-5 -64 5.5 -123.5t36.5 -109.5t74.5 -79.5
t113.5 -29.5zM246 563h473q10 29 10 72q0 91 -49.5 151t-144.5 60q-111 0 -185 -80t-104 -203zM629 1085h-133l-236 293h215z" />
    <glyph glyph-name="eacute" unicode="&#xe9;" horiz-adv-x="940" 
d="M457 96q100 0 152.5 40t80.5 122l141 -35q-50 -137 -145.5 -192.5t-243.5 -55.5q-168 0 -264 109t-96 293q0 139 40 254t105.5 187.5t147 111.5t168.5 39t154 -28t105.5 -76.5t57.5 -107t19 -126.5q0 -107 -41 -193h-611q-5 -64 5.5 -123.5t36.5 -109.5t74.5 -79.5
t113.5 -29.5zM246 563h473q10 29 10 72q0 91 -49.5 151t-144.5 60q-111 0 -185 -80t-104 -203zM596 1085h-133l153 293h215z" />
    <glyph glyph-name="ecircumflex" unicode="&#xea;" horiz-adv-x="940" 
d="M457 96q100 0 152.5 40t80.5 122l141 -35q-50 -137 -145.5 -192.5t-243.5 -55.5q-168 0 -264 109t-96 293q0 139 40 254t105.5 187.5t147 111.5t168.5 39t154 -28t105.5 -76.5t57.5 -107t19 -126.5q0 -107 -41 -193h-611q-5 -64 5.5 -123.5t36.5 -109.5t74.5 -79.5
t113.5 -29.5zM246 563h473q10 29 10 72q0 91 -49.5 151t-144.5 60q-111 0 -185 -80t-104 -203zM535 1378h86l198 -293h-162l-57 91q-14 22 -22.5 42t-10.5 30l-2 9h-8q-16 -32 -63 -81l-91 -91h-170z" />
    <glyph glyph-name="edieresis" unicode="&#xeb;" horiz-adv-x="940" 
d="M457 96q100 0 152.5 40t80.5 122l141 -35q-50 -137 -145.5 -192.5t-243.5 -55.5q-168 0 -264 109t-96 293q0 139 40 254t105.5 187.5t147 111.5t168.5 39t154 -28t105.5 -76.5t57.5 -107t19 -126.5q0 -107 -41 -193h-611q-5 -64 5.5 -123.5t36.5 -109.5t74.5 -79.5
t113.5 -29.5zM246 563h473q10 29 10 72q0 91 -49.5 151t-144.5 60q-111 0 -185 -80t-104 -203zM258 1219q0 45 33 77.5t78 32.5q46 0 78 -32t32 -78q0 -45 -32.5 -78t-77.5 -33q-44 0 -77.5 33.5t-33.5 77.5zM645 1217q0 45 33 77.5t78 32.5q46 0 78 -32t32 -78
q0 -45 -32.5 -78t-77.5 -33q-44 0 -77.5 33.5t-33.5 77.5z" />
    <glyph glyph-name="igrave" unicode="&#xec;" horiz-adv-x="497" 
d="M434 1085h-133l-235 293h215zM395 946l-131 -743q-16 -92 53 -92q27 0 60 8l-21 -113q-46 -16 -98 -16q-95 0 -131 54t-18 151l131 751h155z" />
    <glyph glyph-name="iacute" unicode="&#xed;" horiz-adv-x="497" 
d="M399 1085h-133l154 293h215zM395 946l-131 -743q-16 -92 53 -92q27 0 60 8l-21 -113q-46 -16 -98 -16q-95 0 -131 54t-18 151l131 751h155z" />
    <glyph glyph-name="icircumflex" unicode="&#xee;" horiz-adv-x="497" 
d="M395 946l-131 -743q-16 -92 53 -92q27 0 60 8l-21 -113q-46 -16 -98 -16q-95 0 -131 54t-18 151l131 751h155zM340 1378h86l199 -293h-162l-57 91q-14 22 -22.5 42t-10.5 30l-2 9h-9q-16 -32 -63 -81l-90 -91h-170z" />
    <glyph glyph-name="idieresis" unicode="&#xef;" horiz-adv-x="497" 
d="M63 1219q0 45 33 77.5t78 32.5q46 0 78.5 -32t32.5 -78q0 -45 -33 -78t-78 -33q-44 0 -77.5 33.5t-33.5 77.5zM451 1217q0 45 32.5 77.5t77.5 32.5q46 0 78.5 -32t32.5 -78q0 -45 -33 -78t-78 -33q-44 0 -77 33.5t-33 77.5zM395 946l-131 -743q-16 -92 53 -92q27 0 60 8
l-21 -113q-46 -16 -98 -16q-95 0 -131 54t-18 151l131 751h155z" />
    <glyph glyph-name="eth" unicode="&#xf0;" horiz-adv-x="999" 
d="M272 1012l-20 82l278 71q-128 90 -301 127l111 84q213 -53 344 -170l176 47l23 -84l-131 -34q166 -203 166 -549q0 -178 -54.5 -315t-164 -216.5t-259.5 -79.5q-162 0 -260 103.5t-98 290.5q0 115 32 219t89.5 184t144.5 127t191 47q73 0 135 -33.5t88 -101.5h8
q-47 174 -160 287zM541 819q-92 0 -163.5 -61.5t-108 -159.5t-36.5 -213q0 -140 60.5 -215.5t167.5 -75.5q91 0 162 64.5t107 165.5t36 217q0 278 -225 278z" />
    <glyph glyph-name="ntilde" unicode="&#xf1;" horiz-adv-x="1034" 
d="M907 651l-78 -448q-16 -92 54 -92q26 0 59 8l-20 -113q-46 -16 -99 -16q-95 0 -131 54t-18 151l82 458q33 185 -129 185q-42 0 -85 -16t-86.5 -51t-78 -100t-49.5 -153l-90 -518h-156l166 946h135l-14 -192q105 215 305 215q111 0 176 -58t65 -166q0 -47 -8 -94z
M752 1087q-21 0 -37.5 2t-34 10t-24 10.5t-28 16t-24.5 15.5q-7 5 -22 14.5t-20.5 13t-16.5 9.5t-18 8t-17 4t-21 2q-73 0 -79 -100h-99q-17 94 37 162.5t146 68.5q12 0 23.5 -1t22 -3.5t18 -4t18 -6.5t15.5 -7t16 -9t14.5 -9t16 -10.5t15.5 -10.5q30 -20 42 -27t27.5 -12.5
t33.5 -5.5q64 0 75 106h105q12 -103 -38.5 -169.5t-145.5 -66.5z" />
    <glyph glyph-name="ograve" unicode="&#xf2;" horiz-adv-x="1005" 
d="M567 969q169 0 263 -109t94 -297q0 -160 -55.5 -292t-167.5 -214t-261 -82q-162 0 -260 106t-98 296q0 118 32.5 224.5t92 188.5t153 130.5t207.5 48.5zM543 840q-93 0 -165 -63.5t-108.5 -164t-36.5 -217.5q0 -144 60.5 -221.5t167.5 -77.5q93 0 164.5 66t107 169
t35.5 222q0 135 -59 211t-166 76zM664 1085h-134l-235 293h215z" />
    <glyph glyph-name="oacute" unicode="&#xf3;" horiz-adv-x="1005" 
d="M567 969q169 0 263 -109t94 -297q0 -160 -55.5 -292t-167.5 -214t-261 -82q-162 0 -260 106t-98 296q0 118 32.5 224.5t92 188.5t153 130.5t207.5 48.5zM543 840q-93 0 -165 -63.5t-108.5 -164t-36.5 -217.5q0 -144 60.5 -221.5t167.5 -77.5q93 0 164.5 66t107 169
t35.5 222q0 135 -59 211t-166 76zM631 1085h-133l153 293h215z" />
    <glyph glyph-name="ocircumflex" unicode="&#xf4;" horiz-adv-x="1005" 
d="M567 969q169 0 263 -109t94 -297q0 -160 -55.5 -292t-167.5 -214t-261 -82q-162 0 -260 106t-98 296q0 118 32.5 224.5t92 188.5t153 130.5t207.5 48.5zM543 840q-93 0 -165 -63.5t-108.5 -164t-36.5 -217.5q0 -144 60.5 -221.5t167.5 -77.5q93 0 164.5 66t107 169
t35.5 222q0 135 -59 211t-166 76zM569 1378h86l199 -293h-162l-57 91q-14 22 -22.5 42t-10.5 30l-2 9h-8q-17 -32 -64 -81l-90 -91h-170z" />
    <glyph glyph-name="otilde" unicode="&#xf5;" horiz-adv-x="1005" 
d="M567 969q169 0 263 -109t94 -297q0 -160 -55.5 -292t-167.5 -214t-261 -82q-162 0 -260 106t-98 296q0 118 32.5 224.5t92 188.5t153 130.5t207.5 48.5zM543 840q-93 0 -165 -63.5t-108.5 -164t-36.5 -217.5q0 -144 60.5 -221.5t167.5 -77.5q93 0 164.5 66t107 169
t35.5 222q0 135 -59 211t-166 76zM723 1087q-21 0 -37.5 2t-34 10t-24 10.5t-28 16t-24.5 15.5q-7 5 -25.5 17t-24.5 15t-18.5 9.5t-22.5 8t-23 1.5q-34 0 -55.5 -25t-24.5 -75h-98q-17 94 36.5 162.5t145.5 68.5q11 0 22 -1t19 -2t18 -4t16 -4.5t15.5 -6.5t13.5 -7
t14.5 -8.5t13 -8.5t14.5 -9.5t14 -9.5q31 -21 42 -27.5t26.5 -12t33.5 -5.5q65 0 76 106h104q12 -103 -38.5 -169.5t-145.5 -66.5z" />
    <glyph glyph-name="odieresis" unicode="&#xf6;" horiz-adv-x="1005" 
d="M567 969q169 0 263 -109t94 -297q0 -160 -55.5 -292t-167.5 -214t-261 -82q-162 0 -260 106t-98 296q0 118 32.5 224.5t92 188.5t153 130.5t207.5 48.5zM543 840q-93 0 -165 -63.5t-108.5 -164t-36.5 -217.5q0 -144 60.5 -221.5t167.5 -77.5q93 0 164.5 66t107 169
t35.5 222q0 135 -59 211t-166 76zM293 1219q0 45 32.5 77.5t77.5 32.5q46 0 78.5 -32t32.5 -78q0 -45 -33 -78t-78 -33q-44 0 -77 33.5t-33 77.5zM680 1217q0 45 33 77.5t78 32.5q46 0 78 -32t32 -78q0 -45 -32.5 -78t-77.5 -33q-44 0 -77.5 33.5t-33.5 77.5z" />
    <glyph glyph-name="divide" unicode="&#xf7;" horiz-adv-x="1015" 
d="M918 461h-836l16 94h836zM334 143q0 37 25.5 62.5t62.5 25.5q36 0 62 -26t26 -62q0 -35 -26.5 -60.5t-61.5 -25.5q-37 0 -62.5 25.5t-25.5 60.5zM489 858q0 37 26 63.5t63 26.5q35 0 61.5 -26.5t26.5 -63.5q0 -35 -26.5 -60.5t-61.5 -25.5q-37 0 -63 25.5t-26 60.5z" />
    <glyph glyph-name="oslash" unicode="&#xf8;" horiz-adv-x="1005" 
d="M567 969q171 0 264 -113l113 111l84 -88l-135 -131q31 -82 31 -185q0 -160 -55.5 -292t-167.5 -214t-261 -82t-243 88l-97 -92l-86 82l111 109q-43 87 -43 215q0 118 32.5 224.5t92 188.5t153 130.5t207.5 48.5zM543 840q-93 0 -165 -63.5t-108.5 -164t-36.5 -217.5
q0 -60 13 -114l475 467q-61 92 -178 92zM461 96q93 0 164.5 66t107 169t35.5 222q0 22 -4 68l-465 -455q58 -70 162 -70z" />
    <glyph glyph-name="ugrave" unicode="&#xf9;" 
d="M647 178q-42 -106 -115.5 -154.5t-181.5 -48.5q-147 0 -207 93t-30 264l106 614h156l-113 -643q-17 -100 17.5 -155.5t117.5 -55.5q94 0 174.5 75.5t102.5 203.5l100 575h156l-131 -743q-16 -92 53 -92q26 0 59 8l-20 -113q-46 -16 -98 -16q-92 0 -125.5 47.5
t-20.5 140.5zM676 1085h-133l-236 293h215z" />
    <glyph glyph-name="uacute" unicode="&#xfa;" 
d="M647 178q-42 -106 -115.5 -154.5t-181.5 -48.5q-147 0 -207 93t-30 264l106 614h156l-113 -643q-17 -100 17.5 -155.5t117.5 -55.5q94 0 174.5 75.5t102.5 203.5l100 575h156l-131 -743q-16 -92 53 -92q26 0 59 8l-20 -113q-46 -16 -98 -16q-92 0 -125.5 47.5
t-20.5 140.5zM643 1085h-133l154 293h215z" />
    <glyph glyph-name="ucircumflex" unicode="&#xfb;" 
d="M647 178q-42 -106 -115.5 -154.5t-181.5 -48.5q-147 0 -207 93t-30 264l106 614h156l-113 -643q-17 -100 17.5 -155.5t117.5 -55.5q94 0 174.5 75.5t102.5 203.5l100 575h156l-131 -743q-16 -92 53 -92q26 0 59 8l-20 -113q-46 -16 -98 -16q-92 0 -125.5 47.5
t-20.5 140.5zM582 1378h86l198 -293h-161l-58 91q-14 22 -22.5 42t-10.5 30l-2 9h-8q-16 -32 -63 -81l-90 -91h-170z" />
    <glyph glyph-name="udieresis" unicode="&#xfc;" 
d="M647 178q-42 -106 -115.5 -154.5t-181.5 -48.5q-147 0 -207 93t-30 264l106 614h156l-113 -643q-17 -100 17.5 -155.5t117.5 -55.5q94 0 174.5 75.5t102.5 203.5l100 575h156l-131 -743q-16 -92 53 -92q26 0 59 8l-20 -113q-46 -16 -98 -16q-92 0 -125.5 47.5
t-20.5 140.5zM305 1219q0 45 33 77.5t78 32.5q46 0 78 -32t32 -78q0 -45 -32.5 -78t-77.5 -33q-44 0 -77.5 33.5t-33.5 77.5zM692 1217q0 45 33 77.5t78 32.5q46 0 78 -32t32 -78q0 -45 -32.5 -78t-77.5 -33q-44 0 -77.5 33.5t-33.5 77.5z" />
    <glyph glyph-name="yacute" unicode="&#xfd;" horiz-adv-x="856" 
d="M256 946l63 -549q12 -83 18 -157.5t5 -107.5v-34h8q29 113 123 297l279 551h166l-560 -1061q-52 -100 -100.5 -164t-97.5 -97t-92.5 -44.5t-100.5 -11.5q-77 0 -141 35l33 116q62 -32 116 -32q77 0 137.5 58.5t131.5 199.5l-152 1001h164zM547 1085h-133l153 293h215z
" />
    <glyph glyph-name="thorn" unicode="&#xfe;" horiz-adv-x="1071" 
d="M332 541l-33 -189q-13 -61 6.5 -121.5t73 -102.5t129.5 -42q98 0 171.5 66.5t110.5 176.5t37 244q0 126 -51.5 198.5t-146.5 72.5q-107 0 -190.5 -84.5t-106.5 -218.5zM264 156l-100 -572h-154l312 1784h151l-104 -604q99 205 311 205q149 0 229 -100.5t80 -288.5
q0 -169 -56 -306t-164 -218t-249 -81q-102 0 -171 51.5t-85 129.5z" />
    <glyph glyph-name="ydieresis" unicode="&#xff;" horiz-adv-x="856" 
d="M256 946l63 -549q12 -83 18 -157.5t5 -107.5v-34h8q29 113 123 297l279 551h166l-560 -1061q-52 -100 -100.5 -164t-97.5 -97t-92.5 -44.5t-100.5 -11.5q-77 0 -141 35l33 116q62 -32 116 -32q77 0 137.5 58.5t131.5 199.5l-152 1001h164zM209 1219q0 45 32.5 77.5
t77.5 32.5q46 0 78.5 -32t32.5 -78q0 -45 -33 -78t-78 -33q-44 0 -77 33.5t-33 77.5zM596 1217q0 45 33 77.5t78 32.5q46 0 78 -32t32 -78q0 -45 -32.5 -78t-77.5 -33q-44 0 -77.5 33.5t-33.5 77.5z" />
    <glyph glyph-name="Amacron" unicode="&#x100;" horiz-adv-x="1181" 
d="M887 0l-64 356h-506l-186 -356h-172l651 1206h217l226 -1206h-166zM999 1386h-514l21 121h514zM553 803l-168 -316h414q-30 150 -54 305t-33 236.5t-7 81.5h-9q-45 -121 -143 -307z" />
    <glyph glyph-name="amacron" unicode="&#x101;" horiz-adv-x="1075" 
d="M719 395l29 160q20 115 -29.5 203t-157.5 88q-141 0 -234.5 -131.5t-93.5 -333.5q0 -125 54 -201t155 -76q107 0 180.5 77.5t96.5 213.5zM973 946l-131 -743q-16 -92 53 -92q26 0 59 8l-20 -113q-46 -16 -98 -16q-77 0 -115.5 43.5t-32.5 124.5q-41 -92 -117.5 -137.5
t-171.5 -45.5q-141 0 -229 102t-88 285q0 162 57 300t165 222.5t243 84.5q209 0 246 -183l51 160h129zM866 1155h-514l23 125h514z" />
    <glyph glyph-name="Abreve" unicode="&#x102;" horiz-adv-x="1181" 
d="M887 0l-64 356h-506l-186 -356h-172l651 1206h217l226 -1206h-166zM727 1335q-124 0 -182.5 69.5t-36.5 188.5h125q-6 -70 20.5 -105.5t96.5 -35.5q71 0 109.5 35t58.5 106h124q-22 -119 -106 -188.5t-209 -69.5zM553 803l-168 -316h414q-30 150 -54 305t-33 236.5
t-7 81.5h-9q-45 -121 -143 -307z" />
    <glyph glyph-name="abreve" unicode="&#x103;" horiz-adv-x="1075" 
d="M719 395l29 160q20 115 -29.5 203t-157.5 88q-141 0 -234.5 -131.5t-93.5 -333.5q0 -125 54 -201t155 -76q107 0 180.5 77.5t96.5 213.5zM973 946l-131 -743q-16 -92 53 -92q26 0 59 8l-20 -113q-46 -16 -98 -16q-77 0 -115.5 43.5t-32.5 124.5q-41 -92 -117.5 -137.5
t-171.5 -45.5q-141 0 -229 102t-88 285q0 162 57 300t165 222.5t243 84.5q209 0 246 -183l51 160h129zM580 1083q-125 0 -184 75.5t-36 203.5h125q-7 -80 16 -120t99 -40t113.5 40.5t58.5 119.5h125q-23 -129 -107.5 -204t-209.5 -75z" />
    <glyph glyph-name="Aogonek" unicode="&#x104;" horiz-adv-x="1181" 
d="M535 -242q0 70 32.5 131t83.5 101t108 65.5t111 32.5l-47 268h-506l-186 -356h-172l651 1206h217l226 -1206h-86q-75 0 -142 -26.5t-111 -79t-44 -119.5q0 -46 26.5 -73.5t69.5 -27.5q50 0 80 22.5t53 65.5l59 -71q-62 -123 -217 -123q-101 0 -153.5 51t-52.5 139z
M553 803l-168 -316h414q-30 150 -54 305t-33 236.5t-7 81.5h-9q-45 -121 -143 -307z" />
    <glyph glyph-name="aogonek" unicode="&#x105;" horiz-adv-x="1075" 
d="M494 -242q0 97 67.5 170t157.5 107q-14 23 -24 58t-7 65q-40 -87 -118.5 -135t-170.5 -48q-141 0 -229 102t-88 285q0 162 57 300t165 222.5t243 84.5q209 0 246 -183l51 160h129l-131 -743q-16 -92 53 -92q26 0 59 8l-20 -113q-59 -8 -109.5 -23.5t-96.5 -42t-72.5 -69
t-26.5 -96.5q0 -46 26.5 -73.5t69.5 -27.5q50 0 80 22.5t53 65.5l60 -71q-62 -123 -218 -123q-101 0 -153.5 51t-52.5 139zM719 395l29 160q20 115 -29.5 203t-157.5 88q-141 0 -234.5 -131.5t-93.5 -333.5q0 -125 54 -201t155 -76q107 0 180.5 77.5t96.5 213.5z" />
    <glyph glyph-name="Cacute" unicode="&#x106;" horiz-adv-x="1128" 
d="M907 295l125 -70q-140 -250 -457 -250q-217 0 -339.5 135t-122.5 355q0 177 49 323.5t133 242t195 148t237 52.5q322 0 391 -285l-160 -65q-19 108 -86 161.5t-161 53.5q-133 0 -233 -88t-149.5 -227t-49.5 -304q0 -169 81.5 -267.5t233.5 -98.5q108 0 179 38.5
t134 145.5zM803 1341h-141l126 238h213z" />
    <glyph glyph-name="cacute" unicode="&#x107;" horiz-adv-x="901" 
d="M690 289l144 -33q-54 -144 -151 -212.5t-247 -68.5q-160 0 -257 106t-97 294q0 90 19 176t59 161.5t95.5 133t134 90.5t169.5 33q153 0 227 -77t74 -220l-145 -25q-2 94 -42 143.5t-132 49.5q-95 0 -167.5 -68.5t-106.5 -167.5t-34 -207q0 -147 59 -224t165 -77
q92 0 146.5 50t86.5 143zM637 1085h-133l153 293h215z" />
    <glyph glyph-name="Ccircumflex" unicode="&#x108;" horiz-adv-x="1128" 
d="M907 295l125 -70q-140 -250 -457 -250q-217 0 -339.5 135t-122.5 355q0 177 49 323.5t133 242t195 148t237 52.5q322 0 391 -285l-160 -65q-19 108 -86 161.5t-161 53.5q-133 0 -233 -88t-149.5 -227t-49.5 -304q0 -169 81.5 -267.5t233.5 -98.5q108 0 179 38.5
t134 145.5zM725 1595h94l203 -254h-174l-53 70q-14 19 -23 37t-12 26l-2 9h-4q-15 -29 -62 -72l-78 -70h-182z" />
    <glyph glyph-name="ccircumflex" unicode="&#x109;" horiz-adv-x="901" 
d="M690 289l144 -33q-54 -144 -151 -212.5t-247 -68.5q-160 0 -257 106t-97 294q0 90 19 176t59 161.5t95.5 133t134 90.5t169.5 33q153 0 227 -77t74 -220l-145 -25q-2 94 -42 143.5t-132 49.5q-95 0 -167.5 -68.5t-106.5 -167.5t-34 -207q0 -147 59 -224t165 -77
q92 0 146.5 50t86.5 143zM575 1378h87l198 -293h-162l-57 91q-14 22 -22.5 42t-10.5 30l-2 9h-8q-16 -32 -63 -81l-91 -91h-170z" />
    <glyph glyph-name="Cdotaccent" unicode="&#x10a;" horiz-adv-x="1128" 
d="M907 295l125 -70q-140 -250 -457 -250q-217 0 -339.5 135t-122.5 355q0 177 49 323.5t133 242t195 148t237 52.5q322 0 391 -285l-160 -65q-19 108 -86 161.5t-161 53.5q-133 0 -233 -88t-149.5 -227t-49.5 -304q0 -169 81.5 -267.5t233.5 -98.5q108 0 179 38.5
t134 145.5zM647 1485q0 47 32 79.5t77 32.5q47 0 79.5 -32.5t32.5 -79.5q0 -45 -32.5 -78t-79.5 -33q-44 0 -76.5 33.5t-32.5 77.5z" />
    <glyph glyph-name="cdotaccent" unicode="&#x10b;" horiz-adv-x="901" 
d="M690 289l144 -33q-54 -144 -151 -212.5t-247 -68.5q-160 0 -257 106t-97 294q0 90 19 176t59 161.5t95.5 133t134 90.5t169.5 33q153 0 227 -77t74 -220l-145 -25q-2 94 -42 143.5t-132 49.5q-95 0 -167.5 -68.5t-106.5 -167.5t-34 -207q0 -147 59 -224t165 -77
q92 0 146.5 50t86.5 143zM485 1253q0 46 32.5 79.5t76.5 33.5q47 0 80 -33.5t33 -79.5q0 -45 -33 -77.5t-80 -32.5q-44 0 -76.5 33t-32.5 77z" />
    <glyph glyph-name="Ccaron" unicode="&#x10c;" horiz-adv-x="1128" 
d="M907 295l125 -70q-140 -250 -457 -250q-217 0 -339.5 135t-122.5 355q0 177 49 323.5t133 242t195 148t237 52.5q322 0 391 -285l-160 -65q-19 108 -86 161.5t-161 53.5q-133 0 -233 -88t-149.5 -227t-49.5 -304q0 -169 81.5 -267.5t233.5 -98.5q108 0 179 38.5
t134 145.5zM782 1341h-94l-203 254h174l54 -69q14 -19 23 -37t12 -27l2 -8h4q14 29 61 72l78 69h182z" />
    <glyph glyph-name="ccaron" unicode="&#x10d;" horiz-adv-x="901" 
d="M690 289l144 -33q-54 -144 -151 -212.5t-247 -68.5q-160 0 -257 106t-97 294q0 90 19 176t59 161.5t95.5 133t134 90.5t169.5 33q153 0 227 -77t74 -220l-145 -25q-2 94 -42 143.5t-132 49.5q-95 0 -167.5 -68.5t-106.5 -167.5t-34 -207q0 -147 59 -224t165 -77
q92 0 146.5 50t86.5 143zM621 1085h-86l-199 293h162l57 -90q14 -22 22.5 -42.5t10.5 -29.5l2 -10h8q17 33 64 82l90 90h170z" />
    <glyph glyph-name="Dcaron" unicode="&#x10e;" horiz-adv-x="1204" 
d="M268 133h195q80 0 151 21t133.5 68t107 116.5t70 171t25.5 227.5q0 336 -354 336h-162zM471 0h-389l211 1206h328q252 0 376.5 -118t124.5 -338q0 -159 -38 -287.5t-101 -213.5t-148 -142t-176 -82t-188 -25zM692 1341h-94l-203 254h174l54 -69q14 -19 23 -37t11 -27
l2 -8h5q14 29 61 72l78 69h182z" />
    <glyph glyph-name="dcaron" unicode="&#x10f;" horiz-adv-x="1067" 
d="M1346 1368l-105 -358h-113l33 358h185zM719 393l31 162q20 113 -30.5 201t-158.5 88q-143 0 -236.5 -131.5t-93.5 -333.5q0 -123 54 -199t155 -76q108 0 182 77.5t97 211.5zM1047 1368l-205 -1165q-16 -92 53 -92q26 0 59 8l-20 -113q-46 -16 -98 -16q-77 0 -115.5 43.5
t-32.5 124.5q-36 -96 -113 -139.5t-176 -43.5q-141 0 -229 102t-88 285q0 162 57 300t165 222.5t243 84.5q207 0 244 -183l102 582h154z" />
    <glyph glyph-name="Dcroat" unicode="&#x110;" horiz-adv-x="1204" 
d="M471 0h-389l92 532h-133l25 140h133l94 534h328q252 0 376.5 -118t124.5 -338q0 -159 -38 -287.5t-101 -213.5t-148 -142t-176 -82t-188 -25zM268 133h195q80 0 151 21t133.5 68t107 116.5t70 171t25.5 227.5q0 336 -354 336h-162l-72 -401h259l-25 -140h-258z" />
    <glyph glyph-name="dcroat" unicode="&#x111;" horiz-adv-x="1067" 
d="M1047 1368l-29 -156h151l-22 -120h-150l-155 -889q-16 -92 53 -92q26 0 59 8l-20 -113q-46 -16 -98 -16q-77 0 -115.5 43.5t-32.5 124.5q-36 -96 -113 -139.5t-176 -43.5q-141 0 -229 102t-88 285q0 162 57 300t165 222.5t243 84.5q207 0 244 -183l53 306h-289l23 120
h286l29 156h154zM719 393l31 162q20 113 -30.5 201t-158.5 88q-143 0 -236.5 -131.5t-93.5 -333.5q0 -123 54 -199t155 -76q108 0 182 77.5t97 211.5z" />
    <glyph glyph-name="Emacron" unicode="&#x112;" horiz-adv-x="983" 
d="M825 139l-22 -139h-721l211 1206h721l-25 -139h-557l-70 -395h494l-25 -140h-493l-70 -393h557zM915 1386h-514l21 121h514z" />
    <glyph glyph-name="emacron" unicode="&#x113;" horiz-adv-x="940" 
d="M457 96q100 0 152.5 40t80.5 122l141 -35q-50 -137 -145.5 -192.5t-243.5 -55.5q-168 0 -264 109t-96 293q0 139 40 254t105.5 187.5t147 111.5t168.5 39t154 -28t105.5 -76.5t57.5 -107t19 -126.5q0 -107 -41 -193h-611q-5 -64 5.5 -123.5t36.5 -109.5t74.5 -79.5
t113.5 -29.5zM246 563h473q10 29 10 72q0 91 -49.5 151t-144.5 60q-111 0 -185 -80t-104 -203zM807 1155h-514l22 125h514z" />
    <glyph glyph-name="Ebreve" unicode="&#x114;" horiz-adv-x="983" 
d="M825 139l-22 -139h-721l211 1206h721l-25 -139h-557l-70 -395h494l-25 -140h-493l-70 -393h557zM643 1335q-124 0 -182.5 69.5t-36.5 188.5h125q-6 -70 20.5 -105.5t96.5 -35.5q71 0 109.5 35t58.5 106h124q-22 -119 -106 -188.5t-209 -69.5z" />
    <glyph glyph-name="ebreve" unicode="&#x115;" horiz-adv-x="940" 
d="M457 96q100 0 152.5 40t80.5 122l141 -35q-50 -137 -145.5 -192.5t-243.5 -55.5q-168 0 -264 109t-96 293q0 139 40 254t105.5 187.5t147 111.5t168.5 39t154 -28t105.5 -76.5t57.5 -107t19 -126.5q0 -107 -41 -193h-611q-5 -64 5.5 -123.5t36.5 -109.5t74.5 -79.5
t113.5 -29.5zM246 563h473q10 29 10 72q0 91 -49.5 151t-144.5 60q-111 0 -185 -80t-104 -203zM520 1083q-125 0 -183.5 75.5t-35.5 203.5h125q-7 -80 16 -120t99 -40t113.5 40.5t58.5 119.5h125q-23 -128 -108 -203.5t-210 -75.5z" />
    <glyph glyph-name="Edotaccent" unicode="&#x116;" horiz-adv-x="983" 
d="M825 139l-22 -139h-721l211 1206h721l-25 -139h-557l-70 -395h494l-25 -140h-493l-70 -393h557zM551 1485q0 47 31.5 79.5t76.5 32.5q47 0 80 -32.5t33 -79.5q0 -45 -33 -78t-80 -33q-44 0 -76 33t-32 78z" />
    <glyph glyph-name="edotaccent" unicode="&#x117;" horiz-adv-x="940" 
d="M457 96q100 0 152.5 40t80.5 122l141 -35q-50 -137 -145.5 -192.5t-243.5 -55.5q-168 0 -264 109t-96 293q0 139 40 254t105.5 187.5t147 111.5t168.5 39t154 -28t105.5 -76.5t57.5 -107t19 -126.5q0 -107 -41 -193h-611q-5 -64 5.5 -123.5t36.5 -109.5t74.5 -79.5
t113.5 -29.5zM246 563h473q10 29 10 72q0 91 -49.5 151t-144.5 60q-111 0 -185 -80t-104 -203zM444 1253q0 46 32.5 79.5t76.5 33.5q47 0 80 -33.5t33 -79.5q0 -45 -33 -77.5t-80 -32.5q-44 0 -76.5 33t-32.5 77z" />
    <glyph glyph-name="Eogonek" unicode="&#x118;" horiz-adv-x="983" 
d="M332 -242q0 76 46.5 143t115.5 99h-412l211 1206h721l-25 -139h-557l-70 -395h494l-25 -140h-493l-70 -393h557l-22 -139h-51q-115 0 -200 -63.5t-85 -161.5q0 -46 26.5 -73.5t69.5 -27.5q50 0 80 22.5t53 65.5l60 -71q-62 -123 -217 -123q-101 0 -154 51t-53 139z" />
    <glyph glyph-name="eogonek" unicode="&#x119;" horiz-adv-x="940" 
d="M289 -242q0 126 110 219q-150 15 -233.5 122t-83.5 278q0 139 40 254t105.5 187.5t147 111.5t168.5 39t154 -28t105.5 -76.5t57.5 -107t19 -126.5q0 -107 -41 -193h-611q-5 -64 5.5 -123.5t36.5 -109.5t74.5 -79.5t113.5 -29.5q100 0 152.5 40t80.5 122l141 -35
q-19 -52 -45.5 -91t-63 -65.5t-69.5 -43t-82 -35.5q-67 -26 -107 -84t-40 -129q0 -46 26.5 -73.5t69.5 -27.5q50 0 80 22.5t53 65.5l60 -71q-61 -123 -217 -123q-101 0 -154 51t-53 139zM246 563h473q10 29 10 72q0 91 -49.5 151t-144.5 60q-111 0 -185 -80t-104 -203z" />
    <glyph glyph-name="Ecaron" unicode="&#x11a;" horiz-adv-x="983" 
d="M825 139l-22 -139h-721l211 1206h721l-25 -139h-557l-70 -395h494l-25 -140h-493l-70 -393h557zM686 1341h-94l-203 254h174l53 -69q14 -19 23 -37t11 -27l3 -8h4q15 29 62 72l78 69h182z" />
    <glyph glyph-name="ecaron" unicode="&#x11b;" horiz-adv-x="940" 
d="M457 96q100 0 152.5 40t80.5 122l141 -35q-50 -137 -145.5 -192.5t-243.5 -55.5q-168 0 -264 109t-96 293q0 139 40 254t105.5 187.5t147 111.5t168.5 39t154 -28t105.5 -76.5t57.5 -107t19 -126.5q0 -107 -41 -193h-611q-5 -64 5.5 -123.5t36.5 -109.5t74.5 -79.5
t113.5 -29.5zM246 563h473q10 29 10 72q0 91 -49.5 151t-144.5 60q-111 0 -185 -80t-104 -203zM580 1085h-86l-199 293h162l57 -90q14 -22 22.5 -42.5t10.5 -29.5l2 -10h8q17 33 64 82l90 90h170z" />
    <glyph glyph-name="Gcircumflex" unicode="&#x11c;" horiz-adv-x="1212" 
d="M649 614h467l-106 -614h-127l-2 154q-39 -85 -117 -132t-191 -47q-216 0 -338 135t-122 355q0 177 49 323.5t133.5 242t196 148t237.5 52.5q322 0 391 -285l-159 -65q-19 108 -86.5 161.5t-161.5 53.5q-133 0 -233.5 -88t-150.5 -227t-50 -304q0 -171 79.5 -268.5
t235.5 -97.5q275 0 324 282l14 78h-307zM727 1595h94l203 -254h-174l-53 70q-14 19 -23 37t-12 26l-2 9h-4q-15 -29 -62 -72l-78 -70h-182z" />
    <glyph glyph-name="gcircumflex" unicode="&#x11d;" horiz-adv-x="1024" 
d="M719 389l31 166q13 73 -1.5 138t-62.5 109t-121 44q-145 0 -238.5 -132.5t-93.5 -334.5q0 -125 52.5 -200t154.5 -75q111 0 183 75t96 210zM973 946l-172 -977q-37 -207 -146 -304t-313 -97q-176 0 -262.5 73t-99.5 189l139 47q6 -85 68 -139.5t165 -54.5q127 0 195.5 70
t95.5 210l37 191q-78 -177 -277 -177q-142 0 -231.5 102.5t-89.5 285.5q0 161 58 298.5t167 221.5t246 84q203 0 240 -183l51 160h129zM588 1378h86l198 -293h-161l-58 91q-14 22 -22.5 42t-10.5 30l-2 9h-8q-16 -32 -63 -81l-90 -91h-170z" />
    <glyph glyph-name="Gbreve" unicode="&#x11e;" horiz-adv-x="1212" 
d="M649 614h467l-106 -614h-127l-2 154q-39 -85 -117 -132t-191 -47q-216 0 -338 135t-122 355q0 177 49 323.5t133.5 242t196 148t237.5 52.5q322 0 391 -285l-159 -65q-19 108 -86.5 161.5t-161.5 53.5q-133 0 -233.5 -88t-150.5 -227t-50 -304q0 -171 79.5 -268.5
t235.5 -97.5q275 0 324 282l14 78h-307zM739 1335q-124 0 -182.5 69.5t-36.5 188.5h125q-6 -70 20.5 -105.5t96.5 -35.5q71 0 109.5 35t58.5 106h125q-22 -119 -106.5 -188.5t-209.5 -69.5z" />
    <glyph glyph-name="gbreve" unicode="&#x11f;" horiz-adv-x="1024" 
d="M719 389l31 166q13 73 -1.5 138t-62.5 109t-121 44q-145 0 -238.5 -132.5t-93.5 -334.5q0 -125 52.5 -200t154.5 -75q111 0 183 75t96 210zM973 946l-172 -977q-37 -207 -146 -304t-313 -97q-176 0 -262.5 73t-99.5 189l139 47q6 -85 68 -139.5t165 -54.5q127 0 195.5 70
t95.5 210l37 191q-78 -177 -277 -177q-142 0 -231.5 102.5t-89.5 285.5q0 161 58 298.5t167 221.5t246 84q203 0 240 -183l51 160h129zM573 1083q-125 0 -183.5 75.5t-35.5 203.5h125q-7 -80 16 -120t99 -40t113.5 40.5t58.5 119.5h125q-23 -128 -108 -203.5t-210 -75.5z
" />
    <glyph glyph-name="Gdotaccent" unicode="&#x120;" horiz-adv-x="1212" 
d="M649 614h467l-106 -614h-127l-2 154q-39 -85 -117 -132t-191 -47q-216 0 -338 135t-122 355q0 177 49 323.5t133.5 242t196 148t237.5 52.5q322 0 391 -285l-159 -65q-19 108 -86.5 161.5t-161.5 53.5q-133 0 -233.5 -88t-150.5 -227t-50 -304q0 -171 79.5 -268.5
t235.5 -97.5q275 0 324 282l14 78h-307zM649 1485q0 47 32 79.5t77 32.5q47 0 79.5 -32.5t32.5 -79.5q0 -45 -32.5 -78t-79.5 -33q-44 0 -76.5 33.5t-32.5 77.5z" />
    <glyph glyph-name="gdotaccent" unicode="&#x121;" horiz-adv-x="1024" 
d="M719 389l31 166q13 73 -1.5 138t-62.5 109t-121 44q-145 0 -238.5 -132.5t-93.5 -334.5q0 -125 52.5 -200t154.5 -75q111 0 183 75t96 210zM973 946l-172 -977q-37 -207 -146 -304t-313 -97q-176 0 -262.5 73t-99.5 189l139 47q6 -85 68 -139.5t165 -54.5q127 0 195.5 70
t95.5 210l37 191q-78 -177 -277 -177q-142 0 -231.5 102.5t-89.5 285.5q0 161 58 298.5t167 221.5t246 84q203 0 240 -183l51 160h129zM498 1253q0 46 32 79.5t76 33.5q47 0 80 -33.5t33 -79.5q0 -45 -33 -77.5t-80 -32.5q-44 0 -76 33t-32 77z" />
    <glyph glyph-name="Gcommaaccent" unicode="&#x122;" horiz-adv-x="1212" 
d="M649 614h467l-106 -614h-127l-2 154q-39 -85 -117 -132t-191 -47q-216 0 -338 135t-122 355q0 177 49 323.5t133.5 242t196 148t237.5 52.5q322 0 391 -285l-159 -65q-19 108 -86.5 161.5t-161.5 53.5q-133 0 -233.5 -88t-150.5 -227t-50 -304q0 -171 79.5 -268.5
t235.5 -97.5q275 0 324 282l14 78h-307zM596 -287q0 -106 -71.5 -160.5t-190.5 -54.5v70q68 4 107.5 23t39.5 67q-52 -10 -84 16.5t-32 73.5t29 73.5t79 26.5q51 0 87 -35t36 -100z" />
    <glyph glyph-name="gcommaaccent" unicode="&#x123;" horiz-adv-x="1024" 
d="M719 389l31 166q13 73 -1.5 138t-62.5 109t-121 44q-145 0 -238.5 -132.5t-93.5 -334.5q0 -125 52.5 -200t154.5 -75q111 0 183 75t96 210zM973 946l-172 -977q-37 -207 -146 -304t-313 -97q-176 0 -262.5 73t-99.5 189l139 47q6 -85 68 -139.5t165 -54.5q127 0 195.5 70
t95.5 210l37 191q-78 -177 -277 -177q-142 0 -231.5 102.5t-89.5 285.5q0 161 58 298.5t167 221.5t246 84q203 0 240 -183l51 160h129zM518 1231q0 106 71.5 160.5t190.5 54.5v-70q-68 -4 -107.5 -23t-39.5 -67q53 10 85 -16.5t32 -73.5t-29.5 -73.5t-79.5 -26.5
q-51 0 -87 35t-36 100z" />
    <glyph glyph-name="Hcircumflex" unicode="&#x124;" horiz-adv-x="1257" 
d="M246 0h-164l211 1206h164l-92 -524h606l92 524h164l-211 -1206h-164l94 543h-606zM764 1595h94l203 -254h-174l-53 70q-14 19 -23 37t-11 26l-3 9h-4q-15 -29 -62 -72l-78 -70h-182z" />
    <glyph glyph-name="hcircumflex" unicode="&#x125;" horiz-adv-x="1034" 
d="M907 651l-78 -448q-16 -92 54 -92q26 0 59 8l-20 -113q-46 -16 -99 -16q-95 0 -131 54t-18 151l82 458q33 185 -129 185q-42 0 -85 -16t-86.5 -51t-78 -100t-49.5 -153l-90 -518h-156l237 1368h160l-110 -614q105 215 305 215q111 0 176 -58t65 -166q0 -47 -8 -94z
M412 1681h94l203 -254h-174l-54 70q-14 19 -23 37t-12 26l-2 9h-4q-14 -29 -61 -72l-78 -70h-182z" />
    <glyph glyph-name="Hbar" unicode="&#x126;" horiz-adv-x="1306" 
d="M264 0h-164l150 862h-178l24 135h178l37 209h164l-37 -209h606l37 209h164l-37 -209h191l-25 -135h-190l-150 -862h-164l95 543h-607zM383 682h606l31 180h-606z" />
    <glyph glyph-name="hbar" unicode="&#x127;" horiz-adv-x="1034" 
d="M115 1092l22 120h156l26 156h160l-28 -156h278l-22 -120h-279l-59 -338q105 215 305 215q111 0 176 -58t65 -166q0 -47 -8 -94l-78 -448q-16 -92 54 -92q26 0 59 8l-20 -113q-46 -16 -99 -16q-95 0 -131 54t-18 151l82 458q33 185 -129 185q-42 0 -85 -16t-86.5 -51
t-78 -100t-49.5 -153l-90 -518h-156l188 1092h-155z" />
    <glyph glyph-name="Itilde" unicode="&#x128;" horiz-adv-x="487" 
d="M293 1206h164l-211 -1206h-164zM520 1341q-21 0 -37.5 2.5t-33.5 9.5t-24.5 10.5t-27 16t-24.5 15.5q-7 5 -22 14.5t-20.5 13t-16.5 9.5t-18 8t-17 4t-21 2q-34 0 -55.5 -25t-24.5 -75h-98q-17 94 36.5 162.5t145.5 68.5q11 0 22 -1t19 -2t18 -4t16 -4.5t15.5 -6.5
t13.5 -7t14.5 -8.5t13 -8.5t14.5 -9.5t14 -9.5q56 -37 73 -42q13 -4 29 -4q65 0 76 107h105q12 -103 -39 -169.5t-146 -66.5z" />
    <glyph glyph-name="itilde" unicode="&#x129;" horiz-adv-x="497" 
d="M492 1087q-21 0 -37.5 2t-34 10t-24 10.5t-28 16t-24.5 15.5q-7 5 -22 14.5t-20.5 13t-16.5 9.5t-18 8t-17 4t-21 2q-73 0 -79 -100h-99q-17 94 36.5 162.5t145.5 68.5q11 0 22 -1t19 -2t18 -4t16 -4.5t15.5 -6.5t13.5 -7t14.5 -8.5t13 -8.5t14.5 -9.5t14 -9.5
q30 -20 42 -27t27.5 -12.5t33.5 -5.5q64 0 75 106h105q12 -103 -38.5 -169.5t-145.5 -66.5zM395 946l-131 -743q-16 -92 53 -92q27 0 60 8l-21 -113q-46 -16 -98 -16q-95 0 -131 54t-18 151l131 751h155z" />
    <glyph glyph-name="Imacron" unicode="&#x12a;" horiz-adv-x="487" 
d="M293 1206h164l-211 -1206h-164zM666 1386h-514l20 121h514z" />
    <glyph glyph-name="imacron" unicode="&#x12b;" horiz-adv-x="497" 
d="M612 1155h-514l23 125h514zM395 946l-131 -743q-16 -92 53 -92q27 0 60 8l-21 -113q-46 -16 -98 -16q-95 0 -131 54t-18 151l131 751h155z" />
    <glyph glyph-name="Ibreve" unicode="&#x12c;" horiz-adv-x="487" 
d="M293 1206h164l-211 -1206h-164zM391 1335q-124 0 -182.5 69.5t-36.5 188.5h125q-6 -70 20.5 -105.5t96.5 -35.5q71 0 109.5 35t58.5 106h125q-22 -119 -106.5 -188.5t-209.5 -69.5z" />
    <glyph glyph-name="ibreve" unicode="&#x12d;" horiz-adv-x="497" 
d="M324 1083q-125 0 -184 75.5t-36 203.5h125q-7 -80 16 -120t99 -40t113.5 40.5t58.5 119.5h125q-23 -129 -107.5 -204t-209.5 -75zM395 946l-131 -743q-16 -92 53 -92q27 0 60 8l-21 -113q-46 -16 -98 -16q-95 0 -131 54t-18 151l131 751h155z" />
    <glyph glyph-name="Iogonek" unicode="&#x12e;" horiz-adv-x="487" 
d="M-186 -242q0 61 25 115.5t67 94t89.5 67.5t98.5 43l199 1128h164l-211 -1206q-75 0 -142 -26.5t-111 -79t-44 -119.5q0 -46 26.5 -73.5t69.5 -27.5q50 0 80 22.5t53 65.5l60 -71q-62 -123 -218 -123q-101 0 -153.5 51t-52.5 139z" />
    <glyph glyph-name="iogonek" unicode="&#x12f;" horiz-adv-x="497" 
d="M-57 -233q0 90 51 164t135 106q-39 50 -20 158l131 751h155l-131 -743q-16 -92 53 -92q27 0 60 8l-21 -113q-278 -18 -278 -231q0 -46 26.5 -73.5t69.5 -27.5q50 0 80 22.5t53 65.5l60 -71q-61 -123 -217 -123q-101 0 -154 52.5t-53 146.5zM256 1253q0 47 32 80t77 33
q46 0 79 -33t33 -80q0 -44 -33 -77t-79 -33q-44 0 -76.5 33t-32.5 77z" />
    <glyph glyph-name="Idotaccent" unicode="&#x130;" horiz-adv-x="487" 
d="M293 1206h164l-211 -1206h-164zM301 1485q0 47 32 79.5t77 32.5q47 0 79.5 -32.5t32.5 -79.5q0 -45 -32.5 -78t-79.5 -33q-44 0 -76.5 33.5t-32.5 77.5z" />
    <glyph glyph-name="dotlessi" unicode="&#x131;" horiz-adv-x="497" 
d="M395 946l-131 -743q-16 -92 53 -92q27 0 60 8l-21 -113q-46 -16 -98 -16q-95 0 -131 54t-18 151l131 751h155z" />
    <glyph glyph-name="IJ" unicode="&#x132;" horiz-adv-x="1374" 
d="M293 1206h164l-211 -1206h-164zM1190 1206h164l-158 -889q-32 -184 -121.5 -263t-263.5 -79q-134 0 -218 68t-108 180l131 84q46 -203 205 -203q107 0 149.5 54t65.5 188z" />
    <glyph glyph-name="ij" unicode="&#x133;" horiz-adv-x="944" 
d="M395 946l-131 -743q-16 -92 53 -92q27 0 60 8l-21 -113q-46 -16 -98 -16q-95 0 -131 54t-18 151l131 751h155zM256 1253q0 47 32 80t77 33q46 0 79 -33t33 -80q0 -44 -33 -77t-79 -33q-44 0 -76.5 33t-32.5 77zM893 946l-193 -1089q-28 -159 -106 -224t-205 -65
q-51 0 -100 15t-78 38l53 123q66 -51 139 -51q54 0 89 36t51 124l194 1093h156zM754 1253q0 47 32 80t76 33q46 0 79.5 -33t33.5 -80q0 -44 -33.5 -77t-79.5 -33q-44 0 -76 33t-32 77z" />
    <glyph glyph-name="Jcircumflex" unicode="&#x134;" horiz-adv-x="858" 
d="M674 1206h164l-158 -889q-32 -184 -121.5 -263t-263.5 -79q-134 0 -218 68t-108 180l131 84q46 -203 205 -203q107 0 149.5 54t65.5 188zM760 1595h94l203 -254h-174l-54 70q-14 19 -23 37t-11 26l-2 9h-5q-14 -29 -61 -72l-78 -70h-182z" />
    <glyph glyph-name="jcircumflex" unicode="&#x135;" horiz-adv-x="446" 
d="M395 946l-192 -1089q-28 -159 -106.5 -224t-205.5 -65q-51 0 -100 15t-78 38l54 123q66 -51 139 -51q54 0 88.5 36t50.5 124l195 1093h155zM338 1378h86l199 -293h-162l-58 91q-14 22 -22.5 42t-10.5 30l-1 9h-9q-16 -32 -63 -81l-90 -91h-170z" />
    <glyph glyph-name="Kcommaaccent" unicode="&#x136;" horiz-adv-x="1040" 
d="M940 0h-182l-301 543h-117l-94 -543h-164l211 1206h164l-92 -528h96l467 528h194l-534 -585zM500 -287q0 -106 -71.5 -160.5t-190.5 -54.5v70q68 4 107.5 23t39.5 67q-53 -10 -85 16.5t-32 73.5t29.5 73.5t79.5 26.5q51 0 87 -35t36 -100z" />
    <glyph glyph-name="kcommaaccent" unicode="&#x137;" horiz-adv-x="894" 
d="M561 90l-186 377h-56l-81 -467h-156l240 1368h157l-139 -788h45l350 366h191l-416 -414l166 -348q28 -57 66 -68t104 7l-23 -117q-49 -16 -108 -16q-52 0 -89.5 22.5t-64.5 77.5zM471 -287q0 -106 -71.5 -160.5t-190.5 -54.5v70q68 4 107.5 23t39.5 67q-52 -10 -84 16.5
t-32 73.5t29 73.5t79 26.5q51 0 87 -35t36 -100z" />
    <glyph glyph-name="kgreenlandic" unicode="&#x138;" horiz-adv-x="894" 
d="M563 90l-186 377h-58l-81 -467h-156l166 946h158l-66 -366h45l350 366h191l-416 -414l166 -348q28 -57 66 -68t104 7l-23 -117q-49 -16 -108 -16q-52 0 -88.5 22.5t-63.5 77.5z" />
    <glyph glyph-name="Lacute" unicode="&#x139;" horiz-adv-x="937" 
d="M293 1206h164l-189 -1067h557l-22 -139h-721zM461 1341h-142l127 238h213z" />
    <glyph glyph-name="lacute" unicode="&#x13a;" horiz-adv-x="489" 
d="M469 1368l-205 -1165q-16 -92 53 -92q27 0 60 8l-21 -113q-46 -16 -98 -16q-95 0 -131 54t-18 151l204 1173h156zM471 1427h-141l127 238h213z" />
    <glyph glyph-name="Lcommaaccent" unicode="&#x13b;" horiz-adv-x="937" 
d="M293 1206h164l-189 -1067h557l-22 -139h-721zM543 -287q0 -106 -71.5 -160.5t-190.5 -54.5v70q68 4 107.5 23t39.5 67q-53 -10 -85 16.5t-32 73.5t29.5 73.5t79.5 26.5q51 0 87 -35t36 -100z" />
    <glyph glyph-name="lcommaaccent" unicode="&#x13c;" horiz-adv-x="489" 
d="M469 1368l-205 -1165q-16 -92 53 -92q27 0 60 8l-21 -113q-46 -16 -98 -16q-95 0 -131 54t-18 151l204 1173h156zM279 -287q0 -106 -72 -160.5t-191 -54.5v70q68 4 108 23t40 67q-53 -10 -85 16.5t-32 73.5t29.5 73.5t79.5 26.5q51 0 87 -35t36 -100z" />
    <glyph glyph-name="Lcaron" unicode="&#x13d;" horiz-adv-x="937" 
d="M293 1206h164l-189 -1067h557l-22 -139h-721zM774 1368l-104 -358h-113l33 358h184z" />
    <glyph glyph-name="lcaron" unicode="&#x13e;" horiz-adv-x="489" 
d="M768 1368l-104 -358h-113l33 358h184zM469 1368l-205 -1165q-16 -92 53 -92q27 0 60 8l-21 -113q-46 -16 -98 -16q-95 0 -131 54t-18 151l204 1173h156z" />
    <glyph glyph-name="Ldot" unicode="&#x13f;" horiz-adv-x="937" 
d="M293 1206h164l-189 -1067h557l-22 -139h-721zM657 627q0 54 36.5 90.5t90.5 36.5t90.5 -36.5t36.5 -90.5t-36.5 -90.5t-90.5 -36.5t-90.5 36.5t-36.5 90.5z" />
    <glyph glyph-name="ldot" unicode="&#x140;" horiz-adv-x="641" 
d="M469 1368l-205 -1165q-16 -92 53 -92q27 0 60 8l-21 -113q-46 -16 -98 -16q-95 0 -131 54t-18 151l204 1173h156zM459 643q0 54 36.5 90.5t90.5 36.5t90.5 -36.5t36.5 -90.5t-36.5 -90.5t-90.5 -36.5t-90.5 36.5t-36.5 90.5z" />
    <glyph glyph-name="Lslash" unicode="&#x141;" horiz-adv-x="948" 
d="M303 1206h164l-90 -516l305 109l-25 -142l-305 -104l-73 -414h557l-23 -139h-721l86 496l-137 -47l25 133l137 47z" />
    <glyph glyph-name="lslash" unicode="&#x142;" horiz-adv-x="501" 
d="M473 1368l-90 -512l160 78l-27 -148l-160 -75l-88 -508q-16 -92 54 -92q26 0 59 8l-21 -113q-46 -16 -98 -16q-95 0 -131 54t-18 151l75 436l-127 -60l25 140l127 61l104 596h156z" />
    <glyph glyph-name="Nacute" unicode="&#x143;" horiz-adv-x="1255" 
d="M463 1206l325 -712q29 -64 54.5 -132t35.5 -104l11 -37h8q16 145 43 297l121 688h164l-211 -1206h-166l-334 709q-28 61 -54 129t-38 106l-12 37h-9q-7 -141 -34 -293l-121 -688h-164l211 1206h170zM817 1341h-141l127 238h213z" />
    <glyph glyph-name="nacute" unicode="&#x144;" horiz-adv-x="1034" 
d="M907 651l-78 -448q-16 -92 54 -92q26 0 59 8l-20 -113q-46 -16 -99 -16q-95 0 -131 54t-18 151l82 458q33 185 -129 185q-42 0 -85 -16t-86.5 -51t-78 -100t-49.5 -153l-90 -518h-156l166 946h135l-14 -192q105 215 305 215q111 0 176 -58t65 -166q0 -47 -8 -94z
M659 1085h-133l154 293h215z" />
    <glyph glyph-name="Ncommaaccent" unicode="&#x145;" horiz-adv-x="1255" 
d="M463 1206l325 -712q29 -64 54.5 -132t35.5 -104l11 -37h8q16 145 43 297l121 688h164l-211 -1206h-166l-334 709q-28 61 -54 129t-38 106l-12 37h-9q-7 -141 -34 -293l-121 -688h-164l211 1206h170zM608 -287q0 -106 -71.5 -160.5t-190.5 -54.5v70q68 4 108 23t40 67
q-53 -10 -85 16.5t-32 73.5t29 73.5t79 26.5q51 0 87 -35t36 -100z" />
    <glyph glyph-name="ncommaaccent" unicode="&#x146;" horiz-adv-x="1034" 
d="M907 651l-78 -448q-16 -92 54 -92q26 0 59 8l-20 -113q-46 -16 -99 -16q-95 0 -131 54t-18 151l82 458q33 185 -129 185q-42 0 -85 -16t-86.5 -51t-78 -100t-49.5 -153l-90 -518h-156l166 946h135l-14 -192q105 215 305 215q111 0 176 -58t65 -166q0 -47 -8 -94z
M498 -287q0 -106 -71.5 -160.5t-190.5 -54.5v70q68 4 107.5 23t39.5 67q-53 -10 -85 16.5t-32 73.5t29.5 73.5t79.5 26.5q51 0 87 -35t36 -100z" />
    <glyph glyph-name="Ncaron" unicode="&#x147;" horiz-adv-x="1255" 
d="M463 1206l325 -712q29 -64 54.5 -132t35.5 -104l11 -37h8q16 145 43 297l121 688h164l-211 -1206h-166l-334 709q-28 61 -54 129t-38 106l-12 37h-9q-7 -141 -34 -293l-121 -688h-164l211 1206h170zM797 1341h-95l-202 254h174l53 -69q14 -19 23 -37t12 -27l2 -8h4
q14 29 61 72l78 69h183z" />
    <glyph glyph-name="ncaron" unicode="&#x148;" horiz-adv-x="1034" 
d="M907 651l-78 -448q-16 -92 54 -92q26 0 59 8l-20 -113q-46 -16 -99 -16q-95 0 -131 54t-18 151l82 458q33 185 -129 185q-42 0 -85 -16t-86.5 -51t-78 -100t-49.5 -153l-90 -518h-156l166 946h135l-14 -192q105 215 305 215q111 0 176 -58t65 -166q0 -47 -8 -94z
M645 1085h-86l-199 293h162l58 -90q14 -22 22.5 -42.5t9.5 -29.5l2 -10h9q16 33 63 82l90 90h170z" />
    <glyph glyph-name="Eng" unicode="&#x14a;" horiz-adv-x="1255" 
d="M1225 1206l-228 -1296q-32 -183 -124 -262.5t-267 -79.5q-111 0 -188 43.5t-119 112.5l117 114q31 -59 82 -98t118 -39q107 0 154 58.5t70 191.5l8 49l-334 709q-28 61 -54 129t-38 106l-12 37h-9q-7 -141 -34 -293l-121 -688h-164l211 1206h170l325 -712
q29 -64 54.5 -132t35.5 -104l11 -37h8q16 145 43 297l121 688h164z" />
    <glyph glyph-name="eng" unicode="&#x14b;" horiz-adv-x="1011" 
d="M907 651l-137 -794q-28 -159 -106 -224t-205 -65q-51 0 -100 15t-78 38l53 123q66 -51 139 -51q54 0 88.5 36t50.5 124l144 800q33 185 -129 185q-42 0 -85 -16t-86.5 -51t-78 -100t-49.5 -153l-90 -518h-156l166 946h135l-14 -192q105 215 305 215q111 0 176 -58
t65 -166q0 -47 -8 -94z" />
    <glyph glyph-name="Omacron" unicode="&#x14c;" horiz-adv-x="1261" 
d="M575 -25q-217 0 -339.5 135t-122.5 355q0 177 49 323.5t133 242t195 148t237 52.5q217 0 340 -136t123 -356q0 -177 -49 -323t-133.5 -241.5t-195.5 -147.5t-237 -52zM711 1094q-133 0 -233 -87.5t-149.5 -226t-49.5 -303.5q0 -169 81.5 -267.5t233.5 -98.5
q100 0 182.5 50.5t136 136t82.5 196.5t29 233q0 78 -17.5 142.5t-54 116t-98 80t-143.5 28.5zM1028 1386h-514l21 121h514z" />
    <glyph glyph-name="omacron" unicode="&#x14d;" horiz-adv-x="1005" 
d="M567 969q169 0 263 -109t94 -297q0 -160 -55.5 -292t-167.5 -214t-261 -82q-162 0 -260 106t-98 296q0 118 32.5 224.5t92 188.5t153 130.5t207.5 48.5zM543 840q-93 0 -165 -63.5t-108.5 -164t-36.5 -217.5q0 -144 60.5 -221.5t167.5 -77.5q93 0 164.5 66t107 169
t35.5 222q0 135 -59 211t-166 76zM842 1155h-514l22 125h514z" />
    <glyph glyph-name="Obreve" unicode="&#x14e;" horiz-adv-x="1261" 
d="M575 -25q-217 0 -339.5 135t-122.5 355q0 177 49 323.5t133 242t195 148t237 52.5q217 0 340 -136t123 -356q0 -177 -49 -323t-133.5 -241.5t-195.5 -147.5t-237 -52zM711 1094q-133 0 -233 -87.5t-149.5 -226t-49.5 -303.5q0 -169 81.5 -267.5t233.5 -98.5
q100 0 182.5 50.5t136 136t82.5 196.5t29 233q0 78 -17.5 142.5t-54 116t-98 80t-143.5 28.5zM754 1335q-124 0 -182.5 69.5t-36.5 188.5h124q-6 -70 20.5 -105.5t96.5 -35.5q71 0 109.5 35t58.5 106h125q-22 -119 -106 -188.5t-209 -69.5z" />
    <glyph glyph-name="obreve" unicode="&#x14f;" horiz-adv-x="1005" 
d="M567 969q169 0 263 -109t94 -297q0 -160 -55.5 -292t-167.5 -214t-261 -82q-162 0 -260 106t-98 296q0 118 32.5 224.5t92 188.5t153 130.5t207.5 48.5zM543 840q-93 0 -165 -63.5t-108.5 -164t-36.5 -217.5q0 -144 60.5 -221.5t167.5 -77.5q93 0 164.5 66t107 169
t35.5 222q0 135 -59 211t-166 76zM555 1083q-125 0 -183.5 75.5t-35.5 203.5h125q-7 -80 15.5 -120t98.5 -40t114 40.5t59 119.5h124q-23 -129 -107.5 -204t-209.5 -75z" />
    <glyph glyph-name="Ohungarumlaut" unicode="&#x150;" horiz-adv-x="1261" 
d="M575 -25q-217 0 -339.5 135t-122.5 355q0 177 49 323.5t133 242t195 148t237 52.5q217 0 340 -136t123 -356q0 -177 -49 -323t-133.5 -241.5t-195.5 -147.5t-237 -52zM711 1094q-133 0 -233 -87.5t-149.5 -226t-49.5 -303.5q0 -169 81.5 -267.5t233.5 -98.5
q100 0 182.5 50.5t136 136t82.5 196.5t29 233q0 78 -17.5 142.5t-54 116t-98 80t-143.5 28.5zM666 1341h-119l133 238h201zM956 1341h-122l153 238h205z" />
    <glyph glyph-name="ohungarumlaut" unicode="&#x151;" horiz-adv-x="1005" 
d="M567 969q169 0 263 -109t94 -297q0 -160 -55.5 -292t-167.5 -214t-261 -82q-162 0 -260 106t-98 296q0 118 32.5 224.5t92 188.5t153 130.5t207.5 48.5zM543 840q-93 0 -165 -63.5t-108.5 -164t-36.5 -217.5q0 -144 60.5 -221.5t167.5 -77.5q93 0 164.5 66t107 169
t35.5 222q0 135 -59 211t-166 76zM510 1085h-119l133 293h201zM801 1085h-123l153 293h205z" />
    <glyph glyph-name="OE" unicode="&#x152;" horiz-adv-x="1703" 
d="M575 -25q-217 0 -339.5 135t-122.5 355q0 177 49 323.5t133 242t195 148t237 52.5q87 0 164 -25h844l-25 -139h-620q100 -130 100 -328q0 -12 -1 -34.5t-1 -32.5h389l-25 -140h-383q-45 -245 -196 -393h573l-22 -139h-783q-83 -25 -166 -25zM711 1094q-133 0 -233 -87.5
t-149.5 -226t-49.5 -303.5q0 -169 81.5 -267.5t233.5 -98.5q100 0 182.5 50.5t136 136t82.5 196.5t29 233q0 78 -17.5 142.5t-54 116t-98 80t-143.5 28.5z" />
    <glyph glyph-name="oe" unicode="&#x153;" horiz-adv-x="1624" 
d="M1135 96q100 0 152.5 40t80.5 122l141 -35q-50 -137 -145.5 -192.5t-243.5 -55.5q-112 0 -197 55.5t-118 147.5q-58 -95 -153 -149t-212 -54q-162 0 -260 106t-98 296q0 118 32.5 224.5t92 188.5t153 130.5t207.5 48.5q110 0 189.5 -54.5t115.5 -148.5q57 95 150.5 149
t198.5 54q87 0 153.5 -28t105 -76.5t57.5 -107t19 -126.5q0 -109 -40 -193h-605q-7 -88 11 -163t73 -127t140 -52zM543 840q-93 0 -165 -63.5t-108.5 -164t-36.5 -217.5q0 -144 60.5 -221.5t167.5 -77.5q93 0 164.5 66t107 169t35.5 222q0 135 -59 211t-166 76zM930 563h467
q10 29 10 72q0 91 -50 151t-145 60q-102 0 -174 -77.5t-108 -205.5z" />
    <glyph glyph-name="Racute" unicode="&#x154;" horiz-adv-x="1095" 
d="M979 0h-174q-29 37 -41 109l-37 219q-18 110 -66 147t-155 37h-170l-90 -512h-164l211 1206h399q187 0 264.5 -72.5t77.5 -211.5q0 -86 -30.5 -154.5t-80.5 -109.5t-107 -63t-116 -24v-8q85 -11 125.5 -53.5t59.5 -142.5l43 -242q12 -70 51 -125zM434 1073l-76 -430h232
q129 0 202.5 62.5t73.5 193.5q0 90 -46.5 132t-153.5 42h-232zM729 1341h-141l127 238h213z" />
    <glyph glyph-name="racute" unicode="&#x155;" horiz-adv-x="679" 
d="M721 965l-41 -183q-111 23 -217.5 -42t-128.5 -193l-96 -547h-156l166 946h135l-18 -215q50 114 148 183t208 51zM557 1085h-133l154 293h215z" />
    <glyph glyph-name="Rcommaaccent" unicode="&#x156;" horiz-adv-x="1095" 
d="M979 0h-174q-29 37 -41 109l-37 219q-18 110 -66 147t-155 37h-170l-90 -512h-164l211 1206h399q187 0 264.5 -72.5t77.5 -211.5q0 -86 -30.5 -154.5t-80.5 -109.5t-107 -63t-116 -24v-8q85 -11 125.5 -53.5t59.5 -142.5l43 -242q12 -70 51 -125zM434 1073l-76 -430h232
q129 0 202.5 62.5t73.5 193.5q0 90 -46.5 132t-153.5 42h-232zM561 -287q0 -106 -71.5 -160.5t-190.5 -54.5v70q68 4 107.5 23t39.5 67q-52 -10 -84 16.5t-32 73.5t29 73.5t79 26.5q51 0 87 -35t36 -100z" />
    <glyph glyph-name="rcommaaccent" unicode="&#x157;" horiz-adv-x="679" 
d="M721 965l-41 -183q-111 23 -217.5 -42t-128.5 -193l-96 -547h-156l166 946h135l-18 -215q50 114 148 183t208 51zM248 -287q0 -106 -71.5 -160.5t-190.5 -54.5v70q68 4 107.5 23t39.5 67q-53 -10 -85 16.5t-32 73.5t29.5 73.5t79.5 26.5q51 0 87 -35t36 -100z" />
    <glyph glyph-name="Rcaron" unicode="&#x158;" horiz-adv-x="1095" 
d="M979 0h-174q-29 37 -41 109l-37 219q-18 110 -66 147t-155 37h-170l-90 -512h-164l211 1206h399q187 0 264.5 -72.5t77.5 -211.5q0 -86 -30.5 -154.5t-80.5 -109.5t-107 -63t-116 -24v-8q85 -11 125.5 -53.5t59.5 -142.5l43 -242q12 -70 51 -125zM434 1073l-76 -430h232
q129 0 202.5 62.5t73.5 193.5q0 90 -46.5 132t-153.5 42h-232zM709 1341h-95l-202 254h174l53 -69q14 -19 23 -37t12 -27l2 -8h4q14 29 61 72l78 69h182z" />
    <glyph glyph-name="rcaron" unicode="&#x159;" horiz-adv-x="679" 
d="M721 965l-41 -183q-111 23 -217.5 -42t-128.5 -193l-96 -547h-156l166 946h135l-18 -215q50 114 148 183t208 51zM541 1085h-86l-199 293h162l57 -90q14 -22 22.5 -42.5t10.5 -29.5l2 -10h8q17 33 64 82l90 90h170z" />
    <glyph glyph-name="Sacute" unicode="&#x15a;" horiz-adv-x="980" 
d="M41 295l147 27q-3 -224 240 -224q119 0 185.5 54t66.5 163q0 93 -47.5 144.5t-173.5 99.5q-52 20 -86 36t-73.5 44t-62 59t-38 78.5t-15.5 106.5q0 76 26 137t67 99.5t95 64.5t107.5 36.5t106.5 10.5q181 0 272.5 -74.5t91.5 -243.5l-153 -24q3 106 -54.5 162.5
t-169.5 56.5q-106 0 -171.5 -54.5t-65.5 -148.5q0 -31 5.5 -55.5t20.5 -44.5t29 -33.5t46 -30t54.5 -26.5t69.5 -29q72 -30 119.5 -59t86.5 -69.5t57 -95t18 -126.5q0 -92 -34.5 -162.5t-94.5 -113t-136 -64t-165 -21.5q-371 0 -371 320zM684 1341h-141l127 238h213z" />
    <glyph glyph-name="sacute" unicode="&#x15b;" horiz-adv-x="817" 
d="M41 252l141 29q0 -96 50 -144.5t137 -48.5q176 0 176 148q0 71 -38 112t-136 78q-110 41 -164.5 104t-54.5 164q0 131 89.5 203t231.5 72q283 0 283 -248l-146 -16q0 71 -38.5 109t-112.5 38q-75 0 -120.5 -37t-45.5 -104q0 -57 36 -94t146 -82q119 -50 168 -116.5
t49 -170.5q0 -135 -88.5 -204t-241.5 -69t-237 74t-84 203zM563 1085h-133l154 293h215z" />
    <glyph glyph-name="Scircumflex" unicode="&#x15c;" horiz-adv-x="980" 
d="M41 295l147 27q-3 -224 240 -224q119 0 185.5 54t66.5 163q0 93 -47.5 144.5t-173.5 99.5q-52 20 -86 36t-73.5 44t-62 59t-38 78.5t-15.5 106.5q0 76 26 137t67 99.5t95 64.5t107.5 36.5t106.5 10.5q181 0 272.5 -74.5t91.5 -243.5l-153 -24q3 106 -54.5 162.5
t-169.5 56.5q-106 0 -171.5 -54.5t-65.5 -148.5q0 -31 5.5 -55.5t20.5 -44.5t29 -33.5t46 -30t54.5 -26.5t69.5 -29q72 -30 119.5 -59t86.5 -69.5t57 -95t18 -126.5q0 -92 -34.5 -162.5t-94.5 -113t-136 -64t-165 -21.5q-371 0 -371 320zM606 1595h94l203 -254h-174l-53 70
q-14 19 -23 37t-11 26l-3 9h-4q-15 -29 -62 -72l-77 -70h-183z" />
    <glyph glyph-name="scircumflex" unicode="&#x15d;" horiz-adv-x="817" 
d="M41 252l141 29q0 -96 50 -144.5t137 -48.5q176 0 176 148q0 71 -38 112t-136 78q-110 41 -164.5 104t-54.5 164q0 131 89.5 203t231.5 72q283 0 283 -248l-146 -16q0 71 -38.5 109t-112.5 38q-75 0 -120.5 -37t-45.5 -104q0 -57 36 -94t146 -82q119 -50 168 -116.5
t49 -170.5q0 -135 -88.5 -204t-241.5 -69t-237 74t-84 203zM502 1378h86l198 -293h-161l-58 91q-14 22 -22.5 42t-10.5 30l-2 9h-8q-16 -32 -63 -81l-90 -91h-170z" />
    <glyph glyph-name="Scedilla" unicode="&#x15e;" horiz-adv-x="980" 
d="M547 -258q0 -84 -60.5 -129t-152.5 -45q-115 0 -174 78l47 98q51 -76 127 -76q38 0 61 19t23 55q0 90 -142 90l56 148q-291 31 -291 315l147 27q-3 -224 240 -224q119 0 185.5 54t66.5 163q0 93 -47.5 144.5t-173.5 99.5q-52 20 -86 36t-73.5 44t-62 59t-38 78.5
t-15.5 106.5q0 76 26 137t67 99.5t95 64.5t107.5 36.5t106.5 10.5q181 0 272.5 -74.5t91.5 -243.5l-153 -24q3 106 -54.5 162.5t-169.5 56.5q-106 0 -171.5 -54.5t-65.5 -148.5q0 -31 5.5 -55.5t20.5 -44.5t29 -33.5t46 -30t54.5 -26.5t69.5 -29q72 -30 119.5 -59
t86.5 -69.5t57 -95t18 -126.5q0 -91 -34.5 -161.5t-94.5 -113t-135.5 -64t-163.5 -22.5l-27 -61q83 -19 121.5 -60t38.5 -112z" />
    <glyph glyph-name="scedilla" unicode="&#x15f;" horiz-adv-x="817" 
d="M471 -258q0 -84 -60.5 -129t-152.5 -45q-115 0 -174 78l47 98q51 -76 127 -76q38 0 61 19t23 55q0 90 -141 90l57 154q-105 23 -161 92t-56 174l141 29q0 -96 50 -144.5t137 -48.5q176 0 176 148q0 71 -38 112t-136 78q-110 41 -164.5 104t-54.5 164q0 131 89.5 203
t231.5 72q283 0 283 -248l-146 -16q0 71 -38.5 109t-112.5 38t-120 -36.5t-46 -104.5q0 -57 36 -94t146 -82q119 -50 168 -116.5t49 -170.5q0 -135 -88.5 -204t-241.5 -69q-4 0 -12 1t-12 1l-27 -63q83 -19 121.5 -60t38.5 -112z" />
    <glyph glyph-name="Scaron" unicode="&#x160;" horiz-adv-x="980" 
d="M41 295l147 27q-3 -224 240 -224q119 0 185.5 54t66.5 163q0 93 -47.5 144.5t-173.5 99.5q-52 20 -86 36t-73.5 44t-62 59t-38 78.5t-15.5 106.5q0 76 26 137t67 99.5t95 64.5t107.5 36.5t106.5 10.5q181 0 272.5 -74.5t91.5 -243.5l-153 -24q3 106 -54.5 162.5
t-169.5 56.5q-106 0 -171.5 -54.5t-65.5 -148.5q0 -31 5.5 -55.5t20.5 -44.5t29 -33.5t46 -30t54.5 -26.5t69.5 -29q72 -30 119.5 -59t86.5 -69.5t57 -95t18 -126.5q0 -92 -34.5 -162.5t-94.5 -113t-136 -64t-165 -21.5q-371 0 -371 320zM664 1341h-95l-202 254h174l53 -69
q14 -19 23 -37t11 -27l3 -8h4q14 29 61 72l78 69h182z" />
    <glyph glyph-name="scaron" unicode="&#x161;" horiz-adv-x="817" 
d="M41 252l141 29q0 -96 50 -144.5t137 -48.5q176 0 176 148q0 71 -38 112t-136 78q-110 41 -164.5 104t-54.5 164q0 131 89.5 203t231.5 72q283 0 283 -248l-146 -16q0 71 -38.5 109t-112.5 38q-75 0 -120.5 -37t-45.5 -104q0 -57 36 -94t146 -82q119 -50 168 -116.5
t49 -170.5q0 -135 -88.5 -204t-241.5 -69t-237 74t-84 203zM547 1085h-86l-199 293h162l57 -90q14 -22 22.5 -42.5t10.5 -29.5l2 -10h8q17 33 64 82l90 90h170z" />
    <glyph glyph-name="Tcommaaccent" unicode="&#x162;" horiz-adv-x="968" 
d="M479 0h-164l187 1067h-359l25 139h883l-25 -139h-360zM483 -287q0 -106 -71.5 -160.5t-190.5 -54.5v70q68 4 108 23t40 67q-53 -10 -85 16.5t-32 73.5t29 73.5t79 26.5q51 0 87 -35t36 -100z" />
    <glyph glyph-name="tcommaaccent" unicode="&#x163;" horiz-adv-x="618" 
d="M510 154v-131q-83 -48 -186 -48q-124 0 -180 70.5t-29 216.5l98 559h-131l22 125h134l34 199l158 22l-39 -221h248l-23 -125h-245l-103 -575q-13 -70 11 -105t69 -35q43 0 78 10t84 38zM346 -287q0 -106 -71.5 -160.5t-190.5 -54.5v70q68 4 107.5 23t39.5 67
q-52 -10 -84 16.5t-32 73.5t29 73.5t79 26.5q51 0 87 -35t36 -100z" />
    <glyph glyph-name="Tcaron" unicode="&#x164;" horiz-adv-x="968" 
d="M479 0h-164l187 1067h-359l25 139h883l-25 -139h-360zM670 1341h-95l-202 254h174l53 -69q14 -19 23 -37t11 -27l3 -8h4q14 29 61 72l78 69h183z" />
    <glyph glyph-name="tcaron" unicode="&#x165;" horiz-adv-x="618" 
d="M510 154v-131q-83 -48 -186 -48q-124 0 -180 70.5t-29 216.5l98 559h-131l22 125h134l34 199l158 22l-39 -221h248l-23 -125h-245l-103 -575q-13 -70 11 -105t69 -35q43 0 78 10t84 38zM717 1368l-105 -358h-112l32 358h185z" />
    <glyph glyph-name="Tbar" unicode="&#x166;" horiz-adv-x="968" 
d="M479 0h-164l95 539h-228l23 133h227l70 395h-359l25 139h883l-25 -139h-360l-70 -395h246l-23 -133h-246z" />
    <glyph glyph-name="tbar" unicode="&#x167;" horiz-adv-x="669" 
d="M61 506l23 123h125l35 192h-131l22 125h133l35 199l158 22l-39 -221h248l-23 -125h-246l-34 -192h251l-22 -123h-252l-45 -260q-13 -70 11 -105t69 -35q43 0 78 10t84 38v-131q-83 -48 -187 -48q-124 0 -180 70.5t-29 216.5l43 244h-127z" />
    <glyph glyph-name="Utilde" unicode="&#x168;" horiz-adv-x="1191" 
d="M1018 1206h164l-146 -827q-19 -113 -65 -193.5t-115 -125.5t-148 -65t-178 -20q-78 0 -143.5 16.5t-120.5 51.5t-88 91t-46 135t7 182l131 755h164l-135 -774q-29 -166 40.5 -244.5t209.5 -78.5q136 0 219 70t111 233zM862 1341q-21 0 -37.5 2.5t-33.5 9.5t-24.5 10.5
t-27 16t-24.5 15.5q-7 5 -22 14.5t-20.5 13t-16.5 9.5t-18 8t-17 4t-21 2q-34 0 -55.5 -25t-24.5 -75h-98q-17 94 36.5 162.5t145.5 68.5q11 0 22 -1t19 -2t18 -4t16 -4.5t15.5 -6.5t13.5 -7t14.5 -8.5t13 -8.5t14.5 -9.5t14 -9.5q56 -37 73 -42q13 -4 29 -4q65 0 76 107
h105q12 -103 -39 -169.5t-146 -66.5z" />
    <glyph glyph-name="utilde" unicode="&#x169;" 
d="M647 178q-42 -106 -115.5 -154.5t-181.5 -48.5q-147 0 -207 93t-30 264l106 614h156l-113 -643q-17 -100 17.5 -155.5t117.5 -55.5q94 0 174.5 75.5t102.5 203.5l100 575h156l-131 -743q-16 -92 53 -92q26 0 59 8l-20 -113q-46 -16 -98 -16q-92 0 -125.5 47.5
t-20.5 140.5zM735 1087q-21 0 -37.5 2.5t-33.5 9.5t-24.5 10.5t-27 16t-24.5 15.5q-7 5 -22 14.5t-20.5 13t-16.5 9.5t-18 8t-17 4t-21 2q-34 0 -55.5 -25t-24.5 -75h-98q-17 94 36.5 162.5t145.5 68.5q11 0 22 -1t19 -2t18 -4t16 -4.5t15.5 -6.5t13.5 -7t14.5 -8.5t13 -8.5
t14.5 -9.5t14 -9.5q31 -21 42 -27.5t26.5 -12t33.5 -5.5q65 0 76 106h105q12 -103 -39 -169.5t-146 -66.5z" />
    <glyph glyph-name="Umacron" unicode="&#x16a;" horiz-adv-x="1191" 
d="M1018 1206h164l-146 -827q-19 -113 -65 -193.5t-115 -125.5t-148 -65t-178 -20q-78 0 -143.5 16.5t-120.5 51.5t-88 91t-46 135t7 182l131 755h164l-135 -774q-29 -166 40.5 -244.5t209.5 -78.5q136 0 219 70t111 233zM1008 1386h-514l20 121h514z" />
    <glyph glyph-name="umacron" unicode="&#x16b;" 
d="M647 178q-42 -106 -115.5 -154.5t-181.5 -48.5q-147 0 -207 93t-30 264l106 614h156l-113 -643q-17 -100 17.5 -155.5t117.5 -55.5q94 0 174.5 75.5t102.5 203.5l100 575h156l-131 -743q-16 -92 53 -92q26 0 59 8l-20 -113q-46 -16 -98 -16q-92 0 -125.5 47.5
t-20.5 140.5zM854 1155h-514l22 125h515z" />
    <glyph glyph-name="Ubreve" unicode="&#x16c;" horiz-adv-x="1191" 
d="M1018 1206h164l-146 -827q-19 -113 -65 -193.5t-115 -125.5t-148 -65t-178 -20q-78 0 -143.5 16.5t-120.5 51.5t-88 91t-46 135t7 182l131 755h164l-135 -774q-29 -166 40.5 -244.5t209.5 -78.5q136 0 219 70t111 233zM733 1335q-124 0 -182.5 69.5t-36.5 188.5h125
q-6 -70 20.5 -105.5t96.5 -35.5q71 0 109.5 35t58.5 106h125q-22 -119 -106.5 -188.5t-209.5 -69.5z" />
    <glyph glyph-name="ubreve" unicode="&#x16d;" 
d="M647 178q-42 -106 -115.5 -154.5t-181.5 -48.5q-147 0 -207 93t-30 264l106 614h156l-113 -643q-17 -100 17.5 -155.5t117.5 -55.5q94 0 174.5 75.5t102.5 203.5l100 575h156l-131 -743q-16 -92 53 -92q26 0 59 8l-20 -113q-46 -16 -98 -16q-92 0 -125.5 47.5
t-20.5 140.5zM567 1083q-125 0 -183.5 75.5t-35.5 203.5h125q-7 -80 16 -120t99 -40t113.5 40.5t58.5 119.5h125q-23 -128 -108 -203.5t-210 -75.5z" />
    <glyph glyph-name="Uring" unicode="&#x16e;" horiz-adv-x="1191" 
d="M1018 1206h164l-146 -827q-19 -113 -65 -193.5t-115 -125.5t-148 -65t-178 -20q-78 0 -143.5 16.5t-120.5 51.5t-88 91t-46 135t7 182l131 755h164l-135 -774q-29 -166 40.5 -244.5t209.5 -78.5q136 0 219 70t111 233zM573 1481q0 88 59.5 148.5t153.5 60.5q81 0 130 -50
t49 -124q0 -88 -59 -148.5t-152 -60.5q-86 0 -133.5 48.5t-47.5 125.5zM778 1614q-49 0 -82.5 -36.5t-33.5 -86.5q0 -51 27.5 -80t76.5 -29q47 0 80 36.5t33 86.5t-27 79.5t-74 29.5z" />
    <glyph glyph-name="uring" unicode="&#x16f;" 
d="M647 178q-42 -106 -115.5 -154.5t-181.5 -48.5q-147 0 -207 93t-30 264l106 614h156l-113 -643q-17 -100 17.5 -155.5t117.5 -55.5q94 0 174.5 75.5t102.5 203.5l100 575h156l-131 -743q-16 -92 53 -92q26 0 59 8l-20 -113q-46 -16 -98 -16q-92 0 -125.5 47.5
t-20.5 140.5zM422 1251q0 88 59.5 148.5t153.5 60.5q81 0 129.5 -50t48.5 -124q0 -88 -59 -148.5t-152 -60.5q-86 0 -133 48.5t-47 125.5zM627 1384q-49 0 -83 -36t-34 -86q0 -51 27.5 -80t76.5 -29q47 0 80 36.5t33 86.5t-26.5 79t-73.5 29z" />
    <glyph glyph-name="Uhungarumlaut" unicode="&#x170;" horiz-adv-x="1191" 
d="M1018 1206h164l-146 -827q-19 -113 -65 -193.5t-115 -125.5t-148 -65t-178 -20q-78 0 -143.5 16.5t-120.5 51.5t-88 91t-46 135t7 182l131 755h164l-135 -774q-29 -166 40.5 -244.5t209.5 -78.5q136 0 219 70t111 233zM645 1341h-119l133 238h201zM936 1341h-123l154 238
h204z" />
    <glyph glyph-name="uhungarumlaut" unicode="&#x171;" 
d="M647 178q-42 -106 -115.5 -154.5t-181.5 -48.5q-147 0 -207 93t-30 264l106 614h156l-113 -643q-17 -100 17.5 -155.5t117.5 -55.5q94 0 174.5 75.5t102.5 203.5l100 575h156l-131 -743q-16 -92 53 -92q26 0 59 8l-20 -113q-46 -16 -98 -16q-92 0 -125.5 47.5
t-20.5 140.5zM522 1085h-119l134 293h200zM813 1085h-123l154 293h205z" />
    <glyph glyph-name="Uogonek" unicode="&#x172;" horiz-adv-x="1191" 
d="M305 -242q0 131 111 228q-76 14 -133 46.5t-98.5 89.5t-52 138t6.5 191l131 755h164l-135 -774q-29 -166 40.5 -244.5t209.5 -78.5q136 0 219 70t111 233l139 794h164l-146 -827q-35 -203 -149.5 -296t-294.5 -106q-69 -31 -110.5 -83t-41.5 -119q0 -45 27 -73t70 -28
q50 0 80 22.5t53 65.5l59 -71q-61 -123 -217 -123q-101 0 -154 51t-53 139z" />
    <glyph glyph-name="uogonek" unicode="&#x173;" 
d="M930 946l-131 -743q-16 -92 53 -92q26 0 59 8l-20 -113q-59 -8 -109.5 -23.5t-96.5 -42t-72.5 -69t-26.5 -96.5q0 -46 26.5 -73.5t69.5 -27.5q50 0 80 22.5t53 65.5l59 -71q-62 -123 -217 -123q-101 0 -153.5 51t-52.5 139q0 97 67.5 170t157.5 107q-20 17 -28.5 59
t-0.5 84q-42 -106 -115.5 -154.5t-181.5 -48.5q-147 0 -207 93t-30 264l106 614h156l-113 -643q-17 -100 17.5 -155.5t117.5 -55.5q94 0 174.5 75.5t102.5 203.5l100 575h156z" />
    <glyph glyph-name="Wcircumflex" unicode="&#x174;" horiz-adv-x="1683" 
d="M1049 1206l71 -786q8 -86 12 -166.5t4 -117.5l1 -38h8q32 127 110 320l322 788h168l-514 -1206h-225l-68 750q-7 98 -6.5 168t4.5 110l4 39h-8q-29 -124 -113 -317l-325 -750h-226l-63 1206h160l32 -782q2 -53 3.5 -106t2 -91t0.5 -68.5v-45.5v-15h9q26 134 112 324
l344 784h181zM958 1595h95l202 -254h-174l-53 70q-14 19 -23 37t-11 26l-3 9h-4q-14 -29 -61 -72l-78 -70h-182z" />
    <glyph glyph-name="wcircumflex" unicode="&#x175;" horiz-adv-x="1361" 
d="M836 946l51 -530q9 -84 11.5 -161t0.5 -111l-2 -35h8q23 114 105 307l231 530h162l-426 -946h-186l-56 485q-8 84 -10.5 158t-0.5 107l1 32h-8q-29 -107 -115 -297l-213 -485h-186l-101 946h160l45 -528q8 -84 10.5 -161.5t0.5 -112.5l-1 -35h9q26 121 110 309l240 528
h160zM754 1378h86l198 -293h-161l-58 91q-14 22 -22.5 42t-10.5 30l-2 9h-8q-16 -32 -63 -81l-90 -91h-170z" />
    <glyph glyph-name="Ycircumflex" unicode="&#x176;" horiz-adv-x="1011" 
d="M342 1206l139 -413q19 -58 31 -110.5t14 -75.5l2 -23h9q24 78 106 207l266 415h174l-487 -731l-82 -475h-164l82 475l-258 731h168zM637 1595h94l203 -254h-174l-53 70q-14 19 -23 37t-12 26l-2 9h-4q-15 -29 -62 -72l-78 -70h-182z" />
    <glyph glyph-name="ycircumflex" unicode="&#x177;" horiz-adv-x="856" 
d="M256 946l63 -549q12 -83 18 -157.5t5 -107.5v-34h8q29 113 123 297l279 551h166l-560 -1061q-52 -100 -100.5 -164t-97.5 -97t-92.5 -44.5t-100.5 -11.5q-77 0 -141 35l33 116q62 -32 116 -32q77 0 137.5 58.5t131.5 199.5l-152 1001h164zM485 1378h86l199 -293h-162
l-57 91q-14 22 -22.5 42t-10.5 30l-2 9h-8q-17 -32 -64 -81l-90 -91h-170z" />
    <glyph glyph-name="Ydieresis" unicode="&#x178;" horiz-adv-x="1011" 
d="M342 1206l139 -413q19 -58 31 -110.5t14 -75.5l2 -23h9q24 78 106 207l266 415h174l-487 -731l-82 -475h-164l82 475l-258 731h168zM362 1454q0 45 33 78t78 33q46 0 78.5 -32.5t32.5 -78.5q0 -45 -33 -78t-78 -33q-44 0 -77.5 33.5t-33.5 77.5zM750 1452q0 46 33 78.5
t77 32.5q46 0 78.5 -32.5t32.5 -78.5q0 -45 -33 -78t-78 -33q-44 0 -77 33.5t-33 77.5z" />
    <glyph glyph-name="Zacute" unicode="&#x179;" horiz-adv-x="1040" 
d="M14 84l703 840q44 52 83 89t56 47l18 11v8q-67 -12 -196 -12h-463l25 139h831l-20 -104l-689 -819q-44 -52 -83 -89t-57 -48l-17 -11v-8q67 12 196 12h486l-23 -139h-864zM725 1341h-141l127 238h213z" />
    <glyph glyph-name="zacute" unicode="&#x17a;" horiz-adv-x="847" 
d="M-2 84l512 584q45 52 83.5 89t54.5 49l16 11v8q-64 -14 -193 -14h-303l22 135h678l-20 -106l-506 -566q-45 -51 -84.5 -88t-56.5 -48l-17 -11v-8q68 12 197 12h326l-21 -131h-706zM561 1085h-133l154 293h215z" />
    <glyph glyph-name="Zdotaccent" unicode="&#x17b;" horiz-adv-x="1040" 
d="M14 84l703 840q44 52 83 89t56 47l18 11v8q-67 -12 -196 -12h-463l25 139h831l-20 -104l-689 -819q-44 -52 -83 -89t-57 -48l-17 -11v-8q67 12 196 12h486l-23 -139h-864zM567 1485q0 47 32 79.5t77 32.5q47 0 79.5 -32.5t32.5 -79.5q0 -45 -32.5 -78t-79.5 -33
q-44 0 -76.5 33.5t-32.5 77.5z" />
    <glyph glyph-name="zdotaccent" unicode="&#x17c;" horiz-adv-x="847" 
d="M-2 84l512 584q45 52 83.5 89t54.5 49l16 11v8q-64 -14 -193 -14h-303l22 135h678l-20 -106l-506 -566q-45 -51 -84.5 -88t-56.5 -48l-17 -11v-8q68 12 197 12h326l-21 -131h-706zM410 1253q0 46 32 79.5t76 33.5q47 0 80 -33.5t33 -79.5q0 -45 -33 -77.5t-80 -32.5
q-44 0 -76 33t-32 77z" />
    <glyph glyph-name="Zcaron" unicode="&#x17d;" horiz-adv-x="1040" 
d="M14 84l703 840q44 52 83 89t56 47l18 11v8q-67 -12 -196 -12h-463l25 139h831l-20 -104l-689 -819q-44 -52 -83 -89t-57 -48l-17 -11v-8q67 12 196 12h486l-23 -139h-864zM702 1341h-94l-202 254h174l53 -69q14 -19 23 -37t12 -27l2 -8h4q14 29 61 72l78 69h182z" />
    <glyph glyph-name="zcaron" unicode="&#x17e;" horiz-adv-x="847" 
d="M-2 84l512 584q45 52 83.5 89t54.5 49l16 11v8q-64 -14 -193 -14h-303l22 135h678l-20 -106l-506 -566q-45 -51 -84.5 -88t-56.5 -48l-17 -11v-8q68 12 197 12h326l-21 -131h-706zM545 1085h-86l-199 293h162l57 -90q14 -22 22.5 -42.5t10.5 -29.5l2 -10h8q17 33 64 82
l90 90h170z" />
    <glyph glyph-name="Schwa" unicode="&#x18f;" horiz-adv-x="1191" 
d="M629 1096q-123 0 -198.5 -51.5t-121.5 -161.5l-131 35q62 167 179.5 240t289.5 73q225 0 349 -137.5t124 -370.5q0 -141 -33 -263.5t-89 -210t-130.5 -150.5t-159 -93.5t-171.5 -30.5q-110 0 -194 35.5t-133 96.5t-73 135.5t-24 160.5q0 128 51 242h799q7 89 -10 169
t-56 143.5t-108 101t-160 37.5zM940 512h-661q-17 -49 -17 -121q0 -122 71 -203.5t202 -81.5q144 0 253.5 113.5t151.5 292.5z" />
    <glyph glyph-name="florin" unicode="&#x192;" horiz-adv-x="804" 
d="M41 -248l162 615h-140l37 139h140l55 201q76 303 344 303q80 0 140.5 -29t86.5 -74l-100 -114q-29 47 -62 66.5t-83 19.5q-65 0 -105.5 -41t-64.5 -127l-58 -205h240l-35 -139h-242l-161 -615h-154z" />
    <glyph glyph-name="Khook" unicode="&#x198;" horiz-adv-x="1040" 
d="M588 621l352 -621h-182l-301 543h-117l-94 -543h-164l211 1206h164l-92 -528h96l192 315q37 61 66.5 100.5t66 73t78 49t90.5 15.5q62 0 105 -32t61 -87l-102 -96q-26 65 -82 65q-37 0 -65.5 -29.5t-77.5 -107.5z" />
    <glyph glyph-name="khook" unicode="&#x199;" horiz-adv-x="894" 
d="M428 1077l-88 -497h45l350 366h191l-416 -414l166 -348q28 -57 66 -68t104 7l-23 -117q-49 -16 -108 -16q-52 0 -88.5 22.5t-63.5 77.5l-186 377h-58l-81 -467h-156l188 1077q28 163 110 234t212 71q115 0 213 -59l-64 -129q-42 30 -73 43.5t-72 13.5q-74 0 -112.5 -39
t-55.5 -135z" />
    <glyph glyph-name="Ezh" unicode="&#x1b7;" horiz-adv-x="1015" 
d="M608 1067h-420l25 139h803l-19 -104l-516 -563l-2 -11q181 -1 276 -107t95 -271q0 -122 -43 -223t-114 -165t-160.5 -98.5t-186.5 -34.5q-190 0 -293.5 98.5t-103.5 278.5l133 35q0 -147 70 -219t194 -72q153 0 251.5 104t98.5 298q0 135 -100 210t-297 72l20 117
l328 373q44 51 83.5 88t57.5 48l17 11v8q-68 -12 -197 -12z" />
    <glyph glyph-name="Acaron" unicode="&#x1cd;" horiz-adv-x="1181" 
d="M887 0l-64 356h-506l-186 -356h-172l651 1206h217l226 -1206h-166zM553 803l-168 -316h414q-30 150 -54 305t-33 236.5t-7 81.5h-9q-45 -121 -143 -307zM770 1341h-94l-203 254h174l53 -69q14 -19 23 -37t11 -27l3 -8h2q-1 2 18.5 24.5t54.5 56.5t69 60h182z" />
    <glyph glyph-name="acaron" unicode="&#x1ce;" horiz-adv-x="1075" 
d="M719 395l29 160q20 115 -29.5 203t-157.5 88q-141 0 -234.5 -131.5t-93.5 -333.5q0 -125 54 -201t155 -76q107 0 180.5 77.5t96.5 213.5zM973 946l-131 -743q-16 -92 53 -92q26 0 59 8l-20 -113q-46 -16 -98 -16q-77 0 -115.5 43.5t-32.5 124.5q-41 -92 -117.5 -137.5
t-171.5 -45.5q-141 0 -229 102t-88 285q0 162 57 300t165 222.5t243 84.5q209 0 246 -183l51 160h129zM639 1085h-86l-199 293h162l57 -90q14 -22 22.5 -42.5t10.5 -29.5l2 -10h8q17 33 64 82l90 90h170z" />
    <glyph glyph-name="Icaron" unicode="&#x1cf;" horiz-adv-x="487" 
d="M293 1206h164l-211 -1206h-164zM436 1341h-94l-203 254h174l54 -69q14 -19 23 -37t11 -27l2 -8h5q14 29 61 72l78 69h182z" />
    <glyph glyph-name="icaron" unicode="&#x1d0;" horiz-adv-x="497" 
d="M385 1085h-86l-199 293h162l57 -90q14 -22 22.5 -42.5t10.5 -29.5l2 -10h8q17 33 64 82l90 90h170zM395 946l-131 -743q-16 -92 53 -92q27 0 60 8l-21 -113q-46 -16 -98 -16q-95 0 -131 54t-18 151l131 751h155z" />
    <glyph glyph-name="Ocaron" unicode="&#x1d1;" horiz-adv-x="1261" 
d="M575 -25q-217 0 -339.5 135t-122.5 355q0 177 49 323.5t133 242t195 148t237 52.5q217 0 340 -136t123 -356q0 -177 -49 -323t-133.5 -241.5t-195.5 -147.5t-237 -52zM711 1094q-133 0 -233 -87.5t-149.5 -226t-49.5 -303.5q0 -169 81.5 -267.5t233.5 -98.5
q100 0 182.5 50.5t136 136t82.5 196.5t29 233q0 78 -17.5 142.5t-54 116t-98 80t-143.5 28.5zM799 1341h-94l-203 254h174l53 -69q14 -19 23 -37t12 -27l2 -8h4q14 29 61 72l78 69h183z" />
    <glyph glyph-name="ocaron" unicode="&#x1d2;" horiz-adv-x="1005" 
d="M567 969q169 0 263 -109t94 -297q0 -160 -55.5 -292t-167.5 -214t-261 -82q-162 0 -260 106t-98 296q0 118 32.5 224.5t92 188.5t153 130.5t207.5 48.5zM543 840q-93 0 -165 -63.5t-108.5 -164t-36.5 -217.5q0 -144 60.5 -221.5t167.5 -77.5q93 0 164.5 66t107 169
t35.5 222q0 135 -59 211t-166 76zM614 1085h-86l-198 293h162l57 -90q14 -22 22.5 -42.5t10.5 -29.5l2 -10h8q16 33 63 82l90 90h170z" />
    <glyph glyph-name="Ucaron" unicode="&#x1d3;" horiz-adv-x="1191" 
d="M1018 1206h164l-146 -827q-19 -113 -65 -193.5t-115 -125.5t-148 -65t-178 -20q-78 0 -143.5 16.5t-120.5 51.5t-88 91t-46 135t7 182l131 755h164l-135 -774q-29 -166 40.5 -244.5t209.5 -78.5q136 0 219 70t111 233zM778 1341h-94l-203 254h174l54 -69q14 -19 23 -37
t11 -27l2 -8h5q14 29 61 72l78 69h182z" />
    <glyph glyph-name="ucaron" unicode="&#x1d4;" 
d="M647 178q-42 -106 -115.5 -154.5t-181.5 -48.5q-147 0 -207 93t-30 264l106 614h156l-113 -643q-17 -100 17.5 -155.5t117.5 -55.5q94 0 174.5 75.5t102.5 203.5l100 575h156l-131 -743q-16 -92 53 -92q26 0 59 8l-20 -113q-46 -16 -98 -16q-92 0 -125.5 47.5
t-20.5 140.5zM627 1085h-86l-199 293h162l57 -90q14 -22 22.5 -42.5t10.5 -29.5l2 -10h8q17 33 64 82l90 90h170z" />
    <glyph glyph-name="uni01D9" unicode="&#x1d9;" horiz-adv-x="1191" 
d="M1018 1206h164l-146 -827q-19 -113 -65 -193.5t-115 -125.5t-148 -65t-178 -20q-78 0 -143.5 16.5t-120.5 51.5t-88 91t-46 135t7 182l131 755h164l-135 -774q-29 -166 40.5 -244.5t209.5 -78.5q136 0 219 70t111 233zM444 1393q0 45 33 77.5t78 32.5q46 0 78.5 -32
t32.5 -78q0 -45 -33 -78t-78 -33q-44 0 -77.5 33.5t-33.5 77.5zM831 1391q0 45 33 77.5t78 32.5q46 0 78.5 -32t32.5 -78q0 -45 -33 -78t-78 -33q-44 0 -77.5 33.5t-33.5 77.5zM819 1536h-94l-203 254h174l54 -70q14 -19 23 -37t11 -26l2 -8h5q14 28 61 71l78 70h182z" />
    <glyph glyph-name="uni01DA" unicode="&#x1da;" 
d="M647 178q-42 -106 -115.5 -154.5t-181.5 -48.5q-147 0 -207 93t-30 264l106 614h156l-113 -643q-17 -100 17.5 -155.5t117.5 -55.5q94 0 174.5 75.5t102.5 203.5l100 575h156l-131 -743q-16 -92 53 -92q26 0 59 8l-20 -113q-46 -16 -98 -16q-92 0 -125.5 47.5
t-20.5 140.5zM301 1141q0 45 33 77.5t78 32.5q46 0 78 -32t32 -78q0 -45 -32.5 -78t-77.5 -33q-44 0 -77.5 33.5t-33.5 77.5zM688 1139q0 45 33 77.5t78 32.5q46 0 78 -32t32 -78q0 -45 -32.5 -78t-77.5 -33q-44 0 -77.5 33.5t-33.5 77.5zM676 1284h-94l-203 254h174l53 -70
q14 -19 23 -37t11 -26l3 -8h4q15 28 62 71l77 70h183z" />
    <glyph glyph-name="uni004100A800AF" unicode="&#x1de;" horiz-adv-x="1181" 
d="M887 0l-64 356h-506l-186 -356h-172l651 1206h217l226 -1206h-166zM1024 1575h-514l20 121h514zM430 1393q0 45 33 77.5t78 32.5q46 0 78 -32t32 -78q0 -45 -32.5 -78t-77.5 -33q-44 0 -77.5 33.5t-33.5 77.5zM817 1391q0 45 33 77.5t78 32.5q46 0 78 -32t32 -78
q0 -45 -32.5 -78t-77.5 -33q-44 0 -77.5 33.5t-33.5 77.5zM553 803l-168 -316h414q-30 150 -54 305t-33 236.5t-7 81.5h-9q-45 -121 -143 -307z" />
    <glyph glyph-name="adieresismacron" unicode="&#x1df;" horiz-adv-x="1075" 
d="M719 395l29 160q20 115 -29.5 203t-157.5 88q-141 0 -234.5 -131.5t-93.5 -333.5q0 -125 54 -201t155 -76q107 0 180.5 77.5t96.5 213.5zM973 946l-131 -743q-16 -92 53 -92q26 0 59 8l-20 -113q-46 -16 -98 -16q-77 0 -115.5 43.5t-32.5 124.5q-41 -92 -117.5 -137.5
t-171.5 -45.5q-141 0 -229 102t-88 285q0 162 57 300t165 222.5t243 84.5q209 0 246 -183l51 160h129zM907 1362h-514l23 125h514zM309 1157q0 45 33 78t78 33q46 0 78 -32.5t32 -78.5q0 -45 -32.5 -77.5t-77.5 -32.5q-44 0 -77.5 33t-33.5 77zM696 1155q0 45 33 78t78 33
q46 0 78.5 -32.5t32.5 -78.5q0 -45 -33 -78t-78 -33q-44 0 -77.5 33.5t-33.5 77.5z" />
    <glyph glyph-name="AEmacron" unicode="&#x1e2;" horiz-adv-x="1712" 
d="M811 0l61 356h-452l-279 -356h-182l944 1206h840l-25 -139h-557l-69 -395h493l-24 -140h-494l-70 -393h557l-22 -139h-721zM1544 1386h-514l21 121h514zM1006 1104l-484 -617h373l70 394q15 83 27 138.5t17 70.5l5 14h-8z" />
    <glyph glyph-name="aemacron" unicode="&#x1e3;" horiz-adv-x="1480" 
d="M997 96q101 0 153.5 40t80.5 122l141 -35q-50 -137 -144.5 -192.5t-236.5 -55.5q-107 0 -186.5 43t-126.5 121q-45 -80 -133.5 -122t-200.5 -42q-129 0 -200.5 65.5t-71.5 180.5q0 163 150 246t419 88q16 74 41 127q4 81 -42 121.5t-128 40.5q-169 0 -211 -160l-143 21
q18 72 57 125.5t92 82.5t109.5 42.5t118.5 13.5q195 0 256 -127q127 127 292 127q87 0 154 -28t105.5 -76.5t57.5 -107t19 -126.5q0 -107 -41 -193h-604q-5 -65 4.5 -124t34 -109t72 -79.5t112.5 -29.5zM1122 1155h-514l23 125h514zM793 555h467q10 29 10 80q0 91 -50 151
t-145 60q-105 0 -178.5 -78t-103.5 -213zM623 377q0 41 2 61q-189 -5 -297.5 -57t-108.5 -156q0 -64 37.5 -98.5t110.5 -34.5q86 0 162.5 46.5t105.5 119.5q-12 55 -12 119z" />
    <glyph glyph-name="Gstroke" unicode="&#x1e4;" horiz-adv-x="1241" 
d="M653 639h467l-41 -233h121l-20 -123h-121l-49 -283h-127l-2 154q-39 -85 -117 -132t-191 -47q-216 0 -338 135t-122 355q0 177 49 323.5t133.5 242t196 148t237.5 52.5q322 0 391 -285l-159 -65q-19 108 -86.5 161.5t-161.5 53.5q-133 0 -233.5 -88t-150.5 -227t-50 -304
q0 -171 79.5 -268.5t235.5 -97.5q222 0 299 172h-303l20 123h310l18 100h-307z" />
    <glyph glyph-name="gstroke" unicode="&#x1e5;" horiz-adv-x="1024" 
d="M973 946l-172 -977l-19 -78h146l-13 -71h-155q-53 -129 -154 -190.5t-264 -61.5q-176 0 -262.5 73t-99.5 189l139 47q6 -85 68 -139.5t165 -54.5q171 0 244 137h-320l13 71h336q2 7 18 72l37 191q-78 -177 -277 -177q-142 0 -231.5 102.5t-89.5 285.5q0 161 58 298.5
t167 221.5t246 84q203 0 240 -183l51 160h129zM719 389l31 166q13 73 -1.5 138t-62.5 109t-121 44q-145 0 -238.5 -132.5t-93.5 -334.5q0 -125 52.5 -200t154.5 -75q111 0 183 75t96 210z" />
    <glyph glyph-name="Gcaron" unicode="&#x1e6;" horiz-adv-x="1212" 
d="M649 614h467l-106 -614h-127l-2 154q-39 -85 -117 -132t-191 -47q-216 0 -338 135t-122 355q0 177 49 323.5t133.5 242t196 148t237.5 52.5q322 0 391 -285l-159 -65q-19 108 -86.5 161.5t-161.5 53.5q-133 0 -233.5 -88t-150.5 -227t-50 -304q0 -171 79.5 -268.5
t235.5 -97.5q275 0 324 282l14 78h-307zM784 1341h-94l-203 254h175l53 -69q14 -19 23 -37t12 -27l2 -8h4q14 29 61 72l78 69h182z" />
    <glyph glyph-name="gcaron" unicode="&#x1e7;" horiz-adv-x="1024" 
d="M719 389l31 166q13 73 -1.5 138t-62.5 109t-121 44q-145 0 -238.5 -132.5t-93.5 -334.5q0 -125 52.5 -200t154.5 -75q111 0 183 75t96 210zM973 946l-172 -977q-37 -207 -146 -304t-313 -97q-176 0 -262.5 73t-99.5 189l139 47q6 -85 68 -139.5t165 -54.5q127 0 195.5 70
t95.5 210l37 191q-78 -177 -277 -177q-142 0 -231.5 102.5t-89.5 285.5q0 161 58 298.5t167 221.5t246 84q203 0 240 -183l51 160h129zM633 1085h-86l-199 293h162l57 -90q14 -22 22.5 -42.5t10.5 -29.5l2 -10h8q17 33 64 82l90 90h170z" />
    <glyph glyph-name="Kcaron" unicode="&#x1e8;" horiz-adv-x="1040" 
d="M940 0h-182l-301 543h-117l-94 -543h-164l211 1206h164l-92 -528h96l467 528h194l-534 -585zM688 1341h-94l-203 254h174l53 -69q14 -19 23 -37t11 -27l3 -8h4q15 29 62 72l78 69h182z" />
    <glyph glyph-name="kcaron" unicode="&#x1e9;" horiz-adv-x="894" 
d="M561 90l-186 377h-56l-81 -467h-156l240 1368h157l-139 -788h45l350 366h191l-416 -414l166 -348q28 -57 66 -68t104 7l-23 -117q-49 -16 -108 -16q-52 0 -89.5 22.5t-64.5 77.5zM453 1427h-95l-202 254h174l53 -69q14 -19 23 -37t12 -27l2 -8h4q14 29 61 72l78 69h182z
" />
    <glyph glyph-name="Oogonek" unicode="&#x1ea;" horiz-adv-x="1261" 
d="M326 -242q0 137 116 234q-157 38 -243 164t-86 309q0 177 49 323.5t133 242t195 148t237 52.5q217 0 340 -136t123 -356q0 -171 -46 -313.5t-125.5 -238t-185 -150t-225.5 -60.5q-67 -30 -107 -83t-40 -119q0 -46 26.5 -73.5t69.5 -27.5q50 0 80 22.5t53 65.5l60 -71
q-62 -123 -218 -123q-101 0 -153.5 51t-52.5 139zM711 1094q-133 0 -233 -87.5t-149.5 -226t-49.5 -303.5q0 -169 81.5 -267.5t233.5 -98.5q100 0 182.5 50.5t136 136t82.5 196.5t29 233q0 78 -17.5 142.5t-54 116t-98 80t-143.5 28.5z" />
    <glyph glyph-name="oogonek" unicode="&#x1eb;" horiz-adv-x="1003" 
d="M209 -242q0 134 119 234q-115 31 -180.5 131t-65.5 254q0 118 32.5 224.5t92 188.5t153 130.5t207.5 48.5q169 0 263 -109t94 -297q0 -230 -113.5 -395t-310.5 -188q-156 -71 -156 -205q0 -46 26.5 -73.5t69.5 -27.5q50 0 80 22.5t53 65.5l60 -71q-61 -123 -217 -123
q-101 0 -154 51t-53 139zM543 840q-93 0 -165 -63.5t-108.5 -164t-36.5 -217.5q0 -144 60.5 -221.5t167.5 -77.5q93 0 164.5 66t107 169t35.5 222q0 135 -59 211t-166 76z" />
    <glyph glyph-name="uni004F02DB00AF" unicode="&#x1ec;" horiz-adv-x="1261" 
d="M1028 1386h-514l21 121h514zM326 -242q0 137 116 234q-157 38 -243 164t-86 309q0 177 49 323.5t133 242t195 148t237 52.5q217 0 340 -136t123 -356q0 -171 -46 -313.5t-125.5 -238t-185 -150t-225.5 -60.5q-67 -30 -107 -83t-40 -119q0 -46 26.5 -73.5t69.5 -27.5
q50 0 80 22.5t53 65.5l60 -71q-62 -123 -218 -123q-101 0 -153.5 51t-52.5 139zM711 1094q-133 0 -233 -87.5t-149.5 -226t-49.5 -303.5q0 -169 81.5 -267.5t233.5 -98.5q100 0 182.5 50.5t136 136t82.5 196.5t29 233q0 78 -17.5 142.5t-54 116t-98 80t-143.5 28.5z" />
    <glyph glyph-name="oogonekmacron" unicode="&#x1ed;" horiz-adv-x="1003" 
d="M842 1155h-514l22 125h514zM209 -242q0 134 119 234q-115 31 -180.5 131t-65.5 254q0 118 32.5 224.5t92 188.5t153 130.5t207.5 48.5q169 0 263 -109t94 -297q0 -230 -113.5 -395t-310.5 -188q-156 -71 -156 -205q0 -46 26.5 -73.5t69.5 -27.5q50 0 80 22.5t53 65.5
l60 -71q-61 -123 -217 -123q-101 0 -154 51t-53 139zM543 840q-93 0 -165 -63.5t-108.5 -164t-36.5 -217.5q0 -144 60.5 -221.5t167.5 -77.5q93 0 164.5 66t107 169t35.5 222q0 135 -59 211t-166 76z" />
    <glyph glyph-name="Ezhcaron" unicode="&#x1ee;" horiz-adv-x="1015" 
d="M608 1067h-420l25 139h803l-19 -104l-516 -563l-2 -11q181 -1 276 -107t95 -271q0 -122 -43 -223t-114 -165t-160.5 -98.5t-186.5 -34.5q-190 0 -293.5 98.5t-103.5 278.5l133 35q0 -147 70 -219t194 -72q153 0 251.5 104t98.5 298q0 135 -100 210t-297 72l20 117
l328 373q44 51 83.5 88t57.5 48l17 11v8q-68 -12 -197 -12zM680 1341h-94l-203 254h174l53 -69q14 -19 23 -37t11 -27l3 -8h4q15 29 62 72l78 69h182z" />
    <glyph glyph-name="ezhcaron" unicode="&#x1ef;" horiz-adv-x="849" 
d="M242 430l215 229q41 42 80 79.5t58 53.5l19 17l2 8q-71 -6 -200 -6h-271l25 135h659l-18 -106l-432 -434v-7q78 -1 138.5 -27.5t97 -72t55 -102t18.5 -121.5q0 -95 -38.5 -172t-101 -123.5t-137.5 -71t-153 -24.5q-159 0 -239 77.5t-80 208.5l129 31q0 -97 56 -151
t142 -54q122 0 198.5 73t76.5 200q0 114 -73 178.5t-245 77.5zM561 1085h-86l-199 293h162l58 -90q14 -22 22.5 -42.5t9.5 -29.5l2 -10h9q16 33 63 82l90 90h170z" />
    <glyph glyph-name="jcaron" unicode="&#x1f0;" horiz-adv-x="446" 
d="M383 1085h-86l-199 293h162l57 -90q14 -22 22.5 -42.5t10.5 -29.5l2 -10h8q17 33 64 82l90 90h170zM395 946l-192 -1089q-28 -159 -106.5 -224t-205.5 -65q-51 0 -100 15t-78 38l54 123q66 -51 139 -51q54 0 88.5 36t50.5 124l195 1093h155z" />
    <glyph glyph-name="jcaron" unicode="&#xe10c;" horiz-adv-x="446" 
d="M383 1085h-86l-199 293h162l57 -90q14 -22 22.5 -42.5t10.5 -29.5l2 -10h8q17 33 64 82l90 90h170zM395 946l-192 -1089q-28 -159 -106.5 -224t-205.5 -65q-51 0 -100 15t-78 38l54 123q66 -51 139 -51q54 0 88.5 36t50.5 124l195 1093h155z" />
    <glyph glyph-name="Gacute" unicode="&#x1f4;" horiz-adv-x="1212" 
d="M649 614h467l-106 -614h-127l-2 154q-39 -85 -117 -132t-191 -47q-216 0 -338 135t-122 355q0 177 49 323.5t133.5 242t196 148t237.5 52.5q322 0 391 -285l-159 -65q-19 108 -86.5 161.5t-161.5 53.5q-133 0 -233.5 -88t-150.5 -227t-50 -304q0 -171 79.5 -268.5
t235.5 -97.5q275 0 324 282l14 78h-307zM805 1341h-141l127 238h213z" />
    <glyph glyph-name="gacute" unicode="&#x1f5;" horiz-adv-x="1024" 
d="M719 389l31 166q13 73 -1.5 138t-62.5 109t-121 44q-145 0 -238.5 -132.5t-93.5 -334.5q0 -125 52.5 -200t154.5 -75q111 0 183 75t96 210zM973 946l-172 -977q-37 -207 -146 -304t-313 -97q-176 0 -262.5 73t-99.5 189l139 47q6 -85 68 -139.5t165 -54.5q127 0 195.5 70
t95.5 210l37 191q-78 -177 -277 -177q-142 0 -231.5 102.5t-89.5 285.5q0 161 58 298.5t167 221.5t246 84q203 0 240 -183l51 160h129zM649 1085h-133l154 293h215z" />
    <glyph glyph-name="Ngrave" unicode="&#x1f8;" horiz-adv-x="1255" 
d="M463 1206l325 -712q29 -64 54.5 -132t35.5 -104l11 -37h8q16 145 43 297l121 688h164l-211 -1206h-166l-334 709q-28 61 -54 129t-38 106l-12 37h-9q-7 -141 -34 -293l-121 -688h-164l211 1206h170zM834 1341h-142l-198 238h213z" />
    <glyph glyph-name="ngrave" unicode="&#x1f9;" horiz-adv-x="1034" 
d="M907 651l-78 -448q-16 -92 54 -92q26 0 59 8l-20 -113q-46 -16 -99 -16q-95 0 -131 54t-18 151l82 458q33 185 -129 185q-42 0 -85 -16t-86.5 -51t-78 -100t-49.5 -153l-90 -518h-156l166 946h135l-14 -192q105 215 305 215q111 0 176 -58t65 -166q0 -47 -8 -94z
M694 1085h-133l-235 293h215z" />
    <glyph glyph-name="uni004102DA00B4" unicode="&#x1fa;" horiz-adv-x="1181" 
d="M887 0l-64 356h-506l-186 -356h-172l651 1206h217l226 -1206h-166zM563 1411q0 88 59.5 148.5t153.5 60.5q81 0 129.5 -50t48.5 -124q0 -88 -59 -148.5t-152 -60.5q-86 0 -133 48.5t-47 125.5zM870 1661h-141l127 237h213zM553 803l-168 -316h414q-30 150 -54 305
t-33 236.5t-7 81.5h-9q-45 -121 -143 -307zM768 1544q-49 0 -83 -36.5t-34 -86.5q0 -51 27.5 -79.5t77.5 -28.5q47 0 79.5 36.5t32.5 86.5t-26.5 79t-73.5 29z" />
    <glyph glyph-name="aringacute" unicode="&#x1fb;" horiz-adv-x="1075" 
d="M719 395l29 160q20 115 -29.5 203t-157.5 88q-141 0 -234.5 -131.5t-93.5 -333.5q0 -125 54 -201t155 -76q107 0 180.5 77.5t96.5 213.5zM973 946l-131 -743q-16 -92 53 -92q26 0 59 8l-20 -113q-46 -16 -98 -16q-77 0 -115.5 43.5t-32.5 124.5q-41 -92 -117.5 -137.5
t-171.5 -45.5q-141 0 -229 102t-88 285q0 162 57 300t165 222.5t243 84.5q209 0 246 -183l51 160h129zM424 1202q0 88 59.5 148.5t153.5 60.5q81 0 129.5 -50t48.5 -124q0 -88 -59 -148.5t-152 -60.5q-86 0 -133 48.5t-47 125.5zM629 1335q-49 0 -83 -36.5t-34 -86.5
q0 -51 27.5 -79.5t76.5 -28.5q47 0 80 36.5t33 86.5t-26.5 79t-73.5 29zM731 1468h-141l127 238h213z" />
    <glyph glyph-name="AEacute" unicode="&#x1fc;" horiz-adv-x="1712" 
d="M811 0l61 356h-452l-279 -356h-182l944 1206h840l-25 -139h-557l-69 -395h493l-24 -140h-494l-70 -393h557l-22 -139h-721zM1337 1341h-141l127 238h213zM1006 1104l-484 -617h373l70 394q15 83 27 138.5t17 70.5l5 14h-8z" />
    <glyph glyph-name="aeacute" unicode="&#x1fd;" horiz-adv-x="1480" 
d="M997 96q101 0 153.5 40t80.5 122l141 -35q-50 -137 -144.5 -192.5t-236.5 -55.5q-107 0 -186.5 43t-126.5 121q-45 -80 -133.5 -122t-200.5 -42q-129 0 -200.5 65.5t-71.5 180.5q0 163 150 246t419 88q16 74 41 127q4 81 -42 121.5t-128 40.5q-169 0 -211 -160l-143 21
q18 72 57 125.5t92 82.5t109.5 42.5t118.5 13.5q195 0 256 -127q127 127 292 127q87 0 154 -28t105.5 -76.5t57.5 -107t19 -126.5q0 -107 -41 -193h-604q-5 -65 4.5 -124t34 -109t72 -79.5t112.5 -29.5zM911 1085h-133l154 293h215zM793 555h467q10 29 10 80q0 91 -50 151
t-145 60q-105 0 -178.5 -78t-103.5 -213zM623 377q0 41 2 61q-189 -5 -297.5 -57t-108.5 -156q0 -64 37.5 -98.5t110.5 -34.5q86 0 162.5 46.5t105.5 119.5q-12 55 -12 119z" />
    <glyph glyph-name="Oslashacute" unicode="&#x1fe;" horiz-adv-x="1261" 
d="M121 -29l-86 82l139 144q-61 110 -61 268q0 177 49 323.5t133 242t195 148t237 52.5q203 0 328 -125l123 125l92 -84l-140 -143q60 -117 60 -265q0 -177 -49 -323t-133.5 -241.5t-195.5 -147.5t-237 -52q-203 0 -329 123zM1024 727q0 83 -20 147l-648 -663
q84 -100 238 -100q100 0 182.5 50.5t136 136t82.5 196.5t29 233zM842 1341h-142l127 238h213zM711 1094q-133 0 -233 -87.5t-149.5 -226t-49.5 -303.5q0 -87 20 -151l647 665q-83 103 -235 103z" />
    <glyph glyph-name="oslashacute" unicode="&#x1ff;" horiz-adv-x="1005" 
d="M567 969q171 0 264 -113l113 111l84 -88l-135 -131q31 -82 31 -185q0 -160 -55.5 -292t-167.5 -214t-261 -82t-243 88l-97 -92l-86 82l111 109q-43 87 -43 215q0 118 32.5 224.5t92 188.5t153 130.5t207.5 48.5zM637 1085h-133l153 293h215zM543 840q-93 0 -165 -63.5
t-108.5 -164t-36.5 -217.5q0 -60 13 -114l475 467q-61 92 -178 92zM461 96q93 0 164.5 66t107 169t35.5 222q0 22 -4 68l-465 -455q58 -70 162 -70z" />
    <glyph glyph-name="Adoublegrave" unicode="&#x200;" horiz-adv-x="1181" 
d="M887 0l-64 356h-506l-186 -356h-172l651 1206h217l226 -1206h-166zM662 1341h-123l-236 238h205zM948 1341h-119l-215 238h201zM553 803l-168 -316h414q-30 150 -54 305t-33 236.5t-7 81.5h-9q-45 -121 -143 -307z" />
    <glyph glyph-name="edoublegrave" unicode="&#x201;" horiz-adv-x="940" 
d="M457 96q100 0 152.5 40t80.5 122l141 -35q-50 -137 -145.5 -192.5t-243.5 -55.5q-168 0 -264 109t-96 293q0 139 40 254t105.5 187.5t147 111.5t168.5 39t154 -28t105.5 -76.5t57.5 -107t19 -126.5q0 -107 -41 -193h-611q-5 -64 5.5 -123.5t36.5 -109.5t74.5 -79.5
t113.5 -29.5zM246 563h473q10 29 10 72q0 91 -49.5 151t-144.5 60q-111 0 -185 -80t-104 -203zM752 1085h-119l-215 293h200zM465 1085h-123l-236 293h205z" />
    <glyph glyph-name="edoublegrave" unicode="&#x205;" horiz-adv-x="940" 
d="M457 96q100 0 152.5 40t80.5 122l141 -35q-50 -137 -145.5 -192.5t-243.5 -55.5q-168 0 -264 109t-96 293q0 139 40 254t105.5 187.5t147 111.5t168.5 39t154 -28t105.5 -76.5t57.5 -107t19 -126.5q0 -107 -41 -193h-611q-5 -64 5.5 -123.5t36.5 -109.5t74.5 -79.5
t113.5 -29.5zM246 563h473q10 29 10 72q0 91 -49.5 151t-144.5 60q-111 0 -185 -80t-104 -203zM752 1085h-119l-215 293h200zM465 1085h-123l-236 293h205z" />
    <glyph glyph-name="Ainvertedbreve" unicode="&#x202;" horiz-adv-x="1181" 
d="M887 0l-64 356h-506l-186 -356h-172l651 1206h217l226 -1206h-166zM786 1604q124 0 183 -69.5t37 -188.5h-125q6 70 -20.5 105.5t-96.5 35.5q-71 0 -109.5 -35t-58.5 -106h-125q22 119 106 188.5t209 69.5zM553 803l-168 -316h414q-30 150 -54 305t-33 236.5t-7 81.5h-9
q-45 -121 -143 -307z" />
    <glyph glyph-name="ainvertedbreve" unicode="&#x203;" horiz-adv-x="1075" 
d="M719 395l29 160q20 115 -29.5 203t-157.5 88q-141 0 -234.5 -131.5t-93.5 -333.5q0 -125 54 -201t155 -76q107 0 180.5 77.5t96.5 213.5zM973 946l-131 -743q-16 -92 53 -92q26 0 59 8l-20 -113q-46 -16 -98 -16q-77 0 -115.5 43.5t-32.5 124.5q-41 -92 -117.5 -137.5
t-171.5 -45.5q-141 0 -229 102t-88 285q0 162 57 300t165 222.5t243 84.5q209 0 246 -183l51 160h129zM637 1368q125 0 183.5 -75t35.5 -203h-125q7 79 -16 119t-99 40t-113.5 -40t-58.5 -119h-125q23 128 108 203t210 75z" />
    <glyph glyph-name="Edoublegrave" unicode="&#x204;" horiz-adv-x="983" 
d="M825 139l-22 -139h-721l211 1206h721l-25 -139h-557l-70 -395h494l-25 -140h-493l-70 -393h557zM866 1341h-118l-216 238h201zM580 1341h-123l-236 238h205z" />
    <glyph glyph-name="Einvertedbreve" unicode="&#x206;" horiz-adv-x="983" 
d="M825 139l-22 -139h-721l211 1206h721l-25 -139h-557l-70 -395h494l-25 -140h-493l-70 -393h557zM702 1604q124 0 183 -69.5t37 -188.5h-125q6 70 -20.5 105.5t-96.5 35.5q-71 0 -109.5 -35t-58.5 -106h-125q22 119 106 188.5t209 69.5z" />
    <glyph glyph-name="einvertedbreve" unicode="&#x207;" horiz-adv-x="940" 
d="M457 96q100 0 152.5 40t80.5 122l141 -35q-50 -137 -145.5 -192.5t-243.5 -55.5q-168 0 -264 109t-96 293q0 139 40 254t105.5 187.5t147 111.5t168.5 39t154 -28t105.5 -76.5t57.5 -107t19 -126.5q0 -107 -41 -193h-611q-5 -64 5.5 -123.5t36.5 -109.5t74.5 -79.5
t113.5 -29.5zM246 563h473q10 29 10 72q0 91 -49.5 151t-144.5 60q-111 0 -185 -80t-104 -203zM578 1368q125 0 183.5 -75t35.5 -203h-125q7 79 -16 119t-99 40t-113.5 -40t-58.5 -119h-125q23 128 108 203t210 75z" />
    <glyph glyph-name="Idoublegrave" unicode="&#x208;" horiz-adv-x="487" 
d="M293 1206h164l-211 -1206h-164zM614 1341h-118l-215 238h200zM328 1341h-123l-236 238h205z" />
    <glyph glyph-name="idoublegrave" unicode="&#x209;" horiz-adv-x="497" 
d="M395 946l-131 -743q-16 -92 53 -92q27 0 60 8l-21 -113q-46 -16 -98 -16q-95 0 -131 54t-18 151l131 751h155zM555 1085h-119l-215 293h201zM268 1085h-123l-235 293h205z" />
    <glyph glyph-name="Iinvertedbreve" unicode="&#x20a;" horiz-adv-x="487" 
d="M293 1206h164l-211 -1206h-164zM451 1604q124 0 182.5 -69.5t36.5 -188.5h-125q6 70 -20.5 105.5t-96.5 35.5q-71 0 -109.5 -35t-58.5 -106h-125q22 119 106.5 188.5t209.5 69.5z" />
    <glyph glyph-name="iinvertedbreve" unicode="&#x20b;" horiz-adv-x="497" 
d="M395 946l-131 -743q-16 -92 53 -92q27 0 60 8l-21 -113q-46 -16 -98 -16q-95 0 -131 54t-18 151l131 751h155zM383 1368q125 0 183.5 -75t35.5 -203h-125q7 79 -16 119t-99 40t-113.5 -40t-58.5 -119h-124q23 128 107.5 203t209.5 75z" />
    <glyph glyph-name="Odoublegrave" unicode="&#x20c;" horiz-adv-x="1261" 
d="M575 -25q-217 0 -339.5 135t-122.5 355q0 177 49 323.5t133 242t195 148t237 52.5q217 0 340 -136t123 -356q0 -177 -49 -323t-133.5 -241.5t-195.5 -147.5t-237 -52zM711 1094q-133 0 -233 -87.5t-149.5 -226t-49.5 -303.5q0 -169 81.5 -267.5t233.5 -98.5
q100 0 182.5 50.5t136 136t82.5 196.5t29 233q0 78 -17.5 142.5t-54 116t-98 80t-143.5 28.5zM977 1341h-119l-215 238h201zM690 1341h-123l-235 238h205z" />
    <glyph glyph-name="odoublegrave" unicode="&#x20d;" horiz-adv-x="1005" 
d="M567 969q169 0 263 -109t94 -297q0 -160 -55.5 -292t-167.5 -214t-261 -82q-162 0 -260 106t-98 296q0 118 32.5 224.5t92 188.5t153 130.5t207.5 48.5zM543 840q-93 0 -165 -63.5t-108.5 -164t-36.5 -217.5q0 -144 60.5 -221.5t167.5 -77.5q93 0 164.5 66t107 169
t35.5 222q0 135 -59 211t-166 76zM786 1085h-118l-215 293h200zM500 1085h-123l-236 293h205z" />
    <glyph glyph-name="Oinvertedbreve" unicode="&#x20e;" horiz-adv-x="1261" 
d="M575 -25q-217 0 -339.5 135t-122.5 355q0 177 49 323.5t133 242t195 148t237 52.5q217 0 340 -136t123 -356q0 -177 -49 -323t-133.5 -241.5t-195.5 -147.5t-237 -52zM711 1094q-133 0 -233 -87.5t-149.5 -226t-49.5 -303.5q0 -169 81.5 -267.5t233.5 -98.5
q100 0 182.5 50.5t136 136t82.5 196.5t29 233q0 78 -17.5 142.5t-54 116t-98 80t-143.5 28.5zM813 1604q124 0 182.5 -69.5t36.5 -188.5h-125q6 70 -20 105.5t-96 35.5q-71 0 -109.5 -35t-58.5 -106h-125q22 119 106 188.5t209 69.5z" />
    <glyph glyph-name="oinvertedbreve" unicode="&#x20f;" horiz-adv-x="1005" 
d="M567 969q169 0 263 -109t94 -297q0 -160 -55.5 -292t-167.5 -214t-261 -82q-162 0 -260 106t-98 296q0 118 32.5 224.5t92 188.5t153 130.5t207.5 48.5zM543 840q-93 0 -165 -63.5t-108.5 -164t-36.5 -217.5q0 -144 60.5 -221.5t167.5 -77.5q93 0 164.5 66t107 169
t35.5 222q0 135 -59 211t-166 76zM612 1368q125 0 183.5 -75t35.5 -203h-124q7 79 -16 119t-99 40t-113.5 -40t-58.5 -119h-125q23 128 107.5 203t209.5 75z" />
    <glyph glyph-name="Rinvertedbreve" unicode="&#x212;" horiz-adv-x="1095" 
d="M979 0h-174q-29 37 -41 109l-37 219q-18 110 -66 147t-155 37h-170l-90 -512h-164l211 1206h399q187 0 264.5 -72.5t77.5 -211.5q0 -86 -30.5 -154.5t-80.5 -109.5t-107 -63t-116 -24v-8q85 -11 125.5 -53.5t59.5 -142.5l43 -242q12 -70 51 -125zM434 1073l-76 -430h232
q129 0 202.5 62.5t73.5 193.5q0 90 -46.5 132t-153.5 42h-232zM723 1604q124 0 182.5 -69.5t36.5 -188.5h-125q6 70 -20.5 105.5t-96.5 35.5q-71 0 -109.5 -35t-58.5 -106h-124q22 119 106 188.5t209 69.5z" />
    <glyph glyph-name="rinvertedbreve" unicode="&#x213;" horiz-adv-x="679" 
d="M721 965l-41 -183q-111 23 -217.5 -42t-128.5 -193l-96 -547h-156l166 946h135l-18 -215q50 114 148 183t208 51zM539 1368q125 0 183.5 -75t35.5 -203h-125q7 79 -16 119t-99 40t-113.5 -40t-58.5 -119h-125q23 128 108 203t210 75z" />
    <glyph glyph-name="Udoublegrave" unicode="&#x214;" horiz-adv-x="1191" 
d="M1018 1206h164l-146 -827q-19 -113 -65 -193.5t-115 -125.5t-148 -65t-178 -20q-78 0 -143.5 16.5t-120.5 51.5t-88 91t-46 135t7 182l131 755h164l-135 -774q-29 -166 40.5 -244.5t209.5 -78.5q136 0 219 70t111 233zM956 1341h-118l-215 238h200zM670 1341h-123
l-236 238h205z" />
    <glyph glyph-name="udoublegrave" unicode="&#x215;" 
d="M647 178q-42 -106 -115.5 -154.5t-181.5 -48.5q-147 0 -207 93t-30 264l106 614h156l-113 -643q-17 -100 17.5 -155.5t117.5 -55.5q94 0 174.5 75.5t102.5 203.5l100 575h156l-131 -743q-16 -92 53 -92q26 0 59 8l-20 -113q-46 -16 -98 -16q-92 0 -125.5 47.5
t-20.5 140.5zM799 1085h-119l-215 293h201zM512 1085h-123l-235 293h204z" />
    <glyph glyph-name="Uinvertedbreve" unicode="&#x216;" horiz-adv-x="1191" 
d="M1018 1206h164l-146 -827q-19 -113 -65 -193.5t-115 -125.5t-148 -65t-178 -20q-78 0 -143.5 16.5t-120.5 51.5t-88 91t-46 135t7 182l131 755h164l-135 -774q-29 -166 40.5 -244.5t209.5 -78.5q136 0 219 70t111 233zM793 1604q124 0 182.5 -69.5t36.5 -188.5h-125
q6 70 -20.5 105.5t-96.5 35.5q-71 0 -109.5 -35t-58.5 -106h-125q22 119 106.5 188.5t209.5 69.5z" />
    <glyph glyph-name="uinvertedbreve" unicode="&#x217;" 
d="M647 178q-42 -106 -115.5 -154.5t-181.5 -48.5q-147 0 -207 93t-30 264l106 614h156l-113 -643q-17 -100 17.5 -155.5t117.5 -55.5q94 0 174.5 75.5t102.5 203.5l100 575h156l-131 -743q-16 -92 53 -92q26 0 59 8l-20 -113q-46 -16 -98 -16q-92 0 -125.5 47.5
t-20.5 140.5zM625 1368q125 0 183.5 -75t35.5 -203h-125q7 79 -16 119t-99 40t-113.5 -40t-58.5 -119h-125q23 128 108 203t210 75z" />
    <glyph glyph-name="Scommaaccent" unicode="&#x218;" horiz-adv-x="980" 
d="M41 295l147 27q-3 -224 240 -224q119 0 185.5 54t66.5 163q0 93 -47.5 144.5t-173.5 99.5q-52 20 -86 36t-73.5 44t-62 59t-38 78.5t-15.5 106.5q0 76 26 137t67 99.5t95 64.5t107.5 36.5t106.5 10.5q181 0 272.5 -74.5t91.5 -243.5l-153 -24q3 106 -54.5 162.5
t-169.5 56.5q-106 0 -171.5 -54.5t-65.5 -148.5q0 -31 5.5 -55.5t20.5 -44.5t29 -33.5t46 -30t54.5 -26.5t69.5 -29q72 -30 119.5 -59t86.5 -69.5t57 -95t18 -126.5q0 -92 -34.5 -162.5t-94.5 -113t-136 -64t-165 -21.5q-371 0 -371 320zM475 -287q0 -106 -71.5 -160.5
t-190.5 -54.5v70q68 4 107.5 23t39.5 67q-52 -10 -84 16.5t-32 73.5t29 73.5t79 26.5q51 0 87 -35t36 -100z" />
    <glyph glyph-name="scommaaccent" unicode="&#x219;" horiz-adv-x="817" 
d="M41 252l141 29q0 -96 50 -144.5t137 -48.5q176 0 176 148q0 71 -38 112t-136 78q-110 41 -164.5 104t-54.5 164q0 131 89.5 203t231.5 72q283 0 283 -248l-146 -16q0 71 -38.5 109t-112.5 38q-75 0 -120.5 -37t-45.5 -104q0 -57 36 -94t146 -82q119 -50 168 -116.5
t49 -170.5q0 -135 -88.5 -204t-241.5 -69t-237 74t-84 203zM401 -287q0 -106 -71.5 -160.5t-190.5 -54.5v70q68 4 108 23t40 67q-53 -10 -85 16.5t-32 73.5t29.5 73.5t79.5 26.5q51 0 86.5 -35t35.5 -100z" />
    <glyph glyph-name="Hcaron" unicode="&#x21e;" horiz-adv-x="1257" 
d="M246 0h-164l211 1206h164l-92 -524h606l92 524h164l-211 -1206h-164l94 543h-606zM821 1341h-94l-203 254h174l54 -69q14 -19 23 -37t11 -27l2 -8h5q14 29 61 72l78 69h182z" />
    <glyph glyph-name="hcaron" unicode="&#x21f;" horiz-adv-x="1034" 
d="M907 651l-78 -448q-16 -92 54 -92q26 0 59 8l-20 -113q-46 -16 -99 -16q-95 0 -131 54t-18 151l82 458q33 185 -129 185q-42 0 -85 -16t-86.5 -51t-78 -100t-49.5 -153l-90 -518h-156l237 1368h160l-110 -614q105 215 305 215q111 0 176 -58t65 -166q0 -47 -8 -94z
M453 1448h-95l-202 254h174l53 -70q14 -19 23 -37t12 -26l2 -8h4q14 28 61 71l78 70h182z" />
    <glyph glyph-name="Adotabove" unicode="&#x226;" horiz-adv-x="1181" 
d="M887 0l-64 356h-506l-186 -356h-172l651 1206h217l226 -1206h-166zM635 1485q0 47 31.5 79.5t76.5 32.5q47 0 80 -32.5t33 -79.5q0 -45 -33 -78t-80 -33q-44 0 -76 33t-32 78zM553 803l-168 -316h414q-30 150 -54 305t-33 236.5t-7 81.5h-9q-45 -121 -143 -307z" />
    <glyph glyph-name="adotabove" unicode="&#x227;" horiz-adv-x="1075" 
d="M719 395l29 160q20 115 -29.5 203t-157.5 88q-141 0 -234.5 -131.5t-93.5 -333.5q0 -125 54 -201t155 -76q107 0 180.5 77.5t96.5 213.5zM973 946l-131 -743q-16 -92 53 -92q26 0 59 8l-20 -113q-46 -16 -98 -16q-77 0 -115.5 43.5t-32.5 124.5q-41 -92 -117.5 -137.5
t-171.5 -45.5q-141 0 -229 102t-88 285q0 162 57 300t165 222.5t243 84.5q209 0 246 -183l51 160h129zM504 1253q0 46 32 79.5t76 33.5q47 0 80 -33.5t33 -79.5q0 -45 -33 -77.5t-80 -32.5q-44 0 -76 33t-32 77z" />
    <glyph glyph-name="Otildemacron" unicode="&#x22c;" horiz-adv-x="1261" 
d="M575 -25q-217 0 -339.5 135t-122.5 355q0 177 49 323.5t133 242t195 148t237 52.5q217 0 340 -136t123 -356q0 -177 -49 -323t-133.5 -241.5t-195.5 -147.5t-237 -52zM711 1094q-133 0 -233 -87.5t-149.5 -226t-49.5 -303.5q0 -169 81.5 -267.5t233.5 -98.5
q100 0 182.5 50.5t136 136t82.5 196.5t29 233q0 78 -17.5 142.5t-54 116t-98 80t-143.5 28.5zM870 1255q-21 0 -37.5 2.5t-33.5 9.5t-24.5 10.5t-27 16t-24.5 15.5q-7 5 -22 14.5t-20.5 13t-16.5 9.5t-18 8t-17 4t-21 2q-34 0 -55.5 -25t-24.5 -75h-98q-17 94 36.5 162.5
t145.5 68.5q11 0 22 -1t19 -2t18 -4t16 -4.5t15.5 -6.5t13.5 -7t14.5 -8.5t13 -8.5t14.5 -9.5t14 -9.5q56 -37 73 -42q13 -4 29 -4q65 0 76 107h105q12 -103 -39 -169.5t-146 -66.5zM1044 1542h-514l21 121h514z" />
    <glyph glyph-name="otildemacron" unicode="&#x22d;" horiz-adv-x="1005" 
d="M567 969q169 0 263 -109t94 -297q0 -160 -55.5 -292t-167.5 -214t-261 -82q-162 0 -260 106t-98 296q0 118 32.5 224.5t92 188.5t153 130.5t207.5 48.5zM543 840q-93 0 -165 -63.5t-108.5 -164t-36.5 -217.5q0 -144 60.5 -221.5t167.5 -77.5q93 0 164.5 66t107 169
t35.5 222q0 135 -59 211t-166 76zM711 1014q-17 0 -33 2.5t-26.5 5t-25 9.5t-20.5 10t-22 13t-21 13q-7 5 -25.5 17t-24.5 15t-18.5 9.5t-22.5 8t-23 1.5q-34 0 -55.5 -25t-24.5 -75h-99q-17 94 37 162.5t146 68.5q12 0 23.5 -1t22 -3.5t18 -4t18 -6.5t15.5 -7t16 -9
t14.5 -9t16 -10.5t15.5 -10.5q30 -20 42 -27t27.5 -12.5t33.5 -5.5q65 0 76 106h104q12 -103 -38.5 -169t-145.5 -66zM879 1311h-514l22 125h514z" />
    <glyph glyph-name="Odotabove" unicode="&#x22e;" horiz-adv-x="1261" 
d="M575 -25q-217 0 -339.5 135t-122.5 355q0 177 49 323.5t133 242t195 148t237 52.5q217 0 340 -136t123 -356q0 -177 -49 -323t-133.5 -241.5t-195.5 -147.5t-237 -52zM711 1094q-133 0 -233 -87.5t-149.5 -226t-49.5 -303.5q0 -169 81.5 -267.5t233.5 -98.5
q100 0 182.5 50.5t136 136t82.5 196.5t29 233q0 78 -17.5 142.5t-54 116t-98 80t-143.5 28.5zM664 1485q0 47 31.5 79.5t76.5 32.5q47 0 80 -32.5t33 -79.5q0 -45 -33 -78t-80 -33q-44 0 -76 33t-32 78z" />
    <glyph glyph-name="odotabove" unicode="&#x22f;" horiz-adv-x="1005" 
d="M567 969q169 0 263 -109t94 -297q0 -160 -55.5 -292t-167.5 -214t-261 -82q-162 0 -260 106t-98 296q0 118 32.5 224.5t92 188.5t153 130.5t207.5 48.5zM543 840q-93 0 -165 -63.5t-108.5 -164t-36.5 -217.5q0 -144 60.5 -221.5t167.5 -77.5q93 0 164.5 66t107 169
t35.5 222q0 135 -59 211t-166 76zM559 1253q0 46 32.5 79.5t76.5 33.5q47 0 79.5 -33.5t32.5 -79.5q0 -45 -32.5 -77.5t-79.5 -32.5q-44 0 -76.5 33t-32.5 77z" />
    <glyph glyph-name="odotabovemacron" unicode="&#x231;" horiz-adv-x="1005" 
d="M567 969q169 0 263 -109t94 -297q0 -160 -55.5 -292t-167.5 -214t-261 -82q-162 0 -260 106t-98 296q0 118 32.5 224.5t92 188.5t153 130.5t207.5 48.5zM543 840q-93 0 -165 -63.5t-108.5 -164t-36.5 -217.5q0 -144 60.5 -221.5t167.5 -77.5q93 0 164.5 66t107 169
t35.5 222q0 135 -59 211t-166 76zM907 1307h-514l23 125h514zM506 1126q0 46 32 79.5t76 33.5q47 0 80 -33.5t33 -79.5q0 -45 -33 -77.5t-80 -32.5q-44 0 -76 33t-32 77z" />
    <glyph glyph-name="odotabovemacron" unicode="&#xe11e;" horiz-adv-x="1005" 
d="M567 969q169 0 263 -109t94 -297q0 -160 -55.5 -292t-167.5 -214t-261 -82q-162 0 -260 106t-98 296q0 118 32.5 224.5t92 188.5t153 130.5t207.5 48.5zM543 840q-93 0 -165 -63.5t-108.5 -164t-36.5 -217.5q0 -144 60.5 -221.5t167.5 -77.5q93 0 164.5 66t107 169
t35.5 222q0 135 -59 211t-166 76zM907 1307h-514l23 125h514zM506 1126q0 46 32 79.5t76 33.5q47 0 80 -33.5t33 -79.5q0 -45 -33 -77.5t-80 -32.5q-44 0 -76 33t-32 77z" />
    <glyph glyph-name="Ymacron" unicode="&#x232;" horiz-adv-x="1011" 
d="M342 1206l139 -413q19 -58 31 -110.5t14 -75.5l2 -23h9q24 78 106 207l266 415h174l-487 -731l-82 -475h-164l82 475l-258 731h168zM924 1386h-514l20 121h514z" />
    <glyph glyph-name="ymacron" unicode="&#x233;" horiz-adv-x="856" 
d="M256 946l63 -549q12 -83 18 -157.5t5 -107.5v-34h8q29 113 123 297l279 551h166l-560 -1061q-52 -100 -100.5 -164t-97.5 -97t-92.5 -44.5t-100.5 -11.5q-77 0 -141 35l33 116q62 -32 116 -32q77 0 137.5 58.5t131.5 199.5l-152 1001h164zM758 1155h-514l22 125h514z" />
    <glyph glyph-name="dotlessj" unicode="&#x237;" horiz-adv-x="446" 
d="M395 946l-192 -1089q-28 -159 -106.5 -224t-205.5 -65q-51 0 -100 15t-78 38l54 123q66 -51 139 -51q54 0 88.5 36t50.5 124l195 1093h155z" />
    <glyph glyph-name="schwa" unicode="&#x259;" horiz-adv-x="960" 
d="M504 848q-88 0 -144.5 -41.5t-97.5 -124.5l-133 39q106 248 389 248q169 0 265 -109.5t96 -292.5q0 -117 -26 -215.5t-70.5 -167t-104 -116.5t-125.5 -70.5t-135 -22.5q-87 0 -154 28t-105.5 76.5t-57.5 107t-19 126.5q0 107 41 193h604q5 65 -4.5 124t-34 109t-72 79.5
t-112.5 29.5zM709 381h-467q-11 -32 -11 -72q0 -91 50 -151t145 -60q111 0 178.5 71.5t104.5 211.5z" />
    <glyph glyph-name="ezh" unicode="&#x292;" horiz-adv-x="849" 
d="M242 430l215 229q41 42 80 79.5t58 53.5l19 17l2 8q-71 -6 -200 -6h-271l25 135h659l-18 -106l-432 -434v-7q78 -1 138.5 -27.5t97 -72t55 -102t18.5 -121.5q0 -95 -38.5 -172t-101 -123.5t-137.5 -71t-153 -24.5q-159 0 -239 77.5t-80 208.5l129 31q0 -97 56 -151
t142 -54q122 0 198.5 73t76.5 200q0 114 -73 178.5t-245 77.5z" />
    <glyph glyph-name="circumflex" unicode="&#x2c6;" horiz-adv-x="913" 
d="M465 1378h86l199 -293h-162l-58 91q-14 22 -22.5 42t-9.5 30l-2 9h-9q-16 -32 -63 -81l-90 -91h-170z" />
    <glyph glyph-name="caron" unicode="&#x2c7;" horiz-adv-x="913" 
d="M449 1085h-87l-198 293h162l57 -90q14 -22 22.5 -42.5t10.5 -29.5l2 -10h8q16 33 63 82l91 90h170z" />
    <glyph glyph-name="breve" unicode="&#x2d8;" horiz-adv-x="872" 
d="M391 1083q-125 0 -183.5 75.5t-35.5 203.5h125q-7 -80 16 -120t99 -40t113.5 40.5t58.5 119.5h125q-23 -128 -108 -203.5t-210 -75.5z" />
    <glyph glyph-name="dotaccent" unicode="&#x2d9;" horiz-adv-x="548" 
d="M164 1253q0 46 32 79.5t76 33.5q47 0 80 -33.5t33 -79.5q0 -45 -33 -77.5t-80 -32.5q-44 0 -76 33t-32 77z" />
    <glyph glyph-name="ring" unicode="&#x2da;" horiz-adv-x="718" 
d="M164 1251q0 88 59.5 148.5t153.5 60.5q81 0 129.5 -50t48.5 -124q0 -88 -59 -148.5t-152 -60.5q-86 0 -133 48.5t-47 125.5zM369 1384q-49 0 -83 -36t-34 -86q0 -51 27.5 -80t76.5 -29q47 0 80 36.5t33 86.5t-26.5 79t-73.5 29z" />
    <glyph glyph-name="ogonek" unicode="&#x2db;" horiz-adv-x="751" 
d="M164 -242q0 60 25 114.5t64.5 93t88.5 67.5t98 43.5t92 15.5l64 -92q-119 0 -208 -63t-89 -162q0 -46 26.5 -73.5t69.5 -27.5q50 0 80 22.5t53 65.5l60 -71q-62 -123 -217 -123q-101 0 -154 51t-53 139z" />
    <glyph glyph-name="tilde" unicode="&#x2dc;" horiz-adv-x="960" 
d="M608 1087q-21 0 -37.5 2.5t-33.5 9.5t-24.5 10.5t-27 16t-24.5 15.5q-7 5 -22 14.5t-20.5 13t-16.5 9.5t-18 8t-17 4t-21 2q-34 0 -55.5 -25t-24.5 -75h-98q-17 94 36.5 162.5t145.5 68.5q11 0 22 -1t19 -2t18 -4t16 -4.5t15.5 -6.5t13.5 -7t14.5 -8.5t13 -8.5t14.5 -9.5
t14 -9.5q31 -21 42 -27.5t26.5 -12t33.5 -5.5q65 0 76 106h105q12 -103 -39 -169.5t-146 -66.5z" />
    <glyph glyph-name="hungarumlaut" unicode="&#x2dd;" horiz-adv-x="972" 
d="M283 1085h-119l133 293h201zM573 1085h-122l153 293h205z" />
    <glyph glyph-name="uni0312" unicode="&#x312;" horiz-adv-x="622" 
d="M164 1475q0 106 71.5 160.5t190.5 54.5v-70q-68 -4 -107.5 -23t-39.5 -67q52 10 84 -16.5t32 -73.5t-29 -74t-79 -27q-51 0 -87 35.5t-36 100.5z" />
    <glyph glyph-name="uni0320" unicode="&#x320;" horiz-adv-x="864" 
d="M678 -369h-514l22 125h514z" />
    <glyph glyph-name="uni0323" unicode="&#x323;" horiz-adv-x="548" 
d="M164 -240q0 47 32 80t76 33q46 0 79.5 -33t33.5 -80q0 -44 -33.5 -77t-79.5 -33q-44 0 -76 33t-32 77z" />
    <glyph glyph-name="uni0329" unicode="&#x329;" horiz-adv-x="460" 
d="M164 -393v276h133v-268z" />
    <glyph glyph-name="pi" unicode="&#x3c0;" horiz-adv-x="1241" 
d="M436 985h805l-22 -127h-224l-123 -647q-23 -123 52 -123q18 0 32.5 5.5t28 22t21 27.5t24.5 39l103 -63q-43 -81 -98.5 -112.5t-143.5 -31.5q-106 0 -149.5 63.5t-22.5 168.5l129 651h-275l-245 -858h-154l254 858h-29q-95 0 -152 -54t-63 -151h-133q6 161 109.5 246.5
t275.5 85.5z" />
    <glyph glyph-name="pi" unicode="&#x3d6;" horiz-adv-x="1241" 
d="M436 985h805l-22 -127h-224l-123 -647q-23 -123 52 -123q18 0 32.5 5.5t28 22t21 27.5t24.5 39l103 -63q-43 -81 -98.5 -112.5t-143.5 -31.5q-106 0 -149.5 63.5t-22.5 168.5l129 651h-275l-245 -858h-154l254 858h-29q-95 0 -152 -54t-63 -151h-133q6 161 109.5 246.5
t275.5 85.5z" />
    <glyph glyph-name="uni0E3F" unicode="&#xe3f;" horiz-adv-x="989" 
d="M702 508v-6q95 -4 147 -59.5t52 -135.5q0 -155 -108.5 -231t-292.5 -76h-37l-37 -217h-102l36 217h-299l172 985h302l34 191h103l-35 -191q140 0 215.5 -56.5t75.5 -164.5q0 -224 -226 -256zM578 434h-37l-56 -305h21q115 0 178.5 37.5t63.5 134.5q0 133 -170 133z
M319 563h142l51 293h-141zM297 434l-53 -305h139l55 305h-141zM772 737q0 116 -158 119l-51 -293q96 0 152.5 42t56.5 132z" />
    <glyph glyph-name="Ddotbelow" unicode="&#x1e0c;" horiz-adv-x="1204" 
d="M268 133h195q80 0 151 21t133.5 68t107 116.5t70 171t25.5 227.5q0 336 -354 336h-162zM471 0h-389l211 1206h328q252 0 376.5 -118t124.5 -338q0 -159 -38 -287.5t-101 -213.5t-148 -142t-176 -82t-188 -25zM256 -291q0 46 32.5 79.5t76.5 33.5q47 0 79.5 -33.5
t32.5 -79.5q0 -45 -32.5 -77.5t-79.5 -32.5q-44 0 -76.5 33t-32.5 77z" />
    <glyph glyph-name="ddotbelow" unicode="&#x1e0d;" horiz-adv-x="1067" 
d="M719 393l31 162q20 113 -30.5 201t-158.5 88q-143 0 -236.5 -131.5t-93.5 -333.5q0 -123 54 -199t155 -76q108 0 182 77.5t97 211.5zM1047 1368l-205 -1165q-16 -92 53 -92q26 0 59 8l-20 -113q-46 -16 -98 -16q-77 0 -115.5 43.5t-32.5 124.5q-36 -96 -113 -139.5
t-176 -43.5q-141 0 -229 102t-88 285q0 162 57 300t165 222.5t243 84.5q207 0 244 -183l102 582h154zM283 -291q0 46 32 79.5t76 33.5q47 0 80 -33.5t33 -79.5q0 -45 -33 -77.5t-80 -32.5q-44 0 -76 33t-32 77z" />
    <glyph glyph-name="Dcedilla" unicode="&#x1e10;" horiz-adv-x="1204" 
d="M575 -258q0 -84 -60.5 -129t-152.5 -45q-115 0 -174 78l48 98q51 -76 126 -76q38 0 61 19t23 55q0 90 -141 90l64 168h-287l211 1206h328q252 0 376.5 -118t124.5 -338q0 -163 -39.5 -293.5t-104 -214.5t-152.5 -139.5t-180.5 -79t-192.5 -23.5l-37 -86q82 -19 120.5 -60
t38.5 -112zM268 133h195q80 0 151 21t133.5 68t107 116.5t70 171t25.5 227.5q0 336 -354 336h-162z" />
    <glyph glyph-name="dcedilla" unicode="&#x1e11;" horiz-adv-x="1067" 
d="M602 -258q0 -84 -60.5 -129t-152.5 -45q-115 0 -174 78l47 98q51 -76 127 -76q38 0 61 19t23 55q0 90 -141 90l53 143q-43 3 -72 11q-106 29 -168.5 126t-62.5 250q0 145 47 272.5t135.5 215t202.5 111.5q36 8 80 8q207 0 244 -183l102 582h154l-205 -1165
q-16 -92 53 -92q26 0 59 8l-20 -113q-46 -16 -98 -16q-77 0 -115.5 43.5t-32.5 124.5q-55 -148 -217 -176l-29 -68q83 -19 121.5 -60t38.5 -112zM719 393l31 162q20 113 -30.5 201t-158.5 88q-143 0 -236.5 -131.5t-93.5 -333.5q0 -123 54 -199t155 -76q108 0 182 77.5
t97 211.5z" />
    <glyph glyph-name="Hdotbelow" unicode="&#x1e24;" horiz-adv-x="1257" 
d="M246 0h-164l211 1206h164l-92 -524h606l92 524h164l-211 -1206h-164l94 543h-606zM385 -291q0 46 32.5 79.5t76.5 33.5q47 0 79.5 -33.5t32.5 -79.5q0 -45 -32.5 -77.5t-79.5 -32.5q-44 0 -76.5 33t-32.5 77z" />
    <glyph glyph-name="hdotbelow" unicode="&#x1e25;" horiz-adv-x="1034" 
d="M907 651l-78 -448q-16 -92 54 -92q26 0 59 8l-20 -113q-46 -16 -99 -16q-95 0 -131 54t-18 151l82 458q33 185 -129 185q-42 0 -85 -16t-86.5 -51t-78 -100t-49.5 -153l-90 -518h-156l237 1368h160l-110 -614q105 215 305 215q111 0 176 -58t65 -166q0 -47 -8 -94z
M293 -291q0 46 32 79.5t76 33.5q47 0 80 -33.5t33 -79.5q0 -45 -33 -77.5t-80 -32.5q-44 0 -76 33t-32 77z" />
    <glyph glyph-name="Ldotbelow" unicode="&#x1e36;" horiz-adv-x="937" 
d="M293 1206h164l-189 -1067h557l-22 -139h-721zM295 -291q0 46 32 79.5t76 33.5q47 0 80 -33.5t33 -79.5q0 -45 -33 -77.5t-80 -32.5q-44 0 -76 33t-32 77z" />
    <glyph glyph-name="ldotbelow" unicode="&#x1e37;" horiz-adv-x="489" 
d="M469 1368l-205 -1165q-16 -92 53 -92q27 0 60 8l-21 -113q-46 -16 -98 -16q-95 0 -131 54t-18 151l204 1173h156zM29 -291q0 46 32 79.5t76 33.5q47 0 80 -33.5t33 -79.5q0 -45 -33 -77.5t-80 -32.5q-44 0 -76 33t-32 77z" />
    <glyph glyph-name="uni004C032300AF" unicode="&#x1e38;" horiz-adv-x="937" 
d="M293 1206h164l-189 -1067h557l-22 -139h-721zM295 -291q0 46 32 79.5t76 33.5q47 0 80 -33.5t33 -79.5q0 -45 -33 -77.5t-80 -32.5q-44 0 -76 33t-32 77zM680 1386h-514l20 121h514z" />
    <glyph glyph-name="ldotbelowmacron" unicode="&#x1e39;" horiz-adv-x="489" 
d="M469 1368l-205 -1165q-16 -92 53 -92q27 0 60 8l-21 -113q-46 -16 -98 -16q-95 0 -131 54t-18 151l204 1173h156zM29 -291q0 46 32 79.5t76 33.5q47 0 80 -33.5t33 -79.5q0 -45 -33 -77.5t-80 -32.5q-44 0 -76 33t-32 77zM678 1444h-514l20 121h514z" />
    <glyph glyph-name="Mdotbelow" unicode="&#x1e42;" horiz-adv-x="1413" 
d="M748 301h-123l-158 449q-22 62 -34.5 119t-14.5 83l-2 27h-8q-4 -76 -29 -221l-133 -758h-164l211 1206h192l187 -579q14 -45 23 -87.5t11 -62.5l3 -20h8q16 64 84 164l389 585h192l-211 -1206h-163l133 758q11 64 23.5 119.5t19.5 78.5l6 23h-8q-33 -78 -127 -219z
M463 -291q0 46 32 79.5t76 33.5q47 0 80 -33.5t33 -79.5q0 -45 -33 -77.5t-80 -32.5q-44 0 -76 33t-32 77z" />
    <glyph glyph-name="mdotbelow" unicode="&#x1e43;" horiz-adv-x="1546" 
d="M770 0h-154l117 653q33 185 -129 185q-37 0 -76 -16t-79 -50.5t-73 -100.5t-48 -153l-90 -518h-156l166 946h135l-14 -192q54 111 120.5 163t176.5 52q101 0 164 -61t63 -169q52 116 124 173t183 57q102 0 164.5 -58.5t62.5 -165.5q0 -47 -8 -94l-78 -448q-16 -92 54 -92
q26 0 59 8l-20 -113q-46 -16 -99 -16q-95 0 -131 54t-18 151l82 458q33 185 -129 185q-29 0 -59.5 -9.5t-64.5 -33t-63 -58.5t-53.5 -91.5t-36.5 -127.5zM522 -291q0 46 32.5 79.5t76.5 33.5q47 0 79.5 -33.5t32.5 -79.5q0 -45 -32.5 -77.5t-79.5 -32.5q-44 0 -76.5 33
t-32.5 77z" />
    <glyph glyph-name="Ndotaccent" unicode="&#x1e44;" horiz-adv-x="1255" 
d="M463 1206l325 -712q29 -64 54.5 -132t35.5 -104l11 -37h8q16 145 43 297l121 688h164l-211 -1206h-166l-334 709q-28 61 -54 129t-38 106l-12 37h-9q-7 -141 -34 -293l-121 -688h-164l211 1206h170zM662 1485q0 47 31.5 79.5t76.5 32.5q47 0 80 -32.5t33 -79.5
q0 -45 -33 -78t-80 -33q-44 0 -76 33t-32 78z" />
    <glyph glyph-name="ndotaccent" unicode="&#x1e45;" horiz-adv-x="1034" 
d="M907 651l-78 -448q-16 -92 54 -92q26 0 59 8l-20 -113q-46 -16 -99 -16q-95 0 -131 54t-18 151l82 458q33 185 -129 185q-42 0 -85 -16t-86.5 -51t-78 -100t-49.5 -153l-90 -518h-156l166 946h135l-14 -192q105 215 305 215q111 0 176 -58t65 -166q0 -47 -8 -94z
M510 1253q0 46 32 79.5t76 33.5q47 0 80 -33.5t33 -79.5q0 -45 -33 -77.5t-80 -32.5q-44 0 -76 33t-32 77z" />
    <glyph glyph-name="Ndotbelow" unicode="&#x1e46;" horiz-adv-x="1255" 
d="M463 1206l325 -712q29 -64 54.5 -132t35.5 -104l11 -37h8q16 145 43 297l121 688h164l-211 -1206h-166l-334 709q-28 61 -54 129t-38 106l-12 37h-9q-7 -141 -34 -293l-121 -688h-164l211 1206h170zM360 -291q0 46 32.5 79.5t76.5 33.5q47 0 80 -33.5t33 -79.5
q0 -45 -33 -77.5t-80 -32.5q-44 0 -76.5 33t-32.5 77z" />
    <glyph glyph-name="ndotbelow" unicode="&#x1e47;" horiz-adv-x="1034" 
d="M907 651l-78 -448q-16 -92 54 -92q26 0 59 8l-20 -113q-46 -16 -99 -16q-95 0 -131 54t-18 151l82 458q33 185 -129 185q-42 0 -85 -16t-86.5 -51t-78 -100t-49.5 -153l-90 -518h-156l166 946h135l-14 -192q105 215 305 215q111 0 176 -58t65 -166q0 -47 -8 -94z
M250 -291q0 46 32 79.5t76 33.5q47 0 80 -33.5t33 -79.5q0 -45 -33 -77.5t-80 -32.5q-44 0 -76 33t-32 77z" />
    <glyph glyph-name="Rdotbelow" unicode="&#x1e5a;" horiz-adv-x="1095" 
d="M979 0h-174q-29 37 -41 109l-37 219q-18 110 -66 147t-155 37h-170l-90 -512h-164l211 1206h399q187 0 264.5 -72.5t77.5 -211.5q0 -86 -30.5 -154.5t-80.5 -109.5t-107 -63t-116 -24v-8q85 -11 125.5 -53.5t59.5 -142.5l43 -242q12 -70 51 -125zM434 1073l-76 -430h232
q129 0 202.5 62.5t73.5 193.5q0 90 -46.5 132t-153.5 42h-232zM334 -291q0 46 32 79.5t76 33.5q47 0 80 -33.5t33 -79.5q0 -45 -33 -77.5t-80 -32.5q-44 0 -76 33t-32 77z" />
    <glyph glyph-name="rdotbelow" unicode="&#x1e5b;" horiz-adv-x="679" 
d="M721 965l-41 -183q-111 23 -217.5 -42t-128.5 -193l-96 -547h-156l166 946h135l-18 -215q50 114 148 183t208 51zM10 -291q0 46 32.5 79.5t76.5 33.5q47 0 79.5 -33.5t32.5 -79.5q0 -45 -32.5 -77.5t-79.5 -32.5q-44 0 -76.5 33t-32.5 77z" />
    <glyph glyph-name="Rdotbelowmacron" unicode="&#x1e5c;" horiz-adv-x="1095" 
d="M979 0h-174q-29 37 -41 109l-37 219q-18 110 -66 147t-155 37h-170l-90 -512h-164l211 1206h399q187 0 264.5 -72.5t77.5 -211.5q0 -86 -30.5 -154.5t-80.5 -109.5t-107 -63t-116 -24v-8q85 -11 125.5 -53.5t59.5 -142.5l43 -242q12 -70 51 -125zM434 1073l-76 -430h232
q129 0 202.5 62.5t73.5 193.5q0 90 -46.5 132t-153.5 42h-232zM334 -291q0 46 32 79.5t76 33.5q47 0 80 -33.5t33 -79.5q0 -45 -33 -77.5t-80 -32.5q-44 0 -76 33t-32 77zM938 1386h-514l20 121h514z" />
    <glyph glyph-name="rdotbelowmacron" unicode="&#x1e5d;" horiz-adv-x="679" 
d="M721 965l-41 -183q-111 23 -217.5 -42t-128.5 -193l-96 -547h-156l166 946h135l-18 -215q50 114 148 183t208 51zM768 1155h-514l22 125h515zM10 -291q0 46 32.5 79.5t76.5 33.5q47 0 79.5 -33.5t32.5 -79.5q0 -45 -32.5 -77.5t-79.5 -32.5q-44 0 -76.5 33t-32.5 77z" />
    <glyph glyph-name="Sdotbelow" unicode="&#x1e62;" horiz-adv-x="980" 
d="M41 295l147 27q-3 -224 240 -224q119 0 185.5 54t66.5 163q0 93 -47.5 144.5t-173.5 99.5q-52 20 -86 36t-73.5 44t-62 59t-38 78.5t-15.5 106.5q0 76 26 137t67 99.5t95 64.5t107.5 36.5t106.5 10.5q181 0 272.5 -74.5t91.5 -243.5l-153 -24q3 106 -54.5 162.5
t-169.5 56.5q-106 0 -171.5 -54.5t-65.5 -148.5q0 -31 5.5 -55.5t20.5 -44.5t29 -33.5t46 -30t54.5 -26.5t69.5 -29q72 -30 119.5 -59t86.5 -69.5t57 -95t18 -126.5q0 -92 -34.5 -162.5t-94.5 -113t-136 -64t-165 -21.5q-371 0 -371 320zM227 -291q0 46 32.5 79.5t76.5 33.5
q47 0 80 -33.5t33 -79.5q0 -45 -33 -77.5t-80 -32.5q-44 0 -76.5 33t-32.5 77z" />
    <glyph glyph-name="sdotbelow" unicode="&#x1e63;" horiz-adv-x="817" 
d="M41 252l141 29q0 -96 50 -144.5t137 -48.5q176 0 176 148q0 71 -38 112t-136 78q-110 41 -164.5 104t-54.5 164q0 131 89.5 203t231.5 72q283 0 283 -248l-146 -16q0 71 -38.5 109t-112.5 38q-75 0 -120.5 -37t-45.5 -104q0 -57 36 -94t146 -82q119 -50 168 -116.5
t49 -170.5q0 -135 -88.5 -204t-241.5 -69t-237 74t-84 203zM152 -291q0 46 32 79.5t76 33.5q47 0 80 -33.5t33 -79.5q0 -45 -33 -77.5t-80 -32.5q-44 0 -76 33t-32 77z" />
    <glyph glyph-name="Tdotbelow" unicode="&#x1e6c;" horiz-adv-x="968" 
d="M479 0h-164l187 1067h-359l25 139h883l-25 -139h-360zM236 -291q0 46 32 79.5t76 33.5q47 0 80 -33.5t33 -79.5q0 -45 -33 -77.5t-80 -32.5q-44 0 -76 33t-32 77z" />
    <glyph glyph-name="tdotbelow" unicode="&#x1e6d;" horiz-adv-x="618" 
d="M510 154v-131q-83 -48 -186 -48q-124 0 -180 70.5t-29 216.5l98 559h-131l22 125h134l34 199l158 22l-39 -221h248l-23 -125h-245l-103 -575q-13 -70 11 -105t69 -35q43 0 78 10t84 38zM98 -291q0 46 32.5 79.5t76.5 33.5q47 0 79.5 -33.5t32.5 -79.5q0 -45 -32.5 -77.5
t-79.5 -32.5q-44 0 -76.5 33t-32.5 77z" />
    <glyph glyph-name="Wgrave" unicode="&#x1e80;" horiz-adv-x="1683" 
d="M1049 1206l71 -786q8 -86 12 -166.5t4 -117.5l1 -38h8q32 127 110 320l322 788h168l-514 -1206h-225l-68 750q-7 98 -6.5 168t4.5 110l4 39h-8q-29 -124 -113 -317l-325 -750h-226l-63 1206h160l32 -782q2 -53 3.5 -106t2 -91t0.5 -68.5v-45.5v-15h9q26 134 112 324
l344 784h181zM1053 1341h-142l-198 238h213z" />
    <glyph glyph-name="wgrave" unicode="&#x1e81;" horiz-adv-x="1361" 
d="M836 946l51 -530q9 -84 11.5 -161t0.5 -111l-2 -35h8q23 114 105 307l231 530h162l-426 -946h-186l-56 485q-8 84 -10.5 158t-0.5 107l1 32h-8q-29 -107 -115 -297l-213 -485h-186l-101 946h160l45 -528q8 -84 10.5 -161.5t0.5 -112.5l-1 -35h9q26 121 110 309l240 528
h160zM848 1085h-133l-236 293h215z" />
    <glyph glyph-name="Wacute" unicode="&#x1e82;" horiz-adv-x="1683" 
d="M1049 1206l71 -786q8 -86 12 -166.5t4 -117.5l1 -38h8q32 127 110 320l322 788h168l-514 -1206h-225l-68 750q-7 98 -6.5 168t4.5 110l4 39h-8q-29 -124 -113 -317l-325 -750h-226l-63 1206h160l32 -782q2 -53 3.5 -106t2 -91t0.5 -68.5v-45.5v-15h9q26 134 112 324
l344 784h181zM1036 1341h-141l127 238h213z" />
    <glyph glyph-name="wacute" unicode="&#x1e83;" horiz-adv-x="1361" 
d="M836 946l51 -530q9 -84 11.5 -161t0.5 -111l-2 -35h8q23 114 105 307l231 530h162l-426 -946h-186l-56 485q-8 84 -10.5 158t-0.5 107l1 32h-8q-29 -107 -115 -297l-213 -485h-186l-101 946h160l45 -528q8 -84 10.5 -161.5t0.5 -112.5l-1 -35h9q26 121 110 309l240 528
h160zM815 1085h-133l154 293h215z" />
    <glyph glyph-name="Wdieresis" unicode="&#x1e84;" horiz-adv-x="1683" 
d="M1049 1206l71 -786q8 -86 12 -166.5t4 -117.5l1 -38h8q32 127 110 320l322 788h168l-514 -1206h-225l-68 750q-7 98 -6.5 168t4.5 110l4 39h-8q-29 -124 -113 -317l-325 -750h-226l-63 1206h160l32 -782q2 -53 3.5 -106t2 -91t0.5 -68.5v-45.5v-15h9q26 134 112 324
l344 784h181zM682 1454q0 45 33 78t78 33q46 0 78 -32.5t32 -78.5q0 -45 -32.5 -78t-77.5 -33q-44 0 -77.5 33.5t-33.5 77.5zM1069 1452q0 45 33 78t78 33q46 0 78 -32.5t32 -78.5q0 -45 -32.5 -78t-77.5 -33q-44 0 -77.5 33.5t-33.5 77.5z" />
    <glyph glyph-name="wdieresis" unicode="&#x1e85;" horiz-adv-x="1361" 
d="M836 946l51 -530q9 -84 11.5 -161t0.5 -111l-2 -35h8q23 114 105 307l231 530h162l-426 -946h-186l-56 485q-8 84 -10.5 158t-0.5 107l1 32h-8q-29 -107 -115 -297l-213 -485h-186l-101 946h160l45 -528q8 -84 10.5 -161.5t0.5 -112.5l-1 -35h9q26 121 110 309l240 528
h160zM477 1219q0 45 33 77.5t78 32.5q46 0 78 -32t32 -78q0 -45 -32.5 -78t-77.5 -33q-44 0 -77.5 33.5t-33.5 77.5zM864 1217q0 45 33 77.5t78 32.5q46 0 78 -32t32 -78q0 -45 -32.5 -78t-77.5 -33q-44 0 -77.5 33.5t-33.5 77.5z" />
    <glyph glyph-name="Idotbelow" unicode="&#x1eca;" horiz-adv-x="487" 
d="M293 1206h164l-211 -1206h-164zM0 -291q0 46 32.5 79.5t76.5 33.5q47 0 79.5 -33.5t32.5 -79.5q0 -45 -32.5 -77.5t-79.5 -32.5q-44 0 -76.5 33t-32.5 77z" />
    <glyph glyph-name="idotbelow" unicode="&#x1ecb;" horiz-adv-x="497" 
d="M395 946l-131 -743q-16 -92 53 -92q27 0 60 8l-21 -113q-46 -16 -98 -16q-95 0 -131 54t-18 151l131 751h155zM256 1253q0 47 32 80t77 33q46 0 79 -33t33 -80q0 -44 -33 -77t-79 -33q-44 0 -76.5 33t-32.5 77zM23 -291q0 46 32 79.5t76 33.5q47 0 80 -33.5t33 -79.5
q0 -45 -33 -77.5t-80 -32.5q-44 0 -76 33t-32 77z" />
    <glyph glyph-name="Odotbelow" unicode="&#x1ecc;" horiz-adv-x="1261" 
d="M575 -25q-217 0 -339.5 135t-122.5 355q0 177 49 323.5t133 242t195 148t237 52.5q217 0 340 -136t123 -356q0 -177 -49 -323t-133.5 -241.5t-195.5 -147.5t-237 -52zM711 1094q-133 0 -233 -87.5t-149.5 -226t-49.5 -303.5q0 -169 81.5 -267.5t233.5 -98.5
q100 0 182.5 50.5t136 136t82.5 196.5t29 233q0 78 -17.5 142.5t-54 116t-98 80t-143.5 28.5zM362 -291q0 46 32.5 79.5t76.5 33.5q47 0 80 -33.5t33 -79.5q0 -45 -33 -77.5t-80 -32.5q-44 0 -76.5 33t-32.5 77z" />
    <glyph glyph-name="odotbelow" unicode="&#x1ecd;" horiz-adv-x="1005" 
d="M567 969q169 0 263 -109t94 -297q0 -160 -55.5 -292t-167.5 -214t-261 -82q-162 0 -260 106t-98 296q0 118 32.5 224.5t92 188.5t153 130.5t207.5 48.5zM543 840q-93 0 -165 -63.5t-108.5 -164t-36.5 -217.5q0 -144 60.5 -221.5t167.5 -77.5q93 0 164.5 66t107 169
t35.5 222q0 135 -59 211t-166 76zM219 -291q0 46 32.5 79.5t76.5 33.5q47 0 79.5 -33.5t32.5 -79.5q0 -45 -32.5 -77.5t-79.5 -32.5q-44 0 -76.5 33t-32.5 77z" />
    <glyph glyph-name="Udotbelow" unicode="&#x1ee4;" horiz-adv-x="1191" 
d="M1018 1206h164l-146 -827q-19 -113 -65 -193.5t-115 -125.5t-148 -65t-178 -20q-78 0 -143.5 16.5t-120.5 51.5t-88 91t-46 135t7 182l131 755h164l-135 -774q-29 -166 40.5 -244.5t209.5 -78.5q136 0 219 70t111 233zM342 -291q0 46 32.5 79.5t76.5 33.5
q47 0 79.5 -33.5t32.5 -79.5q0 -45 -32.5 -77.5t-79.5 -32.5q-44 0 -76.5 33t-32.5 77z" />
    <glyph glyph-name="udotbelow" unicode="&#x1ee5;" 
d="M647 178q-42 -106 -115.5 -154.5t-181.5 -48.5q-147 0 -207 93t-30 264l106 614h156l-113 -643q-17 -100 17.5 -155.5t117.5 -55.5q94 0 174.5 75.5t102.5 203.5l100 575h156l-131 -743q-16 -92 53 -92q26 0 59 8l-20 -113q-46 -16 -98 -16q-92 0 -125.5 47.5
t-20.5 140.5zM231 -291q0 46 32.5 79.5t76.5 33.5q47 0 80 -33.5t33 -79.5q0 -45 -33 -77.5t-80 -32.5q-44 0 -76.5 33t-32.5 77z" />
    <glyph glyph-name="Ygrave" unicode="&#x1ef2;" horiz-adv-x="1011" 
d="M342 1206l139 -413q19 -58 31 -110.5t14 -75.5l2 -23h9q24 78 106 207l266 415h174l-487 -731l-82 -475h-164l82 475l-258 731h168zM733 1341h-141l-199 238h213z" />
    <glyph glyph-name="ygrave" unicode="&#x1ef3;" horiz-adv-x="856" 
d="M256 946l63 -549q12 -83 18 -157.5t5 -107.5v-34h8q29 113 123 297l279 551h166l-560 -1061q-52 -100 -100.5 -164t-97.5 -97t-92.5 -44.5t-100.5 -11.5q-77 0 -141 35l33 116q62 -32 116 -32q77 0 137.5 58.5t131.5 199.5l-152 1001h164zM580 1085h-134l-235 293h215z
" />
    <glyph glyph-name="Ytilde" unicode="&#x1ef8;" horiz-adv-x="1011" 
d="M342 1206l139 -413q19 -58 31 -110.5t14 -75.5l2 -23h9q24 78 106 207l266 415h174l-487 -731l-82 -475h-164l82 475l-258 731h168zM778 1341q-21 0 -37.5 2.5t-33.5 9.5t-24.5 10.5t-27 16t-24.5 15.5q-7 5 -22 14.5t-20.5 13t-16.5 9.5t-18 8t-17 4t-21 2
q-34 0 -55.5 -25t-24.5 -75h-98q-17 94 36.5 162.5t145.5 68.5q11 0 22 -1t19 -2t18 -4t16 -4.5t15.5 -6.5t13.5 -7t14.5 -8.5t13 -8.5t14.5 -9.5t14 -9.5q56 -37 73 -42q13 -4 29 -4q65 0 76 107h105q12 -103 -39 -169.5t-146 -66.5z" />
    <glyph glyph-name="ytilde" unicode="&#x1ef9;" horiz-adv-x="856" 
d="M256 946l63 -549q12 -83 18 -157.5t5 -107.5v-34h8q29 113 123 297l279 551h166l-560 -1061q-52 -100 -100.5 -164t-97.5 -97t-92.5 -44.5t-100.5 -11.5q-77 0 -141 35l33 116q62 -32 116 -32q77 0 137.5 58.5t131.5 199.5l-152 1001h164zM639 1087q-21 0 -37.5 2.5
t-33.5 9.5t-24.5 10.5t-27 16t-24.5 15.5q-7 5 -22 14.5t-20.5 13t-16.5 9.5t-18 8t-17 4t-21 2q-34 0 -55.5 -25t-24.5 -75h-98q-17 94 36.5 162.5t145.5 68.5q11 0 22 -1t19 -2t18 -4t16 -4.5t15.5 -6.5t13.5 -7t14.5 -8.5t13 -8.5t14.5 -9.5t14 -9.5q31 -21 42 -27.5
t26.5 -12t33.5 -5.5q65 0 76 106h104q12 -103 -38.5 -169.5t-145.5 -66.5z" />
    <glyph glyph-name="enspace" unicode="&#x2002;" horiz-adv-x="921" 
 />
    <glyph glyph-name="emspace" unicode="&#x2003;" horiz-adv-x="1843" 
 />
    <glyph glyph-name="threeperemspace" unicode="&#x2004;" horiz-adv-x="614" 
 />
    <glyph glyph-name="fourperemspace" unicode="&#x2005;" horiz-adv-x="460" 
 />
    <glyph glyph-name="sixperemspace" unicode="&#x2006;" horiz-adv-x="307" 
 />
    <glyph glyph-name="figurespace" unicode="&#x2007;" horiz-adv-x="1050" 
 />
    <glyph glyph-name="punctuationspace" unicode="&#x2008;" horiz-adv-x="350" 
 />
    <glyph glyph-name="thinspace" unicode="&#x2009;" horiz-adv-x="184" 
 />
    <glyph glyph-name="hairspace" unicode="&#x200a;" horiz-adv-x="92" 
 />
    <glyph glyph-name="zerowidthspace" unicode="&#x200b;" horiz-adv-x="0" 
 />
    <glyph glyph-name="figuredash" unicode="&#x2012;" horiz-adv-x="1167" 
d="M143 459l21 112h860l-20 -112h-861z" />
    <glyph glyph-name="endash" unicode="&#x2013;" horiz-adv-x="1044" 
d="M143 459l21 112h737l-20 -112h-738z" />
    <glyph glyph-name="emdash" unicode="&#x2014;" horiz-adv-x="2068" 
d="M143 459l21 112h1761l-20 -112h-1762z" />
    <glyph glyph-name="uni2015" unicode="&#x2015;" horiz-adv-x="2560" 
d="M143 459l21 112h2253l-21 -112h-2253z" />
    <glyph glyph-name="doublebar" unicode="&#x2016;" horiz-adv-x="763" 
d="M147 -416h-137l314 1786h137zM451 -416h-138l314 1786h137z" />
    <glyph glyph-name="quoteleft" unicode="&#x2018;" horiz-adv-x="450" 
d="M215 1104q0 89 46.5 152.5t118 93.5t163.5 36v-79q-38 -6 -72.5 -17t-65 -29t-49 -45t-18.5 -59q60 12 97.5 -18.5t37.5 -85.5q0 -53 -33.5 -84t-89.5 -31q-59 0 -97 45t-38 121z" />
    <glyph glyph-name="quoteright" unicode="&#x2019;" horiz-adv-x="450" 
d="M492 1221q0 -68 -26 -121t-72 -86.5t-104 -52t-126 -23.5v80q52 8 95.5 24.5t76.5 49.5t33 75q-60 -12 -98 19t-38 86q0 53 33.5 83.5t89.5 30.5q59 0 97.5 -44.5t38.5 -120.5z" />
    <glyph glyph-name="quotesinglbase" unicode="&#x201a;" horiz-adv-x="450" 
d="M307 45q0 -89 -46 -152.5t-117.5 -94t-163.5 -36.5v80q82 12 143 50t61 100q-60 -12 -97.5 18.5t-37.5 85.5q0 53 33.5 84t89.5 31q59 0 97 -45t38 -121z" />
    <glyph glyph-name="reversequoteleft" unicode="&#x201b;" horiz-adv-x="358" 
d="M186 1219q0 76 38.5 120.5t97.5 44.5q56 0 89 -30.5t33 -83.5q0 -55 -37.5 -86t-97.5 -19q0 -42 33 -75t76.5 -49.5t95.5 -24.5v-80q-68 5 -126 23.5t-104 52t-72 86.5t-26 121z" />
    <glyph glyph-name="quotedblleft" unicode="&#x201c;" horiz-adv-x="808" 
d="M215 1104q0 89 46.5 152.5t118 93.5t163.5 36v-79q-38 -6 -72.5 -17t-65 -29t-49 -45t-18.5 -59q60 12 97.5 -18.5t37.5 -85.5q0 -53 -33.5 -84t-89.5 -31q-59 0 -97 45t-38 121zM573 1104q0 89 46.5 152.5t118 93.5t163.5 36v-79q-38 -6 -72.5 -17t-65 -29t-49 -45
t-18.5 -59q60 12 97.5 -18.5t37.5 -85.5q0 -54 -33 -84.5t-89 -30.5q-59 0 -97.5 45t-38.5 121z" />
    <glyph glyph-name="quotedblright" unicode="&#x201d;" horiz-adv-x="808" 
d="M492 1221q0 -68 -26 -121t-72 -86.5t-104 -52t-126 -23.5v80q52 8 95.5 24.5t76.5 49.5t33 75q-60 -12 -98 19t-38 86q0 53 33.5 83.5t89.5 30.5q59 0 97.5 -44.5t38.5 -120.5zM850 1221q0 -68 -26 -121t-72 -86.5t-104 -52t-126 -23.5v80q52 8 95.5 24.5t76.5 49.5
t33 75q-60 -12 -97.5 19t-37.5 86q0 53 33.5 83.5t89.5 30.5q59 0 97 -44.5t38 -120.5z" />
    <glyph glyph-name="quotedblbase" unicode="&#x201e;" horiz-adv-x="808" 
d="M307 55q0 -68 -26 -120.5t-72 -86t-103.5 -52t-125.5 -23.5v80q52 8 95.5 24.5t76 49.5t32.5 75q-60 -12 -97.5 18.5t-37.5 85.5q0 53 33.5 84t89.5 31q59 0 97 -45t38 -121zM666 55q0 -89 -46.5 -152.5t-118 -93.5t-163.5 -36v80q52 8 95.5 24.5t76.5 49.5t33 75
q-60 -12 -97.5 18.5t-37.5 85.5q0 54 33 84.5t89 30.5q59 0 97.5 -45t38.5 -121z" />
    <glyph glyph-name="reversequotedblleft" unicode="&#x201f;" horiz-adv-x="675" 
d="M186 1221q0 76 38.5 120.5t97.5 44.5q56 0 89 -30.5t33 -83.5q0 -55 -37.5 -86t-97.5 -19q0 -42 33 -75t76.5 -49.5t95.5 -24.5v-80q-68 5 -126 23.5t-104 52t-72 86.5t-26 121zM504 1221q0 76 38 120.5t97 44.5q56 0 89.5 -30.5t33.5 -83.5q0 -55 -37.5 -86t-97.5 -19
q0 -42 32.5 -75t76 -49.5t95.5 -24.5v-80q-92 6 -163.5 36.5t-117.5 94t-46 152.5z" />
    <glyph glyph-name="dagger" unicode="&#x2020;" horiz-adv-x="1114" 
d="M600 612l-395 -22l28 160l388 -21l63 477h168l-104 -477l395 21l-29 -160l-385 22l-141 -917h-170z" />
    <glyph glyph-name="daggerdbl" unicode="&#x2021;" horiz-adv-x="1112" 
d="M731 633l-67 -367l395 23l-27 -156l-385 23l-59 -463h-170l102 463l-395 -23l27 156l387 -23l65 367l-395 -23l27 156l389 -23l59 463h170l-104 -463l393 23l-27 -156z" />
    <glyph glyph-name="bullet" unicode="&#x2022;" horiz-adv-x="634" 
d="M154 487q0 64 44.5 110t106.5 46q65 0 110.5 -45.5t45.5 -110.5q0 -62 -46 -106.5t-110 -44.5q-61 0 -106 45t-45 106z" />
    <glyph glyph-name="ellipsis" unicode="&#x2026;" horiz-adv-x="1744" 
d="M102 115q0 54 36.5 90.5t90.5 36.5t90.5 -36.5t36.5 -90.5t-36.5 -90.5t-90.5 -36.5t-90.5 36.5t-36.5 90.5zM684 115q0 54 36.5 90.5t90.5 36.5t90.5 -36.5t36.5 -90.5t-36.5 -90.5t-90.5 -36.5t-90.5 36.5t-36.5 90.5zM1266 115q0 54 36.5 90.5t90.5 36.5t90.5 -36.5
t36.5 -90.5t-36.5 -90.5t-90.5 -36.5t-90.5 36.5t-36.5 90.5z" />
    <glyph glyph-name="perthousand" unicode="&#x2030;" horiz-adv-x="2476" 
d="M324 469q-119 0 -181.5 79.5t-62.5 219.5q0 80 21 158.5t60 146t104.5 109t146.5 41.5q114 0 178.5 -83.5t64.5 -224.5q0 -80 -20.5 -157.5t-59.5 -143t-104 -105.5t-147 -40zM399 1110q-42 0 -76 -25t-54.5 -63t-34.5 -85.5t-19.5 -89t-5.5 -77.5q2 -90 34.5 -144.5
t94.5 -54.5q51 0 90.5 38t59.5 95.5t30 112.5t10 101q0 89 -32.5 140.5t-96.5 51.5zM389 0l840 1208h121l-838 -1208h-123zM1327 -14q-119 0 -181.5 79.5t-62.5 219.5q0 80 21 158.5t60 145.5t104.5 108.5t146.5 41.5q114 0 179 -83t65 -224q0 -64 -12.5 -126t-39.5 -120
t-65 -102.5t-93.5 -71t-121.5 -26.5zM1403 627q-52 0 -91.5 -37t-60 -93t-30 -110t-9.5 -100q2 -90 34.5 -144.5t94.5 -54.5q51 0 90.5 38t60 95t30.5 112t10 101q0 89 -32.5 141t-96.5 52zM2064 -14q-119 0 -181 79.5t-62 219.5q0 80 20.5 158.5t60 145.5t104.5 108.5
t146 41.5q114 0 179 -83t65 -224q0 -64 -12.5 -126t-39.5 -120t-65 -102.5t-93.5 -71t-121.5 -26.5zM2140 627q-42 0 -76 -25t-54.5 -63t-34.5 -85.5t-19.5 -89t-5.5 -77.5q2 -90 34.5 -144.5t94.5 -54.5q51 0 90.5 38t59.5 95t30 112t10 101q0 89 -32.5 141t-96.5 52z" />
    <glyph glyph-name="tripleprime" unicode="&#x2034;" horiz-adv-x="921" 
d="M154 844l92 524h178l-172 -524h-98zM438 844l92 524h179l-172 -524h-99zM723 844l92 524h178l-172 -524h-98z" />
    <glyph glyph-name="guilsinglleft" unicode="&#x2039;" horiz-adv-x="647" 
d="M199 477v-8q18 -4 86 -100l174 -248l-103 -80l-295 436l449 436l76 -82l-246 -245q-35 -35 -70 -62t-53 -37z" />
    <glyph glyph-name="guilsinglright" unicode="&#x203a;" horiz-adv-x="647" 
d="M449 477v8q-19 5 -87 101l-174 248l103 79l295 -436l-449 -436l-76 82l246 246q35 35 70.5 62t53.5 37z" />
    <glyph glyph-name="fraction" unicode="&#x2044;" horiz-adv-x="264" 
d="M-348 0l840 1208h120l-837 -1208h-123z" />
    <glyph glyph-name="uni2070" unicode="&#x2070;" horiz-adv-x="739" 
d="M326 469q-119 0 -181.5 79.5t-62.5 219.5q0 80 21 158.5t60 146t104.5 109t146.5 41.5q114 0 178.5 -83.5t64.5 -224.5q0 -80 -20.5 -157.5t-59.5 -143t-104 -105.5t-147 -40zM401 1110q-42 0 -76 -25t-54.5 -63t-34.5 -85.5t-19.5 -89t-5.5 -77.5q2 -90 34.5 -144.5
t94.5 -54.5q51 0 90.5 38t59.5 95.5t30 112.5t10 101q0 89 -32.5 140.5t-96.5 51.5z" />
    <glyph glyph-name="uni2074" unicode="&#x2074;" horiz-adv-x="720" 
d="M356 483l33 189h-369l19 100l436 434h137l-75 -436h122l-18 -98h-123l-33 -189h-129zM412 768l32 186q6 37 15 73t15 53l5 18h-8q-32 -53 -100 -127l-111 -109q-28 -27 -57 -50.5t-43 -33.5l-15 -10l-2 -8q29 8 117 8h152z" />
    <glyph glyph-name="uni2075" unicode="&#x2075;" horiz-adv-x="669" 
d="M125 805l88 401h416l-19 -106h-313l-47 -207q18 22 53.5 36.5t77.5 14.5q92 0 144.5 -56t52.5 -153q0 -127 -78.5 -196.5t-206.5 -69.5q-229 0 -252 182l119 37q11 -125 135 -125q74 0 115 42.5t41 123.5q0 59 -32 93t-77 34q-40 0 -64.5 -12.5t-48.5 -38.5h-104z" />
    <glyph glyph-name="uni2076" unicode="&#x2076;" horiz-adv-x="710" 
d="M670 1077l-109 -45q-17 86 -115 86q-91 0 -161.5 -90t-87.5 -231h8q50 151 213 151q97 0 150 -58t53 -138q0 -125 -83 -204t-216 -79q-114 0 -177 69t-63 203q0 208 112.5 345t270.5 137q86 0 139.5 -38t65.5 -108zM219 676q0 -52 30.5 -83.5t84.5 -31.5q66 0 115 45.5
t49 132.5q0 49 -31 80t-86 31q-67 0 -114.5 -47.5t-47.5 -126.5z" />
    <glyph glyph-name="uni2077" unicode="&#x2077;" horiz-adv-x="604" 
d="M461 1096h-287l-20 -109h-113l39 219h555l-10 -61l-412 -662h-141z" />
    <glyph glyph-name="uni2078" unicode="&#x2078;" horiz-adv-x="690" 
d="M297 469q-118 0 -182 48.5t-64 131.5q0 77 52.5 134.5t129.5 72.5v8q-106 47 -106 142q0 101 84.5 159t198.5 58q110 0 169.5 -46.5t59.5 -123.5q0 -81 -45.5 -130t-122.5 -67v-6q64 -23 95.5 -61t31.5 -101q0 -100 -86 -159.5t-215 -59.5zM395 1128q-62 0 -102.5 -34
t-40.5 -97q0 -45 30 -71.5t80 -26.5q60 0 105 33.5t45 97.5q0 43 -30.5 70.5t-86.5 27.5zM346 807q-64 0 -112 -37.5t-48 -103.5q0 -51 31 -81t92 -30q67 0 113.5 37t46.5 104q0 51 -31 81t-92 30z" />
    <glyph glyph-name="uni2079" unicode="&#x2079;" horiz-adv-x="716" 
d="M31 614l108 39q17 -82 131 -82q97 0 164.5 83t81.5 245h-8q-43 -156 -199 -156q-107 0 -162 58.5t-55 142.5q0 123 80.5 201t212.5 78q115 0 182.5 -73t67.5 -210q0 -211 -102 -341t-275 -130q-95 0 -155 37.5t-72 107.5zM492 1014q0 50 -31.5 80t-87.5 30
q-65 0 -112.5 -43t-47.5 -125q0 -53 29 -82.5t86 -29.5q67 0 115.5 46.5t48.5 123.5z" />
    <glyph glyph-name="uni207A" unicode="&#x207a;" horiz-adv-x="905" 
d="M96 899h320l55 309h80l-55 -309h327l-14 -80h-328l-59 -336h-80l59 336h-319z" />
    <glyph glyph-name="uni207B" unicode="&#x207b;" horiz-adv-x="907" 
d="M811 817h-729l14 82h729z" />
    <glyph glyph-name="uni207C" unicode="&#x207c;" horiz-adv-x="950" 
d="M811 707h-729l14 81h729zM854 946h-729l14 82h729z" />
    <glyph glyph-name="uni207D" unicode="&#x207d;" horiz-adv-x="462" 
d="M356 1303h107q-139 -130 -213 -271.5t-74 -312.5q0 -95 30 -173.5t91 -172.5h-100q-115 168 -115 346q0 339 274 584z" />
    <glyph glyph-name="uni207E" unicode="&#x207e;" horiz-adv-x="462" 
d="M106 373h-106q139 130 213 271t74 312q0 95 -30 174.5t-91 172.5h100q115 -168 115 -347q0 -338 -275 -583z" />
    <glyph glyph-name="n.superior" unicode="&#x207f;" horiz-adv-x="780" 
d="M688 1012l-55 -283q-11 -49 29 -49q20 0 57 8l-19 -94q-38 -12 -82 -12q-74 0 -103 38.5t-15 106.5l57 289q20 108 -86 108q-77 0 -133 -46.5t-76 -151.5l-65 -338h-136l125 626h117l-10 -114q67 131 215 131q86 0 136 -40.5t50 -115.5q0 -34 -6 -63z" />
    <glyph glyph-name="uni2080" unicode="&#x2080;" horiz-adv-x="739" 
d="M326 -14q-119 0 -181.5 79.5t-62.5 219.5q0 80 21 158.5t60 145.5t104.5 108.5t146.5 41.5q114 0 178.5 -83t64.5 -224q0 -80 -20.5 -157.5t-59.5 -143t-104 -105.5t-147 -40zM401 627q-42 0 -76 -25t-54.5 -63t-34.5 -85.5t-19.5 -89t-5.5 -77.5q2 -90 34.5 -144.5
t94.5 -54.5q51 0 90.5 38t59.5 95t30 112t10 101q0 89 -32.5 141t-96.5 52z" />
    <glyph glyph-name="uni2081" unicode="&#x2081;" horiz-adv-x="587" 
d="M518 0h-518l18 102h205l86 494l-223 -23l18 105l361 47l-111 -623h183z" />
    <glyph glyph-name="uni2082" unicode="&#x2082;" horiz-adv-x="653" 
d="M553 102l-18 -102h-535l18 98q104 58 177.5 106.5t136.5 100.5t95 103t32 100q0 123 -119 123q-66 0 -105.5 -41t-50.5 -109l-98 51q18 94 89.5 150.5t180.5 56.5q110 0 173 -55t63 -158q0 -61 -29.5 -119t-70.5 -99.5t-103.5 -82.5t-108 -64.5t-104.5 -49.5v-9h377z" />
    <glyph glyph-name="uni2083" unicode="&#x2083;" horiz-adv-x="628" 
d="M373 379v-6q82 -9 123 -54.5t41 -115.5q0 -106 -82.5 -161.5t-200.5 -55.5q-120 0 -179.5 55t-64.5 139l115 27q12 -127 129 -127q68 0 111 31t43 92q0 60 -43.5 91t-159.5 32l16 90q113 5 169 36.5t56 96.5q0 40 -28 64t-78 24q-54 0 -86 -27t-47 -84l-105 41
q59 172 250 172q98 0 162 -44t64 -132q0 -76 -54 -125t-151 -59z" />
    <glyph glyph-name="uni2084" unicode="&#x2084;" horiz-adv-x="720" 
d="M356 0l33 188h-369l19 101l436 434h137l-75 -436h122l-18 -99h-123l-33 -188h-129zM412 285l32 186q6 37 15 73t15 53l5 17h-8q-32 -53 -100 -127l-111 -108q-28 -27 -57 -50.5t-43 -33.5l-15 -10l-2 -9q29 9 117 9h152z" />
    <glyph glyph-name="uni2085" unicode="&#x2085;" horiz-adv-x="669" 
d="M125 322l88 401h416l-19 -107h-313l-47 -206q18 22 53.5 36.5t77.5 14.5q92 0 144.5 -56t52.5 -153q0 -127 -78.5 -196.5t-206.5 -69.5q-229 0 -252 182l119 37q11 -125 135 -125q74 0 115 42.5t41 123.5q0 59 -32 93t-77 34q-40 0 -64.5 -12.5t-48.5 -38.5h-104z" />
    <glyph glyph-name="uni2086" unicode="&#x2086;" horiz-adv-x="710" 
d="M670 594l-109 -45q-17 86 -115 86q-92 0 -161.5 -88t-96.5 -244h9q24 74 81 118t140 44q97 0 150 -58.5t53 -138.5q0 -125 -83 -203.5t-216 -78.5q-114 0 -177 68t-63 198q0 212 112 349.5t271 137.5q87 0 140 -37.5t65 -107.5zM215 193q0 -52 31 -83.5t88 -31.5
q68 0 119 45.5t51 132.5q0 49 -31.5 80t-89.5 31q-69 0 -118.5 -47.5t-49.5 -126.5z" />
    <glyph glyph-name="uni2087" unicode="&#x2087;" horiz-adv-x="604" 
d="M461 612h-287l-20 -108h-113l39 219h555l-10 -61l-412 -662h-141z" />
    <glyph glyph-name="uni2088" unicode="&#x2088;" horiz-adv-x="690" 
d="M297 -14q-118 0 -182 48.5t-64 131.5q0 77 52.5 134.5t129.5 72.5v8q-106 47 -106 141q0 101 84.5 159t198.5 58q110 0 169.5 -46.5t59.5 -123.5q0 -81 -45.5 -129.5t-122.5 -66.5v-6q64 -23 95.5 -61t31.5 -101q0 -100 -86 -159.5t-215 -59.5zM395 645q-62 0 -102.5 -34
t-40.5 -97q0 -45 30 -71.5t80 -26.5q60 0 105 33.5t45 97.5q0 43 -30.5 70.5t-86.5 27.5zM346 324q-64 0 -112 -38t-48 -104q0 -51 31 -80.5t92 -29.5q67 0 113.5 37t46.5 104q0 51 -31 81t-92 30z" />
    <glyph glyph-name="uni2089" unicode="&#x2089;" horiz-adv-x="716" 
d="M31 131l108 39q9 -43 44.5 -64.5t88.5 -21.5q97 0 164 83t86 253h-8q-21 -78 -75 -119t-130 -41q-107 0 -162 58.5t-55 142.5q0 123 80.5 200.5t212.5 77.5q115 0 182.5 -72.5t67.5 -209.5q0 -211 -102 -341t-275 -130q-95 0 -155 37.5t-72 107.5zM498 532
q0 52 -32.5 83.5t-90.5 31.5q-67 0 -116.5 -45.5t-49.5 -132.5q0 -49 31.5 -80t89.5 -31q69 0 118.5 47.5t49.5 126.5z" />
    <glyph glyph-name="uni208A" unicode="&#x208a;" horiz-adv-x="905" 
d="M96 416h320l55 309h80l-55 -309h327l-14 -80h-328l-59 -336h-80l59 336h-319z" />
    <glyph glyph-name="uni208B" unicode="&#x208b;" horiz-adv-x="907" 
d="M811 334h-729l14 82h729z" />
    <glyph glyph-name="uni208C" unicode="&#x208c;" horiz-adv-x="950" 
d="M811 223h-729l14 82h729zM854 463h-729l14 82h729z" />
    <glyph glyph-name="uni208D" unicode="&#x208d;" horiz-adv-x="462" 
d="M356 819h107q-139 -130 -213 -271t-74 -312q0 -95 30 -174.5t91 -172.5h-100q-115 168 -115 347q0 338 274 583z" />
    <glyph glyph-name="uni208E" unicode="&#x208e;" horiz-adv-x="462" 
d="M106 -111h-106q139 130 213 271.5t74 312.5q0 95 -30 173.5t-91 172.5h100q115 -168 115 -346q0 -339 -275 -584z" />
    <glyph glyph-name="uni20A1" unicode="&#x20a1;" horiz-adv-x="999" 
d="M424 -188l55 163q-44 3 -100 17l-53 -160l-99 33l56 166q-86 52 -133.5 144t-47.5 216q0 265 134.5 432t375.5 187l60 176l96 -33l-51 -149q44 -5 98 -27l53 156l97 -33l-64 -185q53 -53 78 -141l-150 -72l-194 -583q104 38 170 151l115 -84q-60 -95 -140.5 -143.5
t-191.5 -60.5l-66 -201zM422 119q46 -19 98 -19l246 725q-37 37 -92 49zM262 412q0 -148 72 -232l233 697q-134 -20 -219.5 -151.5t-85.5 -313.5z" />
    <glyph glyph-name="uni20A2" unicode="&#x20a2;" horiz-adv-x="999" 
d="M881 557l-31 -135q-53 10 -107.5 -6t-97 -61t-53.5 -109l-27 -144q141 19 234 179l114 -84q-74 -116 -172 -169t-243 -53q-177 0 -286.5 112.5t-109.5 303.5q0 177 62 316t185 221t290 82q274 0 340 -236l-152 -74q-34 181 -215 181q-152 0 -251 -135t-99 -334
q0 -114 43 -191t125 -106l76 428h123l-15 -160q37 85 111 136t156 38z" />
    <glyph glyph-name="franc" unicode="&#x20a3;" horiz-adv-x="901" 
d="M686 311h-330l-53 -311h-160l54 311h-156l18 103h156l18 102h-155l18 102h154l65 367h648l-23 -133h-487l-41 -234h329l-18 -102h-330l-18 -102h330z" />
    <glyph glyph-name="lira" unicode="&#x20a4;" horiz-adv-x="997" 
d="M727 311h-295q-13 -67 -52 -115t-91 -63h370q59 0 101.5 20.5t66.5 79.5l109 -61q-72 -172 -283 -172h-633l23 139h100q53 0 102.5 52t53.5 120h-217l18 103h189q-3 18 -11 51t-12 51h-147l18 102h117v58q0 72 22 130.5t57.5 95.5t83 62t95.5 35.5t98 10.5
q149 0 229.5 -68.5t80.5 -204.5l-150 -24q-3 172 -174 172q-90 0 -141.5 -50t-51.5 -157q0 -33 3 -60h376l-18 -102h-342q16 -97 16 -102h307z" />
    <glyph glyph-name="uni20A6" unicode="&#x20a6;" horiz-adv-x="1361" 
d="M1282 516h-190l-15 -82h191l-19 -102h-190l-58 -332h-167l-263 522q-29 57 -57.5 126t-42.5 109l-14 40h-8q-14 -178 -41 -330l-82 -467h-158l57 332h-174l19 102h174l14 82h-174l18 102h172l66 367h174l266 -545q28 -58 51 -118t32 -90l9 -31h9q26 165 53 317l82 467
h158l-66 -367h192z" />
    <glyph glyph-name="peseta" unicode="&#x20a7;" horiz-adv-x="2168" 
d="M1364 250l135 31q-1 -93 58.5 -145t150.5 -52q213 0 213 170q0 71 -36.5 112t-153.5 83q-106 37 -161 89t-67 130h-235l-117 -668h-160l117 668h-207q-5 -80 -31.5 -143t-67.5 -104t-98 -68t-121 -38.5t-139 -11.5h-170l-53 -303h-160l172 985h318q288 0 342 -184h618
q28 103 120.5 156t211.5 53q326 0 326 -262l-141 -25q2 80 -44 126t-145 46q-90 0 -143.5 -42t-53.5 -114q0 -68 39 -102.5t160 -81.5q131 -52 178 -115.5t47 -167.5q0 -148 -99 -222.5t-269 -74.5q-157 0 -245.5 74t-88.5 201zM371 856l-74 -424h160q139 0 210.5 61
t71.5 201q0 162 -194 162h-174z" />
    <glyph glyph-name="uni20A8" unicode="&#x20a8;" horiz-adv-x="1576" 
d="M371 856l-60 -336h195q120 0 178.5 47t58.5 156q0 133 -157 133h-215zM1133 -25q-128 0 -214 45.5t-163 137.5l-82 96q-57 69 -79 88q-62 53 -157 53h-147l-70 -395h-160l172 985h375q301 0 301 -250q0 -71 -24.5 -126t-66.5 -87.5t-92.5 -49.5t-109.5 -19v-7
q26 -2 48 -9t36.5 -14.5t32.5 -24.5t27.5 -27.5t30 -36.5t32.5 -39l86 -100q97 -117 230 -117q161 0 161 104q0 51 -26.5 81t-97.5 59q-100 42 -143.5 92.5t-43.5 130.5q0 109 83 170t196 61q248 0 248 -192l-144 -23q0 105 -119 105q-61 0 -95 -30t-34 -77q0 -45 28.5 -71
t121.5 -68q91 -40 129.5 -90t38.5 -131q0 -59 -24.5 -103t-67.5 -70t-97.5 -38.5t-119.5 -12.5z" />
    <glyph glyph-name="uni20A9" unicode="&#x20a9;" horiz-adv-x="1671" 
d="M1612 557h-221l-35 -82h241l-16 -102h-270l-160 -373h-190l-60 569q-7 69 -8 138t1 103l3 34h-6q-20 -117 -92 -275l-258 -569h-195l-20 373h-265l17 102h241l-4 82h-223l19 102h198l-18 326h155l27 -608q2 -76 0.5 -137.5t-5.5 -100.5l-3 -39h6q28 111 98 267l275 618
h162l59 -620q6 -70 8 -136.5t1 -97.5l-1 -31h6q12 111 80 269l262 616h156l-141 -326h194z" />
    <glyph glyph-name="uni20AA" unicode="&#x20aa;" horiz-adv-x="1337" 
d="M852 236h-160l82 469q12 69 -14.5 110t-114.5 41h-274l-150 -856h-160l172 985h465q89 0 143.5 -22.5t75.5 -64t24 -98.5t-11 -126zM1126 985h160l-119 -674q-14 -77 -33.5 -128.5t-56.5 -95.5t-99 -65.5t-151 -21.5h-471l131 748h160l-108 -619h282q157 0 183 152z" />
    <glyph glyph-name="Euro" unicode="&#x20ac;" horiz-adv-x="1105" 
d="M741 565h-356q-16 -66 -16 -131h336l-39 -102h-291q17 -109 83.5 -170.5t170.5 -61.5q171 0 276 181l115 -84q-74 -116 -172.5 -169t-243.5 -53q-162 0 -268 95.5t-125 261.5h-170l18 102h150q3 59 16 131h-143l18 103h156q59 159 185 250.5t304 91.5q274 0 340 -236
l-151 -74q-34 181 -215 181q-96 0 -174 -57t-123 -156h358z" />
    <glyph glyph-name="uni20AE" unicode="&#x20ae;" horiz-adv-x="917" 
d="M770 571l-233 -39l-19 -102l234 39l-19 -102l-233 -39l-58 -328h-159l53 301l-225 -37l18 103l223 36l19 103l-224 -37l19 102l223 37l43 244h-340l23 133h843l-22 -133h-344l-39 -217l235 39z" />
    <glyph glyph-name="uni20B1" unicode="&#x20b1;" horiz-adv-x="1169" 
d="M293 0h-160l103 590h-154l18 102h154l51 293h318q180 0 266 -70.5t86 -222.5h184l-18 -102h-180q-17 -78 -58 -134.5t-101 -89t-130.5 -48t-155.5 -15.5h-170zM528 432q224 0 269 158h-402l-26 -158h159zM442 856l-28 -164h397q0 164 -195 164h-174z" />
    <glyph glyph-name="afii61289" unicode="&#x2113;" horiz-adv-x="649" 
d="M80 266l-62 96l127 89v495q0 219 68 321.5t201 102.5q105 0 151.5 -66.5t46.5 -193.5q0 -114 -29 -226.5t-78 -203t-104.5 -162t-115.5 -123.5v-135q0 -90 32.5 -124t108.5 -34q60 0 117 23v-129q-61 -21 -137 -21q-129 0 -195 61t-66 200v81zM285 979v-436
q90 86 154.5 245.5t64.5 339.5q0 69 -21.5 101.5t-68.5 32.5q-59 0 -94 -71t-35 -212z" />
    <glyph glyph-name="afii61352" unicode="&#x2116;" horiz-adv-x="2146" 
d="M1364 0l25 125h661l-25 -125h-661zM1827 973q122 0 190 -73.5t68 -199.5q0 -163 -93.5 -275t-252.5 -112q-118 0 -190 71t-72 198q0 163 94 277t256 114zM1810 854q-90 0 -143 -75.5t-53 -182.5q0 -83 36.5 -126.5t102.5 -43.5q87 0 140 78.5t53 185.5q0 78 -35.5 121
t-100.5 43zM1321 989l-172 -989h-166l-334 709q-28 61 -54 129t-38 106l-12 37h-8q-8 -141 -35 -293l-86 -493q-23 -127 -84.5 -173.5t-163.5 -46.5q-107 0 -168 54l39 133q57 -51 115 -51q44 0 67 20t33 76l174 999h170l326 -712q29 -64 54 -132t36 -104l10 -37h8
q16 145 43 297l86 494q23 127 84.5 173t163.5 46q109 0 168 -53l-41 -144q-57 51 -115 51q-44 0 -67 -20t-33 -76z" />
    <glyph glyph-name="published" unicode="&#x2117;" horiz-adv-x="1429" 
d="M676 887l-55 -322h120q104 0 158.5 47t54.5 152q0 123 -147 123h-131zM563 229h-133l133 764h252q275 0 275 -215q0 -87 -27.5 -150t-78 -99t-113 -52t-140.5 -16h-127zM113 602q0 179 84 323.5t227 225t315 80.5q128 0 244 -47.5t200.5 -129.5t134.5 -200t50 -252
t-50 -251.5t-134.5 -199.5t-200.5 -129t-244 -47t-243.5 47t-199.5 129t-133.5 199.5t-49.5 251.5zM176 602q0 -122 44.5 -228.5t121 -180t180.5 -116t219 -42.5q155 0 284 71.5t205.5 202.5t76.5 293t-76.5 293.5t-205.5 203.5t-284 72q-115 0 -219 -42.5t-180.5 -117
t-121 -181t-44.5 -228.5z" />
    <glyph glyph-name="servicemark" unicode="&#x2120;" horiz-adv-x="1239" 
d="M102 838l97 14q0 -84 100 -84q102 0 102 70q0 31 -21 49.5t-79 40.5q-73 24 -103 54.5t-30 88.5q0 78 59 116t140 38q180 0 180 -148l-107 -8q0 78 -86 78q-37 0 -61.5 -17.5t-24.5 -50.5q0 -27 22 -43.5t85 -38.5q135 -43 135 -143q0 -82 -60.5 -121t-156.5 -39
q-191 0 -191 144zM1143 698h-103l68 353h-10l-154 -256h-96l-62 256h-10l-67 -353h-103l96 508h136l73 -293h9l182 293h137z" />
    <glyph glyph-name="trademark" unicode="&#x2122;" horiz-adv-x="1216" 
d="M317 698h-102l80 418h-152l17 90h407l-16 -90h-154zM1120 698h-102l67 353h-10l-153 -256h-97l-61 256h-10l-68 -353h-102l96 508h135l74 -293h8l182 293h138z" />
    <glyph glyph-name="estimated" unicode="&#x212e;" horiz-adv-x="1325" 
d="M662 1231q145 0 257.5 -53t179.5 -143t100.5 -199.5t33.5 -233.5v-53h-883v-346q122 -119 312 -119q264 0 376 213h136q-62 -149 -190.5 -235.5t-321.5 -86.5q-116 0 -211.5 35t-161 94.5t-111 140t-66 170.5t-20.5 187q0 98 21 188t66 171t110.5 140.5t161 94.5
t211.5 35zM662 1122q-194 0 -312 -118v-349h623v349q-118 118 -311 118z" />
    <glyph glyph-name="uni2153" unicode="&#x2153;" horiz-adv-x="1738" 
d="M578 483h-498l18 103h185l86 493l-224 -22l19 104l360 47l-110 -622h182zM389 0l840 1208h121l-838 -1208h-123zM1374 379v-6q82 -9 123 -54.5t41 -115.5q0 -106 -82.5 -161.5t-200.5 -55.5q-120 0 -179 55t-64 139l114 27q12 -127 129 -127q68 0 111 31t43 92
q0 60 -43.5 91t-159.5 32l17 90q113 5 169 36.5t56 96.5q0 40 -28.5 64t-78.5 24q-55 0 -86.5 -27t-46.5 -84l-104 41q59 172 250 172q98 0 161.5 -43.5t63.5 -132.5q0 -76 -54 -125t-151 -59z" />
    <glyph glyph-name="uni2154" unicode="&#x2154;" horiz-adv-x="1738" 
d="M578 586l-19 -103h-534l18 99q104 58 177.5 106t136.5 100.5t94.5 103t31.5 99.5q0 123 -118 123q-66 0 -105.5 -40.5t-50.5 -108.5l-98 51q18 94 89.5 150.5t180.5 56.5q110 0 172.5 -55t62.5 -158q0 -52 -19 -100t-54.5 -88.5t-74.5 -73.5t-91 -63.5t-90 -50t-86 -40.5
v-8h377zM389 0l840 1208h121l-838 -1208h-123zM1374 379v-6q82 -9 123 -54.5t41 -115.5q0 -106 -82.5 -161.5t-200.5 -55.5q-120 0 -179 55t-64 139l114 27q12 -127 129 -127q68 0 111 31t43 92q0 60 -43.5 91t-159.5 32l17 90q113 5 169 36.5t56 96.5q0 40 -28.5 64
t-78.5 24q-55 0 -86.5 -27t-46.5 -84l-104 41q59 172 250 172q98 0 161.5 -43.5t63.5 -132.5q0 -76 -54 -125t-151 -59z" />
    <glyph glyph-name="uni215B" unicode="&#x215b;" horiz-adv-x="1738" 
d="M578 483h-498l18 103h185l86 493l-224 -22l19 104l360 47l-110 -622h182zM389 0l840 1208h121l-838 -1208h-123zM1298 -14q-118 0 -181.5 48.5t-63.5 131.5q0 77 52.5 134.5t129.5 72.5v8q-107 47 -107 141q0 101 84.5 159t198.5 58q110 0 169.5 -46.5t59.5 -123.5
q0 -81 -45 -129.5t-122 -66.5v-6q64 -22 95 -60.5t31 -101.5q0 -100 -86 -159.5t-215 -59.5zM1397 645q-62 0 -103 -34t-41 -97q0 -45 30.5 -71.5t80.5 -26.5q60 0 104.5 33.5t44.5 97.5q0 43 -30 70.5t-86 27.5zM1348 324q-64 0 -112 -38t-48 -104q0 -51 31 -80.5t92 -29.5
q67 0 113 37t46 104q0 51 -30.5 81t-91.5 30z" />
    </font>
</defs>
</svg>
