<?xml version="1.0" standalone="no"?>
<!DOCTYPE svg PUBLIC "-//W3C//DTD SVG 1.1//EN" "http://www.w3.org/Graphics/SVG/1.1/DTD/svg11.dtd" >
<svg xmlns="http://www.w3.org/2000/svg" xmlns:xlink="http://www.w3.org/1999/xlink" version="1.1">
<metadata>
Created by FontForge 20170731 at Fri Sep 17 22:21:26 2021
 By Aleksey,,,
Copyright (c) 2004-9 by Kris Sowersby. All rights reserved.
</metadata>
<defs>
<font id="National-Book" horiz-adv-x="1026" >
  <font-face 
    font-family="National Book"
    font-weight="480"
    font-stretch="normal"
    units-per-em="2048"
    panose-1="2 0 5 3 0 0 0 2 0 4"
    ascent="1638"
    descent="-410"
    x-height="946"
    cap-height="1206"
    bbox="-205 -526 2417 1958"
    underline-thickness="116"
    underline-position="-173"
    unicode-range="U+0020-F778"
  />
<missing-glyph horiz-adv-x="1546" 
d="M170 0v1206h1206v-1206h-1206zM772 541l-453 -453h908zM319 1118l453 -454l455 454h-908zM834 602l454 -452v907zM711 602l-453 455v-907z" />
    <glyph glyph-name="f_b" unicode="fb" horiz-adv-x="1593" 
d="M768 0h-98v1208q-83 47 -170 47q-176 0 -176 -198v-111h204v-125h-204v-821h-156v821h-137v125h137v111q0 72 19.5 129t51.5 93t75.5 60t88 33.5t93.5 9.5q117 0 202 -45l127 31v-604q32 101 114.5 153t186.5 52q176 0 275.5 -123t99.5 -350q0 -143 -47 -260.5
t-140.5 -189t-217.5 -71.5q-116 0 -187 45t-100 117zM825 549v-191q0 -67 22 -120t58 -83t78 -45.5t86 -15.5q119 0 195.5 99t76.5 288q0 177 -65.5 268t-183.5 91q-114 0 -190.5 -78.5t-76.5 -212.5z" />
    <glyph glyph-name="f_f_b" unicode="ffb" horiz-adv-x="2095" 
d="M1327 549v-191q0 -67 22 -120t58 -83t78 -45.5t86 -15.5q119 0 195.5 99t76.5 288q0 177 -66 268t-184 91q-114 0 -190 -78.5t-76 -212.5zM1327 1368v-604q32 101 114.5 153t186.5 52q176 0 275.5 -123t99.5 -350q0 -106 -28 -200.5t-78.5 -166t-128 -113t-171.5 -41.5
q-116 0 -186.5 45t-99.5 117l-41 -137h-99v1208q-83 47 -170 47q-176 0 -176 -198v-111h205v-125h-205v-821h-155v821h-346v-821h-156v821h-137v125h137v109q0 86 24.5 149t67.5 96.5t92 48.5t107 15q96 0 166 -37l-33 -135q-65 41 -137 41q-131 0 -131 -170v-117h346v111
q0 89 29 155t77.5 101.5t103.5 52t117 16.5q118 0 203 -45z" />
    <glyph glyph-name="f_f_h" unicode="ffh" horiz-adv-x="2043" 
d="M1327 1368v-602q66 203 283 203q129 0 210 -72.5t81 -218.5v-678h-156v641q0 91 -46 142t-132 51q-50 0 -91 -14t-75.5 -45.5t-54 -88.5t-19.5 -135v-551h-156v1208q-83 47 -170 47q-176 0 -176 -198v-111h205v-125h-205v-821h-155v821h-346v-821h-156v821h-137v125h137
v109q0 86 24.5 149t67.5 96.5t92 48.5t107 15q96 0 166 -37l-33 -135q-65 41 -137 41q-131 0 -131 -170v-117h346v111q0 89 29 155t77.5 101.5t103.5 52t117 16.5q118 0 203 -45z" />
    <glyph glyph-name="f_f_j" unicode="ffj" horiz-adv-x="1480" 
d="M825 821v-821h-155v821h-346v-821h-156v821h-137v125h137v109q0 86 24.5 149t67.5 96.5t92 48.5t107 15q96 0 166 -37l-33 -135q-65 41 -137 41q-131 0 -131 -170v-117h346v103q0 92 29.5 159.5t79 103.5t105 53t117.5 17q148 0 248 -67l-55 -129q-87 65 -193 65
q-87 0 -131.5 -48t-44.5 -159v-98h502v-969q0 -115 -27.5 -193.5t-83.5 -123t-131.5 -62t-179.5 -14.5v131q138 -10 202 48t64 190v868h-346z" />
    <glyph glyph-name="f_f_k" unicode="ffk" horiz-adv-x="1941" 
d="M1327 1368v-811h43l338 389h193l-398 -440l428 -506h-196l-353 434h-55v-434h-156v1208q-83 47 -170 47q-176 0 -176 -198v-111h205v-125h-205v-821h-155v821h-346v-821h-156v821h-137v125h137v109q0 86 24.5 149t67.5 96.5t92 48.5t107 15q96 0 166 -37l-33 -135
q-65 41 -137 41q-131 0 -131 -170v-117h346v111q0 89 29 155t77.5 101.5t103.5 52t117 16.5q118 0 203 -45z" />
    <glyph glyph-name="f_h" unicode="fh" horiz-adv-x="1542" 
d="M825 1368v-602q66 203 283 203q129 0 210 -72.5t81 -218.5v-678h-156v641q0 91 -46 142t-132 51q-50 0 -91 -14t-75.5 -45.5t-54 -88.5t-19.5 -135v-551h-155v1208q-83 47 -170 47q-176 0 -176 -198v-111h204v-125h-204v-821h-156v821h-137v125h137v111q0 72 19.5 129
t51.5 93t75.5 60t88 33.5t93.5 9.5q117 0 202 -45z" />
    <glyph glyph-name="f_j" unicode="fj" horiz-adv-x="978" 
d="M670 -47v868h-346v-821h-156v821h-137v125h137v103q0 92 29.5 159.5t79.5 103.5t105.5 53t117.5 17q148 0 248 -67l-56 -129q-87 65 -192 65q-87 0 -131.5 -48t-44.5 -159v-98h501v-969q0 -115 -27.5 -193.5t-83.5 -123t-131.5 -62t-179.5 -14.5v131q138 -10 202.5 48
t64.5 190z" />
    <glyph glyph-name="f_k" unicode="fk" horiz-adv-x="1439" 
d="M825 1368v-811h43l338 389h193l-398 -440l429 -506h-197l-352 434h-56v-434h-155v1208q-83 47 -170 47q-176 0 -176 -198v-111h204v-125h-204v-821h-156v821h-137v125h137v111q0 72 19.5 129t51.5 93t75.5 60t88 33.5t93.5 9.5q117 0 202 -45z" />
    <glyph glyph-name="ff" unicode="ff" horiz-adv-x="1058" 
d="M670 821h-346v-821h-156v821h-137v125h137v109q0 86 24.5 149t67.5 96.5t92 48.5t107 15q96 0 166 -37l-33 -135q-65 41 -137 41q-131 0 -131 -170v-117h346v119q0 86 25.5 150t70.5 99t97.5 51.5t113.5 16.5q92 0 184 -36l-33 -136q-74 41 -147 41q-77 0 -116.5 -46
t-39.5 -148v-111h242v-125h-242v-821h-155v821z" />
    <glyph glyph-name="ffi" unicode="ffi" horiz-adv-x="1480" 
d="M670 946v103q0 92 29.5 159.5t79 103.5t105 53t117.5 17q148 0 248 -67l-55 -129q-87 65 -193 65q-87 0 -131.5 -48t-44.5 -159v-98h502v-946h-156v821h-346v-821h-155v821h-346v-821h-156v821h-137v125h137v109q0 86 24.5 149t67.5 96.5t92 48.5t107 15q96 0 166 -37
l-33 -135q-65 41 -137 41q-131 0 -131 -170v-117h346z" />
    <glyph glyph-name="ffl" unicode="ffl" horiz-adv-x="1544" 
d="M670 946v111q0 89 29 155t77.5 101.5t103.5 52t117 16.5q118 0 203 -45l127 31v-1165q0 -43 22 -64.5t60 -21.5q31 0 64 10v-129q-56 -12 -101 -12q-89 0 -145 49t-56 143v1030q-83 47 -170 47q-176 0 -176 -198v-111h205v-125h-205v-821h-155v821h-346v-821h-156v821
h-137v125h137v109q0 86 24.5 149t67.5 96.5t92 48.5t107 15q96 0 166 -37l-33 -135q-65 41 -137 41q-131 0 -131 -170v-117h346z" />
    <glyph glyph-name="fi" unicode="fi" horiz-adv-x="978" 
d="M168 821h-137v125h137v103q0 92 29.5 159.5t79.5 103.5t105.5 53t117.5 17q148 0 248 -67l-56 -129q-87 65 -192 65q-87 0 -131.5 -48t-44.5 -159v-98h501v-946h-155v821h-346v-821h-156v821z" />
    <glyph glyph-name="fl" unicode="fl" horiz-adv-x="1042" 
d="M971 127v-129q-56 -12 -101 -12q-89 0 -144.5 49t-55.5 143v1030q-83 47 -170 47q-176 0 -176 -198v-111h204v-125h-204v-821h-156v821h-137v125h137v111q0 72 19.5 129t51.5 93t75.5 60t88 33.5t93.5 9.5q117 0 202 -45l127 31v-1165q0 -43 22 -64.5t60 -21.5
q31 0 64 10z" />
    <glyph glyph-name=".notdef" horiz-adv-x="1546" 
d="M170 0v1206h1206v-1206h-1206zM772 541l-453 -453h908zM319 1118l453 -454l455 454h-908zM834 602l454 -452v907zM711 602l-453 455v-907z" />
    <glyph glyph-name=".null" horiz-adv-x="0" 
 />
    <glyph glyph-name="nonmarkingreturn" horiz-adv-x="682" 
 />
    <glyph glyph-name="space" unicode=" " horiz-adv-x="452" 
 />
    <glyph glyph-name="exclam" unicode="!" horiz-adv-x="458" 
d="M127 1206h205l-49 -866h-107zM113 104q0 50 33.5 83.5t82.5 33.5t83 -33.5t34 -83.5q0 -49 -33.5 -82.5t-83.5 -33.5q-49 0 -82.5 33t-33.5 83z" />
    <glyph glyph-name="quotedbl" unicode="&#x22;" horiz-adv-x="667" 
d="M123 844v524h178l-80 -524h-98zM408 844v524h178l-80 -524h-98z" />
    <glyph glyph-name="numbersign" unicode="#" horiz-adv-x="1234" 
d="M1112 309h-319l-93 -309h-122l92 309h-224l-92 -309h-123l93 309h-242v121h276l56 186h-291v121h328l73 248h125l-76 -248h224l73 248h125l-75 -248h233v-121h-268l-58 -186h285v-121zM539 616l-58 -186h224l55 186h-221z" />
    <glyph glyph-name="dollar" unicode="$" horiz-adv-x="901" 
d="M422 -217v192q-313 9 -350 263l157 20q7 -75 58 -116.5t135 -49.5v336l-68 14q-243 52 -243 281q0 69 25 122.5t69 86.5t98 52t119 24v168h102v-168q268 -19 293 -260l-160 -17q-9 125 -133 152v-328l27 -4q124 -26 196 -99.5t72 -195.5q0 -126 -79 -194t-216 -82v-197
h-102zM262 737q0 -65 34.5 -102.5t115.5 -54.5l10 -2v311q-74 -8 -117 -48t-43 -104zM668 244q0 65 -31.5 103t-112.5 59v-310q144 27 144 148z" />
    <glyph glyph-name="percent" unicode="%" horiz-adv-x="1753" 
d="M354 469q-135 0 -208.5 102t-73.5 275q0 170 77 273.5t205 103.5t205.5 -104t77.5 -273q0 -172 -74 -274.5t-209 -102.5zM354 1110q-74 0 -113.5 -72.5t-39.5 -193.5q0 -119 40 -195t113 -76t113.5 76.5t40.5 194.5q0 121 -40 193.5t-114 72.5zM508 0l627 1208h114
l-624 -1208h-117zM1399 -14q-135 0 -209 102t-74 274q0 169 77.5 273t205.5 104t205 -103.5t77 -273.5q0 -173 -73.5 -274.5t-208.5 -101.5zM1399 627q-74 0 -114 -73t-40 -194q0 -118 40.5 -194t113.5 -76t113 75.5t40 194.5q0 121 -39.5 194t-113.5 73z" />
    <glyph glyph-name="ampersand" unicode="&#x26;" horiz-adv-x="1112" 
d="M1092 78l-109 -103l-154 164q-75 -81 -178 -122.5t-219 -41.5q-174 0 -277.5 81.5t-103.5 240.5q0 251 273 360l-48 52q-32 34 -53 63t-41 80.5t-20 105.5q0 124 85 198.5t222 74.5q145 0 229 -74.5t84 -195.5q0 -113 -53 -191.5t-180 -136.5l270 -283q44 83 47 242
l144 -33q-23 -199 -92 -305zM205 303q0 -94 65 -150.5t162 -56.5q192 0 313 131l-337 346q-104 -41 -153.5 -103.5t-49.5 -166.5zM469 1116q-75 0 -119.5 -41t-44.5 -110q0 -45 22 -86t72 -95l66 -69q94 40 133 95.5t39 141.5q0 78 -43.5 121t-124.5 43z" />
    <glyph glyph-name="quotesingle" unicode="'" horiz-adv-x="382" 
d="M123 844v524h178l-80 -524h-98z" />
    <glyph glyph-name="parenleft" unicode="(" horiz-adv-x="673" 
d="M297 477q0 -138 24.5 -258t76 -229t113.5 -201t153 -203h-177q-106 126 -177.5 248t-119 289.5t-47.5 353.5t47.5 353.5t119 289.5t177.5 248h177q-92 -111 -153.5 -203t-113 -200.5t-76 -228.5t-24.5 -259z" />
    <glyph glyph-name="parenright" unicode=")" horiz-adv-x="673" 
d="M377 477q0 139 -24.5 259t-76 228.5t-113 200.5t-153.5 203h176q164 -192 254 -405t90 -486t-90 -486t-254 -405h-176q91 111 153 203t113.5 201t76 229t24.5 258z" />
    <glyph glyph-name="asterisk" unicode="*" horiz-adv-x="722" 
d="M430 1206l-22 -202l180 88l43 -127l-203 -35l141 -156l-108 -78l-101 181l-98 -183l-106 82l141 154l-205 35l45 125l180 -86l-24 202h137z" />
    <glyph glyph-name="plus" unicode="+" horiz-adv-x="1019" 
d="M92 555h367v356h94v-356h375v-94h-375v-385h-94v385h-367v94z" />
    <glyph glyph-name="comma" unicode="," horiz-adv-x="575" 
d="M412 55q0 -262 -289 -282v80q158 24 158 149q-60 -12 -98 18.5t-38 85.5q0 54 34 84.5t91 30.5q58 0 100 -45.5t42 -120.5z" />
    <glyph glyph-name="hyphen" unicode="-" horiz-adv-x="745" 
d="M143 459v131h459v-131h-459z" />
    <glyph glyph-name="period" unicode="." horiz-adv-x="581" 
d="M164 115q0 54 36.5 90.5t90.5 36.5t90.5 -36.5t36.5 -90.5t-36.5 -90.5t-90.5 -36.5t-90.5 36.5t-36.5 90.5z" />
    <glyph glyph-name="slash" unicode="/" horiz-adv-x="788" 
d="M20 -416l562 1786h145l-565 -1786h-142z" />
    <glyph glyph-name="zero" unicode="0" horiz-adv-x="1198" 
d="M600 -25q-155 0 -269.5 69t-171.5 184.5t-57 260.5q0 146 57 263t171.5 187.5t269.5 70.5q154 0 268 -70.5t171 -187.5t57 -263q0 -145 -57 -260.5t-171 -184.5t-268 -69zM600 877q-162 0 -251 -108t-89 -280q0 -175 88.5 -279t251.5 -104q162 0 250 104t88 279
q0 172 -88.5 280t-249.5 108z" />
    <glyph glyph-name="one" unicode="1" horiz-adv-x="710" 
d="M485 0h-155v831l-289 -55v131l444 94v-1001z" />
    <glyph glyph-name="two" unicode="2" horiz-adv-x="892" 
d="M811 129v-129h-739v129q271 127 402.5 264.5t131.5 292.5q0 96 -52.5 146.5t-141.5 50.5q-82 0 -135 -54.5t-62 -158.5l-143 28q11 87 45.5 150t85.5 97t105.5 49.5t117.5 15.5q69 0 128.5 -17.5t108 -54t76 -99t27.5 -145.5q0 -98 -43.5 -190t-116 -162.5t-162 -123
t-186.5 -81.5v-8h553z" />
    <glyph glyph-name="three" unicode="3" horiz-adv-x="897" 
d="M432 397v-10q151 -12 246.5 -104t95.5 -228q0 -78 -31 -142.5t-84 -107t-121.5 -65.5t-144.5 -23q-172 0 -275 77t-118 210l150 27q37 -195 241 -195q105 0 166 60t61 163q0 228 -352 265v125q130 19 203.5 54.5t101 84t27.5 123.5q0 80 -56.5 126t-138.5 46
q-167 0 -204 -176l-146 32q27 124 118 197.5t239 73.5q93 0 168.5 -30t125.5 -100t50 -171q0 -126 -86.5 -211.5t-235.5 -100.5z" />
    <glyph glyph-name="four" unicode="4" horiz-adv-x="1015" 
d="M610 -268v379h-579v102l575 772h158v-749h201v-125h-201v-379h-154zM360 236h250v331q0 69 2 130.5t4 88.5l2 27h-8q-39 -78 -135 -211l-170 -231q-30 -41 -57.5 -74t-39.5 -46l-13 -13v-9q34 7 165 7z" />
    <glyph glyph-name="five" unicode="5" horiz-adv-x="880" 
d="M145 328l25 657h584v-135h-453l-16 -432q69 63 186 63q151 0 244.5 -98t93.5 -279q0 -187 -111.5 -288t-296.5 -101q-162 0 -259 78t-111 209l135 31q18 -102 82 -152.5t162 -50.5q113 0 183.5 67t70.5 201q0 126 -66.5 198.5t-181.5 72.5q-74 0 -150 -41h-121z" />
    <glyph glyph-name="six" unicode="6" horiz-adv-x="1050" 
d="M938 993l-139 -57q-58 168 -217 168q-158 0 -245.5 -154t-88.5 -444h6q27 126 112.5 193t204.5 67q181 0 284 -110.5t103 -280.5q0 -81 -27.5 -153t-78.5 -127.5t-131.5 -87.5t-179.5 -32q-198 0 -313 151.5t-115 442.5q0 165 38.5 294t105.5 208t152 119.5t183 40.5
q125 0 213.5 -61t132.5 -177zM297 365q0 -119 73 -192t181 -73q111 0 184.5 73t73.5 192q0 123 -73 196.5t-185 73.5q-109 0 -181.5 -73.5t-72.5 -196.5z" />
    <glyph glyph-name="seven" unicode="7" horiz-adv-x="917" 
d="M670 850h-469v-154h-150v289h785v-104l-463 -1149h-154z" />
    <glyph glyph-name="eight" unicode="8" horiz-adv-x="1011" 
d="M506 -25q-181 0 -292.5 88.5t-111.5 241.5q0 112 61 189t165 114v10q-203 69 -203 287q0 147 106 236.5t275 89.5t275 -89.5t106 -236.5q0 -218 -203 -287v-10q103 -37 164 -114t61 -189q0 -153 -111 -241.5t-292 -88.5zM506 1118q-107 0 -167 -57.5t-60 -153.5
q0 -115 61.5 -172t165.5 -57t165.5 57t61.5 172q0 96 -60 153.5t-167 57.5zM506 555q-109 0 -181.5 -60.5t-72.5 -170.5q0 -108 68.5 -172t185.5 -64t185.5 64t68.5 172q0 110 -72.5 170.5t-181.5 60.5z" />
    <glyph glyph-name="nine" unicode="9" horiz-adv-x="1038" 
d="M51 -47l137 55q61 -174 246 -174q354 0 354 658h-8q-21 -137 -106.5 -208t-208.5 -71q-120 0 -210.5 53.5t-135.5 140t-45 191.5q0 81 26 154.5t75.5 131.5t129.5 92t180 34q207 0 324 -147.5t117 -436.5q0 -337 -127.5 -523t-368.5 -186q-290 0 -379 236zM739 614
q0 122 -74 196.5t-182 74.5q-115 0 -189.5 -73.5t-74.5 -197.5q0 -127 74.5 -202.5t189.5 -75.5q108 0 182 76.5t74 201.5z" />
    <glyph glyph-name="colon" unicode=":" horiz-adv-x="581" 
d="M164 115q0 54 36.5 90.5t90.5 36.5t90.5 -36.5t36.5 -90.5t-36.5 -90.5t-90.5 -36.5t-90.5 36.5t-36.5 90.5zM164 819q0 54 36.5 90.5t90.5 36.5t90.5 -36.5t36.5 -90.5t-36.5 -90.5t-90.5 -36.5t-90.5 36.5t-36.5 90.5z" />
    <glyph glyph-name="semicolon" unicode=";" horiz-adv-x="575" 
d="M412 55q0 -262 -289 -282v80q158 24 158 149q-60 -12 -98 18.5t-38 85.5q0 54 34 84.5t91 30.5q58 0 100 -45.5t42 -120.5zM145 819q0 54 36.5 90.5t90.5 36.5t90.5 -36.5t36.5 -90.5t-36.5 -90.5t-90.5 -36.5t-90.5 36.5t-36.5 90.5z" />
    <glyph glyph-name="less" unicode="&#x3c;" horiz-adv-x="776" 
d="M670 866l-437 -360l439 -367l-62 -71l-518 438l518 434z" />
    <glyph glyph-name="equal" unicode="=" horiz-adv-x="1019" 
d="M928 328h-836v94h836v-94zM928 586h-836v94h836v-94z" />
    <glyph glyph-name="greater" unicode="&#x3e;" horiz-adv-x="776" 
d="M530 506l-434 360l60 74l516 -434l-516 -438l-64 71z" />
    <glyph glyph-name="question" unicode="?" horiz-adv-x="776" 
d="M133 909l-133 49q26 123 120.5 198t246.5 75q167 0 267.5 -97.5t100.5 -254.5q0 -88 -31 -160t-81.5 -117t-111.5 -70.5t-126 -27.5v-182h-143v274h63q127 0 200 67t73 203q0 119 -60 177.5t-162 58.5q-87 0 -146 -47t-77 -146zM197 104q0 50 33.5 83.5t82.5 33.5
t83 -33.5t34 -83.5q0 -49 -33.5 -82.5t-83.5 -33.5q-49 0 -82.5 33t-33.5 83z" />
    <glyph glyph-name="at" unicode="@" horiz-adv-x="1808" 
d="M1092 319v189q0 69 -34 119t-80 71t-95 21q-104 0 -166 -77t-62 -247q0 -145 60.5 -223t165.5 -78q78 0 144.5 59t66.5 166zM1233 817v-627q0 -60 23.5 -84t68.5 -24q63 0 109.5 33.5t74 95t41 140.5t13.5 177q0 114 -34.5 209.5t-94.5 162t-142 112.5t-175 68t-195 22
q-106 0 -205 -25.5t-187 -81t-153 -134.5t-103 -194t-38 -253q0 -146 40 -265.5t109 -200t164.5 -135.5t203 -79.5t228.5 -24.5q210 0 369 60l28 -117q-186 -62 -399 -62q-137 0 -260 25t-240 85.5t-201 152.5t-135 235t-51 324q0 176 58.5 325t165.5 256t265 167.5
t349 60.5q152 0 279.5 -36t217.5 -99.5t152.5 -150.5t92.5 -188t30 -212q0 -269 -95 -414.5t-294 -145.5q-203 0 -221 164q-62 -164 -263 -164q-64 0 -121 26.5t-102.5 76.5t-72.5 131.5t-27 183.5q0 210 96 326.5t270 116.5q79 0 141.5 -37t80.5 -88l49 106h90z" />
    <glyph glyph-name="A" unicode="A" horiz-adv-x="1134" 
d="M942 0l-125 356h-506l-125 -356h-166l441 1206h217l436 -1206h-172zM467 803l-111 -316h414l-108 314q-29 83 -52.5 160t-31.5 113l-9 36h-8q-28 -121 -94 -307z" />
    <glyph glyph-name="B" unicode="B" horiz-adv-x="1050" 
d="M692 623v-7q115 -8 190.5 -78.5t75.5 -197.5q0 -162 -105.5 -251t-320.5 -89h-358v1206h361q376 0 376 -307q0 -118 -60 -189t-159 -87zM334 670h192q105 0 164.5 50.5t59.5 153.5q0 199 -236 199h-180v-403zM334 539v-406h221q118 0 181 53.5t63 161.5q0 191 -246 191
h-219z" />
    <glyph glyph-name="C" unicode="C" horiz-adv-x="1138" 
d="M973 311l112 -94q-83 -127 -193.5 -184.5t-279.5 -57.5q-236 0 -378 164t-142 459q0 297 152.5 465t402.5 168q319 0 440 -285l-145 -72q-39 109 -120 165.5t-187 56.5q-177 0 -276 -132.5t-99 -363.5q0 -230 92 -356.5t269 -126.5q121 0 202 44.5t150 149.5z" />
    <glyph glyph-name="D" unicode="D" horiz-adv-x="1198" 
d="M334 133h174q194 0 311 117.5t117 359.5q0 128 -33 221t-91.5 144t-129 74.5t-156.5 23.5h-192v-940zM524 0h-350v1206h352q131 0 234.5 -33t182 -102t121 -184.5t42.5 -270.5q0 -130 -30.5 -235t-84 -175t-128 -117t-159 -68t-180.5 -21z" />
    <glyph glyph-name="E" unicode="E" horiz-adv-x="997" 
d="M895 139v-139h-721v1206h721v-139h-561v-395h497v-140h-497v-393h561z" />
    <glyph glyph-name="F" unicode="F" horiz-adv-x="919" 
d="M334 0h-160v1206h684v-139h-524v-395h461v-140h-461v-532z" />
    <glyph glyph-name="G" unicode="G" horiz-adv-x="1236" 
d="M637 614h467v-614h-141l-19 162q-32 -87 -127.5 -137t-204.5 -50q-236 0 -378 164t-142 459q0 297 152.5 465t402.5 168q167 0 275 -70t165 -215l-145 -72q-39 109 -120 165.5t-187 56.5q-177 0 -276 -132.5t-99 -363.5q0 -226 92.5 -358.5t268.5 -132.5q86 0 156.5 25
t118.5 84.5t48 146.5v106h-307v143z" />
    <glyph glyph-name="H" unicode="H" horiz-adv-x="1277" 
d="M334 0h-160v1206h160v-524h610v524h160v-1206h-160v543h-610v-543z" />
    <glyph glyph-name="I" unicode="I" horiz-adv-x="507" 
d="M174 1206h160v-1206h-160v1206z" />
    <glyph glyph-name="J" unicode="J" horiz-adv-x="872" 
d="M580 1206h159v-856q0 -102 -30 -176.5t-82.5 -117t-115.5 -62t-138 -19.5q-260 0 -373 238l129 84q51 -106 105 -146t143 -40q116 0 159.5 71t43.5 209v815z" />
    <glyph glyph-name="K" unicode="K" horiz-adv-x="1069" 
d="M1028 0h-197l-397 543h-100v-543h-160v1206h160v-524h106l371 524h188l-432 -585z" />
    <glyph glyph-name="L" unicode="L" horiz-adv-x="935" 
d="M174 1206h160v-1067h561v-139h-721v1206z" />
    <glyph glyph-name="M" unicode="M" horiz-adv-x="1458" 
d="M791 301h-123l-246 465q-33 62 -55.5 115t-28.5 75l-6 23h-8q10 -76 10 -221v-758h-160v1206h199l305 -608q18 -36 31.5 -70t17.5 -50l4 -15h8q13 53 54 135l305 608h186v-1206h-160v758q0 64 3 119.5t5 78.5l3 23h-9q-16 -74 -90 -213z" />
    <glyph glyph-name="N" unicode="N" horiz-adv-x="1314" 
d="M344 1206l492 -727q33 -49 69.5 -111.5t56.5 -100.5l21 -38h8q-10 137 -10 289v688h160v-1206h-166l-498 727q-34 49 -70.5 111.5t-56.5 100.5l-20 38h-8q12 -137 12 -289v-688h-160v1206h170z" />
    <glyph glyph-name="O" unicode="O" horiz-adv-x="1253" 
d="M627 -25q-246 0 -390.5 165t-144.5 462q0 298 144.5 463.5t390.5 165.5t390 -165.5t144 -463.5q0 -297 -144 -462t-390 -165zM627 1092q-178 0 -272.5 -129t-94.5 -361q0 -231 94.5 -360t272.5 -129t272 128.5t94 360.5t-94 361t-272 129z" />
    <glyph glyph-name="P" unicode="P" horiz-adv-x="999" 
d="M334 1073v-481h184q138 0 195 64t57 182q0 114 -66 174.5t-190 60.5h-180zM334 0h-160v1206h342q215 0 318.5 -93.5t103.5 -264.5q0 -181 -103 -284t-303 -103h-198v-461z" />
    <glyph glyph-name="Q" unicode="Q" horiz-adv-x="1253" 
d="M1042 -145l-53 -148q-183 -4 -302 73t-165 204q-201 33 -315.5 194t-114.5 424q0 298 144.5 463.5t390.5 165.5t390 -165.5t144 -463.5q0 -274 -123.5 -436t-339.5 -186q63 -70 153 -101.5t191 -23.5zM627 1092q-178 0 -272.5 -129t-94.5 -361q0 -231 94.5 -360
t272.5 -129t272 128.5t94 360.5t-94 361t-272 129z" />
    <glyph glyph-name="R" unicode="R" horiz-adv-x="1103" 
d="M1028 0h-174q-35 43 -49 109l-51 219q-26 109 -84 146.5t-162 37.5h-174v-512h-160v1206h399q402 0 402 -336q0 -136 -82 -215t-201 -84v-4q88 -11 137.5 -56t75.5 -144l62 -242q19 -74 61 -125zM334 1073v-430h235q122 0 180 53.5t58 163.5q0 102 -59 157.5t-179 55.5
h-235z" />
    <glyph glyph-name="S" unicode="S" horiz-adv-x="952" 
d="M61 295l152 27q35 -224 260 -224q108 0 172 49.5t64 141.5q0 87 -55 140t-212 112q-35 13 -54 20.5t-52 22t-52.5 25.5t-47 29.5t-44 36t-35.5 42t-29 51t-17 60t-7 71.5q0 88 32 154.5t86.5 104.5t118 56.5t134.5 18.5q170 0 275 -77.5t118 -242.5l-155 -24
q-9 104 -72.5 161.5t-163.5 57.5q-97 0 -156 -52t-59 -143q0 -20 2.5 -37.5t10.5 -33.5t14.5 -28t22 -25.5t25.5 -22t33 -20.5t35.5 -18.5t43 -19t45.5 -18.5t51 -20q42 -16 70.5 -28t65.5 -31.5t61.5 -38t50.5 -46t41.5 -58t25.5 -70.5t10 -87q0 -83 -31.5 -148.5t-87 -106
t-128 -61t-156.5 -20.5q-182 0 -282.5 78t-123.5 242z" />
    <glyph glyph-name="T" unicode="T" horiz-adv-x="919" 
d="M539 0h-160v1067h-359v139h879v-139h-360v-1067z" />
    <glyph glyph-name="U" unicode="U" horiz-adv-x="1173" 
d="M881 1206h159v-813q0 -90 -26 -162.5t-69 -119.5t-102.5 -78t-123 -44.5t-133.5 -13.5t-133.5 13.5t-123 44.5t-102.5 78t-68.5 119.5t-25.5 162.5v813h160v-774q0 -168 78 -247t215 -79q138 0 216.5 78t78.5 242v780z" />
    <glyph glyph-name="V" unicode="V" horiz-adv-x="1052" 
d="M193 1206l253 -800q26 -84 46 -159.5t27 -108.5l7 -34h9q16 111 75 299l256 803h166l-399 -1206h-217l-396 1206h173z" />
    <glyph glyph-name="W" unicode="W" horiz-adv-x="1658" 
d="M928 1206l202 -786q22 -86 39 -166.5t23 -117.5l6 -38h8q17 130 66 320l207 788h159l-327 -1206h-226l-198 750q-23 86 -36 165t-15 115l-2 37h-9q-8 -124 -57 -317l-195 -750h-225l-328 1206h170l203 -782q22 -84 39 -165.5t23 -120.5l6 -40h8q15 134 66 324l213 784
h180z" />
    <glyph glyph-name="X" unicode="X" horiz-adv-x="1050" 
d="M854 0l-242 362q-35 51 -56.5 88t-25.5 48l-4 12h-8q-8 -31 -86 -150l-235 -360h-177l416 610l-395 596h184l211 -329q37 -58 59 -97t25 -49l4 -10h6q6 26 86 153l209 332h174l-387 -577l418 -629h-176z" />
    <glyph glyph-name="Y" unicode="Y" horiz-adv-x="950" 
d="M201 1206l207 -413q29 -58 49 -105.5t25 -65.5l5 -18h9q14 58 73 187l193 415h168l-363 -731v-475h-159v475l-388 731h181z" />
    <glyph glyph-name="Z" unicode="Z" horiz-adv-x="946" 
d="M899 1102l-539 -811q-29 -44 -57 -81.5t-41 -53.5l-14 -15v-8q51 6 180 6h477v-139h-864v84l543 831q29 44 57 81.5t41 53.5l14 15v8q-51 -6 -180 -6h-446v139h829v-104z" />
    <glyph glyph-name="bracketleft" unicode="[" horiz-adv-x="643" 
d="M315 1253v-1552h256v-117h-397v1786h397v-117h-256z" />
    <glyph glyph-name="backslash" unicode="\" horiz-adv-x="788" 
d="M205 1370l563 -1786h-143l-564 1786h144z" />
    <glyph glyph-name="bracketright" unicode="]" horiz-adv-x="643" 
d="M328 -299v1552h-256v117h397v-1786h-397v117h256z" />
    <glyph glyph-name="asciicircum" unicode="^" horiz-adv-x="1021" 
d="M797 657l-185 359q-40 78 -64 138.5t-28 81.5l-4 21h-8q-4 -65 -96 -239l-191 -361h-160l390 711h122l388 -711h-164z" />
    <glyph glyph-name="underscore" unicode="_" horiz-adv-x="985" 
d="M102 -170v125h781v-125h-781z" />
    <glyph glyph-name="grave" unicode="`" horiz-adv-x="704" 
d="M532 1085h-133l-235 293h215z" />
    <glyph glyph-name="a" unicode="a" horiz-adv-x="966" 
d="M637 281v151q-205 4 -302 -40.5t-97 -143.5q0 -68 42.5 -110t122.5 -42q89 0 161.5 51t72.5 134zM793 684v-481q0 -51 19 -69.5t52 -18.5q32 0 51 8v-125q-46 -12 -84 -12q-167 0 -184 153q-35 -84 -110 -124t-170 -40q-127 0 -206 68t-79 186q0 339 555 314v127
q0 172 -191 172q-86 0 -135 -40.5t-55 -117.5l-143 21q5 72 37.5 125.5t84.5 82.5t109 42.5t121 13.5q52 0 98 -8.5t89 -29t73.5 -52.5t49 -81.5t18.5 -113.5z" />
    <glyph glyph-name="b" unicode="b" horiz-adv-x="1077" 
d="M309 549v-191q0 -67 22 -120t58 -83t78 -45.5t86 -15.5q119 0 195.5 99t76.5 288q0 177 -66 268t-184 91q-114 0 -190 -78.5t-76 -212.5zM293 137l-41 -137h-98v1368h155v-604q32 101 114.5 153t186.5 52q176 0 275.5 -123t99.5 -350q0 -143 -47 -260.5t-140.5 -189
t-217.5 -71.5q-116 0 -187 45t-100 117z" />
    <glyph glyph-name="c" unicode="c" horiz-adv-x="929" 
d="M727 262l131 -29q-15 -91 -67.5 -150.5t-125 -83.5t-167.5 -24q-184 0 -295 129.5t-111 362.5q0 234 114 368t308 134q148 0 235.5 -75t96.5 -216l-146 -23q-13 92 -63.5 138.5t-132.5 46.5q-126 0 -194 -103t-68 -272q0 -159 74.5 -262t197.5 -103q168 0 213 162z" />
    <glyph glyph-name="d" unicode="d" horiz-adv-x="1077" 
d="M768 371v221q0 64 -23 114.5t-60.5 80t-80 44.5t-86.5 15q-123 0 -196.5 -92t-73.5 -293q0 -174 71.5 -267.5t196.5 -93.5q42 0 85.5 17t81 49t61.5 85.5t24 119.5zM766 817v551h158v-1368h-138l-18 164q-75 -189 -303 -189q-74 0 -140 30.5t-118.5 89t-83.5 153
t-31 211.5q0 242 111 376t313 134q88 0 159.5 -45t90.5 -107z" />
    <glyph glyph-name="e" unicode="e" horiz-adv-x="972" 
d="M514 98q88 0 142.5 39t78.5 125l137 -31q-25 -136 -123.5 -196t-246.5 -60q-188 0 -299 129t-111 363t114 368t308 134q174 0 270.5 -110t96.5 -290q0 -83 -19 -131h-620q8 -154 78 -247t194 -93zM246 563h481q2 16 2 43q0 101 -62.5 169.5t-162.5 68.5
q-109 0 -176 -72.5t-82 -208.5z" />
    <glyph glyph-name="f" unicode="f" horiz-adv-x="557" 
d="M168 821h-137v125h137v119q0 86 25.5 150t70.5 99t97.5 51.5t113.5 16.5q92 0 184 -36l-32 -136q-74 41 -148 41q-76 0 -115.5 -46t-39.5 -148v-111h241v-125h-241v-821h-156v821z" />
    <glyph glyph-name="g" unicode="g" horiz-adv-x="980" 
d="M463 969q173 0 274 -82q57 24 74 143l139 -49q-10 -67 -51 -111.5t-102 -56.5q45 -71 45 -180q0 -158 -106.5 -243t-268.5 -85q-79 0 -125 17q-72 -38 -72 -105q0 -86 111 -86h219q161 0 243.5 -65t82.5 -193q0 -70 -29.5 -124.5t-77 -88t-114.5 -55t-134.5 -29.5
t-144.5 -8q-82 0 -150 12t-128 39t-94 78t-34 123q0 94 65 155t177 70q-60 7 -92.5 45.5t-32.5 95.5q0 124 135 158q-86 39 -133 113t-47 176q0 155 101.5 245.5t269.5 90.5zM170 -170q0 -149 268 -149q338 0 338 172q0 141 -176 141h-194q-236 0 -236 -164zM244 635
q0 -98 58.5 -156.5t160.5 -58.5q105 0 165 54t60 161q0 106 -60.5 162.5t-164.5 54.5t-161.5 -58t-57.5 -159z" />
    <glyph glyph-name="h" unicode="h" 
d="M309 1368v-602q66 203 283 203q129 0 210 -72.5t81 -218.5v-678h-156v641q0 91 -46 142t-132 51q-50 0 -91 -14t-75.5 -45.5t-54 -88.5t-19.5 -135v-551h-155v1368h155z" />
    <glyph glyph-name="i" unicode="i" horiz-adv-x="462" 
d="M121 1253q0 47 32 80t76 33q46 0 79.5 -33t33.5 -80q0 -44 -33.5 -77t-79.5 -33q-44 0 -76 33t-32 77zM154 946h155v-946h-155v946z" />
    <glyph glyph-name="j" unicode="j" horiz-adv-x="462" 
d="M154 946h155v-969q0 -115 -27.5 -193.5t-83.5 -123t-131.5 -62t-179.5 -14.5v131q138 -10 202.5 48t64.5 190v993zM123 1253q0 47 32 80t76 33q46 0 79.5 -33t33.5 -80q0 -44 -33.5 -77t-79.5 -33q-44 0 -76 33t-32 77z" />
    <glyph glyph-name="k" unicode="k" horiz-adv-x="923" 
d="M485 506l428 -506h-196l-352 434h-56v-434h-155v1368h155v-811h43l338 389h193z" />
    <glyph glyph-name="l" unicode="l" horiz-adv-x="516" 
d="M444 127v-129q-56 -12 -100 -12q-89 0 -145 49t-56 143v1190h156v-1165q0 -43 22 -64.5t60 -21.5q30 0 63 10z" />
    <glyph glyph-name="m" unicode="m" horiz-adv-x="1566" 
d="M846 760q33 108 113 158.5t182 50.5q127 0 204.5 -70.5t77.5 -210.5v-688h-155v641q0 92 -43 142.5t-125 50.5q-95 0 -164.5 -72.5t-69.5 -210.5v-551h-155v641q0 92 -43 142.5t-125 50.5q-95 0 -164.5 -72.5t-69.5 -210.5v-551h-155v946h116l19 -182q35 104 115 154.5
t180 50.5q226 0 262 -209z" />
    <glyph glyph-name="n" unicode="n" 
d="M270 946l19 -182q74 205 303 205q129 0 210 -72.5t81 -218.5v-678h-156v639q0 92 -45.5 143.5t-132.5 51.5q-50 0 -91 -14t-75.5 -45.5t-54 -88.5t-19.5 -135v-551h-155v946h116z" />
    <glyph glyph-name="o" unicode="o" horiz-adv-x="1028" 
d="M514 -25q-195 0 -308.5 132t-113.5 372q0 237 113 363.5t309 126.5t309 -126.5t113 -363.5q0 -240 -113.5 -372t-308.5 -132zM514 842q-268 0 -268 -363q0 -381 268 -381t268 381q0 363 -268 363z" />
    <glyph glyph-name="p" unicode="p" horiz-adv-x="1077" 
d="M309 549v-191q0 -67 22 -120t58 -83t78 -45.5t86 -15.5q119 0 195.5 99t76.5 288q0 177 -66 268t-184 91q-114 0 -190 -78.5t-76 -212.5zM309 125v-541h-155v1362h122l19 -182q27 73 82 121t112.5 66t120.5 18q176 0 275.5 -123t99.5 -350q0 -144 -47 -260.5
t-141.5 -188.5t-221.5 -72q-104 0 -170.5 41.5t-95.5 108.5z" />
    <glyph glyph-name="q" unicode="q" horiz-adv-x="1077" 
d="M768 375v217q0 64 -23 114.5t-60.5 80t-80 44.5t-86.5 15q-123 0 -196.5 -92t-73.5 -293q0 -174 71.5 -267.5t196.5 -93.5q43 0 86 17t80.5 49.5t61.5 87t24 121.5zM768 823l53 123h103v-1362h-154v580q-78 -189 -305 -189q-74 0 -140 30.5t-118.5 89t-83.5 153
t-31 211.5q0 242 110.5 376t311.5 134q88 0 160.5 -44t93.5 -102z" />
    <glyph glyph-name="r" unicode="r" horiz-adv-x="702" 
d="M662 967l-9 -176q-27 6 -75 6q-111 0 -190 -85t-79 -218v-494h-155v946h129l18 -254q29 131 122.5 206t238.5 69z" />
    <glyph glyph-name="s" unicode="s" horiz-adv-x="841" 
d="M61 211l144 35q17 -160 213 -160q94 0 150.5 36t56.5 107q0 65 -34 103t-122 61l-139 33q-127 30 -181.5 94.5t-54.5 169.5q0 75 28.5 130.5t78.5 87t109 46.5t128 15q148 0 231.5 -60t98.5 -192l-154 -17q-9 150 -186 150q-89 0 -137.5 -37.5t-48.5 -105.5q0 -60 30 -95
t111 -53l129 -33q130 -33 194 -95t64 -183q0 -141 -97 -207t-259 -66q-161 0 -248 55.5t-105 180.5z" />
    <glyph glyph-name="t" unicode="t" horiz-adv-x="657" 
d="M596 158l31 -129q-85 -54 -209 -54q-125 0 -192.5 65.5t-67.5 188.5v592h-138v125h138v201l157 20v-221h281v-125h-283v-563q0 -149 127 -149q82 0 156 49z" />
    <glyph glyph-name="u" unicode="u" 
d="M739 0l-18 170q-36 -103 -108 -149t-183 -46q-136 0 -211.5 76t-75.5 240v655h156v-641q0 -112 44 -163.5t138 -51.5q41 0 82 18.5t75.5 52.5t56.5 89t22 121v575h155v-946h-133z" />
    <glyph glyph-name="v" unicode="v" horiz-adv-x="872" 
d="M350 0l-330 946h173l174 -549q26 -84 45 -159t24 -108l6 -34h9q14 111 71 299l166 551h164l-315 -946h-187z" />
    <glyph glyph-name="w" unicode="w" horiz-adv-x="1341" 
d="M756 946l145 -530q24 -84 40 -161t20 -111l4 -35h8q4 114 53 307l137 530h158l-260 -946h-187l-137 485q-24 84 -39.5 158t-19.5 107l-4 32h-8q-11 -107 -62 -297l-131 -485h-186l-267 946h162l140 -528q23 -84 38.5 -161.5t19.5 -112.5l5 -35h8q7 121 58 309l145 528
h160z" />
    <glyph glyph-name="x" unicode="x" horiz-adv-x="845" 
d="M653 0l-153 236q-35 53 -53.5 89t-19.5 46l-1 10h-8q0 -25 -80 -148l-154 -233h-164l318 477l-301 469h176l133 -219q34 -56 54 -92.5t23 -45.5l3 -9h8q0 24 74 145l135 221h168l-301 -465l315 -481h-172z" />
    <glyph glyph-name="y" unicode="y" horiz-adv-x="872" 
d="M190 946l175 -549q26 -83 45.5 -157t25.5 -107l6 -33h9q18 109 73 295l166 551h162l-340 -1022q-66 -196 -154.5 -273t-214.5 -77q-65 0 -129 23l11 129q62 -27 122 -27q79 0 129 54t95 192l-351 1001h170z" />
    <glyph glyph-name="z" unicode="z" horiz-adv-x="784" 
d="M723 840l-381 -557q-30 -44 -58.5 -81.5t-41.5 -53.5l-13 -15v-8q52 6 181 6h333v-131h-702v84l385 575q30 44 58.5 81.5t41.5 53.5l13 15v8q-52 -6 -181 -6h-295v135h660v-106z" />
    <glyph glyph-name="braceleft" unicode="{" horiz-adv-x="786" 
d="M299 487v-8q77 -10 118.5 -53.5t41.5 -146.5v-418q0 -87 27.5 -127.5t95.5 -40.5q61 0 125 31l28 -115q-89 -31 -180 -31q-130 0 -184 70t-54 205v413q0 50 -11.5 83.5t-33.5 48.5t-44 20.5t-52 5.5h-84v119h84q31 0 52.5 5t43.5 20t33.5 48.5t11.5 83.5v414
q0 135 54 205t184 70q91 0 180 -31l-28 -115q-64 31 -125 31q-68 0 -95.5 -40.5t-27.5 -127.5v-418q0 -106 -40 -147.5t-120 -53.5z" />
    <glyph glyph-name="bar" unicode="|" horiz-adv-x="546" 
d="M342 -416h-137v1786h137v-1786z" />
    <glyph glyph-name="braceright" unicode="}" horiz-adv-x="786" 
d="M487 479v8q-38 6 -64 16t-49 31.5t-34.5 59.5t-11.5 94v418q0 87 -27.5 127.5t-95.5 40.5q-61 0 -125 -31l-29 115q89 31 180 31q130 0 184 -70t54 -205v-414q0 -50 11.5 -83.5t33.5 -48.5t43.5 -20t52.5 -5h84v-119h-84q-30 0 -52 -5.5t-44 -20.5t-33.5 -48.5
t-11.5 -83.5v-413q0 -135 -54 -205t-184 -70q-91 0 -180 31l29 115q64 -31 125 -31q68 0 95.5 40.5t27.5 127.5v418q0 103 41 146.5t118 53.5z" />
    <glyph glyph-name="asciitilde" unicode="~" horiz-adv-x="942" 
d="M610 408q-29 0 -56.5 8.5t-40 14.5t-48.5 26q-8 5 -25 14.5t-23 13t-18.5 9.5t-20 8t-17.5 4t-21 2q-72 0 -61 -96h-99q-34 94 8 165.5t134 71.5q36 0 67.5 -8.5t49 -18t53.5 -30.5q45 -28 63.5 -36.5t44.5 -8.5q64 0 59 102h105q30 -104 -11 -172.5t-143 -68.5z" />
    <glyph glyph-name="nbspace" unicode="&#xa0;" horiz-adv-x="313" 
 />
    <glyph glyph-name="exclamdown" unicode="&#xa1;" horiz-adv-x="458" 
d="M332 -258h-205l49 866h107zM113 844q0 50 33.5 83.5t82.5 33.5t83 -33.5t34 -83.5t-34 -83.5t-83 -33.5t-82.5 33.5t-33.5 83.5z" />
    <glyph glyph-name="cent" unicode="&#xa2;" horiz-adv-x="1048" 
d="M502 -217v197q-179 16 -289.5 146t-110.5 363q0 222 109 357.5t291 159.5v170h102v-166q132 -6 216 -63.5t136 -172.5l-143 -80q-62 167 -209 185v-775q76 6 131.5 43.5t102.5 114.5l116 -88q-61 -95 -146 -142t-204 -55v-194h-102zM262 498q0 -160 62.5 -261t177.5 -126
v761q-116 -23 -178 -121.5t-62 -252.5z" />
    <glyph glyph-name="sterling" unicode="&#xa3;" horiz-adv-x="1034" 
d="M696 408h-288q18 -77 18 -125q0 -115 -94 -150h370q38 0 65 6.5t52 29.5t33 64l121 -61q-44 -172 -254 -172h-592v139h59q42 0 67.5 35.5t25.5 95.5q0 51 -31 138h-176v102h141q-25 87 -25 178q0 84 31 148t84 101t115.5 55t132.5 18q278 0 319 -262l-145 -25
q-15 82 -56 122t-132 40q-89 0 -141 -49t-52 -148q0 -74 33 -178h319v-102z" />
    <glyph glyph-name="currency" unicode="&#xa4;" horiz-adv-x="925" 
d="M653 860l144 144l67 -68l-151 -152q43 -78 43 -188q0 -105 -37 -184l145 -144l-67 -67l-133 133q-78 -72 -201 -72t-201 72l-133 -133l-68 67l146 146q-37 73 -37 182q0 113 41 190l-150 150l68 68l141 -146q76 64 193 64q116 0 190 -62zM463 825q-156 0 -156 -227
q0 -242 156 -242q155 0 155 242q0 227 -155 227z" />
    <glyph glyph-name="yen" unicode="&#xa5;" horiz-adv-x="991" 
d="M879 291h-301v-291h-158v291h-307v102h280l-55 103h-225v102h170l-211 387h180l168 -332q30 -58 49.5 -104t24.5 -63l4 -17h8q13 55 76 182l170 334h168l-207 -387h166v-102h-222l-55 -103h277v-102z" />
    <glyph glyph-name="brokenbar" unicode="&#xa6;" horiz-adv-x="546" 
d="M342 569h-137v801h137v-801zM342 -416h-137v801h137v-801z" />
    <glyph glyph-name="section" unicode="&#xa7;" horiz-adv-x="876" 
d="M82 27l162 18q8 -78 68 -114.5t149 -36.5q81 0 134.5 33t53.5 100q0 118 -155 163l-150 43q-225 65 -225 254q0 167 174 222q-88 36 -131 99t-43 144q0 74 28.5 130t76.5 87.5t103.5 46.5t118.5 15q160 0 246 -59.5t101 -192.5l-158 -16q-4 72 -53.5 109.5t-130.5 37.5
q-89 0 -137 -36.5t-48 -106.5q0 -54 31 -89.5t111 -62.5l133 -45q47 -16 78.5 -29t67.5 -35.5t57.5 -47.5t36 -63.5t14.5 -86.5q0 -87 -47 -144.5t-132 -70.5q76 -25 127.5 -95.5t51.5 -152.5q0 -141 -97 -206.5t-260 -65.5q-152 0 -245 64.5t-111 189.5zM649 483
q0 32 -15 58t-35.5 43t-61 34.5t-70.5 27.5t-86 26q-115 -46 -115 -160q0 -34 11 -59.5t28 -42.5t54.5 -33t72 -26t98.5 -27q46 16 82.5 57.5t36.5 101.5z" />
    <glyph glyph-name="dieresis" unicode="&#xa8;" horiz-adv-x="937" 
d="M164 1219q0 45 32.5 77.5t77.5 32.5q46 0 78.5 -32t32.5 -78q0 -45 -33 -78t-78 -33q-44 0 -77 33.5t-33 77.5zM551 1217q0 45 33 77.5t78 32.5q46 0 78 -32t32 -78q0 -45 -32.5 -78t-77.5 -33q-44 0 -77.5 33.5t-33.5 77.5z" />
    <glyph glyph-name="copyright" unicode="&#xa9;" horiz-adv-x="1439" 
d="M938 440l96 -80q-56 -78 -132 -114.5t-183 -36.5q-162 0 -265.5 101t-103.5 294q0 184 107 289.5t276 105.5q116 0 187.5 -43.5t115.5 -134.5l-123 -69q-48 131 -184 131q-111 0 -175.5 -73t-64.5 -206q0 -131 64 -204.5t180 -73.5q67 0 114 26t91 88zM92 602
q0 179 84.5 323.5t227.5 225t315 80.5q128 0 244 -47.5t200.5 -129.5t134.5 -200t50 -252t-50 -251.5t-134.5 -199.5t-200.5 -129t-244 -47t-243.5 47t-200 129t-134 199.5t-49.5 251.5zM156 602q0 -122 44.5 -228.5t121 -180t180.5 -116t219 -42.5t219 42.5t180.5 116
t121 180t44.5 228.5t-44.5 228.5t-121 181t-180.5 117t-219 42.5t-219 -42.5t-180.5 -117t-121 -181t-44.5 -228.5z" />
    <glyph glyph-name="ordfeminine" unicode="&#xaa;" horiz-adv-x="720" 
d="M434 778v92q-121 2 -174 -24t-53 -88q0 -43 24 -67.5t72 -24.5q51 0 91 29.5t40 82.5zM569 1040v-307q0 -49 41 -49q29 0 49 16v-102q-30 -20 -90 -20q-116 0 -129 96q-41 -103 -180 -103q-84 0 -136 45t-52 123q0 225 362 211v58q0 120 -108 120q-47 0 -76.5 -25
t-34.5 -65l-123 15q7 92 76.5 135t165.5 43q64 0 114.5 -16.5t85.5 -61t35 -113.5z" />
    <glyph glyph-name="guillemotleft" unicode="&#xab;" horiz-adv-x="948" 
d="M565 481v-8q33 -15 115 -113l205 -245l-86 -74l-371 436l371 436l88 -88l-207 -239q-37 -43 -66 -69t-39 -31zM199 481v-8q32 -15 114 -113l205 -245l-86 -74l-371 436l371 436l88 -88l-207 -239q-37 -43 -65.5 -69t-38.5 -31z" />
    <glyph glyph-name="logicalnot" unicode="&#xac;" horiz-adv-x="1019" 
d="M821 551h-729v94h836v-385h-107v291z" />
    <glyph glyph-name="uni00AD" unicode="&#xad;" horiz-adv-x="745" 
d="M143 459v131h459v-131h-459z" />
    <glyph glyph-name="registered" unicode="&#xae;" horiz-adv-x="1439" 
d="M1036 246h-141q-25 34 -35 82l-24 98q-13 54 -59 80t-111 26h-68v-286h-131v739h281q122 0 193 -56t71 -169q0 -89 -56 -137.5t-153 -51.5q45 -7 73 -17t53.5 -35.5t37.5 -67.5l26 -111q12 -55 43 -94zM598 877v-244h109q97 0 136.5 30.5t39.5 90.5q0 58 -40 90.5
t-114 32.5h-131zM92 602q0 179 84.5 323.5t227.5 225t315 80.5q128 0 244 -47.5t200.5 -129.5t134.5 -200t50 -252t-50 -251.5t-134.5 -199.5t-200.5 -129t-244 -47t-243.5 47t-200 129t-134 199.5t-49.5 251.5zM156 602q0 -122 44.5 -228.5t121 -180t180.5 -116t219 -42.5
t219 42.5t180.5 116t121 180t44.5 228.5t-44.5 228.5t-121 181t-180.5 117t-219 42.5t-219 -42.5t-180.5 -117t-121 -181t-44.5 -228.5z" />
    <glyph glyph-name="macron" unicode="&#xaf;" horiz-adv-x="841" 
d="M678 1155h-514v125h514v-125z" />
    <glyph glyph-name="degree" unicode="&#xb0;" horiz-adv-x="534" 
d="M82 1044q0 78 52 132.5t132 54.5q81 0 134 -54.5t53 -132.5q0 -77 -53 -130.5t-134 -53.5t-132.5 53t-51.5 131zM170 1044q0 -45 26.5 -74.5t69.5 -29.5q44 0 71.5 29.5t27.5 74.5t-28 76t-71 31t-69.5 -31t-26.5 -76z" />
    <glyph glyph-name="plusminus" unicode="&#xb1;" horiz-adv-x="1019" 
d="M92 682h367v283h94v-283h375v-94h-375v-312h-94v312h-367v94zM928 100h-836v95h836v-95z" />
    <glyph glyph-name="twosuperior" unicode="&#xb2;" horiz-adv-x="616" 
d="M575 586v-103h-534v99q81 57 128 92t99 79.5t77.5 78.5t43 75t17.5 84q0 58 -31 87.5t-88 29.5q-65 0 -97 -40.5t-34 -102.5l-107 51q0 81 71 144t189 63q98 0 165 -55.5t67 -163.5q0 -35 -8.5 -68.5t-19.5 -60.5t-34 -56.5t-39 -49t-48 -45.5t-48 -38.5t-52 -35.5
t-46.5 -29.5t-44.5 -26.5v-8h374z" />
    <glyph glyph-name="threesuperior" unicode="&#xb3;" horiz-adv-x="643" 
d="M362 862v-6q100 -9 149.5 -57.5t49.5 -130.5q0 -92 -74 -145.5t-192 -53.5t-189.5 46t-85.5 120l115 45q12 -47 57.5 -80t102.5 -33q135 0 135 111q0 64 -51 97t-174 34v90q108 4 156.5 33t48.5 86q0 46 -31 74t-86 28q-48 0 -82.5 -24.5t-46.5 -73.5l-113 41
q21 72 85.5 116t164.5 44q101 0 168.5 -47t67.5 -142q0 -70 -42 -116t-133 -56z" />
    <glyph glyph-name="acute" unicode="&#xb4;" horiz-adv-x="704" 
d="M305 1085h-133l154 293h215z" />
    <glyph glyph-name="mu" unicode="&#xb5;" horiz-adv-x="1036" 
d="M739 0l-18 178q-70 -200 -275 -203q-52 0 -91 14.5t-56 33.5v-439h-156v1362h156v-629q0 -106 43.5 -160.5t124.5 -54.5q27 0 58.5 8t66.5 27.5t62.5 48t46 74.5t18.5 102v584h153v-946h-133z" />
    <glyph glyph-name="mu" unicode="&#x3bc;" horiz-adv-x="1036" 
d="M739 0l-18 178q-70 -200 -275 -203q-52 0 -91 14.5t-56 33.5v-439h-156v1362h156v-629q0 -106 43.5 -160.5t124.5 -54.5q27 0 58.5 8t66.5 27.5t62.5 48t46 74.5t18.5 102v584h153v-946h-133z" />
    <glyph glyph-name="paragraph" unicode="&#xb6;" horiz-adv-x="1044" 
d="M791 1083v-1132q0 -147 -73 -216t-204 -69q-113 0 -213 55l49 144q70 -62 158 -62q59 0 90 27.5t31 93.5v432h-99q-228 0 -348.5 102.5t-120.5 309.5q0 438 557 438h334v-123h-161z" />
    <glyph glyph-name="periodcentered" unicode="&#xb7;" horiz-adv-x="581" 
d="M164 545q0 54 36.5 90.5t90.5 36.5t90.5 -36.5t36.5 -90.5t-36.5 -90.5t-90.5 -36.5t-90.5 36.5t-36.5 90.5z" />
    <glyph glyph-name="cedilla" unicode="&#xb8;" horiz-adv-x="708" 
d="M545 -258q0 -85 -58 -129.5t-149 -44.5q-115 0 -174 78l47 98q51 -76 127 -76q78 0 78 74q0 90 -144 90l13 178h86l-6 -96q180 -16 180 -172z" />
    <glyph glyph-name="onesuperior" unicode="&#xb9;" horiz-adv-x="600" 
d="M580 483h-519v103h205v493l-225 -24v104l356 49v-622h183v-103z" />
    <glyph glyph-name="ordmasculine" unicode="&#xba;" horiz-adv-x="770" 
d="M385 571q-135 0 -214 87t-79 247q0 158 79 242t214 84t214 -84t79 -242q0 -160 -79 -247t-214 -87zM385 1135q-156 0 -156 -228q0 -241 156 -241t156 241q0 228 -156 228z" />
    <glyph glyph-name="guillemotright" unicode="&#xbb;" horiz-adv-x="948" 
d="M383 473v8q-31 9 -115 105l-207 239l89 88l370 -436l-370 -436l-87 74l205 245q36 44 65 72t39 34zM750 473v8q-31 9 -115 105l-207 239l88 88l371 -436l-371 -436l-86 74l205 245q36 44 65 72t40 34z" />
    <glyph glyph-name="onequarter" unicode="&#xbc;" horiz-adv-x="1765" 
d="M623 483h-519v103h205v493l-225 -24v104l356 49v-622h183v-103zM512 0l627 1208h114l-624 -1208h-117zM1448 0v188h-369v101l361 434h137v-436h123v-99h-123v-188h-129zM1452 285v186q0 37 2.5 73t5.5 53l2 17h-8q-23 -53 -78 -127l-92 -108q-23 -27 -47.5 -50.5
t-37.5 -33.5l-13 -10v-9q26 9 114 9h152z" />
    <glyph glyph-name="onehalf" unicode="&#xbd;" horiz-adv-x="1765" 
d="M623 483h-519v103h205v493l-225 -24v104l356 49v-622h183v-103zM512 0l627 1208h114l-624 -1208h-117zM1624 102v-102h-534v98q80 56 128 91.5t99 80t77 79t43 75.5t17 84q0 58 -31 87.5t-88 29.5q-65 0 -97 -40.5t-34 -103.5l-106 51q0 81 71 144t189 63
q98 0 164.5 -55.5t66.5 -163.5q0 -43 -13 -84.5t-30 -73t-49 -65.5t-55.5 -55.5t-64.5 -49.5t-60 -40t-58 -35q-2 -1 -3.5 -2l-3 -2t-3.5 -2v-9h375z" />
    <glyph glyph-name="threequarters" unicode="&#xbe;" horiz-adv-x="1765" 
d="M428 862v-6q100 -9 149.5 -57.5t49.5 -130.5q0 -92 -74.5 -145.5t-192.5 -53.5t-189 46t-85 120l115 45q12 -47 57 -80t102 -33q136 0 136 111q0 64 -51.5 97t-174.5 34v90q108 4 156.5 33t48.5 86q0 46 -31 74t-86 28q-48 0 -82.5 -24.5t-46.5 -73.5l-112 41
q21 72 85.5 116t164.5 44q101 0 168 -47t67 -142q0 -70 -41.5 -116t-132.5 -56zM512 0l627 1208h114l-624 -1208h-117zM1448 0v188h-369v101l361 434h137v-436h123v-99h-123v-188h-129zM1452 285v186q0 37 2.5 73t5.5 53l2 17h-8q-23 -53 -78 -127l-92 -108
q-23 -27 -47.5 -50.5t-37.5 -33.5l-13 -10v-9q26 9 114 9h152z" />
    <glyph glyph-name="questiondown" unicode="&#xbf;" horiz-adv-x="776" 
d="M643 37l133 -49q-26 -123 -120 -198t-246 -75q-167 0 -268 98t-101 255q0 88 31 160t81.5 117t111.5 70t126 27v183h144v-275h-64q-127 0 -199.5 -67t-72.5 -203q0 -120 59.5 -178t161.5 -58q87 0 146 47t77 146zM580 842q0 -50 -34 -83.5t-83 -33.5t-83 33.5t-34 83.5
q0 49 33.5 82.5t83.5 33.5t83.5 -33.5t33.5 -82.5z" />
    <glyph glyph-name="Agrave" unicode="&#xc0;" horiz-adv-x="1134" 
d="M942 0l-125 356h-506l-125 -356h-166l441 1206h217l436 -1206h-172zM467 803l-111 -316h414l-108 314q-29 83 -52.5 160t-31.5 113l-9 36h-8q-28 -121 -94 -307zM645 1341h-141l-199 238h213z" />
    <glyph glyph-name="Aacute" unicode="&#xc1;" horiz-adv-x="1134" 
d="M942 0l-125 356h-506l-125 -356h-166l441 1206h217l436 -1206h-172zM467 803l-111 -316h414l-108 314q-29 83 -52.5 160t-31.5 113l-9 36h-8q-28 -121 -94 -307zM635 1341h-141l127 238h213z" />
    <glyph glyph-name="Acircumflex" unicode="&#xc2;" horiz-adv-x="1134" 
d="M942 0l-125 356h-506l-125 -356h-166l441 1206h217l436 -1206h-172zM467 803l-111 -316h414l-108 314q-29 83 -52.5 160t-31.5 113l-9 36h-8q-28 -121 -94 -307zM516 1595h94l248 -254h-178l-66 70q-17 19 -29.5 37t-16.5 26l-3 9h-4q-10 -29 -49 -72l-66 -70h-178z" />
    <glyph glyph-name="Atilde" unicode="&#xc3;" horiz-adv-x="1134" 
d="M942 0l-125 356h-506l-125 -356h-166l441 1206h217l436 -1206h-172zM467 803l-111 -316h414l-108 314q-29 83 -52.5 160t-31.5 113l-9 36h-8q-28 -121 -94 -307zM707 1341q-10 0 -19 0.5t-18.5 3t-16 3.5t-17 5t-14.5 5.5t-15.5 7.5t-14 7.5t-16 9t-15.5 8.5
q-8 5 -25 14.5t-23 13t-18.5 9.5t-20 8t-17.5 4t-21 2q-72 0 -61 -96h-99q-34 94 8 165.5t134 71.5q36 0 67.5 -8.5t49 -18t53.5 -30.5q45 -28 63.5 -36.5t44.5 -8.5q65 0 60 102h104q30 -104 -10.5 -173t-142.5 -69z" />
    <glyph glyph-name="Adieresis" unicode="&#xc4;" horiz-adv-x="1134" 
d="M942 0l-125 356h-506l-125 -356h-166l441 1206h217l436 -1206h-172zM467 803l-111 -316h414l-108 314q-29 83 -52.5 160t-31.5 113l-9 36h-8q-28 -121 -94 -307zM262 1454q0 45 33 78t78 33q46 0 78 -32.5t32 -78.5q0 -45 -32.5 -78t-77.5 -33q-44 0 -77.5 33.5
t-33.5 77.5zM649 1452q0 45 33 78t78 33q46 0 78 -32.5t32 -78.5q0 -45 -32.5 -78t-77.5 -33q-44 0 -77.5 33.5t-33.5 77.5z" />
    <glyph glyph-name="Aring" unicode="&#xc5;" horiz-adv-x="1134" 
d="M942 0l-125 356h-506l-125 -356h-166l441 1206h217l436 -1206h-172zM467 803l-111 -316h414l-108 314q-29 83 -52.5 160t-31.5 113l-9 36h-8q-28 -121 -94 -307zM565 1305q-94 0 -148.5 55t-54.5 141q0 79 56.5 135t146.5 56t146.5 -56t56.5 -135q0 -86 -54.5 -141
t-148.5 -55zM565 1618q-53 0 -84.5 -34t-31.5 -87q0 -51 30 -82t86 -31t86.5 31t30.5 82q0 53 -32 87t-85 34z" />
    <glyph glyph-name="AE" unicode="&#xc6;" horiz-adv-x="1675" 
d="M1573 0h-721v356h-444l-218 -356h-170l746 1206h807v-139h-561v-395h499v-140h-499v-393h561v-139zM856 1090l-371 -603h367v304q-1 90 2 165t6 104l4 30h-8z" />
    <glyph glyph-name="Ccedilla" unicode="&#xc7;" horiz-adv-x="1138" 
d="M831 -258q0 -85 -57.5 -129.5t-148.5 -44.5q-115 0 -174 78l47 98q51 -76 127 -76q77 0 77 74q0 90 -143 90l10 145q-220 15 -348.5 177t-128.5 444q0 297 152.5 465t402.5 168q319 0 440 -285l-145 -72q-39 109 -120 165.5t-187 56.5q-177 0 -276 -132.5t-99 -363.5
q0 -230 92 -356.5t269 -126.5q121 0 202 44.5t150 149.5l112 -94q-78 -119 -179 -176.5t-251 -63.5l-4 -63q180 -16 180 -172z" />
    <glyph glyph-name="Egrave" unicode="&#xc8;" horiz-adv-x="997" 
d="M895 139v-139h-721v1206h721v-139h-561v-395h497v-140h-497v-393h561zM612 1341h-141l-199 238h213z" />
    <glyph glyph-name="Eacute" unicode="&#xc9;" horiz-adv-x="997" 
d="M895 139v-139h-721v1206h721v-139h-561v-395h497v-140h-497v-393h561zM602 1341h-141l127 238h213z" />
    <glyph glyph-name="Ecircumflex" unicode="&#xca;" horiz-adv-x="997" 
d="M895 139v-139h-721v1206h721v-139h-561v-395h497v-140h-497v-393h561zM487 1595h95l247 -254h-178l-65 70q-17 19 -29.5 37t-16.5 26l-3 9h-5q-10 -29 -49 -72l-65 -70h-178z" />
    <glyph glyph-name="Edieresis" unicode="&#xcb;" horiz-adv-x="997" 
d="M895 139v-139h-721v1206h721v-139h-561v-395h497v-140h-497v-393h561zM229 1454q0 45 33 78t78 33q46 0 78.5 -32.5t32.5 -78.5q0 -45 -33 -78t-78 -33q-44 0 -77.5 33.5t-33.5 77.5zM616 1452q0 45 33 78t78 33q46 0 78.5 -32.5t32.5 -78.5q0 -45 -33 -78t-78 -33
q-44 0 -77.5 33.5t-33.5 77.5z" />
    <glyph glyph-name="Igrave" unicode="&#xcc;" horiz-adv-x="507" 
d="M174 1206h160v-1206h-160v1206zM332 1341h-142l-198 238h213z" />
    <glyph glyph-name="Iacute" unicode="&#xcd;" horiz-adv-x="507" 
d="M174 1206h160v-1206h-160v1206zM322 1341h-142l127 238h213z" />
    <glyph glyph-name="Icircumflex" unicode="&#xce;" horiz-adv-x="507" 
d="M174 1206h160v-1206h-160v1206zM207 1595h94l248 -254h-178l-66 70q-17 19 -29.5 37t-15.5 26l-4 9h-4q-10 -29 -49 -72l-66 -70h-178z" />
    <glyph glyph-name="Idieresis" unicode="&#xcf;" horiz-adv-x="507" 
d="M174 1206h160v-1206h-160v1206zM-51 1454q0 46 32.5 78.5t77.5 32.5q46 0 78.5 -32.5t32.5 -78.5q0 -45 -33 -78t-78 -33q-44 0 -77 33.5t-33 77.5zM336 1452q0 46 33 78.5t77 32.5q46 0 78.5 -32.5t32.5 -78.5q0 -45 -33 -78t-78 -33q-44 0 -77 33.5t-33 77.5z" />
    <glyph glyph-name="Eth" unicode="&#xd0;" horiz-adv-x="1198" 
d="M524 0h-350v532h-117v140h117v534h352q131 0 234.5 -33t182 -102t121 -184.5t42.5 -270.5q0 -130 -30.5 -235t-84 -175t-128 -117t-159 -68t-180.5 -21zM334 133h174q194 0 311 117.5t117 359.5q0 128 -33 221t-91.5 144t-129 74.5t-156.5 23.5h-192v-401h237v-140h-237
v-399z" />
    <glyph glyph-name="Ntilde" unicode="&#xd1;" horiz-adv-x="1314" 
d="M344 1206l492 -727q33 -49 69.5 -111.5t56.5 -100.5l21 -38h8q-10 137 -10 289v688h160v-1206h-166l-498 727q-34 49 -70.5 111.5t-56.5 100.5l-20 38h-8q12 -137 12 -289v-688h-160v1206h170zM797 1341q-10 0 -19 0.5t-18.5 3t-16 3.5t-17 5t-14.5 5.5t-15.5 7.5
t-14 7.5t-16 9t-15.5 8.5q-8 5 -25 14.5t-23 13t-18.5 9.5t-20 8t-17.5 4t-21 2q-72 0 -61 -96h-98q-34 94 7.5 165.5t133.5 71.5q36 0 67.5 -8.5t49 -18t53.5 -30.5q45 -28 63.5 -36.5t44.5 -8.5q65 0 60 102h104q30 -104 -10.5 -173t-142.5 -69z" />
    <glyph glyph-name="Ograve" unicode="&#xd2;" horiz-adv-x="1253" 
d="M627 -25q-246 0 -390.5 165t-144.5 462q0 298 144.5 463.5t390.5 165.5t390 -165.5t144 -463.5q0 -297 -144 -462t-390 -165zM627 1092q-178 0 -272.5 -129t-94.5 -361q0 -231 94.5 -360t272.5 -129t272 128.5t94 360.5t-94 361t-272 129zM705 1341h-142l-198 238h213z
" />
    <glyph glyph-name="Oacute" unicode="&#xd3;" horiz-adv-x="1253" 
d="M627 -25q-246 0 -390.5 165t-144.5 462q0 298 144.5 463.5t390.5 165.5t390 -165.5t144 -463.5q0 -297 -144 -462t-390 -165zM627 1092q-178 0 -272.5 -129t-94.5 -361q0 -231 94.5 -360t272.5 -129t272 128.5t94 360.5t-94 361t-272 129zM694 1341h-141l127 238h213z
" />
    <glyph glyph-name="Ocircumflex" unicode="&#xd4;" horiz-adv-x="1253" 
d="M627 -25q-246 0 -390.5 165t-144.5 462q0 298 144.5 463.5t390.5 165.5t390 -165.5t144 -463.5q0 -297 -144 -462t-390 -165zM627 1092q-178 0 -272.5 -129t-94.5 -361q0 -231 94.5 -360t272.5 -129t272 128.5t94 360.5t-94 361t-272 129zM580 1595h94l248 -254h-179
l-65 70q-17 19 -29.5 37t-16.5 26l-3 9h-4q-11 -29 -50 -72l-65 -70h-178z" />
    <glyph glyph-name="Otilde" unicode="&#xd5;" horiz-adv-x="1253" 
d="M627 -25q-246 0 -390.5 165t-144.5 462q0 298 144.5 463.5t390.5 165.5t390 -165.5t144 -463.5q0 -297 -144 -462t-390 -165zM627 1092q-178 0 -272.5 -129t-94.5 -361q0 -231 94.5 -360t272.5 -129t272 128.5t94 360.5t-94 361t-272 129zM766 1341q-11 0 -22 1.5
t-19 2.5t-19 5t-16.5 5.5t-18 8t-15.5 8t-17.5 10t-17.5 9.5q-8 5 -25 14.5t-23 13t-18.5 9.5t-20 8t-17.5 4t-21 2q-73 0 -62 -96h-98q-34 94 7.5 165.5t133.5 71.5q36 0 67.5 -8.5t49 -18t53.5 -30.5q45 -28 64 -36.5t45 -8.5q64 0 59 102h105q30 -104 -11 -173t-143 -69z
" />
    <glyph glyph-name="Odieresis" unicode="&#xd6;" horiz-adv-x="1253" 
d="M627 -25q-246 0 -390.5 165t-144.5 462q0 298 144.5 463.5t390.5 165.5t390 -165.5t144 -463.5q0 -297 -144 -462t-390 -165zM627 1092q-178 0 -272.5 -129t-94.5 -361q0 -231 94.5 -360t272.5 -129t272 128.5t94 360.5t-94 361t-272 129zM322 1454q0 46 33 78.5t77 32.5
q46 0 78.5 -32.5t32.5 -78.5q0 -45 -33 -78t-78 -33q-44 0 -77 33.5t-33 77.5zM709 1452q0 46 32.5 78.5t77.5 32.5q46 0 78.5 -32.5t32.5 -78.5q0 -45 -33 -78t-78 -33q-44 0 -77 33.5t-33 77.5z" />
    <glyph glyph-name="multiply" unicode="&#xd7;" horiz-adv-x="901" 
d="M92 225l285 285l-277 276l66 68l278 -276l291 288l66 -65l-291 -291l299 -297l-66 -68l-299 297l-286 -284z" />
    <glyph glyph-name="Oslash" unicode="&#xd8;" horiz-adv-x="1253" 
d="M141 -29l-86 82l135 150q-98 159 -98 399q0 298 144.5 463.5t390.5 165.5q225 0 362 -137l117 129l92 -84l-131 -146q94 -154 94 -391q0 -297 -144 -462t-390 -165q-224 0 -361 134zM627 1092q-177 0 -269 -128.5t-92 -361.5q0 -156 41 -268l578 643q-92 115 -258 115z
M987 602q0 156 -39 260l-577 -639q90 -110 256 -110q177 0 268.5 128t91.5 361z" />
    <glyph glyph-name="Ugrave" unicode="&#xd9;" horiz-adv-x="1173" 
d="M881 1206h159v-813q0 -90 -26 -162.5t-69 -119.5t-102.5 -78t-123 -44.5t-133.5 -13.5t-133.5 13.5t-123 44.5t-102.5 78t-68.5 119.5t-25.5 162.5v813h160v-774q0 -168 78 -247t215 -79q138 0 216.5 78t78.5 242v780zM664 1341h-142l-198 238h213z" />
    <glyph glyph-name="Uacute" unicode="&#xda;" horiz-adv-x="1173" 
d="M881 1206h159v-813q0 -90 -26 -162.5t-69 -119.5t-102.5 -78t-123 -44.5t-133.5 -13.5t-133.5 13.5t-123 44.5t-102.5 78t-68.5 119.5t-25.5 162.5v813h160v-774q0 -168 78 -247t215 -79q138 0 216.5 78t78.5 242v780zM653 1341h-141l127 238h213z" />
    <glyph glyph-name="Ucircumflex" unicode="&#xdb;" horiz-adv-x="1173" 
d="M881 1206h159v-813q0 -90 -26 -162.5t-69 -119.5t-102.5 -78t-123 -44.5t-133.5 -13.5t-133.5 13.5t-123 44.5t-102.5 78t-68.5 119.5t-25.5 162.5v813h160v-774q0 -168 78 -247t215 -79q138 0 216.5 78t78.5 242v780zM539 1595h94l248 -254h-179l-65 70q-17 19 -29.5 37
t-15.5 26l-4 9h-4q-10 -29 -49 -72l-66 -70h-178z" />
    <glyph glyph-name="Udieresis" unicode="&#xdc;" horiz-adv-x="1173" 
d="M881 1206h159v-813q0 -90 -26 -162.5t-69 -119.5t-102.5 -78t-123 -44.5t-133.5 -13.5t-133.5 13.5t-123 44.5t-102.5 78t-68.5 119.5t-25.5 162.5v813h160v-774q0 -168 78 -247t215 -79q138 0 216.5 78t78.5 242v780zM281 1454q0 46 32.5 78.5t77.5 32.5
q46 0 78.5 -32.5t32.5 -78.5q0 -45 -33 -78t-78 -33q-44 0 -77 33.5t-33 77.5zM668 1452q0 46 33 78.5t77 32.5q46 0 78.5 -32.5t32.5 -78.5q0 -45 -33 -78t-78 -33q-44 0 -77 33.5t-33 77.5z" />
    <glyph glyph-name="Yacute" unicode="&#xdd;" horiz-adv-x="950" 
d="M201 1206l207 -413q29 -58 49 -105.5t25 -65.5l5 -18h9q14 58 73 187l193 415h168l-363 -731v-475h-159v475l-388 731h181zM543 1341h-142l127 238h213z" />
    <glyph glyph-name="Thorn" unicode="&#xde;" horiz-adv-x="999" 
d="M334 846v-461h184q139 0 195.5 60t56.5 176q0 225 -256 225h-180zM334 0h-160v1206h160v-227h182q422 0 422 -348q0 -180 -102.5 -278.5t-303.5 -98.5h-198v-254z" />
    <glyph glyph-name="germandbls" unicode="&#xdf;" horiz-adv-x="1067" 
d="M154 0v948q0 219 103.5 326.5t289.5 107.5q171 0 266.5 -85.5t95.5 -223.5q0 -129 -64.5 -200t-176.5 -87v-8q149 -8 233 -107.5t84 -275.5q0 -198 -86.5 -309t-265.5 -111q-99 0 -157 35.5t-97 112.5l98 96q24 -62 63 -93.5t99 -31.5q188 0 188 305q0 143 -79.5 229.5
t-217.5 86.5h-102v125h72q128 0 189 56t61 153q0 99 -55.5 156t-151.5 57q-234 0 -234 -324v-938h-155z" />
    <glyph glyph-name="agrave" unicode="&#xe0;" horiz-adv-x="966" 
d="M637 281v151q-205 4 -302 -40.5t-97 -143.5q0 -68 42.5 -110t122.5 -42q89 0 161.5 51t72.5 134zM793 684v-481q0 -51 19 -69.5t52 -18.5q32 0 51 8v-125q-46 -12 -84 -12q-167 0 -184 153q-35 -84 -110 -124t-170 -40q-127 0 -206 68t-79 186q0 339 555 314v127
q0 172 -191 172q-86 0 -135 -40.5t-55 -117.5l-143 21q5 72 37.5 125.5t84.5 82.5t109 42.5t121 13.5q52 0 98 -8.5t89 -29t73.5 -52.5t49 -81.5t18.5 -113.5zM551 1085h-133l-236 293h215z" />
    <glyph glyph-name="aacute" unicode="&#xe1;" horiz-adv-x="966" 
d="M637 281v151q-205 4 -302 -40.5t-97 -143.5q0 -68 42.5 -110t122.5 -42q89 0 161.5 51t72.5 134zM793 684v-481q0 -51 19 -69.5t52 -18.5q32 0 51 8v-125q-46 -12 -84 -12q-167 0 -184 153q-35 -84 -110 -124t-170 -40q-127 0 -206 68t-79 186q0 339 555 314v127
q0 172 -191 172q-86 0 -135 -40.5t-55 -117.5l-143 21q5 72 37.5 125.5t84.5 82.5t109 42.5t121 13.5q52 0 98 -8.5t89 -29t73.5 -52.5t49 -81.5t18.5 -113.5zM522 1085h-133l154 293h215z" />
    <glyph glyph-name="acircumflex" unicode="&#xe2;" horiz-adv-x="966" 
d="M637 281v151q-205 4 -302 -40.5t-97 -143.5q0 -68 42.5 -110t122.5 -42q89 0 161.5 51t72.5 134zM793 684v-481q0 -51 19 -69.5t52 -18.5q32 0 51 8v-125q-46 -12 -84 -12q-167 0 -184 153q-35 -84 -110 -124t-170 -40q-127 0 -206 68t-79 186q0 339 555 314v127
q0 172 -191 172q-86 0 -135 -40.5t-55 -117.5l-143 21q5 72 37.5 125.5t84.5 82.5t109 42.5t121 13.5q52 0 98 -8.5t89 -29t73.5 -52.5t49 -81.5t18.5 -113.5zM426 1378h86l250 -293h-166l-74 91q-17 22 -29.5 42t-16.5 30l-3 9h-8q-10 -32 -49 -81l-74 -91h-166z" />
    <glyph glyph-name="atilde" unicode="&#xe3;" horiz-adv-x="966" 
d="M637 281v151q-205 4 -302 -40.5t-97 -143.5q0 -68 42.5 -110t122.5 -42q89 0 161.5 51t72.5 134zM793 684v-481q0 -51 19 -69.5t52 -18.5q32 0 51 8v-125q-46 -12 -84 -12q-167 0 -184 153q-35 -84 -110 -124t-170 -40q-127 0 -206 68t-79 186q0 339 555 314v127
q0 172 -191 172q-86 0 -135 -40.5t-55 -117.5l-143 21q5 72 37.5 125.5t84.5 82.5t109 42.5t121 13.5q52 0 98 -8.5t89 -29t73.5 -52.5t49 -81.5t18.5 -113.5zM610 1087q-11 0 -22 1.5t-19 2.5t-19 5t-16.5 5.5t-18 8t-15.5 8t-17.5 10t-17.5 9.5q-8 5 -25 14.5t-23 13
t-18.5 9.5t-20 8t-17.5 4t-21 2q-72 0 -61 -96h-99q-34 94 8 162.5t134 68.5q36 0 67.5 -8.5t49 -18t53.5 -30.5q45 -28 63.5 -36.5t44.5 -8.5q64 0 59 102h105q30 -104 -11 -170t-143 -66z" />
    <glyph glyph-name="adieresis" unicode="&#xe4;" horiz-adv-x="966" 
d="M637 281v151q-205 4 -302 -40.5t-97 -143.5q0 -68 42.5 -110t122.5 -42q89 0 161.5 51t72.5 134zM793 684v-481q0 -51 19 -69.5t52 -18.5q32 0 51 8v-125q-46 -12 -84 -12q-167 0 -184 153q-35 -84 -110 -124t-170 -40q-127 0 -206 68t-79 186q0 339 555 314v127
q0 172 -191 172q-86 0 -135 -40.5t-55 -117.5l-143 21q5 72 37.5 125.5t84.5 82.5t109 42.5t121 13.5q52 0 98 -8.5t89 -29t73.5 -52.5t49 -81.5t18.5 -113.5zM164 1219q0 45 32.5 77.5t77.5 32.5q46 0 78.5 -32t32.5 -78q0 -45 -33 -78t-78 -33q-44 0 -77 33.5t-33 77.5z
M551 1217q0 45 33 77.5t78 32.5q46 0 78 -32t32 -78q0 -45 -32.5 -78t-77.5 -33q-44 0 -77.5 33.5t-33.5 77.5z" />
    <glyph glyph-name="aring" unicode="&#xe5;" horiz-adv-x="966" 
d="M637 281v151q-205 4 -302 -40.5t-97 -143.5q0 -68 42.5 -110t122.5 -42q89 0 161.5 51t72.5 134zM793 684v-481q0 -51 19 -69.5t52 -18.5q32 0 51 8v-125q-46 -12 -84 -12q-167 0 -184 153q-35 -84 -110 -124t-170 -40q-127 0 -206 68t-79 186q0 339 555 314v127
q0 172 -191 172q-86 0 -135 -40.5t-55 -117.5l-143 21q5 72 37.5 125.5t84.5 82.5t109 42.5t121 13.5q52 0 98 -8.5t89 -29t73.5 -52.5t49 -81.5t18.5 -113.5zM469 1073q-94 0 -148.5 55.5t-54.5 141.5q0 79 56.5 134.5t146.5 55.5t146.5 -55.5t56.5 -134.5
q0 -86 -54.5 -141.5t-148.5 -55.5zM469 1386q-53 0 -85 -33.5t-32 -86.5q0 -51 30.5 -82t86.5 -31t86.5 31t30.5 82q0 53 -32 86.5t-85 33.5z" />
    <glyph glyph-name="ae" unicode="&#xe6;" horiz-adv-x="1513" 
d="M1055 98q88 0 142.5 39t78.5 125l137 -31q-25 -136 -124 -196t-247 -60q-219 0 -329 170q-30 -81 -120 -125.5t-208 -44.5q-141 0 -222 66.5t-81 198.5q0 162 135.5 242t419.5 81q8 58 29 127q-11 74 -68 113t-135 39q-88 0 -144.5 -41t-62.5 -117l-143 21
q5 72 37.5 125.5t84.5 82.5t109 42.5t121 13.5q208 0 283 -131q115 131 307 131q174 0 270 -110t96 -290q0 -86 -18 -131h-621q8 -154 78.5 -247t194.5 -93zM786 563h482q2 16 2 43q0 101 -62.5 169.5t-163.5 68.5q-109 0 -176 -72.5t-82 -208.5zM403 96q94 0 167 51t83 138
q-17 66 -20 155q-202 -2 -298.5 -45t-96.5 -147q0 -68 42.5 -110t122.5 -42z" />
    <glyph glyph-name="ccedilla" unicode="&#xe7;" horiz-adv-x="929" 
d="M709 -258q0 -85 -58 -129.5t-149 -44.5q-115 0 -174 78l47 98q51 -76 127 -76q78 0 78 74q0 90 -144 90l10 148q-163 18 -258.5 144t-95.5 343q0 234 114 368t308 134q148 0 235.5 -75t96.5 -216l-146 -23q-13 92 -63.5 138.5t-132.5 46.5q-126 0 -194 -103t-68 -272
q0 -159 74.5 -262t197.5 -103q168 0 213 162l131 -29q-21 -127 -107.5 -188.5t-218.5 -67.5l-4 -63q181 -17 181 -172z" />
    <glyph glyph-name="egrave" unicode="&#xe8;" horiz-adv-x="972" 
d="M514 98q88 0 142.5 39t78.5 125l137 -31q-25 -136 -123.5 -196t-246.5 -60q-188 0 -299 129t-111 363t114 368t308 134q174 0 270.5 -110t96.5 -290q0 -83 -19 -131h-620q8 -154 78 -247t194 -93zM246 563h481q2 16 2 43q0 101 -62.5 169.5t-162.5 68.5
q-109 0 -176 -72.5t-82 -208.5zM598 1085h-133l-236 293h215z" />
    <glyph glyph-name="eacute" unicode="&#xe9;" horiz-adv-x="972" 
d="M514 98q88 0 142.5 39t78.5 125l137 -31q-25 -136 -123.5 -196t-246.5 -60q-188 0 -299 129t-111 363t114 368t308 134q174 0 270.5 -110t96.5 -290q0 -83 -19 -131h-620q8 -154 78 -247t194 -93zM246 563h481q2 16 2 43q0 101 -62.5 169.5t-162.5 68.5
q-109 0 -176 -72.5t-82 -208.5zM569 1085h-133l154 293h215z" />
    <glyph glyph-name="ecircumflex" unicode="&#xea;" horiz-adv-x="972" 
d="M514 98q88 0 142.5 39t78.5 125l137 -31q-25 -136 -123.5 -196t-246.5 -60q-188 0 -299 129t-111 363t114 368t308 134q174 0 270.5 -110t96.5 -290q0 -83 -19 -131h-620q8 -154 78 -247t194 -93zM246 563h481q2 16 2 43q0 101 -62.5 169.5t-162.5 68.5
q-109 0 -176 -72.5t-82 -208.5zM475 1378h86l250 -293h-166l-74 91q-17 22 -29.5 42t-15.5 30l-4 9h-8q-10 -32 -49 -81l-74 -91h-166z" />
    <glyph glyph-name="edieresis" unicode="&#xeb;" horiz-adv-x="972" 
d="M514 98q88 0 142.5 39t78.5 125l137 -31q-25 -136 -123.5 -196t-246.5 -60q-188 0 -299 129t-111 363t114 368t308 134q174 0 270.5 -110t96.5 -290q0 -83 -19 -131h-620q8 -154 78 -247t194 -93zM246 563h481q2 16 2 43q0 101 -62.5 169.5t-162.5 68.5
q-109 0 -176 -72.5t-82 -208.5zM211 1219q0 45 33 77.5t78 32.5q46 0 78 -32t32 -78q0 -45 -32.5 -78t-77.5 -33q-44 0 -77.5 33.5t-33.5 77.5zM598 1217q0 45 33 77.5t78 32.5q46 0 78 -32t32 -78q0 -45 -32.5 -78t-77.5 -33q-44 0 -77.5 33.5t-33.5 77.5z" />
    <glyph glyph-name="igrave" unicode="&#xec;" horiz-adv-x="462" 
d="M309 1085h-133l-235 293h215zM154 946h155v-946h-155v946z" />
    <glyph glyph-name="iacute" unicode="&#xed;" horiz-adv-x="462" 
d="M289 1085h-133l153 293h215zM154 946h155v-946h-155v946z" />
    <glyph glyph-name="icircumflex" unicode="&#xee;" horiz-adv-x="462" 
d="M154 946h155v-946h-155v946zM188 1378h86l250 -293h-166l-73 91q-17 22 -29.5 42t-15.5 30l-4 9h-9q-10 -32 -49 -81l-74 -91h-165z" />
    <glyph glyph-name="idieresis" unicode="&#xef;" horiz-adv-x="462" 
d="M-74 1219q0 45 33 77.5t78 32.5q46 0 78 -32t32 -78q0 -45 -32.5 -78t-77.5 -33q-44 0 -77.5 33.5t-33.5 77.5zM313 1217q0 45 33 77.5t78 32.5q46 0 78.5 -32t32.5 -78q0 -45 -33 -78t-78 -33q-44 0 -77.5 33.5t-33.5 77.5zM154 946h155v-946h-155v946z" />
    <glyph glyph-name="eth" unicode="&#xf0;" horiz-adv-x="1030" 
d="M264 1020l-22 84l258 51q-77 71 -252 148l121 73q151 -59 280 -182l207 41l23 -86l-154 -33q100 -123 156.5 -280.5t56.5 -307.5q0 -280 -112.5 -416.5t-311.5 -136.5q-195 0 -308.5 129t-113.5 363q0 231 108 356t283 125q161 0 248 -125h8q-52 143 -166 260zM780 467
q0 173 -70 265.5t-202 92.5q-131 0 -196.5 -91.5t-65.5 -266.5q0 -176 67.5 -272.5t198.5 -96.5q135 0 201.5 95.5t66.5 273.5z" />
    <glyph glyph-name="ntilde" unicode="&#xf1;" 
d="M270 946l19 -182q74 205 303 205q129 0 210 -72.5t81 -218.5v-678h-156v639q0 92 -45.5 143.5t-132.5 51.5q-50 0 -91 -14t-75.5 -45.5t-54 -88.5t-19.5 -135v-551h-155v946h116zM670 1087q-10 0 -19 0.5t-18.5 3t-16 3.5t-17 5t-14.5 5.5t-15.5 7.5t-14 7.5t-16 9
t-15.5 8.5q-8 5 -25 14.5t-23 13t-18.5 9.5t-20 8t-17.5 4t-21 2q-72 0 -61 -96h-98q-34 94 7.5 162.5t133.5 68.5q36 0 67.5 -8.5t49 -18t53.5 -30.5q45 -28 63.5 -36.5t44.5 -8.5q65 0 60 102h104q30 -104 -10.5 -170t-142.5 -66z" />
    <glyph glyph-name="ograve" unicode="&#xf2;" horiz-adv-x="1028" 
d="M514 -25q-195 0 -308.5 132t-113.5 372q0 237 113 363.5t309 126.5t309 -126.5t113 -363.5q0 -240 -113.5 -372t-308.5 -132zM514 842q-268 0 -268 -363q0 -381 268 -381t268 381q0 363 -268 363zM596 1085h-133l-236 293h215z" />
    <glyph glyph-name="oacute" unicode="&#xf3;" horiz-adv-x="1028" 
d="M514 -25q-195 0 -308.5 132t-113.5 372q0 237 113 363.5t309 126.5t309 -126.5t113 -363.5q0 -240 -113.5 -372t-308.5 -132zM514 842q-268 0 -268 -363q0 -381 268 -381t268 381q0 363 -268 363zM567 1085h-133l154 293h215z" />
    <glyph glyph-name="ocircumflex" unicode="&#xf4;" horiz-adv-x="1028" 
d="M514 -25q-195 0 -308.5 132t-113.5 372q0 237 113 363.5t309 126.5t309 -126.5t113 -363.5q0 -240 -113.5 -372t-308.5 -132zM514 842q-268 0 -268 -363q0 -381 268 -381t268 381q0 363 -268 363zM471 1378h86l250 -293h-166l-74 91q-17 22 -29.5 42t-15.5 30l-4 9h-8
q-10 -32 -49 -81l-74 -91h-166z" />
    <glyph glyph-name="otilde" unicode="&#xf5;" horiz-adv-x="1028" 
d="M514 -25q-195 0 -308.5 132t-113.5 372q0 237 113 363.5t309 126.5t309 -126.5t113 -363.5q0 -240 -113.5 -372t-308.5 -132zM514 842q-268 0 -268 -363q0 -381 268 -381t268 381q0 363 -268 363zM653 1087q-11 0 -22 1.5t-19 2.5t-19 5t-16.5 5.5t-18 8t-15.5 8
t-17.5 10t-17.5 9.5q-8 5 -25 14.5t-23 13t-18.5 9.5t-20 8t-17.5 4t-21 2q-72 0 -61 -96h-99q-34 94 8 162.5t134 68.5q36 0 67.5 -8.5t49 -18t53.5 -30.5q45 -28 63.5 -36.5t44.5 -8.5q64 0 59 102h105q30 -104 -11 -170t-143 -66z" />
    <glyph glyph-name="odieresis" unicode="&#xf6;" horiz-adv-x="1028" 
d="M514 -25q-195 0 -308.5 132t-113.5 372q0 237 113 363.5t309 126.5t309 -126.5t113 -363.5q0 -240 -113.5 -372t-308.5 -132zM514 842q-268 0 -268 -363q0 -381 268 -381t268 381q0 363 -268 363zM209 1219q0 45 32.5 77.5t77.5 32.5q46 0 78.5 -32t32.5 -78
q0 -45 -33 -78t-78 -33q-44 0 -77 33.5t-33 77.5zM596 1217q0 45 33 77.5t78 32.5q46 0 78 -32t32 -78q0 -45 -32.5 -78t-77.5 -33q-44 0 -77.5 33.5t-33.5 77.5z" />
    <glyph glyph-name="divide" unicode="&#xf7;" horiz-adv-x="1019" 
d="M928 461h-836v94h836v-94zM416 143q0 37 25.5 62.5t62.5 25.5q36 0 62 -26t26 -62q0 -35 -26.5 -60.5t-61.5 -25.5q-37 0 -62.5 25.5t-25.5 60.5zM416 858q0 37 25.5 63.5t62.5 26.5q35 0 61.5 -26.5t26.5 -63.5q0 -35 -26.5 -60.5t-61.5 -25.5q-37 0 -62.5 25.5
t-25.5 60.5z" />
    <glyph glyph-name="oslash" unicode="&#xf8;" horiz-adv-x="1028" 
d="M141 -29l-92 78l113 121q-70 124 -70 309q0 237 113 363.5t309 126.5q179 0 291 -109l98 107l92 -78l-118 -127q59 -115 59 -283q0 -240 -113.5 -372t-308.5 -132q-171 0 -276 99zM514 842q-268 0 -268 -363q0 -113 24 -192l439 471q-66 84 -195 84zM782 479
q0 91 -18 162l-434 -467q64 -76 184 -76q268 0 268 381z" />
    <glyph glyph-name="ugrave" unicode="&#xf9;" 
d="M739 0l-18 170q-36 -103 -108 -149t-183 -46q-136 0 -211.5 76t-75.5 240v655h156v-641q0 -112 44 -163.5t138 -51.5q41 0 82 18.5t75.5 52.5t56.5 89t22 121v575h155v-946h-133zM590 1085h-133l-236 293h215z" />
    <glyph glyph-name="uacute" unicode="&#xfa;" 
d="M739 0l-18 170q-36 -103 -108 -149t-183 -46q-136 0 -211.5 76t-75.5 240v655h156v-641q0 -112 44 -163.5t138 -51.5q41 0 82 18.5t75.5 52.5t56.5 89t22 121v575h155v-946h-133zM561 1085h-133l154 293h215z" />
    <glyph glyph-name="ucircumflex" unicode="&#xfb;" 
d="M739 0l-18 170q-36 -103 -108 -149t-183 -46q-136 0 -211.5 76t-75.5 240v655h156v-641q0 -112 44 -163.5t138 -51.5q41 0 82 18.5t75.5 52.5t56.5 89t22 121v575h155v-946h-133zM465 1378h86l250 -293h-166l-74 91q-17 22 -29.5 42t-15.5 30l-4 9h-8q-10 -32 -49 -81
l-74 -91h-166z" />
    <glyph glyph-name="udieresis" unicode="&#xfc;" 
d="M739 0l-18 170q-36 -103 -108 -149t-183 -46q-136 0 -211.5 76t-75.5 240v655h156v-641q0 -112 44 -163.5t138 -51.5q41 0 82 18.5t75.5 52.5t56.5 89t22 121v575h155v-946h-133zM203 1219q0 45 32.5 77.5t77.5 32.5q46 0 78.5 -32t32.5 -78q0 -45 -33 -78t-78 -33
q-44 0 -77 33.5t-33 77.5zM590 1217q0 45 32.5 77.5t77.5 32.5q46 0 78.5 -32t32.5 -78q0 -45 -33 -78t-78 -33q-44 0 -77 33.5t-33 77.5z" />
    <glyph glyph-name="yacute" unicode="&#xfd;" horiz-adv-x="872" 
d="M190 946l175 -549q26 -83 45.5 -157t25.5 -107l6 -33h9q18 109 73 295l166 551h162l-340 -1022q-66 -196 -154.5 -273t-214.5 -77q-65 0 -129 23l11 129q62 -27 122 -27q79 0 129 54t95 192l-351 1001h170zM504 1085h-133l153 293h215z" />
    <glyph glyph-name="thorn" unicode="&#xfe;" horiz-adv-x="1077" 
d="M309 549v-191q0 -67 22 -120t58 -83t78 -45.5t86 -15.5q119 0 195.5 99t76.5 288q0 177 -66 268t-184 91q-114 0 -190 -78.5t-76 -212.5zM309 125v-541h-155v1784h155v-584q23 64 72.5 107t106.5 60.5t122 17.5q176 0 275.5 -123t99.5 -350q0 -144 -47 -260.5
t-141.5 -188.5t-221.5 -72q-104 0 -170.5 41.5t-95.5 108.5z" />
    <glyph glyph-name="ydieresis" unicode="&#xff;" horiz-adv-x="872" 
d="M190 946l175 -549q26 -83 45.5 -157t25.5 -107l6 -33h9q18 109 73 295l166 551h162l-340 -1022q-66 -196 -154.5 -273t-214.5 -77q-65 0 -129 23l11 129q62 -27 122 -27q79 0 129 54t95 192l-351 1001h170zM145 1219q0 45 33 77.5t78 32.5q46 0 78.5 -32t32.5 -78
q0 -45 -33 -78t-78 -33q-44 0 -77.5 33.5t-33.5 77.5zM532 1217q0 45 33 77.5t78 32.5q46 0 78.5 -32t32.5 -78q0 -45 -33 -78t-78 -33q-44 0 -77.5 33.5t-33.5 77.5z" />
    <glyph glyph-name="Amacron" unicode="&#x100;" horiz-adv-x="1134" 
d="M942 0l-125 356h-506l-125 -356h-166l441 1206h217l436 -1206h-172zM467 803l-111 -316h414l-108 314q-29 83 -52.5 160t-31.5 113l-9 36h-8q-28 -121 -94 -307zM821 1386h-514v121h514v-121z" />
    <glyph glyph-name="amacron" unicode="&#x101;" horiz-adv-x="966" 
d="M637 281v151q-205 4 -302 -40.5t-97 -143.5q0 -68 42.5 -110t122.5 -42q89 0 161.5 51t72.5 134zM793 684v-481q0 -51 19 -69.5t52 -18.5q32 0 51 8v-125q-46 -12 -84 -12q-167 0 -184 153q-35 -84 -110 -124t-170 -40q-127 0 -206 68t-79 186q0 339 555 314v127
q0 172 -191 172q-86 0 -135 -40.5t-55 -117.5l-143 21q5 72 37.5 125.5t84.5 82.5t109 42.5t121 13.5q52 0 98 -8.5t89 -29t73.5 -52.5t49 -81.5t18.5 -113.5zM721 1155h-514v125h514v-125z" />
    <glyph glyph-name="Abreve" unicode="&#x102;" horiz-adv-x="1134" 
d="M942 0l-125 356h-506l-125 -356h-166l441 1206h217l436 -1206h-172zM467 803l-111 -316h414l-108 314q-29 83 -52.5 160t-31.5 113l-9 36h-8q-28 -121 -94 -307zM565 1335q-124 0 -195 69.5t-71 188.5h125q6 -70 38.5 -105.5t102.5 -35.5q72 0 105 35.5t39 105.5h125
q0 -119 -72 -188.5t-197 -69.5z" />
    <glyph glyph-name="abreve" unicode="&#x103;" horiz-adv-x="966" 
d="M637 281v151q-205 4 -302 -40.5t-97 -143.5q0 -68 42.5 -110t122.5 -42q89 0 161.5 51t72.5 134zM793 684v-481q0 -51 19 -69.5t52 -18.5q32 0 51 8v-125q-46 -12 -84 -12q-167 0 -184 153q-35 -84 -110 -124t-170 -40q-127 0 -206 68t-79 186q0 339 555 314v127
q0 172 -191 172q-86 0 -135 -40.5t-55 -117.5l-143 21q5 72 37.5 125.5t84.5 82.5t109 42.5t121 13.5q52 0 98 -8.5t89 -29t73.5 -52.5t49 -81.5t18.5 -113.5zM469 1081q-125 0 -196.5 75.5t-71.5 203.5h125q7 -79 37 -119.5t106 -40.5t106 40.5t37 119.5h125
q0 -128 -71.5 -203.5t-196.5 -75.5z" />
    <glyph glyph-name="Aogonek" unicode="&#x104;" horiz-adv-x="1134" 
d="M659 -223q0 61 23.5 111t63.5 83.5t83 55t91 34.5l-103 295h-506l-125 -356h-166l441 1206h217l436 -1206h-72q-54 0 -106.5 -21t-92.5 -69.5t-40 -112.5q0 -58 28 -90.5t82 -32.5q96 0 146 95l59 -72q-64 -129 -229 -129q-107 0 -168.5 55t-61.5 154zM467 803l-111 -316
h414l-108 314q-29 83 -52.5 160t-31.5 113l-9 36h-8q-28 -121 -94 -307z" />
    <glyph glyph-name="aogonek" unicode="&#x105;" horiz-adv-x="966" 
d="M487 -223q0 65 34 119t78.5 84.5t100.5 52.5q-47 30 -53 106q-34 -81 -110.5 -122.5t-169.5 -41.5q-127 0 -206 68t-79 186q0 339 555 314v127q0 172 -191 172q-86 0 -135 -40.5t-55 -117.5l-143 21q5 72 37.5 125.5t84.5 82.5t109 42.5t121 13.5q52 0 98 -8.5t89 -29
t73.5 -52.5t49 -81.5t18.5 -113.5v-481q0 -51 19 -69.5t52 -18.5q32 0 51 8v-125q-50 -3 -95.5 -13.5t-90 -32.5t-71.5 -62t-27 -93q0 -58 28 -90.5t82 -32.5q96 0 146 95l59 -72q-64 -129 -229 -129q-107 0 -168.5 55t-61.5 154zM637 281v151q-205 4 -302 -40.5t-97 -143.5
q0 -68 42.5 -110t122.5 -42q89 0 161.5 51t72.5 134z" />
    <glyph glyph-name="Cacute" unicode="&#x106;" horiz-adv-x="1138" 
d="M973 311l112 -94q-83 -127 -193.5 -184.5t-279.5 -57.5q-236 0 -378 164t-142 459q0 297 152.5 465t402.5 168q319 0 440 -285l-145 -72q-39 109 -120 165.5t-187 56.5q-177 0 -276 -132.5t-99 -363.5q0 -230 92 -356.5t269 -126.5q121 0 202 44.5t150 149.5zM688 1341
h-141l127 238h213z" />
    <glyph glyph-name="cacute" unicode="&#x107;" horiz-adv-x="929" 
d="M727 262l131 -29q-15 -91 -67.5 -150.5t-125 -83.5t-167.5 -24q-184 0 -295 129.5t-111 362.5q0 234 114 368t308 134q148 0 235.5 -75t96.5 -216l-146 -23q-13 92 -63.5 138.5t-132.5 46.5q-126 0 -194 -103t-68 -272q0 -159 74.5 -262t197.5 -103q168 0 213 162z
M571 1085h-133l154 293h215z" />
    <glyph glyph-name="Ccircumflex" unicode="&#x108;" horiz-adv-x="1138" 
d="M973 311l112 -94q-83 -127 -193.5 -184.5t-279.5 -57.5q-236 0 -378 164t-142 459q0 297 152.5 465t402.5 168q319 0 440 -285l-145 -72q-39 109 -120 165.5t-187 56.5q-177 0 -276 -132.5t-99 -363.5q0 -230 92 -356.5t269 -126.5q121 0 202 44.5t150 149.5zM594 1595
h94l248 -254h-178l-66 70q-17 19 -29.5 37t-16.5 26l-3 9h-4q-10 -29 -49 -72l-66 -70h-178z" />
    <glyph glyph-name="ccircumflex" unicode="&#x109;" horiz-adv-x="929" 
d="M727 262l131 -29q-15 -91 -67.5 -150.5t-125 -83.5t-167.5 -24q-184 0 -295 129.5t-111 362.5q0 234 114 368t308 134q148 0 235.5 -75t96.5 -216l-146 -23q-13 92 -63.5 138.5t-132.5 46.5q-126 0 -194 -103t-68 -272q0 -159 74.5 -262t197.5 -103q168 0 213 162z
M469 1378h86l250 -293h-166l-74 91q-17 22 -29.5 42t-15.5 30l-4 9h-8q-10 -32 -49 -81l-74 -91h-166z" />
    <glyph glyph-name="Cdotaccent" unicode="&#x10a;" horiz-adv-x="1138" 
d="M973 311l112 -94q-83 -127 -193.5 -184.5t-279.5 -57.5q-236 0 -378 164t-142 459q0 297 152.5 465t402.5 168q319 0 440 -285l-145 -72q-39 109 -120 165.5t-187 56.5q-177 0 -276 -132.5t-99 -363.5q0 -230 92 -356.5t269 -126.5q121 0 202 44.5t150 149.5zM520 1452
q0 47 32 80t77 33q47 0 79.5 -33t32.5 -80q0 -45 -32.5 -78t-79.5 -33q-44 0 -76.5 33.5t-32.5 77.5z" />
    <glyph glyph-name="cdotaccent" unicode="&#x10b;" horiz-adv-x="929" 
d="M727 262l131 -29q-15 -91 -67.5 -150.5t-125 -83.5t-167.5 -24q-184 0 -295 129.5t-111 362.5q0 234 114 368t308 134q148 0 235.5 -75t96.5 -216l-146 -23q-13 92 -63.5 138.5t-132.5 46.5q-126 0 -194 -103t-68 -272q0 -159 74.5 -262t197.5 -103q168 0 213 162z
M401 1212q0 46 32.5 79.5t76.5 33.5q47 0 80 -33.5t33 -79.5q0 -45 -33 -77.5t-80 -32.5q-44 0 -76.5 33t-32.5 77z" />
    <glyph glyph-name="Ccaron" unicode="&#x10c;" horiz-adv-x="1138" 
d="M973 311l112 -94q-83 -127 -193.5 -184.5t-279.5 -57.5q-236 0 -378 164t-142 459q0 297 152.5 465t402.5 168q319 0 440 -285l-145 -72q-39 109 -120 165.5t-187 56.5q-177 0 -276 -132.5t-99 -363.5q0 -230 92 -356.5t269 -126.5q121 0 202 44.5t150 149.5zM672 1331
h-94l-248 254h178l65 -69q17 -19 29.5 -37t16.5 -27l4 -8h4q10 29 49 72l65 69h179z" />
    <glyph glyph-name="ccaron" unicode="&#x10d;" horiz-adv-x="929" 
d="M727 262l131 -29q-15 -91 -67.5 -150.5t-125 -83.5t-167.5 -24q-184 0 -295 129.5t-111 362.5q0 234 114 368t308 134q148 0 235.5 -75t96.5 -216l-146 -23q-13 92 -63.5 138.5t-132.5 46.5q-126 0 -194 -103t-68 -272q0 -159 74.5 -262t197.5 -103q168 0 213 162z
M555 1085h-86l-250 293h166l74 -94q17 -22 29.5 -42.5t15.5 -29.5l4 -10h8q10 33 49 82l74 94h166z" />
    <glyph glyph-name="Dcaron" unicode="&#x10e;" horiz-adv-x="1198" 
d="M334 133h174q194 0 311 117.5t117 359.5q0 128 -33 221t-91.5 144t-129 74.5t-156.5 23.5h-192v-940zM524 0h-350v1206h352q131 0 234.5 -33t182 -102t121 -184.5t42.5 -270.5q0 -130 -30.5 -235t-84 -175t-128 -117t-159 -68t-180.5 -21zM573 1331h-94l-248 254h179
l65 -69q17 -19 29.5 -37t15.5 -27l4 -8h4q11 29 50 72l65 69h178z" />
    <glyph glyph-name="dcaron" unicode="&#x10f;" horiz-adv-x="1077" 
d="M1266 1368l-105 -358h-112l32 358h185zM768 371v221q0 64 -23 114.5t-60.5 80t-80 44.5t-86.5 15q-123 0 -196.5 -92t-73.5 -293q0 -174 71.5 -267.5t196.5 -93.5q42 0 85.5 17t81 49t61.5 85.5t24 119.5zM766 817v551h158v-1368h-138l-18 164q-75 -189 -303 -189
q-74 0 -140 30.5t-118.5 89t-83.5 153t-31 211.5q0 242 111 376t313 134q88 0 159.5 -45t90.5 -107z" />
    <glyph glyph-name="Dcroat" unicode="&#x110;" horiz-adv-x="1198" 
d="M524 0h-350v532h-117v140h117v534h352q131 0 234.5 -33t182 -102t121 -184.5t42.5 -270.5q0 -130 -30.5 -235t-84 -175t-128 -117t-159 -68t-180.5 -21zM334 133h174q194 0 311 117.5t117 359.5q0 128 -33 221t-91.5 144t-129 74.5t-156.5 23.5h-192v-401h237v-140h-237
v-399z" />
    <glyph glyph-name="dcroat" unicode="&#x111;" horiz-adv-x="1077" 
d="M467 1092v120h299v156h158v-156h135v-120h-135v-1092h-138l-18 164q-75 -189 -303 -189q-74 0 -140 30.5t-118.5 89t-83.5 153t-31 211.5q0 242 111 376t313 134q88 0 159.5 -45t90.5 -107v275h-299zM768 371v221q0 64 -23 114.5t-60.5 80t-80 44.5t-86.5 15
q-123 0 -196.5 -92t-73.5 -293q0 -174 71.5 -267.5t196.5 -93.5q42 0 85.5 17t81 49t61.5 85.5t24 119.5z" />
    <glyph glyph-name="Emacron" unicode="&#x112;" horiz-adv-x="997" 
d="M895 139v-139h-721v1206h721v-139h-561v-395h497v-140h-497v-393h561zM793 1386h-514v121h514v-121z" />
    <glyph glyph-name="emacron" unicode="&#x113;" horiz-adv-x="972" 
d="M514 98q88 0 142.5 39t78.5 125l137 -31q-25 -136 -123.5 -196t-246.5 -60q-188 0 -299 129t-111 363t114 368t308 134q174 0 270.5 -110t96.5 -290q0 -83 -19 -131h-620q8 -154 78 -247t194 -93zM246 563h481q2 16 2 43q0 101 -62.5 169.5t-162.5 68.5
q-109 0 -176 -72.5t-82 -208.5zM772 1155h-514v125h514v-125z" />
    <glyph glyph-name="Ebreve" unicode="&#x114;" horiz-adv-x="997" 
d="M895 139v-139h-721v1206h721v-139h-561v-395h497v-140h-497v-393h561zM526 1335q-124 0 -195 69.5t-71 188.5h125q6 -70 38.5 -105.5t102.5 -35.5q72 0 105 35.5t39 105.5h125q0 -119 -72 -188.5t-197 -69.5z" />
    <glyph glyph-name="ebreve" unicode="&#x115;" horiz-adv-x="972" 
d="M514 98q88 0 142.5 39t78.5 125l137 -31q-25 -136 -123.5 -196t-246.5 -60q-188 0 -299 129t-111 363t114 368t308 134q174 0 270.5 -110t96.5 -290q0 -83 -19 -131h-620q8 -154 78 -247t194 -93zM246 563h481q2 16 2 43q0 101 -62.5 169.5t-162.5 68.5
q-109 0 -176 -72.5t-82 -208.5zM510 1081q-125 0 -196.5 75.5t-71.5 203.5h125q7 -79 37 -119.5t106 -40.5t106 40.5t37 119.5h125q0 -128 -71.5 -203.5t-196.5 -75.5z" />
    <glyph glyph-name="Edotaccent" unicode="&#x116;" horiz-adv-x="997" 
d="M895 139v-139h-721v1206h721v-139h-561v-395h497v-140h-497v-393h561zM414 1452q0 47 32 80t76 33q47 0 80 -33t33 -80q0 -45 -33 -78t-80 -33q-44 0 -76 33t-32 78z" />
    <glyph glyph-name="edotaccent" unicode="&#x117;" horiz-adv-x="972" 
d="M514 98q88 0 142.5 39t78.5 125l137 -31q-25 -136 -123.5 -196t-246.5 -60q-188 0 -299 129t-111 363t114 368t308 134q174 0 270.5 -110t96.5 -290q0 -83 -19 -131h-620q8 -154 78 -247t194 -93zM246 563h481q2 16 2 43q0 101 -62.5 169.5t-162.5 68.5
q-109 0 -176 -72.5t-82 -208.5zM406 1212q0 46 32 79.5t76 33.5q47 0 80 -33.5t33 -79.5q0 -45 -33 -77.5t-80 -32.5q-44 0 -76 33t-32 77z" />
    <glyph glyph-name="Eogonek" unicode="&#x118;" horiz-adv-x="997" 
d="M895 139v-139h-25q-105 0 -172 -52t-67 -151q0 -58 28 -90.5t82 -32.5q96 0 146 95l59 -72q-64 -129 -229 -129q-107 0 -168.5 55t-61.5 154q0 153 150 223h-463v1206h721v-139h-561v-395h497v-140h-497v-393h561z" />
    <glyph glyph-name="eogonek" unicode="&#x119;" horiz-adv-x="972" 
d="M362 -223q0 119 95 200q-169 15 -267 142.5t-98 347.5q0 234 114 368t308 134q174 0 270.5 -110t96.5 -290q0 -83 -19 -131h-620q8 -154 78 -247t194 -93q88 0 142.5 39t78.5 125l137 -31q-10 -56 -32 -97.5t-54.5 -67.5t-61.5 -41t-69 -29q-149 -52 -149 -199
q0 -58 28 -90.5t82 -32.5q96 0 146 95l59 -72q-65 -129 -229 -129q-107 0 -168.5 55t-61.5 154zM246 563h481q2 16 2 43q0 101 -62.5 169.5t-162.5 68.5q-109 0 -176 -72.5t-82 -208.5z" />
    <glyph glyph-name="Ecaron" unicode="&#x11a;" horiz-adv-x="997" 
d="M895 139v-139h-721v1206h721v-139h-561v-395h497v-140h-497v-393h561zM582 1331h-95l-247 254h178l65 -69q17 -19 29.5 -37t15.5 -27l4 -8h5q10 29 49 72l65 69h178z" />
    <glyph glyph-name="ecaron" unicode="&#x11b;" horiz-adv-x="972" 
d="M514 98q88 0 142.5 39t78.5 125l137 -31q-25 -136 -123.5 -196t-246.5 -60q-188 0 -299 129t-111 363t114 368t308 134q174 0 270.5 -110t96.5 -290q0 -83 -19 -131h-620q8 -154 78 -247t194 -93zM246 563h481q2 16 2 43q0 101 -62.5 169.5t-162.5 68.5
q-109 0 -176 -72.5t-82 -208.5zM559 1085h-86l-250 293h166l74 -94q17 -22 29.5 -42.5t15.5 -29.5l4 -10h8q10 33 49 82l74 94h166z" />
    <glyph glyph-name="Gcircumflex" unicode="&#x11c;" horiz-adv-x="1236" 
d="M637 614h467v-614h-141l-19 162q-32 -87 -127.5 -137t-204.5 -50q-236 0 -378 164t-142 459q0 297 152.5 465t402.5 168q167 0 275 -70t165 -215l-145 -72q-39 109 -120 165.5t-187 56.5q-177 0 -276 -132.5t-99 -363.5q0 -226 92.5 -358.5t268.5 -132.5q86 0 156.5 25
t118.5 84.5t48 146.5v106h-307v143zM600 1595h94l248 -254h-178l-66 70q-17 19 -29.5 37t-16.5 26l-3 9h-4q-10 -29 -49 -72l-66 -70h-178z" />
    <glyph glyph-name="gcircumflex" unicode="&#x11d;" horiz-adv-x="980" 
d="M463 969q173 0 274 -82q57 24 74 143l139 -49q-10 -67 -51 -111.5t-102 -56.5q45 -71 45 -180q0 -158 -106.5 -243t-268.5 -85q-79 0 -125 17q-72 -38 -72 -105q0 -86 111 -86h219q161 0 243.5 -65t82.5 -193q0 -70 -29.5 -124.5t-77 -88t-114.5 -55t-134.5 -29.5
t-144.5 -8q-82 0 -150 12t-128 39t-94 78t-34 123q0 94 65 155t177 70q-60 7 -92.5 45.5t-32.5 95.5q0 124 135 158q-86 39 -133 113t-47 176q0 155 101.5 245.5t269.5 90.5zM170 -170q0 -149 268 -149q338 0 338 172q0 141 -176 141h-194q-236 0 -236 -164zM244 635
q0 -98 58.5 -156.5t160.5 -58.5q105 0 165 54t60 161q0 106 -60.5 162.5t-164.5 54.5t-161.5 -58t-57.5 -159zM442 1378h86l250 -293h-166l-73 91q-17 22 -29.5 42t-16.5 30l-4 9h-8q-10 -32 -49 -81l-74 -91h-165z" />
    <glyph glyph-name="Gbreve" unicode="&#x11e;" horiz-adv-x="1236" 
d="M637 614h467v-614h-141l-19 162q-32 -87 -127.5 -137t-204.5 -50q-236 0 -378 164t-142 459q0 297 152.5 465t402.5 168q167 0 275 -70t165 -215l-145 -72q-39 109 -120 165.5t-187 56.5q-177 0 -276 -132.5t-99 -363.5q0 -226 92.5 -358.5t268.5 -132.5q86 0 156.5 25
t118.5 84.5t48 146.5v106h-307v143zM647 1335q-124 0 -195 69.5t-71 188.5h125q6 -70 38.5 -105.5t102.5 -35.5q72 0 105 35.5t39 105.5h124q0 -119 -71.5 -188.5t-196.5 -69.5z" />
    <glyph glyph-name="gbreve" unicode="&#x11f;" horiz-adv-x="980" 
d="M463 969q173 0 274 -82q57 24 74 143l139 -49q-10 -67 -51 -111.5t-102 -56.5q45 -71 45 -180q0 -158 -106.5 -243t-268.5 -85q-79 0 -125 17q-72 -38 -72 -105q0 -86 111 -86h219q161 0 243.5 -65t82.5 -193q0 -70 -29.5 -124.5t-77 -88t-114.5 -55t-134.5 -29.5
t-144.5 -8q-82 0 -150 12t-128 39t-94 78t-34 123q0 94 65 155t177 70q-60 7 -92.5 45.5t-32.5 95.5q0 124 135 158q-86 39 -133 113t-47 176q0 155 101.5 245.5t269.5 90.5zM170 -170q0 -149 268 -149q338 0 338 172q0 141 -176 141h-194q-236 0 -236 -164zM244 635
q0 -98 58.5 -156.5t160.5 -58.5q105 0 165 54t60 161q0 106 -60.5 162.5t-164.5 54.5t-161.5 -58t-57.5 -159zM477 1081q-125 0 -196.5 75.5t-71.5 203.5h125q7 -79 37 -119.5t106 -40.5t106.5 40.5t37.5 119.5h124q0 -128 -71.5 -203.5t-196.5 -75.5z" />
    <glyph glyph-name="Gdotaccent" unicode="&#x120;" horiz-adv-x="1236" 
d="M637 614h467v-614h-141l-19 162q-32 -87 -127.5 -137t-204.5 -50q-236 0 -378 164t-142 459q0 297 152.5 465t402.5 168q167 0 275 -70t165 -215l-145 -72q-39 109 -120 165.5t-187 56.5q-177 0 -276 -132.5t-99 -363.5q0 -226 92.5 -358.5t268.5 -132.5q86 0 156.5 25
t118.5 84.5t48 146.5v106h-307v143zM537 1485q0 47 31.5 79.5t76.5 32.5q47 0 80 -32.5t33 -79.5q0 -45 -33 -78t-80 -33q-44 0 -76 33t-32 78z" />
    <glyph glyph-name="gdotaccent" unicode="&#x121;" horiz-adv-x="980" 
d="M463 969q173 0 274 -82q57 24 74 143l139 -49q-10 -67 -51 -111.5t-102 -56.5q45 -71 45 -180q0 -158 -106.5 -243t-268.5 -85q-79 0 -125 17q-72 -38 -72 -105q0 -86 111 -86h219q161 0 243.5 -65t82.5 -193q0 -70 -29.5 -124.5t-77 -88t-114.5 -55t-134.5 -29.5
t-144.5 -8q-82 0 -150 12t-128 39t-94 78t-34 123q0 94 65 155t177 70q-60 7 -92.5 45.5t-32.5 95.5q0 124 135 158q-86 39 -133 113t-47 176q0 155 101.5 245.5t269.5 90.5zM170 -170q0 -149 268 -149q338 0 338 172q0 141 -176 141h-194q-236 0 -236 -164zM244 635
q0 -98 58.5 -156.5t160.5 -58.5q105 0 165 54t60 161q0 106 -60.5 162.5t-164.5 54.5t-161.5 -58t-57.5 -159zM358 1217q0 46 32.5 79t76.5 33q47 0 80 -33t33 -79q0 -45 -33 -78t-80 -33q-44 0 -76.5 33.5t-32.5 77.5z" />
    <glyph glyph-name="Gcommaaccent" unicode="&#x122;" horiz-adv-x="1236" 
d="M637 614h467v-614h-141l-19 162q-32 -87 -127.5 -137t-204.5 -50q-236 0 -378 164t-142 459q0 297 152.5 465t402.5 168q167 0 275 -70t165 -215l-145 -72q-39 109 -120 165.5t-187 56.5q-177 0 -276 -132.5t-99 -363.5q0 -226 92.5 -358.5t268.5 -132.5q86 0 156.5 25
t118.5 84.5t48 146.5v106h-307v143zM782 -293q0 -108 -57.5 -157.5t-173.5 -49.5v70q61 3 89 22.5t28 69.5q-53 -10 -85 16.5t-32 73.5t29 74t79 27t86.5 -40t36.5 -106z" />
    <glyph glyph-name="gcommaaccent" unicode="&#x123;" horiz-adv-x="980" 
d="M463 969q173 0 274 -82q57 24 74 143l139 -49q-10 -67 -51 -111.5t-102 -56.5q45 -71 45 -180q0 -158 -106.5 -243t-268.5 -85q-79 0 -125 17q-72 -38 -72 -105q0 -86 111 -86h219q161 0 243.5 -65t82.5 -193q0 -70 -29.5 -124.5t-77 -88t-114.5 -55t-134.5 -29.5
t-144.5 -8q-82 0 -150 12t-128 39t-94 78t-34 123q0 94 65 155t177 70q-60 7 -92.5 45.5t-32.5 95.5q0 124 135 158q-86 39 -133 113t-47 176q0 155 101.5 245.5t269.5 90.5zM170 -170q0 -149 268 -149q338 0 338 172q0 141 -176 141h-194q-236 0 -236 -164zM244 635
q0 -98 58.5 -156.5t160.5 -58.5q105 0 165 54t60 161q0 106 -60.5 162.5t-164.5 54.5t-161.5 -58t-57.5 -159zM338 1239q0 108 57.5 157.5t173.5 49.5v-70q-61 -3 -88.5 -22.5t-27.5 -69.5q52 10 84 -16.5t32 -73.5t-29 -73.5t-79 -26.5t-86.5 39.5t-36.5 105.5z" />
    <glyph glyph-name="Hcircumflex" unicode="&#x124;" horiz-adv-x="1277" 
d="M334 0h-160v1206h160v-524h610v524h160v-1206h-160v543h-610v-543zM592 1595h94l248 -254h-178l-66 70q-17 19 -29.5 37t-16.5 26l-3 9h-4q-10 -29 -49 -72l-66 -70h-178z" />
    <glyph glyph-name="hcircumflex" unicode="&#x125;" 
d="M309 1368v-602q66 203 283 203q129 0 210 -72.5t81 -218.5v-678h-156v641q0 91 -46 142t-132 51q-50 0 -91 -14t-75.5 -45.5t-54 -88.5t-19.5 -135v-551h-155v1368h155zM186 1677h95l247 -254h-178l-65 70q-17 19 -29.5 37t-15.5 26l-4 9h-5q-10 -29 -49 -72l-65 -70
h-178z" />
    <glyph glyph-name="Hbar" unicode="&#x126;" horiz-adv-x="1312" 
d="M31 858v139h155v209h160v-209h610v209h160v-209h166v-139h-166v-858h-160v543h-610v-543h-160v858h-155zM346 682h610v176h-610v-176z" />
    <glyph glyph-name="hbar" unicode="&#x127;" 
d="M309 1368v-156h297v-120h-297v-326q66 203 283 203q129 0 210 -72.5t81 -218.5v-678h-156v641q0 91 -46 142t-132 51q-50 0 -91 -14t-75.5 -45.5t-54 -88.5t-19.5 -135v-551h-155v1092h-140v120h140v156h155z" />
    <glyph glyph-name="Itilde" unicode="&#x128;" horiz-adv-x="507" 
d="M174 1206h160v-1206h-160v1206zM395 1341q-11 0 -22 1.5t-19 2.5t-19 5t-16.5 5.5t-18 8t-15.5 8t-17.5 10t-17.5 9.5q-8 5 -25 14.5t-23 13t-18.5 9.5t-20 8t-17.5 4t-21 2q-73 0 -62 -96h-98q-34 94 7.5 165.5t133.5 71.5q36 0 67.5 -8.5t49 -18t53.5 -30.5
q45 -28 64 -36.5t45 -8.5q64 0 59 102h105q30 -104 -11 -173t-143 -69z" />
    <glyph glyph-name="itilde" unicode="&#x129;" horiz-adv-x="462" 
d="M373 1087q-10 0 -19 0.5t-18.5 3t-16 3.5t-17 5t-14.5 5.5t-15.5 7.5t-14 7.5t-16 9t-15.5 8.5q-8 5 -25 14.5t-23 13t-18.5 9.5t-20 8t-17.5 4t-21 2q-72 0 -61 -96h-98q-34 94 7.5 162.5t133.5 68.5q36 0 67.5 -8.5t49 -18t53.5 -30.5q45 -28 63.5 -36.5t44.5 -8.5
q65 0 60 102h104q30 -104 -10.5 -170t-142.5 -66zM154 946h155v-946h-155v946z" />
    <glyph glyph-name="Imacron" unicode="&#x12a;" horiz-adv-x="507" 
d="M174 1206h160v-1206h-160v1206zM512 1386h-514v121h514v-121z" />
    <glyph glyph-name="imacron" unicode="&#x12b;" horiz-adv-x="462" 
d="M453 1155h-443v125h443v-125zM154 946h155v-946h-155v946z" />
    <glyph glyph-name="Ibreve" unicode="&#x12c;" horiz-adv-x="507" 
d="M174 1206h160v-1206h-160v1206zM254 1335q-124 0 -195 69.5t-71 188.5h125q6 -70 38.5 -105.5t102.5 -35.5q72 0 104.5 35.5t38.5 105.5h125q0 -119 -71.5 -188.5t-196.5 -69.5z" />
    <glyph glyph-name="ibreve" unicode="&#x12d;" horiz-adv-x="462" 
d="M231 1081q-125 0 -196.5 75.5t-71.5 203.5h125q7 -79 37 -119.5t106 -40.5t106.5 40.5t37.5 119.5h125q0 -128 -72 -203.5t-197 -75.5zM154 946h155v-946h-155v946z" />
    <glyph glyph-name="Iogonek" unicode="&#x12e;" horiz-adv-x="507" 
d="M-49 -223q0 104 63.5 171t159.5 101v1157h160v-1206q-39 0 -80 -13t-77.5 -37t-59.5 -64t-23 -89q0 -58 28 -90.5t83 -32.5q95 0 145 95l60 -72q-64 -129 -230 -129q-107 0 -168 55t-61 154z" />
    <glyph glyph-name="iogonek" unicode="&#x12f;" horiz-adv-x="462" 
d="M-74 -223q0 73 35.5 130.5t83 89.5t109.5 54v895h155v-946q-54 0 -106.5 -20.5t-92.5 -69t-40 -113.5q0 -58 28 -90.5t82 -32.5q96 0 146 95l59 -72q-65 -129 -229 -129q-107 0 -168.5 55t-61.5 154zM121 1253q0 47 32 80t76 33q46 0 79.5 -33t33.5 -80q0 -44 -33.5 -77
t-79.5 -33q-44 0 -76 33t-32 77z" />
    <glyph glyph-name="Idotaccent" unicode="&#x130;" horiz-adv-x="507" 
d="M174 1206h160v-1206h-160v1206zM143 1452q0 47 32 80t77 33q47 0 80 -33t33 -80q0 -45 -33 -78t-80 -33q-44 0 -76.5 33.5t-32.5 77.5z" />
    <glyph glyph-name="dotlessi" unicode="&#x131;" horiz-adv-x="462" 
d="M154 946h155v-946h-155v946z" />
    <glyph glyph-name="IJ" unicode="&#x132;" horiz-adv-x="1290" 
d="M174 1206h160v-1206h-160v1206zM997 1206h160v-856q0 -102 -30 -176.5t-82.5 -117t-115.5 -62t-138 -19.5q-260 0 -373 238l129 84q51 -106 105 -146t143 -40q116 0 159 71t43 209v815z" />
    <glyph glyph-name="ij" unicode="&#x133;" horiz-adv-x="925" 
d="M121 1253q0 47 32 80t76 33q46 0 79.5 -33t33.5 -80q0 -44 -33.5 -77t-79.5 -33q-44 0 -76 33t-32 77zM154 946h155v-946h-155v946zM616 946h156v-969q0 -115 -27.5 -193.5t-83.5 -123t-131.5 -62t-179.5 -14.5v131q138 -10 202 48t64 190v993zM586 1253q0 47 32 80
t76 33q46 0 79.5 -33t33.5 -80q0 -44 -33.5 -77t-79.5 -33q-44 0 -76 33t-32 77z" />
    <glyph glyph-name="Jcircumflex" unicode="&#x134;" horiz-adv-x="872" 
d="M580 1206h159v-856q0 -102 -30 -176.5t-82.5 -117t-115.5 -62t-138 -19.5q-260 0 -373 238l129 84q51 -106 105 -146t143 -40q116 0 159.5 71t43.5 209v815zM612 1595h95l247 -254h-178l-65 70q-17 19 -29.5 37t-15.5 26l-4 9h-5q-10 -29 -49 -72l-65 -70h-178z" />
    <glyph glyph-name="jcircumflex" unicode="&#x135;" horiz-adv-x="462" 
d="M154 946h155v-969q0 -115 -27.5 -193.5t-83.5 -123t-131.5 -62t-179.5 -14.5v131q138 -10 202.5 48t64.5 190v993zM190 1378h86l250 -293h-166l-73 91q-17 22 -29.5 42t-15.5 30l-4 9h-9q-10 -32 -49 -81l-74 -91h-165z" />
    <glyph glyph-name="Kcommaaccent" unicode="&#x136;" horiz-adv-x="1069" 
d="M1028 0h-197l-397 543h-100v-543h-160v1206h160v-524h106l371 524h188l-432 -585zM649 -293q0 -108 -57.5 -157.5t-173.5 -49.5v70q61 3 89 22.5t28 69.5q-53 -10 -85 16.5t-32 73.5t29 74t79 27t86.5 -40t36.5 -106z" />
    <glyph glyph-name="kcommaaccent" unicode="&#x137;" horiz-adv-x="923" 
d="M485 506l428 -506h-196l-352 434h-56v-434h-155v1368h155v-811h43l338 389h193zM623 -293q0 -108 -58 -157.5t-174 -49.5v70q61 3 89 22.5t28 69.5q-53 -10 -85 16.5t-32 73.5t29.5 74t79.5 27t86.5 -40t36.5 -106z" />
    <glyph glyph-name="kgreenlandic" unicode="&#x138;" horiz-adv-x="923" 
d="M485 506l428 -506h-196l-352 434h-56v-434h-155v946h153v-389h45l338 389h193z" />
    <glyph glyph-name="Lacute" unicode="&#x139;" horiz-adv-x="935" 
d="M174 1206h160v-1067h561v-139h-721v1206zM342 1341h-141l127 238h213z" />
    <glyph glyph-name="lacute" unicode="&#x13a;" horiz-adv-x="516" 
d="M444 127v-129q-56 -12 -100 -12q-89 0 -145 49t-56 143v1190h156v-1165q0 -43 22 -64.5t60 -21.5q30 0 63 10zM289 1466h-142l127 238h213z" />
    <glyph glyph-name="Lcommaaccent" unicode="&#x13b;" horiz-adv-x="935" 
d="M174 1206h160v-1067h561v-139h-721v1206zM670 -293q0 -108 -58 -157.5t-174 -49.5v70q61 3 89 22.5t28 69.5q-53 -10 -85 16.5t-32 73.5t29.5 74t79.5 27t86.5 -40t36.5 -106z" />
    <glyph glyph-name="lcommaaccent" unicode="&#x13c;" horiz-adv-x="516" 
d="M444 127v-129q-56 -12 -100 -12q-89 0 -145 49t-56 143v1190h156v-1165q0 -43 22 -64.5t60 -21.5q30 0 63 10zM416 -293q0 -108 -58 -157.5t-174 -49.5v70q61 3 89 22.5t28 69.5q-53 -10 -85 16.5t-32 73.5t29.5 74t79.5 27t86.5 -40t36.5 -106z" />
    <glyph glyph-name="Lcaron" unicode="&#x13d;" horiz-adv-x="935" 
d="M174 1206h160v-1067h561v-139h-721v1206zM815 1251l-104 -358h-113l33 358h184z" />
    <glyph glyph-name="lcaron" unicode="&#x13e;" horiz-adv-x="516" 
d="M643 1368l-104 -358h-113l33 358h184zM444 127v-129q-56 -12 -100 -12q-89 0 -145 49t-56 143v1190h156v-1165q0 -43 22 -64.5t60 -21.5q30 0 63 10z" />
    <glyph glyph-name="Ldot" unicode="&#x13f;" horiz-adv-x="935" 
d="M174 1206h160v-1067h561v-139h-721v1206zM532 631q0 54 36.5 90.5t90.5 36.5t90.5 -36.5t36.5 -90.5t-36.5 -90.5t-90.5 -36.5t-90.5 36.5t-36.5 90.5z" />
    <glyph glyph-name="ldot" unicode="&#x140;" horiz-adv-x="624" 
d="M444 127v-129q-56 -12 -100 -12q-89 0 -145 49t-56 143v1190h156v-1165q0 -43 22 -64.5t60 -21.5q30 0 63 10zM410 647q0 54 36.5 90.5t90.5 36.5t90.5 -36.5t36.5 -90.5t-36.5 -90.5t-90.5 -36.5t-90.5 36.5t-36.5 90.5z" />
    <glyph glyph-name="Lslash" unicode="&#x141;" horiz-adv-x="946" 
d="M61 449v133l123 45v579h160v-520l297 113v-142l-297 -108v-410h561v-139h-721v492z" />
    <glyph glyph-name="lslash" unicode="&#x142;" horiz-adv-x="530" 
d="M41 571v140l117 61v596h155v-512l146 78v-148l-146 -75v-508q0 -43 22 -64.5t60 -21.5q31 0 64 10v-129q-56 -12 -101 -12q-89 0 -144.5 49t-55.5 143v453z" />
    <glyph glyph-name="Nacute" unicode="&#x143;" horiz-adv-x="1314" 
d="M344 1206l492 -727q33 -49 69.5 -111.5t56.5 -100.5l21 -38h8q-10 137 -10 289v688h160v-1206h-166l-498 727q-34 49 -70.5 111.5t-56.5 100.5l-20 38h-8q12 -137 12 -289v-688h-160v1206h170zM725 1341h-141l127 238h213z" />
    <glyph glyph-name="nacute" unicode="&#x144;" 
d="M270 946l19 -182q74 205 303 205q129 0 210 -72.5t81 -218.5v-678h-156v639q0 92 -45.5 143.5t-132.5 51.5q-50 0 -91 -14t-75.5 -45.5t-54 -88.5t-19.5 -135v-551h-155v946h116zM584 1085h-133l153 293h215z" />
    <glyph glyph-name="Ncommaaccent" unicode="&#x145;" horiz-adv-x="1314" 
d="M344 1206l492 -727q33 -49 69.5 -111.5t56.5 -100.5l21 -38h8q-10 137 -10 289v688h160v-1206h-166l-498 727q-34 49 -70.5 111.5t-56.5 100.5l-20 38h-8q12 -137 12 -289v-688h-160v1206h170zM793 -293q0 -108 -58 -157.5t-174 -49.5v70q61 3 89 22.5t28 69.5
q-53 -10 -85 16.5t-32 73.5t29.5 74t79.5 27t86.5 -40t36.5 -106z" />
    <glyph glyph-name="ncommaaccent" unicode="&#x146;" 
d="M270 946l19 -182q74 205 303 205q129 0 210 -72.5t81 -218.5v-678h-156v639q0 92 -45.5 143.5t-132.5 51.5q-50 0 -91 -14t-75.5 -45.5t-54 -88.5t-19.5 -135v-551h-155v946h116zM645 -293q0 -108 -57.5 -157.5t-173.5 -49.5v70q61 3 88.5 22.5t27.5 69.5
q-52 -10 -84 16.5t-32 73.5t29 74t79 27t86.5 -40t36.5 -106z" />
    <glyph glyph-name="Ncaron" unicode="&#x147;" horiz-adv-x="1314" 
d="M344 1206l492 -727q33 -49 69.5 -111.5t56.5 -100.5l21 -38h8q-10 137 -10 289v688h160v-1206h-166l-498 727q-34 49 -70.5 111.5t-56.5 100.5l-20 38h-8q12 -137 12 -289v-688h-160v1206h170zM705 1331h-95l-248 254h179l65 -69q17 -19 29.5 -37t16.5 -27l3 -8h4
q11 29 50 72l65 69h178z" />
    <glyph glyph-name="ncaron" unicode="&#x148;" 
d="M270 946l19 -182q74 205 303 205q129 0 210 -72.5t81 -218.5v-678h-156v639q0 92 -45.5 143.5t-132.5 51.5q-50 0 -91 -14t-75.5 -45.5t-54 -88.5t-19.5 -135v-551h-155v946h116zM569 1085h-86l-250 293h166l74 -94q17 -22 29.5 -42.5t15.5 -29.5l4 -10h8q11 33 50 82
l73 94h166z" />
    <glyph glyph-name="Eng" unicode="&#x14a;" horiz-adv-x="1314" 
d="M1141 1206v-1263q0 -102 -30 -176.5t-84 -117t-120 -62t-147 -19.5q-164 0 -285 121l96 114q96 -100 207 -100q116 0 159.5 71.5t43.5 209.5v6l-504 737q-34 49 -70.5 111.5t-56.5 100.5l-20 38h-8q12 -137 12 -289v-688h-160v1206h170l492 -727q33 -49 69.5 -111.5
t56.5 -100.5l21 -38h8q-10 137 -10 289v688h160z" />
    <glyph glyph-name="eng" unicode="&#x14b;" 
d="M309 0h-155v946h116l19 -182q74 205 303 205q129 0 210 -72.5t81 -218.5v-701q0 -115 -27.5 -193.5t-83.5 -123t-131.5 -62t-179.5 -14.5v131q138 -10 202 48t64 188v688q0 92 -45.5 143.5t-132.5 51.5q-50 0 -91 -14t-75.5 -45.5t-54 -88.5t-19.5 -135v-551z" />
    <glyph glyph-name="Omacron" unicode="&#x14c;" horiz-adv-x="1253" 
d="M627 -25q-246 0 -390.5 165t-144.5 462q0 298 144.5 463.5t390.5 165.5t390 -165.5t144 -463.5q0 -297 -144 -462t-390 -165zM627 1092q-178 0 -272.5 -129t-94.5 -361q0 -231 94.5 -360t272.5 -129t272 128.5t94 360.5t-94 361t-272 129zM885 1386h-514v121h514v-121z
" />
    <glyph glyph-name="omacron" unicode="&#x14d;" horiz-adv-x="1028" 
d="M514 -25q-195 0 -308.5 132t-113.5 372q0 237 113 363.5t309 126.5t309 -126.5t113 -363.5q0 -240 -113.5 -372t-308.5 -132zM514 842q-268 0 -268 -363q0 -381 268 -381t268 381q0 363 -268 363zM772 1155h-514v125h514v-125z" />
    <glyph glyph-name="Obreve" unicode="&#x14e;" horiz-adv-x="1253" 
d="M627 -25q-246 0 -390.5 165t-144.5 462q0 298 144.5 463.5t390.5 165.5t390 -165.5t144 -463.5q0 -297 -144 -462t-390 -165zM627 1092q-178 0 -272.5 -129t-94.5 -361q0 -231 94.5 -360t272.5 -129t272 128.5t94 360.5t-94 361t-272 129zM627 1335q-124 0 -195.5 69.5
t-71.5 188.5h125q6 -70 39 -105.5t103 -35.5q72 0 104.5 35.5t38.5 105.5h125q0 -119 -71.5 -188.5t-196.5 -69.5z" />
    <glyph glyph-name="obreve" unicode="&#x14f;" horiz-adv-x="1028" 
d="M514 -25q-195 0 -308.5 132t-113.5 372q0 237 113 363.5t309 126.5t309 -126.5t113 -363.5q0 -240 -113.5 -372t-308.5 -132zM514 842q-268 0 -268 -363q0 -381 268 -381t268 381q0 363 -268 363zM514 1081q-125 0 -196.5 75.5t-71.5 203.5h125q7 -79 37 -119.5
t106 -40.5t106 40.5t37 119.5h125q0 -128 -71.5 -203.5t-196.5 -75.5z" />
    <glyph glyph-name="Ohungarumlaut" unicode="&#x150;" horiz-adv-x="1253" 
d="M627 -25q-246 0 -390.5 165t-144.5 462q0 298 144.5 463.5t390.5 165.5t390 -165.5t144 -463.5q0 -297 -144 -462t-390 -165zM627 1092q-178 0 -272.5 -129t-94.5 -361q0 -231 94.5 -360t272.5 -129t272 128.5t94 360.5t-94 361t-272 129zM530 1341h-118l133 238h200z
M821 1341h-123l154 238h205z" />
    <glyph glyph-name="ohungarumlaut" unicode="&#x151;" horiz-adv-x="1028" 
d="M514 -25q-195 0 -308.5 132t-113.5 372q0 237 113 363.5t309 126.5t309 -126.5t113 -363.5q0 -240 -113.5 -372t-308.5 -132zM514 842q-268 0 -268 -363q0 -381 268 -381t268 381q0 363 -268 363zM418 1085h-119l133 293h201zM709 1085h-123l153 293h205z" />
    <glyph glyph-name="OE" unicode="&#x152;" horiz-adv-x="1710" 
d="M627 -25q-246 0 -390.5 165t-144.5 462q0 298 144.5 463.5t390.5 165.5q89 0 172 -25h809v-139h-592q123 -141 141 -395h387v-140h-387q-18 -255 -141 -393h592v-139h-809q-83 -25 -172 -25zM627 1092q-177 0 -269 -128.5t-92 -361.5t92 -361t269 -128t268.5 128
t91.5 361t-91.5 361.5t-268.5 128.5z" />
    <glyph glyph-name="oe" unicode="&#x153;" horiz-adv-x="1665" 
d="M1206 98q88 0 142.5 39t78.5 125l138 -31q-25 -136 -124 -196t-247 -60q-118 0 -207.5 51t-130.5 154q-38 -104 -127.5 -154.5t-214.5 -50.5q-195 0 -308.5 132t-113.5 372q0 237 113 363.5t309 126.5q125 0 218 -50.5t128 -154.5q44 98 136 151.5t210 53.5
q174 0 270.5 -110t96.5 -290q0 -83 -19 -131h-620q8 -154 78 -247t194 -93zM514 842q-268 0 -268 -363q0 -381 268 -381t268 381q0 363 -268 363zM938 563h481q2 16 2 43q0 101 -62.5 169.5t-162.5 68.5q-109 0 -176 -72.5t-82 -208.5z" />
    <glyph glyph-name="Racute" unicode="&#x154;" horiz-adv-x="1103" 
d="M1028 0h-174q-35 43 -49 109l-51 219q-26 109 -84 146.5t-162 37.5h-174v-512h-160v1206h399q402 0 402 -336q0 -136 -82 -215t-201 -84v-4q88 -11 137.5 -56t75.5 -144l62 -242q19 -74 61 -125zM334 1073v-430h235q122 0 180 53.5t58 163.5q0 102 -59 157.5t-179 55.5
h-235zM592 1341h-141l127 238h213z" />
    <glyph glyph-name="racute" unicode="&#x155;" horiz-adv-x="702" 
d="M662 967l-9 -176q-27 6 -75 6q-111 0 -190 -85t-79 -218v-494h-155v946h129l18 -254q29 131 122.5 206t238.5 69zM461 1085h-133l153 293h215z" />
    <glyph glyph-name="Rcommaaccent" unicode="&#x156;" horiz-adv-x="1103" 
d="M1028 0h-174q-35 43 -49 109l-51 219q-26 109 -84 146.5t-162 37.5h-174v-512h-160v1206h399q402 0 402 -336q0 -136 -82 -215t-201 -84v-4q88 -11 137.5 -56t75.5 -144l62 -242q19 -74 61 -125zM334 1073v-430h235q122 0 180 53.5t58 163.5q0 102 -59 157.5t-179 55.5
h-235zM659 -293q0 -108 -57.5 -157.5t-173.5 -49.5v70q61 3 89 22.5t28 69.5q-53 -10 -85 16.5t-32 73.5t29.5 74t79.5 27t86 -40t36 -106z" />
    <glyph glyph-name="rcommaaccent" unicode="&#x157;" horiz-adv-x="702" 
d="M662 967l-9 -176q-27 6 -75 6q-111 0 -190 -85t-79 -218v-494h-155v946h129l18 -254q29 131 122.5 206t238.5 69zM348 -293q0 -108 -57.5 -157.5t-173.5 -49.5v70q61 3 88.5 22.5t27.5 69.5q-52 -10 -84 16.5t-32 73.5t29 74t79 27t86.5 -40t36.5 -106z" />
    <glyph glyph-name="Rcaron" unicode="&#x158;" horiz-adv-x="1103" 
d="M1028 0h-174q-35 43 -49 109l-51 219q-26 109 -84 146.5t-162 37.5h-174v-512h-160v1206h399q402 0 402 -336q0 -136 -82 -215t-201 -84v-4q88 -11 137.5 -56t75.5 -144l62 -242q19 -74 61 -125zM334 1073v-430h235q122 0 180 53.5t58 163.5q0 102 -59 157.5t-179 55.5
h-235zM571 1331h-94l-248 254h179l65 -69q17 -19 29.5 -37t15.5 -27l4 -8h4q10 29 49 72l66 69h178z" />
    <glyph glyph-name="rcaron" unicode="&#x159;" horiz-adv-x="702" 
d="M662 967l-9 -176q-27 6 -75 6q-111 0 -190 -85t-79 -218v-494h-155v946h129l18 -254q29 131 122.5 206t238.5 69zM430 1085h-86l-250 293h166l74 -94q17 -22 29.5 -42.5t16.5 -29.5l3 -10h8q10 33 49 82l74 94h166z" />
    <glyph glyph-name="Sacute" unicode="&#x15a;" horiz-adv-x="952" 
d="M61 295l152 27q35 -224 260 -224q108 0 172 49.5t64 141.5q0 87 -55 140t-212 112q-35 13 -54 20.5t-52 22t-52.5 25.5t-47 29.5t-44 36t-35.5 42t-29 51t-17 60t-7 71.5q0 88 32 154.5t86.5 104.5t118 56.5t134.5 18.5q170 0 275 -77.5t118 -242.5l-155 -24
q-9 104 -72.5 161.5t-163.5 57.5q-97 0 -156 -52t-59 -143q0 -20 2.5 -37.5t10.5 -33.5t14.5 -28t22 -25.5t25.5 -22t33 -20.5t35.5 -18.5t43 -19t45.5 -18.5t51 -20q42 -16 70.5 -28t65.5 -31.5t61.5 -38t50.5 -46t41.5 -58t25.5 -70.5t10 -87q0 -83 -31.5 -148.5t-87 -106
t-128 -61t-156.5 -20.5q-182 0 -282.5 78t-123.5 242zM557 1341h-141l127 238h213z" />
    <glyph glyph-name="sacute" unicode="&#x15b;" horiz-adv-x="841" 
d="M61 211l144 35q17 -160 213 -160q94 0 150.5 36t56.5 107q0 65 -34 103t-122 61l-139 33q-127 30 -181.5 94.5t-54.5 169.5q0 75 28.5 130.5t78.5 87t109 46.5t128 15q148 0 231.5 -60t98.5 -192l-154 -17q-9 150 -186 150q-89 0 -137.5 -37.5t-48.5 -105.5q0 -60 30 -95
t111 -53l129 -33q130 -33 194 -95t64 -183q0 -141 -97 -207t-259 -66q-161 0 -248 55.5t-105 180.5zM506 1085h-133l153 293h215z" />
    <glyph glyph-name="Scircumflex" unicode="&#x15c;" horiz-adv-x="952" 
d="M61 295l152 27q35 -224 260 -224q108 0 172 49.5t64 141.5q0 87 -55 140t-212 112q-35 13 -54 20.5t-52 22t-52.5 25.5t-47 29.5t-44 36t-35.5 42t-29 51t-17 60t-7 71.5q0 88 32 154.5t86.5 104.5t118 56.5t134.5 18.5q170 0 275 -77.5t118 -242.5l-155 -24
q-9 104 -72.5 161.5t-163.5 57.5q-97 0 -156 -52t-59 -143q0 -20 2.5 -37.5t10.5 -33.5t14.5 -28t22 -25.5t25.5 -22t33 -20.5t35.5 -18.5t43 -19t45.5 -18.5t51 -20q42 -16 70.5 -28t65.5 -31.5t61.5 -38t50.5 -46t41.5 -58t25.5 -70.5t10 -87q0 -83 -31.5 -148.5t-87 -106
t-128 -61t-156.5 -20.5q-182 0 -282.5 78t-123.5 242zM442 1595h95l247 -254h-178l-65 70q-17 19 -29.5 37t-15.5 26l-4 9h-5q-10 -29 -49 -72l-65 -70h-178z" />
    <glyph glyph-name="scircumflex" unicode="&#x15d;" horiz-adv-x="841" 
d="M61 211l144 35q17 -160 213 -160q94 0 150.5 36t56.5 107q0 65 -34 103t-122 61l-139 33q-127 30 -181.5 94.5t-54.5 169.5q0 75 28.5 130.5t78.5 87t109 46.5t128 15q148 0 231.5 -60t98.5 -192l-154 -17q-9 150 -186 150q-89 0 -137.5 -37.5t-48.5 -105.5q0 -60 30 -95
t111 -53l129 -33q130 -33 194 -95t64 -183q0 -141 -97 -207t-259 -66q-161 0 -248 55.5t-105 180.5zM410 1378h86l249 -293h-165l-74 91q-17 22 -29.5 42t-16.5 30l-3 9h-8q-11 -32 -50 -81l-73 -91h-166z" />
    <glyph glyph-name="Scedilla" unicode="&#x15e;" horiz-adv-x="952" 
d="M680 -258q0 -85 -58 -129.5t-149 -44.5q-115 0 -174 78l47 98q51 -76 127 -76q78 0 78 74q0 90 -143 90l10 145q-159 11 -247.5 88t-109.5 230l152 27q35 -224 260 -224q108 0 172 49.5t64 141.5q0 87 -55 140t-212 112q-35 13 -54 20.5t-52 22t-52.5 25.5t-47 29.5
t-44 36t-35.5 42t-29 51t-17 60t-7 71.5q0 88 32 154.5t86.5 104.5t118 56.5t134.5 18.5q170 0 275 -77.5t118 -242.5l-155 -24q-9 104 -72.5 161.5t-163.5 57.5q-97 0 -156 -52t-59 -143q0 -20 2.5 -37.5t10.5 -33.5t14.5 -28t22 -25.5t25.5 -22t33 -20.5t35.5 -18.5
t43 -19t45.5 -18.5t51 -20q42 -16 70.5 -28t65.5 -31.5t61.5 -38t50.5 -46t41.5 -58t25.5 -70.5t10 -87q0 -156 -102.5 -241t-263.5 -93l-4 -63q180 -16 180 -172z" />
    <glyph glyph-name="scedilla" unicode="&#x15f;" horiz-adv-x="841" 
d="M623 -258q0 -85 -58 -129.5t-149 -44.5q-115 0 -174 78l47 98q51 -76 127 -76q78 0 78 74q0 90 -144 90l10 145q-135 9 -208.5 64.5t-90.5 169.5l144 35q17 -160 213 -160q94 0 150.5 36t56.5 107q0 65 -34 103t-122 61l-139 33q-127 30 -181.5 94.5t-54.5 169.5
q0 75 28.5 130.5t78.5 87t109 46.5t128 15q148 0 231.5 -60t98.5 -192l-154 -17q-9 150 -186 150q-89 0 -137.5 -37.5t-48.5 -105.5q0 -60 30 -95t111 -53l129 -33q130 -33 194 -95t64 -183q0 -134 -88 -199.5t-236 -71.5l-4 -63q181 -17 181 -172z" />
    <glyph glyph-name="Scaron" unicode="&#x160;" horiz-adv-x="952" 
d="M61 295l152 27q35 -224 260 -224q108 0 172 49.5t64 141.5q0 87 -55 140t-212 112q-35 13 -54 20.5t-52 22t-52.5 25.5t-47 29.5t-44 36t-35.5 42t-29 51t-17 60t-7 71.5q0 88 32 154.5t86.5 104.5t118 56.5t134.5 18.5q170 0 275 -77.5t118 -242.5l-155 -24
q-9 104 -72.5 161.5t-163.5 57.5q-97 0 -156 -52t-59 -143q0 -20 2.5 -37.5t10.5 -33.5t14.5 -28t22 -25.5t25.5 -22t33 -20.5t35.5 -18.5t43 -19t45.5 -18.5t51 -20q42 -16 70.5 -28t65.5 -31.5t61.5 -38t50.5 -46t41.5 -58t25.5 -70.5t10 -87q0 -83 -31.5 -148.5t-87 -106
t-128 -61t-156.5 -20.5q-182 0 -282.5 78t-123.5 242zM537 1331h-95l-247 254h178l65 -69q17 -19 29.5 -37t16.5 -27l3 -8h5q10 29 49 72l65 69h178z" />
    <glyph glyph-name="scaron" unicode="&#x161;" horiz-adv-x="841" 
d="M61 211l144 35q17 -160 213 -160q94 0 150.5 36t56.5 107q0 65 -34 103t-122 61l-139 33q-127 30 -181.5 94.5t-54.5 169.5q0 75 28.5 130.5t78.5 87t109 46.5t128 15q148 0 231.5 -60t98.5 -192l-154 -17q-9 150 -186 150q-89 0 -137.5 -37.5t-48.5 -105.5q0 -60 30 -95
t111 -53l129 -33q130 -33 194 -95t64 -183q0 -141 -97 -207t-259 -66q-161 0 -248 55.5t-105 180.5zM479 1085h-86l-250 293h166l74 -94q17 -22 29.5 -42.5t15.5 -29.5l4 -10h8q10 33 49 82l74 94h166z" />
    <glyph glyph-name="Tcommaaccent" unicode="&#x162;" horiz-adv-x="919" 
d="M539 0h-160v1067h-359v139h879v-139h-360v-1067zM571 -293q0 -108 -57.5 -157.5t-173.5 -49.5v70q61 3 89 22.5t28 69.5q-53 -10 -85 16.5t-32 73.5t29.5 74t79.5 27t86 -40t36 -106z" />
    <glyph glyph-name="tcommaaccent" unicode="&#x163;" horiz-adv-x="657" 
d="M596 158l31 -129q-85 -54 -209 -54q-125 0 -192.5 65.5t-67.5 188.5v592h-138v125h138v201l157 20v-221h281v-125h-283v-563q0 -149 127 -149q82 0 156 49zM500 -293q0 -108 -58 -157.5t-174 -49.5v70q61 3 89 22.5t28 69.5q-53 -10 -85 16.5t-32 73.5t29.5 74t79.5 27
t86.5 -40t36.5 -106z" />
    <glyph glyph-name="Tcaron" unicode="&#x164;" horiz-adv-x="919" 
d="M539 0h-160v1067h-359v139h879v-139h-360v-1067zM506 1331h-94l-248 254h178l66 -69q17 -19 29.5 -37t16.5 -27l3 -8h4q10 29 49 72l65 69h179z" />
    <glyph glyph-name="tcaron" unicode="&#x165;" horiz-adv-x="657" 
d="M596 158l31 -129q-85 -54 -209 -54q-125 0 -192.5 65.5t-67.5 188.5v592h-138v125h138v201l157 20v-221h281v-125h-283v-563q0 -149 127 -149q82 0 156 49zM629 1409l-105 -358h-112l32 358h185z" />
    <glyph glyph-name="Tbar" unicode="&#x166;" horiz-adv-x="919" 
d="M539 0h-160v539h-236v133h236v395h-359v139h879v-139h-360v-395h241v-133h-241v-539z" />
    <glyph glyph-name="tbar" unicode="&#x167;" horiz-adv-x="657" 
d="M20 506v123h138v192h-138v125h138v201l157 20v-221h281v-125h-283v-192h283v-123h-283v-248q0 -149 127 -149q82 0 156 49l31 -129q-85 -54 -209 -54q-125 0 -192.5 65.5t-67.5 188.5v277h-138z" />
    <glyph glyph-name="Utilde" unicode="&#x168;" horiz-adv-x="1173" 
d="M881 1206h159v-813q0 -90 -26 -162.5t-69 -119.5t-102.5 -78t-123 -44.5t-133.5 -13.5t-133.5 13.5t-123 44.5t-102.5 78t-68.5 119.5t-25.5 162.5v813h160v-774q0 -168 78 -247t215 -79q138 0 216.5 78t78.5 242v780zM725 1341q-11 0 -22 1.5t-19 2.5t-19 5t-16.5 5.5
t-18 8t-15.5 8t-17.5 10t-17.5 9.5q-8 5 -25 14.5t-23 13t-18.5 9.5t-20 8t-17.5 4t-21 2q-73 0 -62 -96h-98q-34 94 7.5 165.5t133.5 71.5q36 0 67.5 -8.5t49 -18t53.5 -30.5q45 -28 64 -36.5t45 -8.5q64 0 59 102h105q30 -104 -11 -173t-143 -69z" />
    <glyph glyph-name="utilde" unicode="&#x169;" 
d="M739 0l-18 170q-36 -103 -108 -149t-183 -46q-136 0 -211.5 76t-75.5 240v655h156v-641q0 -112 44 -163.5t138 -51.5q41 0 82 18.5t75.5 52.5t56.5 89t22 121v575h155v-946h-133zM647 1087q-11 0 -22 1.5t-19 2.5t-19 5t-16.5 5.5t-18 8t-15.5 8t-17.5 10t-17.5 9.5
q-8 5 -25 14.5t-23 13t-18.5 9.5t-20 8t-17.5 4t-21 2q-73 0 -62 -96h-98q-34 94 7.5 162.5t133.5 68.5q36 0 67.5 -8.5t49 -18t53.5 -30.5q45 -28 64 -36.5t45 -8.5q64 0 59 102h105q30 -104 -11 -170t-143 -66z" />
    <glyph glyph-name="Umacron" unicode="&#x16a;" horiz-adv-x="1173" 
d="M881 1206h159v-813q0 -90 -26 -162.5t-69 -119.5t-102.5 -78t-123 -44.5t-133.5 -13.5t-133.5 13.5t-123 44.5t-102.5 78t-68.5 119.5t-25.5 162.5v813h160v-774q0 -168 78 -247t215 -79q138 0 216.5 78t78.5 242v780zM844 1386h-514v121h514v-121z" />
    <glyph glyph-name="umacron" unicode="&#x16b;" 
d="M739 0l-18 170q-36 -103 -108 -149t-183 -46q-136 0 -211.5 76t-75.5 240v655h156v-641q0 -112 44 -163.5t138 -51.5q41 0 82 18.5t75.5 52.5t56.5 89t22 121v575h155v-946h-133zM766 1155h-514v125h514v-125z" />
    <glyph glyph-name="Ubreve" unicode="&#x16c;" horiz-adv-x="1173" 
d="M881 1206h159v-813q0 -90 -26 -162.5t-69 -119.5t-102.5 -78t-123 -44.5t-133.5 -13.5t-133.5 13.5t-123 44.5t-102.5 78t-68.5 119.5t-25.5 162.5v813h160v-774q0 -168 78 -247t215 -79q138 0 216.5 78t78.5 242v780zM586 1335q-124 0 -195.5 69.5t-71.5 188.5h125
q6 -70 39 -105.5t103 -35.5q72 0 104.5 35.5t38.5 105.5h125q0 -119 -71.5 -188.5t-196.5 -69.5z" />
    <glyph glyph-name="ubreve" unicode="&#x16d;" 
d="M739 0l-18 170q-36 -103 -108 -149t-183 -46q-136 0 -211.5 76t-75.5 240v655h156v-641q0 -112 44 -163.5t138 -51.5q41 0 82 18.5t75.5 52.5t56.5 89t22 121v575h155v-946h-133zM508 1081q-125 0 -196.5 75.5t-71.5 203.5h125q7 -79 37 -119.5t106 -40.5t106 40.5
t37 119.5h125q0 -128 -71.5 -203.5t-196.5 -75.5z" />
    <glyph glyph-name="Uring" unicode="&#x16e;" horiz-adv-x="1173" 
d="M881 1206h159v-813q0 -90 -26 -162.5t-69 -119.5t-102.5 -78t-123 -44.5t-133.5 -13.5t-133.5 13.5t-123 44.5t-102.5 78t-68.5 119.5t-25.5 162.5v813h160v-774q0 -168 78 -247t215 -79q138 0 216.5 78t78.5 242v780zM604 1305q-94 0 -148.5 55t-54.5 141q0 79 56.5 135
t146.5 56t146.5 -56t56.5 -135q0 -86 -54.5 -141t-148.5 -55zM604 1618q-53 0 -85 -34t-32 -87q0 -51 30.5 -82t86.5 -31t86.5 31t30.5 82q0 53 -32 87t-85 34z" />
    <glyph glyph-name="uring" unicode="&#x16f;" 
d="M739 0l-18 170q-36 -103 -108 -149t-183 -46q-136 0 -211.5 76t-75.5 240v655h156v-641q0 -112 44 -163.5t138 -51.5q41 0 82 18.5t75.5 52.5t56.5 89t22 121v575h155v-946h-133zM510 1073q-94 0 -148.5 55.5t-54.5 141.5q0 79 56.5 134.5t146.5 55.5t146.5 -55.5
t56.5 -134.5q0 -86 -54.5 -141.5t-148.5 -55.5zM510 1386q-53 0 -85 -33.5t-32 -86.5q0 -51 30.5 -82t86.5 -31t86.5 31t30.5 82q0 53 -32 86.5t-85 33.5z" />
    <glyph glyph-name="Uhungarumlaut" unicode="&#x170;" horiz-adv-x="1173" 
d="M881 1206h159v-813q0 -90 -26 -162.5t-69 -119.5t-102.5 -78t-123 -44.5t-133.5 -13.5t-133.5 13.5t-123 44.5t-102.5 78t-68.5 119.5t-25.5 162.5v813h160v-774q0 -168 78 -247t215 -79q138 0 216.5 78t78.5 242v780zM489 1341h-118l133 238h201zM780 1341h-123l154 238
h205z" />
    <glyph glyph-name="uhungarumlaut" unicode="&#x171;" 
d="M739 0l-18 170q-36 -103 -108 -149t-183 -46q-136 0 -211.5 76t-75.5 240v655h156v-641q0 -112 44 -163.5t138 -51.5q41 0 82 18.5t75.5 52.5t56.5 89t22 121v575h155v-946h-133zM412 1085h-119l133 293h201zM702 1085h-122l153 293h205z" />
    <glyph glyph-name="Uogonek" unicode="&#x172;" horiz-adv-x="1173" 
d="M373 -223q0 128 102 209q-72 12 -131.5 40.5t-108 76.5t-75.5 122t-27 168v813h160v-774q0 -168 78 -247t215 -79q138 0 216.5 78t78.5 242v780h159v-813q0 -102 -32 -180.5t-88.5 -126t-124 -73.5t-148.5 -33q-58 -26 -94.5 -72t-36.5 -111q0 -58 28 -90.5t83 -32.5
q95 0 145 95l59 -72q-65 -129 -229 -129q-107 0 -168 55t-61 154z" />
    <glyph glyph-name="uogonek" unicode="&#x173;" 
d="M500 -231q0 92 69 161.5t166 106.5l-14 143q-36 -98 -110.5 -151.5t-180.5 -53.5q-136 0 -211.5 76t-75.5 240v655h156v-641q0 -112 43.5 -163.5t134.5 -51.5t165.5 80.5t74.5 210.5v565h155v-946q-93 -3 -161 -60t-68 -147q0 -119 100 -119q96 0 146 95l59 -72
q-64 -129 -229 -129q-104 0 -161.5 54t-57.5 147z" />
    <glyph glyph-name="Wcircumflex" unicode="&#x174;" horiz-adv-x="1658" 
d="M928 1206l202 -786q22 -86 39 -166.5t23 -117.5l6 -38h8q17 130 66 320l207 788h159l-327 -1206h-226l-198 750q-23 86 -36 165t-15 115l-2 37h-9q-8 -124 -57 -317l-195 -750h-225l-328 1206h170l203 -782q22 -84 39 -165.5t23 -120.5l6 -40h8q15 134 66 324l213 784
h180zM782 1595h95l247 -254h-178l-65 70q-17 19 -29.5 37t-16.5 26l-4 9h-4q-10 -29 -49 -72l-65 -70h-178z" />
    <glyph glyph-name="wcircumflex" unicode="&#x175;" horiz-adv-x="1341" 
d="M756 946l145 -530q24 -84 40 -161t20 -111l4 -35h8q4 114 53 307l137 530h158l-260 -946h-187l-137 485q-24 84 -39.5 158t-19.5 107l-4 32h-8q-11 -107 -62 -297l-131 -485h-186l-267 946h162l140 -528q23 -84 38.5 -161.5t19.5 -112.5l5 -35h8q7 121 58 309l145 528
h160zM627 1378h86l250 -293h-166l-74 91q-17 22 -29.5 42t-15.5 30l-4 9h-8q-11 -32 -50 -81l-73 -91h-166z" />
    <glyph glyph-name="Ycircumflex" unicode="&#x176;" horiz-adv-x="950" 
d="M201 1206l207 -413q29 -58 49 -105.5t25 -65.5l5 -18h9q14 58 73 187l193 415h168l-363 -731v-475h-159v475l-388 731h181zM428 1595h94l248 -254h-178l-66 70q-17 19 -29.5 37t-16.5 26l-3 9h-4q-10 -29 -49 -72l-66 -70h-178z" />
    <glyph glyph-name="ycircumflex" unicode="&#x177;" horiz-adv-x="872" 
d="M190 946l175 -549q26 -83 45.5 -157t25.5 -107l6 -33h9q18 109 73 295l166 551h162l-340 -1022q-66 -196 -154.5 -273t-214.5 -77q-65 0 -129 23l11 129q62 -27 122 -27q79 0 129 54t95 192l-351 1001h170zM408 1378h86l249 -293h-165l-74 91q-17 22 -29.5 42t-16.5 30
l-3 9h-9q-10 -32 -49 -81l-73 -91h-166z" />
    <glyph glyph-name="Ydieresis" unicode="&#x178;" horiz-adv-x="950" 
d="M201 1206l207 -413q29 -58 49 -105.5t25 -65.5l5 -18h9q14 58 73 187l193 415h168l-363 -731v-475h-159v475l-388 731h181zM170 1454q0 45 33 78t78 33q46 0 78 -32.5t32 -78.5q0 -45 -32.5 -78t-77.5 -33q-44 0 -77.5 33.5t-33.5 77.5zM557 1452q0 45 33 78t78 33
q46 0 78 -32.5t32 -78.5q0 -45 -32.5 -78t-77.5 -33q-44 0 -77.5 33.5t-33.5 77.5z" />
    <glyph glyph-name="Zacute" unicode="&#x179;" horiz-adv-x="946" 
d="M899 1102l-539 -811q-29 -44 -57 -81.5t-41 -53.5l-14 -15v-8q51 6 180 6h477v-139h-864v84l543 831q29 44 57 81.5t41 53.5l14 15v8q-51 -6 -180 -6h-446v139h829v-104zM541 1341h-142l127 238h213z" />
    <glyph glyph-name="zacute" unicode="&#x17a;" horiz-adv-x="784" 
d="M723 840l-381 -557q-30 -44 -58.5 -81.5t-41.5 -53.5l-13 -15v-8q52 6 181 6h333v-131h-702v84l385 575q30 44 58.5 81.5t41.5 53.5l13 15v8q-52 -6 -181 -6h-295v135h660v-106zM457 1085h-133l153 293h215z" />
    <glyph glyph-name="Zdotaccent" unicode="&#x17b;" horiz-adv-x="946" 
d="M899 1102l-539 -811q-29 -44 -57 -81.5t-41 -53.5l-14 -15v-8q51 6 180 6h477v-139h-864v84l543 831q29 44 57 81.5t41 53.5l14 15v8q-51 -6 -180 -6h-446v139h829v-104zM362 1485q0 47 32 79.5t77 32.5q47 0 80 -32.5t33 -79.5q0 -45 -33 -78t-80 -33q-44 0 -76.5 33.5
t-32.5 77.5z" />
    <glyph glyph-name="zdotaccent" unicode="&#x17c;" horiz-adv-x="784" 
d="M723 840l-381 -557q-30 -44 -58.5 -81.5t-41.5 -53.5l-13 -15v-8q52 6 181 6h333v-131h-702v84l385 575q30 44 58.5 81.5t41.5 53.5l13 15v8q-52 -6 -181 -6h-295v135h660v-106zM293 1253q0 46 32 79.5t76 33.5q47 0 80 -33.5t33 -79.5q0 -45 -33 -77.5t-80 -32.5
q-44 0 -76 33t-32 77z" />
    <glyph glyph-name="Zcaron" unicode="&#x17d;" horiz-adv-x="946" 
d="M899 1102l-539 -811q-29 -44 -57 -81.5t-41 -53.5l-14 -15v-8q51 6 180 6h477v-139h-864v84l543 831q29 44 57 81.5t41 53.5l14 15v8q-51 -6 -180 -6h-446v139h829v-104zM520 1331h-94l-248 254h178l66 -69q17 -19 29.5 -37t16.5 -27l3 -8h4q10 29 49 72l66 69h178z" />
    <glyph glyph-name="zcaron" unicode="&#x17e;" horiz-adv-x="784" 
d="M723 840l-381 -557q-30 -44 -58.5 -81.5t-41.5 -53.5l-13 -15v-8q52 6 181 6h333v-131h-702v84l385 575q30 44 58.5 81.5t41.5 53.5l13 15v8q-52 -6 -181 -6h-295v135h660v-106zM446 1085h-86l-249 293h165l74 -94q17 -22 29.5 -42.5t16.5 -29.5l3 -10h9q10 33 49 82
l73 94h166z" />
    <glyph glyph-name="Schwa" unicode="&#x18f;" horiz-adv-x="1157" 
d="M109 913q39 158 155 238t287 80q235 0 374.5 -165.5t139.5 -463.5t-139.5 -462.5t-376.5 -164.5q-220 0 -338.5 130t-118.5 366q0 71 12 154h799q-2 134 -44 238.5t-126.5 166.5t-200.5 62q-121 0 -190.5 -58.5t-103.5 -171.5zM899 496h-645q-4 -32 -4 -66
q0 -145 78.5 -237.5t216.5 -92.5q150 0 246 109.5t108 286.5z" />
    <glyph glyph-name="florin" unicode="&#x192;" horiz-adv-x="827" 
d="M72 -246l108 615h-139l25 139h139l37 201q28 160 114.5 231.5t212.5 71.5q80 0 143.5 -29t94.5 -74l-90 -114q-61 86 -164 86q-59 0 -100 -42.5t-56 -125.5l-37 -205h240l-22 -139h-242l-109 -615h-155z" />
    <glyph glyph-name="Khook" unicode="&#x198;" horiz-adv-x="1069" 
d="M719 954l-150 -340l459 -614h-197l-391 532h-106v-532h-160v1206h160v-528h112l134 315q52 123 119.5 180.5t166.5 57.5q62 0 105 -32t61 -87l-98 -90q-26 65 -82 65q-41 0 -70.5 -29t-62.5 -104z" />
    <glyph glyph-name="khook" unicode="&#x199;" horiz-adv-x="923" 
d="M309 434v-434h-155v1055q0 96 34 164t87 101t119 45t129.5 4t119.5 -30l-33 -139q-303 134 -303 -178v-465h45l338 389h193l-398 -440l428 -506h-196l-352 434h-56z" />
    <glyph glyph-name="Ezh" unicode="&#x1b7;" horiz-adv-x="923" 
d="M272 551l258 364q31 44 59.5 81.5t40.5 53.5l13 15v8q-51 -6 -180 -6h-420v139h803v-104l-418 -563v-11q205 -1 324.5 -120.5t119.5 -321.5q0 -142 -63.5 -247.5t-167.5 -157.5t-233 -52q-190 0 -305 99t-134 278l131 35q21 -146 102 -218.5t204 -72.5q145 0 231 90.5
t86 245.5q0 173 -121.5 262t-329.5 86v117z" />
    <glyph glyph-name="Acaron" unicode="&#x1cd;" horiz-adv-x="1134" 
d="M942 0l-125 356h-506l-125 -356h-166l441 1206h217l436 -1206h-172zM467 803l-111 -316h414l-108 314q-29 83 -52.5 160t-31.5 113l-9 36h-8q-28 -121 -94 -307zM610 1331h-94l-248 254h178l66 -69q17 -19 29.5 -37t16.5 -27l3 -8h4q10 29 49 72l66 69h178z" />
    <glyph glyph-name="acaron" unicode="&#x1ce;" horiz-adv-x="966" 
d="M637 281v151q-205 4 -302 -40.5t-97 -143.5q0 -68 42.5 -110t122.5 -42q89 0 161.5 51t72.5 134zM793 684v-481q0 -51 19 -69.5t52 -18.5q32 0 51 8v-125q-46 -12 -84 -12q-167 0 -184 153q-35 -84 -110 -124t-170 -40q-127 0 -206 68t-79 186q0 339 555 314v127
q0 172 -191 172q-86 0 -135 -40.5t-55 -117.5l-143 21q5 72 37.5 125.5t84.5 82.5t109 42.5t121 13.5q52 0 98 -8.5t89 -29t73.5 -52.5t49 -81.5t18.5 -113.5zM512 1085h-86l-250 293h166l74 -94q17 -22 29.5 -42.5t16.5 -29.5l3 -10h8q10 33 49 82l74 94h166z" />
    <glyph glyph-name="Icaron" unicode="&#x1cf;" horiz-adv-x="507" 
d="M174 1206h160v-1206h-160v1206zM301 1331h-94l-248 254h178l66 -69q17 -19 29.5 -37t15.5 -27l4 -8h4q10 29 49 72l66 69h178z" />
    <glyph glyph-name="icaron" unicode="&#x1d0;" horiz-adv-x="462" 
d="M274 1085h-86l-249 293h165l74 -94q17 -22 29.5 -42.5t16.5 -29.5l3 -10h9q10 33 49 82l73 94h166zM154 946h155v-946h-155v946z" />
    <glyph glyph-name="Ocaron" unicode="&#x1d1;" horiz-adv-x="1253" 
d="M627 -25q-246 0 -390.5 165t-144.5 462q0 298 144.5 463.5t390.5 165.5t390 -165.5t144 -463.5q0 -297 -144 -462t-390 -165zM627 1092q-178 0 -272.5 -129t-94.5 -361q0 -231 94.5 -360t272.5 -129t272 128.5t94 360.5t-94 361t-272 129zM674 1331h-94l-248 254h178
l65 -69q17 -19 29.5 -37t16.5 -27l4 -8h4q10 29 49 72l65 69h179z" />
    <glyph glyph-name="ocaron" unicode="&#x1d2;" horiz-adv-x="1028" 
d="M514 -25q-195 0 -308.5 132t-113.5 372q0 237 113 363.5t309 126.5t309 -126.5t113 -363.5q0 -240 -113.5 -372t-308.5 -132zM514 842q-268 0 -268 -363q0 -381 268 -381t268 381q0 363 -268 363zM557 1085h-86l-250 293h166l74 -94q17 -22 29.5 -42.5t15.5 -29.5l4 -10
h8q10 33 49 82l74 94h166z" />
    <glyph glyph-name="Ucaron" unicode="&#x1d3;" horiz-adv-x="1173" 
d="M881 1206h159v-813q0 -90 -26 -162.5t-69 -119.5t-102.5 -78t-123 -44.5t-133.5 -13.5t-133.5 13.5t-123 44.5t-102.5 78t-68.5 119.5t-25.5 162.5v813h160v-774q0 -168 78 -247t215 -79q138 0 216.5 78t78.5 242v780zM633 1331h-94l-248 254h178l66 -69q17 -19 29.5 -37
t15.5 -27l4 -8h4q10 29 49 72l65 69h179z" />
    <glyph glyph-name="ucaron" unicode="&#x1d4;" 
d="M739 0l-18 170q-36 -103 -108 -149t-183 -46q-136 0 -211.5 76t-75.5 240v655h156v-641q0 -112 44 -163.5t138 -51.5q41 0 82 18.5t75.5 52.5t56.5 89t22 121v575h155v-946h-133zM551 1085h-86l-250 293h166l74 -94q17 -22 29.5 -42.5t15.5 -29.5l4 -10h8q10 33 49 82
l74 94h166z" />
    <glyph glyph-name="uni01D9" unicode="&#x1d9;" horiz-adv-x="1173" 
d="M633 1536h-94l-248 254h178l66 -70q17 -19 29.5 -37t15.5 -26l4 -8h4q10 28 49 71l65 70h179zM881 1206h159v-813q0 -90 -26 -162.5t-69 -119.5t-102.5 -78t-123 -44.5t-133.5 -13.5t-133.5 13.5t-123 44.5t-102.5 78t-68.5 119.5t-25.5 162.5v813h160v-774
q0 -168 78 -247t215 -79q138 0 216.5 78t78.5 242v780zM281 1393q0 45 32.5 77.5t77.5 32.5q46 0 78.5 -32t32.5 -78q0 -45 -33 -78t-78 -33q-44 0 -77 33.5t-33 77.5zM668 1391q0 45 32.5 77.5t77.5 32.5q46 0 78.5 -32t32.5 -78q0 -45 -33 -78t-78 -33q-44 0 -77 33.5
t-33 77.5z" />
    <glyph glyph-name="uni01DA" unicode="&#x1da;" 
d="M557 1284h-94l-248 254h178l66 -70q17 -19 29.5 -37t15.5 -26l4 -8h4q10 28 49 71l66 70h178zM205 1141q0 45 32.5 77.5t77.5 32.5q46 0 78.5 -32t32.5 -78q0 -45 -33 -78t-78 -33q-44 0 -77 33.5t-33 77.5zM592 1139q0 45 32.5 77.5t77.5 32.5q46 0 78.5 -32t32.5 -78
q0 -45 -33 -78t-78 -33q-44 0 -77 33.5t-33 77.5zM739 0l-18 170q-36 -103 -108 -149t-183 -46q-136 0 -211.5 76t-75.5 240v655h156v-641q0 -112 44 -163.5t138 -51.5q41 0 82 18.5t75.5 52.5t56.5 89t22 121v575h155v-946h-133z" />
    <glyph glyph-name="uni004100A800AF" unicode="&#x1de;" horiz-adv-x="1134" 
d="M942 0l-125 356h-506l-125 -356h-166l441 1206h217l436 -1206h-172zM467 803l-111 -316h414l-108 314q-29 83 -52.5 160t-31.5 113l-9 36h-8q-28 -121 -94 -307zM821 1626h-514v121h514v-121zM262 1413q0 45 33 78t78 33q46 0 78 -32.5t32 -78.5q0 -45 -32.5 -77.5
t-77.5 -32.5q-44 0 -77.5 33t-33.5 77zM649 1411q0 45 33 78t78 33q46 0 78 -32.5t32 -78.5q0 -45 -32.5 -78t-77.5 -33q-44 0 -77.5 33.5t-33.5 77.5z" />
    <glyph glyph-name="adieresismacron" unicode="&#x1df;" horiz-adv-x="966" 
d="M637 281v151q-205 4 -302 -40.5t-97 -143.5q0 -68 42.5 -110t122.5 -42q89 0 161.5 51t72.5 134zM793 684v-481q0 -51 19 -69.5t52 -18.5q32 0 51 8v-125q-46 -12 -84 -12q-167 0 -184 153q-35 -84 -110 -124t-170 -40q-127 0 -206 68t-79 186q0 339 555 314v127
q0 172 -191 172q-86 0 -135 -40.5t-55 -117.5l-143 21q5 72 37.5 125.5t84.5 82.5t109 42.5t121 13.5q52 0 98 -8.5t89 -29t73.5 -52.5t49 -81.5t18.5 -113.5zM727 1343h-514v125h514v-125zM164 1149q0 45 33 78t77 33q46 0 78.5 -32.5t32.5 -78.5q0 -45 -33 -78t-78 -33
q-44 0 -77 33.5t-33 77.5zM551 1147q0 45 33 77.5t78 32.5q46 0 78 -32t32 -78q0 -45 -32.5 -78t-77.5 -33q-44 0 -77.5 33.5t-33.5 77.5z" />
    <glyph glyph-name="AEmacron" unicode="&#x1e2;" horiz-adv-x="1675" 
d="M1573 0h-721v356h-444l-218 -356h-170l746 1206h807v-139h-561v-395h499v-140h-499v-393h561v-139zM856 1090l-371 -603h367v304q-1 90 2 165t6 104l4 30h-8zM1352 1386h-514v121h514v-121z" />
    <glyph glyph-name="aemacron" unicode="&#x1e3;" horiz-adv-x="1476" 
d="M1018 100q89 0 143 38t78 124l137 -31q-25 -136 -123.5 -196t-246.5 -60q-219 0 -328 168q-89 -168 -305 -168q-131 0 -211 68t-80 186q0 160 125 243.5t393 84.5q8 73 35 148q-19 137 -189 137q-86 0 -135 -40.5t-55 -117.5l-143 21q5 72 37.5 125.5t84.5 82.5t109 42.5
t121 13.5q185 0 262 -115q112 115 291 115q174 0 268.5 -110.5t97.5 -297.5q0 -71 -12 -123h-622q8 -155 76 -246.5t192 -91.5zM754 557h473q2 16 2 49q0 101 -60.5 169.5t-160.5 68.5q-108 0 -173.5 -75t-80.5 -212zM389 96q83 0 146 41.5t92 114.5q-28 83 -31 186
q-197 -2 -277.5 -44t-80.5 -146q0 -66 40.5 -109t110.5 -43zM985 1155h-514v125h514v-125z" />
    <glyph glyph-name="Gstroke" unicode="&#x1e4;" horiz-adv-x="1277" 
d="M637 639h467v-233h123v-123h-123v-283h-141l-19 162q-32 -87 -127.5 -137t-204.5 -50q-236 0 -378 164t-142 459q0 297 152.5 465t402.5 168q167 0 275 -70t165 -215l-145 -72q-39 109 -120 165.5t-187 56.5q-177 0 -274 -132.5t-97 -363.5q0 -227 91 -359t266 -132
q120 0 205 43t114 131h-303v123h307v100h-307v133z" />
    <glyph glyph-name="gstroke" unicode="&#x1e5;" horiz-adv-x="1073" 
d="M520 969q174 0 275 -82q33 14 48.5 49.5t24.5 93.5l140 -49q-10 -67 -51.5 -111.5t-102.5 -56.5q45 -71 45 -180q0 -158 -106.5 -243t-268.5 -85q-79 0 -125 17q-71 -38 -71 -105q0 -86 110 -86h219q161 0 243.5 -65t82.5 -193h90v-72h-98q-17 -65 -65.5 -112.5
t-119 -72.5t-146 -36.5t-161.5 -11.5q-79 0 -145.5 11.5t-125.5 36.5t-94.5 72t-39.5 113h-78v72h84q17 73 79 119t156 53q-60 7 -92 45.5t-32 95.5q0 124 135 158q-86 39 -133 113t-47 176q0 155 101.5 245.5t268.5 90.5zM301 635q0 -98 58.5 -156.5t160.5 -58.5
q105 0 165 54t60 161q0 106 -60.5 162.5t-164.5 54.5t-161.5 -58t-57.5 -159zM459 -6q-205 0 -234 -121h604q-10 121 -174 121h-196zM492 -324q287 0 331 125h-600q22 -125 269 -125z" />
    <glyph glyph-name="Gcaron" unicode="&#x1e6;" horiz-adv-x="1236" 
d="M637 614h467v-614h-141l-19 162q-32 -87 -127.5 -137t-204.5 -50q-236 0 -378 164t-142 459q0 297 152.5 465t402.5 168q167 0 275 -70t165 -215l-145 -72q-39 109 -120 165.5t-187 56.5q-177 0 -276 -132.5t-99 -363.5q0 -226 92.5 -358.5t268.5 -132.5q86 0 156.5 25
t118.5 84.5t48 146.5v106h-307v143zM694 1331h-94l-248 254h178l66 -69q17 -19 29.5 -37t16.5 -27l3 -8h4q10 29 49 72l66 69h178z" />
    <glyph glyph-name="gcaron" unicode="&#x1e7;" horiz-adv-x="980" 
d="M463 969q173 0 274 -82q57 24 74 143l139 -49q-10 -67 -51 -111.5t-102 -56.5q45 -71 45 -180q0 -158 -106.5 -243t-268.5 -85q-79 0 -125 17q-72 -38 -72 -105q0 -86 111 -86h219q161 0 243.5 -65t82.5 -193q0 -70 -29.5 -124.5t-77 -88t-114.5 -55t-134.5 -29.5
t-144.5 -8q-82 0 -150 12t-128 39t-94 78t-34 123q0 94 65 155t177 70q-60 7 -92.5 45.5t-32.5 95.5q0 124 135 158q-86 39 -133 113t-47 176q0 155 101.5 245.5t269.5 90.5zM170 -170q0 -149 268 -149q338 0 338 172q0 141 -176 141h-194q-236 0 -236 -164zM244 635
q0 -98 58.5 -156.5t160.5 -58.5q105 0 165 54t60 161q0 106 -60.5 162.5t-164.5 54.5t-161.5 -58t-57.5 -159zM528 1085h-86l-249 293h165l74 -94q17 -22 29.5 -42.5t16.5 -29.5l3 -10h8q11 33 50 82l73 94h166z" />
    <glyph glyph-name="Kcaron" unicode="&#x1e8;" horiz-adv-x="1069" 
d="M1028 0h-197l-397 543h-100v-543h-160v1206h160v-524h106l371 524h188l-432 -585zM561 1331h-94l-248 254h178l66 -69q17 -19 29.5 -37t15.5 -27l4 -8h4q10 29 49 72l66 69h178z" />
    <glyph glyph-name="kcaron" unicode="&#x1e9;" horiz-adv-x="923" 
d="M485 506l428 -506h-196l-352 434h-56v-434h-155v1368h155v-811h43l338 389h193zM279 1452h-95l-247 254h178l65 -70q17 -19 29.5 -37t16.5 -26l3 -8h4q11 28 50 71l65 70h178z" />
    <glyph glyph-name="Oogonek" unicode="&#x1ea;" horiz-adv-x="1253" 
d="M406 -223q0 126 104 209q-197 37 -307.5 196.5t-110.5 419.5q0 298 144.5 463.5t390.5 165.5t390 -165.5t144 -463.5q0 -280 -129 -442t-352 -180q-58 -26 -94.5 -72t-36.5 -111q0 -58 28 -90.5t82 -32.5q96 0 146 95l59 -72q-64 -129 -229 -129q-107 0 -168 55t-61 154z
M627 1092q-178 0 -272.5 -129t-94.5 -361q0 -231 94.5 -360t272.5 -129t272 128.5t94 360.5t-94 361t-272 129z" />
    <glyph glyph-name="oogonek" unicode="&#x1eb;" horiz-adv-x="1028" 
d="M281 -223q0 133 110 215q-141 37 -220 162.5t-79 324.5q0 237 113 363.5t309 126.5t309 -126.5t113 -363.5q0 -227 -103 -358.5t-280 -143.5q-57 -25 -93 -71t-36 -109q0 -58 28 -90.5t83 -32.5q95 0 145 95l59 -72q-65 -129 -229 -129q-107 0 -168 55t-61 154zM514 842
q-268 0 -268 -363q0 -381 268 -381t268 381q0 363 -268 363z" />
    <glyph glyph-name="uni004F02DB00AF" unicode="&#x1ec;" horiz-adv-x="1253" 
d="M885 1386h-514v121h514v-121zM406 -223q0 126 104 209q-197 37 -307.5 196.5t-110.5 419.5q0 298 144.5 463.5t390.5 165.5t390 -165.5t144 -463.5q0 -280 -129 -442t-352 -180q-58 -26 -94.5 -72t-36.5 -111q0 -58 28 -90.5t82 -32.5q96 0 146 95l59 -72
q-64 -129 -229 -129q-107 0 -168 55t-61 154zM627 1092q-178 0 -272.5 -129t-94.5 -361q0 -231 94.5 -360t272.5 -129t272 128.5t94 360.5t-94 361t-272 129z" />
    <glyph glyph-name="oogonekmacron" unicode="&#x1ed;" horiz-adv-x="1028" 
d="M772 1155h-514v125h514v-125zM281 -223q0 133 110 215q-141 37 -220 162.5t-79 324.5q0 237 113 363.5t309 126.5t309 -126.5t113 -363.5q0 -227 -103 -358.5t-280 -143.5q-57 -25 -93 -71t-36 -109q0 -58 28 -90.5t83 -32.5q95 0 145 95l59 -72q-65 -129 -229 -129
q-107 0 -168 55t-61 154zM514 842q-268 0 -268 -363q0 -381 268 -381t268 381q0 363 -268 363z" />
    <glyph glyph-name="Ezhcaron" unicode="&#x1ee;" horiz-adv-x="923" 
d="M272 551l258 364q31 44 59.5 81.5t40.5 53.5l13 15v8q-51 -6 -180 -6h-420v139h803v-104l-418 -563v-11q205 -1 324.5 -120.5t119.5 -321.5q0 -142 -63.5 -247.5t-167.5 -157.5t-233 -52q-190 0 -305 99t-134 278l131 35q21 -146 102 -218.5t204 -72.5q145 0 231 90.5
t86 245.5q0 173 -121.5 262t-329.5 86v117zM506 1331h-94l-248 254h178l66 -69q17 -19 29.5 -37t16.5 -27l3 -8h4q10 29 49 72l65 69h179z" />
    <glyph glyph-name="ezhcaron" unicode="&#x1ef;" horiz-adv-x="786" 
d="M227 430l187 229q34 42 66.5 79.5t48.5 53.5l16 17v8q-70 -6 -199 -6h-280v135h659v-106l-354 -434v-7q158 -1 253 -103t95 -257q0 -166 -112.5 -260t-282.5 -94q-142 0 -234 79.5t-110 206.5l135 31q17 -96 76 -146.5t145 -50.5q99 0 168 63t69 163q0 120 -84.5 198
t-261.5 97v104zM442 1085h-86l-250 293h166l74 -94q17 -22 29.5 -42.5t16.5 -29.5l3 -10h8q11 33 50 82l73 94h166z" />
    <glyph glyph-name="jcaron" unicode="&#x1f0;" horiz-adv-x="462" 
d="M276 1085h-86l-249 293h165l74 -94q17 -22 29.5 -42.5t16.5 -29.5l3 -10h9q10 33 49 82l73 94h166zM154 946h155v-969q0 -115 -27.5 -193.5t-83.5 -123t-131.5 -62t-179.5 -14.5v131q138 -10 202.5 48t64.5 190v993z" />
    <glyph glyph-name="jcaron" unicode="&#xe10c;" horiz-adv-x="462" 
d="M276 1085h-86l-249 293h165l74 -94q17 -22 29.5 -42.5t16.5 -29.5l3 -10h9q10 33 49 82l73 94h166zM154 946h155v-969q0 -115 -27.5 -193.5t-83.5 -123t-131.5 -62t-179.5 -14.5v131q138 -10 202.5 48t64.5 190v993z" />
    <glyph glyph-name="Gacute" unicode="&#x1f4;" horiz-adv-x="1236" 
d="M637 614h467v-614h-141l-19 162q-32 -87 -127.5 -137t-204.5 -50q-236 0 -378 164t-142 459q0 297 152.5 465t402.5 168q167 0 275 -70t165 -215l-145 -72q-39 109 -120 165.5t-187 56.5q-177 0 -276 -132.5t-99 -363.5q0 -226 92.5 -358.5t268.5 -132.5q86 0 156.5 25
t118.5 84.5t48 146.5v106h-307v143zM715 1341h-142l127 238h213z" />
    <glyph glyph-name="gacute" unicode="&#x1f5;" horiz-adv-x="980" 
d="M463 969q173 0 274 -82q57 24 74 143l139 -49q-10 -67 -51 -111.5t-102 -56.5q45 -71 45 -180q0 -158 -106.5 -243t-268.5 -85q-79 0 -125 17q-72 -38 -72 -105q0 -86 111 -86h219q161 0 243.5 -65t82.5 -193q0 -70 -29.5 -124.5t-77 -88t-114.5 -55t-134.5 -29.5
t-144.5 -8q-82 0 -150 12t-128 39t-94 78t-34 123q0 94 65 155t177 70q-60 7 -92.5 45.5t-32.5 95.5q0 124 135 158q-86 39 -133 113t-47 176q0 155 101.5 245.5t269.5 90.5zM170 -170q0 -149 268 -149q338 0 338 172q0 141 -176 141h-194q-236 0 -236 -164zM244 635
q0 -98 58.5 -156.5t160.5 -58.5q105 0 165 54t60 161q0 106 -60.5 162.5t-164.5 54.5t-161.5 -58t-57.5 -159zM539 1085h-133l153 293h215z" />
    <glyph glyph-name="Ngrave" unicode="&#x1f8;" horiz-adv-x="1314" 
d="M344 1206l492 -727q33 -49 69.5 -111.5t56.5 -100.5l21 -38h8q-10 137 -10 289v688h160v-1206h-166l-498 727q-34 49 -70.5 111.5t-56.5 100.5l-20 38h-8q12 -137 12 -289v-688h-160v1206h170zM735 1341h-141l-199 238h213z" />
    <glyph glyph-name="ngrave" unicode="&#x1f9;" 
d="M270 946l19 -182q74 205 303 205q129 0 210 -72.5t81 -218.5v-678h-156v639q0 92 -45.5 143.5t-132.5 51.5q-50 0 -91 -14t-75.5 -45.5t-54 -88.5t-19.5 -135v-551h-155v946h116zM612 1085h-133l-235 293h215z" />
    <glyph glyph-name="uni004102DA00B4" unicode="&#x1fa;" horiz-adv-x="1134" 
d="M942 0l-125 356h-506l-125 -356h-166l441 1206h217l436 -1206h-172zM467 803l-111 -316h414l-108 314q-29 83 -52.5 160t-31.5 113l-9 36h-8q-28 -121 -94 -307zM565 1272q-94 0 -148.5 55t-54.5 141q0 79 56.5 135t146.5 56t146.5 -56t56.5 -135q0 -86 -54.5 -141
t-148.5 -55zM565 1585q-53 0 -84.5 -34t-31.5 -87q0 -51 30 -81.5t86 -30.5t86.5 30.5t30.5 81.5q0 53 -32 87t-85 34zM629 1720h-142l127 238h213z" />
    <glyph glyph-name="aringacute" unicode="&#x1fb;" horiz-adv-x="966" 
d="M637 281v151q-205 4 -302 -40.5t-97 -143.5q0 -68 42.5 -110t122.5 -42q89 0 161.5 51t72.5 134zM793 684v-481q0 -51 19 -69.5t52 -18.5q32 0 51 8v-125q-46 -12 -84 -12q-167 0 -184 153q-35 -84 -110 -124t-170 -40q-127 0 -206 68t-79 186q0 339 555 314v127
q0 172 -191 172q-86 0 -135 -40.5t-55 -117.5l-143 21q5 72 37.5 125.5t84.5 82.5t109 42.5t121 13.5q52 0 98 -8.5t89 -29t73.5 -52.5t49 -81.5t18.5 -113.5zM461 1044q-94 0 -148.5 55.5t-54.5 141.5q0 79 56.5 135t146.5 56t146.5 -56t56.5 -135q0 -86 -54.5 -141.5
t-148.5 -55.5zM461 1358q-53 0 -85 -34t-32 -87q0 -51 30.5 -82t86.5 -31t86.5 31t30.5 82q0 53 -32 87t-85 34zM541 1507h-142l127 238h213z" />
    <glyph glyph-name="AEacute" unicode="&#x1fc;" horiz-adv-x="1675" 
d="M1573 0h-721v356h-444l-218 -356h-170l746 1206h807v-139h-561v-395h499v-140h-499v-393h561v-139zM856 1090l-371 -603h367v304q-1 90 2 165t6 104l4 30h-8zM1161 1341h-141l127 238h213z" />
    <glyph glyph-name="aeacute" unicode="&#x1fd;" horiz-adv-x="1476" 
d="M1018 100q89 0 143 38t78 124l137 -31q-25 -136 -123.5 -196t-246.5 -60q-219 0 -328 168q-89 -168 -305 -168q-131 0 -211 68t-80 186q0 160 125 243.5t393 84.5q8 73 35 148q-19 137 -189 137q-86 0 -135 -40.5t-55 -117.5l-143 21q5 72 37.5 125.5t84.5 82.5t109 42.5
t121 13.5q185 0 262 -115q112 115 291 115q174 0 268.5 -110.5t97.5 -297.5q0 -71 -12 -123h-622q8 -155 76 -246.5t192 -91.5zM754 557h473q2 16 2 49q0 101 -60.5 169.5t-160.5 68.5q-108 0 -173.5 -75t-80.5 -212zM389 96q83 0 146 41.5t92 114.5q-28 83 -31 186
q-197 -2 -277.5 -44t-80.5 -146q0 -66 40.5 -109t110.5 -43zM780 1085h-133l154 293h215z" />
    <glyph glyph-name="Oslashacute" unicode="&#x1fe;" horiz-adv-x="1253" 
d="M141 -29l-86 82l135 150q-98 159 -98 399q0 298 144.5 463.5t390.5 165.5q225 0 362 -137l117 129l92 -84l-131 -146q94 -154 94 -391q0 -297 -144 -462t-390 -165q-224 0 -361 134zM627 1092q-177 0 -269 -128.5t-92 -361.5q0 -156 41 -268l578 643q-92 115 -258 115z
M987 602q0 156 -39 260l-577 -639q90 -110 256 -110q177 0 268.5 128t91.5 361zM694 1341h-141l127 238h213z" />
    <glyph glyph-name="oslashacute" unicode="&#x1ff;" horiz-adv-x="1028" 
d="M141 -29l-92 78l113 121q-70 124 -70 309q0 237 113 363.5t309 126.5q179 0 291 -109l98 107l92 -78l-118 -127q59 -115 59 -283q0 -240 -113.5 -372t-308.5 -132q-171 0 -276 99zM514 842q-268 0 -268 -363q0 -113 24 -192l439 471q-66 84 -195 84zM782 479
q0 91 -18 162l-434 -467q64 -76 184 -76q268 0 268 381zM586 1085h-133l153 293h215z" />
    <glyph glyph-name="Adoublegrave" unicode="&#x200;" horiz-adv-x="1134" 
d="M942 0l-125 356h-506l-125 -356h-166l441 1206h217l436 -1206h-172zM467 803l-111 -316h414l-108 314q-29 83 -52.5 160t-31.5 113l-9 36h-8q-28 -121 -94 -307zM788 1341h-118l-215 238h200zM502 1341h-123l-236 238h205z" />
    <glyph glyph-name="edoublegrave" unicode="&#x201;" horiz-adv-x="972" 
d="M514 98q88 0 142.5 39t78.5 125l137 -31q-25 -136 -123.5 -196t-246.5 -60q-188 0 -299 129t-111 363t114 368t308 134q174 0 270.5 -110t96.5 -290q0 -83 -19 -131h-620q8 -154 78 -247t194 -93zM246 563h481q2 16 2 43q0 101 -62.5 169.5t-162.5 68.5
q-109 0 -176 -72.5t-82 -208.5zM733 1085h-119l-215 293h201zM446 1085h-122l-236 293h205z" />
    <glyph glyph-name="edoublegrave" unicode="&#x205;" horiz-adv-x="972" 
d="M514 98q88 0 142.5 39t78.5 125l137 -31q-25 -136 -123.5 -196t-246.5 -60q-188 0 -299 129t-111 363t114 368t308 134q174 0 270.5 -110t96.5 -290q0 -83 -19 -131h-620q8 -154 78 -247t194 -93zM246 563h481q2 16 2 43q0 101 -62.5 169.5t-162.5 68.5
q-109 0 -176 -72.5t-82 -208.5zM733 1085h-119l-215 293h201zM446 1085h-122l-236 293h205z" />
    <glyph glyph-name="Ainvertedbreve" unicode="&#x202;" horiz-adv-x="1134" 
d="M942 0l-125 356h-506l-125 -356h-166l441 1206h217l436 -1206h-172zM467 803l-111 -316h414l-108 314q-29 83 -52.5 160t-31.5 113l-9 36h-8q-28 -121 -94 -307zM563 1599q125 0 196.5 -69.5t71.5 -188.5h-124q-6 70 -39 106t-105 36q-70 0 -102.5 -36t-38.5 -106h-125
q0 119 71 188.5t195 69.5z" />
    <glyph glyph-name="ainvertedbreve" unicode="&#x203;" horiz-adv-x="966" 
d="M637 281v151q-205 4 -302 -40.5t-97 -143.5q0 -68 42.5 -110t122.5 -42q89 0 161.5 51t72.5 134zM793 684v-481q0 -51 19 -69.5t52 -18.5q32 0 51 8v-125q-46 -12 -84 -12q-167 0 -184 153q-35 -84 -110 -124t-170 -40q-127 0 -206 68t-79 186q0 339 555 314v127
q0 172 -191 172q-86 0 -135 -40.5t-55 -117.5l-143 21q5 72 37.5 125.5t84.5 82.5t109 42.5t121 13.5q52 0 98 -8.5t89 -29t73.5 -52.5t49 -81.5t18.5 -113.5zM465 1368q125 0 196.5 -75t71.5 -203h-125q-7 79 -37 119t-106 40t-106 -40t-37 -119h-125q0 128 71.5 203
t196.5 75z" />
    <glyph glyph-name="Edoublegrave" unicode="&#x204;" horiz-adv-x="997" 
d="M895 139v-139h-721v1206h721v-139h-561v-395h497v-140h-497v-393h561zM756 1341h-119l-215 238h201zM469 1341h-123l-235 238h204z" />
    <glyph glyph-name="Einvertedbreve" unicode="&#x206;" horiz-adv-x="997" 
d="M895 139v-139h-721v1206h721v-139h-561v-395h497v-140h-497v-393h561zM516 1604q125 0 196.5 -69.5t71.5 -188.5h-125q-6 70 -38.5 105.5t-104.5 35.5q-70 0 -102.5 -35.5t-38.5 -105.5h-125q0 119 71 188.5t195 69.5z" />
    <glyph glyph-name="einvertedbreve" unicode="&#x207;" horiz-adv-x="972" 
d="M514 98q88 0 142.5 39t78.5 125l137 -31q-25 -136 -123.5 -196t-246.5 -60q-188 0 -299 129t-111 363t114 368t308 134q174 0 270.5 -110t96.5 -290q0 -83 -19 -131h-620q8 -154 78 -247t194 -93zM246 563h481q2 16 2 43q0 101 -62.5 169.5t-162.5 68.5
q-109 0 -176 -72.5t-82 -208.5zM510 1368q125 0 196.5 -75t71.5 -203h-125q-7 79 -37 119t-106 40t-106 -40t-37 -119h-125q0 128 71.5 203t196.5 75z" />
    <glyph glyph-name="Idoublegrave" unicode="&#x208;" horiz-adv-x="507" 
d="M174 1206h160v-1206h-160v1206zM475 1341h-119l-215 238h201zM188 1341h-122l-236 238h205z" />
    <glyph glyph-name="idoublegrave" unicode="&#x209;" horiz-adv-x="462" 
d="M154 946h155v-946h-155v946zM449 1085h-119l-215 293h200zM162 1085h-123l-236 293h205z" />
    <glyph glyph-name="Iinvertedbreve" unicode="&#x20a;" horiz-adv-x="507" 
d="M174 1206h160v-1206h-160v1206zM254 1604q125 0 196.5 -69.5t71.5 -188.5h-125q-6 70 -38.5 105.5t-104.5 35.5q-70 0 -102.5 -35.5t-38.5 -105.5h-125q0 119 71 188.5t195 69.5z" />
    <glyph glyph-name="iinvertedbreve" unicode="&#x20b;" horiz-adv-x="462" 
d="M154 946h155v-946h-155v946zM231 1368q125 0 197 -75t72 -203h-125q-7 79 -37.5 119t-106.5 40t-106 -40t-37 -119h-125q0 128 71.5 203t196.5 75z" />
    <glyph glyph-name="Odoublegrave" unicode="&#x20c;" horiz-adv-x="1253" 
d="M627 -25q-246 0 -390.5 165t-144.5 462q0 298 144.5 463.5t390.5 165.5t390 -165.5t144 -463.5q0 -297 -144 -462t-390 -165zM627 1092q-178 0 -272.5 -129t-94.5 -361q0 -231 94.5 -360t272.5 -129t272 128.5t94 360.5t-94 361t-272 129zM848 1341h-119l-215 238h201z
M561 1341h-123l-235 238h205z" />
    <glyph glyph-name="odoublegrave" unicode="&#x20d;" horiz-adv-x="1028" 
d="M514 -25q-195 0 -308.5 132t-113.5 372q0 237 113 363.5t309 126.5t309 -126.5t113 -363.5q0 -240 -113.5 -372t-308.5 -132zM514 842q-268 0 -268 -363q0 -381 268 -381t268 381q0 363 -268 363zM731 1085h-119l-215 293h201zM444 1085h-122l-236 293h205z" />
    <glyph glyph-name="Oinvertedbreve" unicode="&#x20e;" horiz-adv-x="1253" 
d="M627 -25q-246 0 -390.5 165t-144.5 462q0 298 144.5 463.5t390.5 165.5t390 -165.5t144 -463.5q0 -297 -144 -462t-390 -165zM627 1092q-178 0 -272.5 -129t-94.5 -361q0 -231 94.5 -360t272.5 -129t272 128.5t94 360.5t-94 361t-272 129zM627 1604q125 0 196.5 -69.5
t71.5 -188.5h-125q-6 70 -38.5 105.5t-104.5 35.5q-70 0 -103 -35.5t-39 -105.5h-125q0 119 71.5 188.5t195.5 69.5z" />
    <glyph glyph-name="oinvertedbreve" unicode="&#x20f;" horiz-adv-x="1028" 
d="M514 -25q-195 0 -308.5 132t-113.5 372q0 237 113 363.5t309 126.5t309 -126.5t113 -363.5q0 -240 -113.5 -372t-308.5 -132zM514 842q-268 0 -268 -363q0 -381 268 -381t268 381q0 363 -268 363zM514 1368q125 0 196.5 -75t71.5 -203h-125q-7 79 -37 119t-106 40
t-106 -40t-37 -119h-125q0 128 71.5 203t196.5 75z" />
    <glyph glyph-name="Rinvertedbreve" unicode="&#x212;" horiz-adv-x="1103" 
d="M1028 0h-174q-35 43 -49 109l-51 219q-26 109 -84 146.5t-162 37.5h-174v-512h-160v1206h399q402 0 402 -336q0 -136 -82 -215t-201 -84v-4q88 -11 137.5 -56t75.5 -144l62 -242q19 -74 61 -125zM334 1073v-430h235q122 0 180 53.5t58 163.5q0 102 -59 157.5t-179 55.5
h-235zM524 1604q125 0 197 -69.5t72 -188.5h-125q-6 70 -39 105.5t-105 35.5q-70 0 -102.5 -35.5t-38.5 -105.5h-125q0 119 71 188.5t195 69.5z" />
    <glyph glyph-name="rinvertedbreve" unicode="&#x213;" horiz-adv-x="702" 
d="M662 967l-9 -176q-27 6 -75 6q-111 0 -190 -85t-79 -218v-494h-155v946h129l18 -254q29 131 122.5 206t238.5 69zM408 1368q125 0 196.5 -75t71.5 -203h-125q-7 79 -37 119t-106 40t-106.5 -40t-37.5 -119h-125q0 128 72 203t197 75z" />
    <glyph glyph-name="Udoublegrave" unicode="&#x214;" horiz-adv-x="1173" 
d="M881 1206h159v-813q0 -90 -26 -162.5t-69 -119.5t-102.5 -78t-123 -44.5t-133.5 -13.5t-133.5 13.5t-123 44.5t-102.5 78t-68.5 119.5t-25.5 162.5v813h160v-774q0 -168 78 -247t215 -79q138 0 216.5 78t78.5 242v780zM807 1341h-119l-215 238h201zM520 1341h-123
l-235 238h205z" />
    <glyph glyph-name="udoublegrave" unicode="&#x215;" 
d="M739 0l-18 170q-36 -103 -108 -149t-183 -46q-136 0 -211.5 76t-75.5 240v655h156v-641q0 -112 44 -163.5t138 -51.5q41 0 82 18.5t75.5 52.5t56.5 89t22 121v575h155v-946h-133zM725 1085h-119l-215 293h201zM438 1085h-123l-235 293h205z" />
    <glyph glyph-name="Uinvertedbreve" unicode="&#x216;" horiz-adv-x="1173" 
d="M881 1206h159v-813q0 -90 -26 -162.5t-69 -119.5t-102.5 -78t-123 -44.5t-133.5 -13.5t-133.5 13.5t-123 44.5t-102.5 78t-68.5 119.5t-25.5 162.5v813h160v-774q0 -168 78 -247t215 -79q138 0 216.5 78t78.5 242v780zM586 1604q125 0 196.5 -69.5t71.5 -188.5h-125
q-6 70 -38.5 105.5t-104.5 35.5q-70 0 -103 -35.5t-39 -105.5h-125q0 119 71.5 188.5t195.5 69.5z" />
    <glyph glyph-name="uinvertedbreve" unicode="&#x217;" 
d="M739 0l-18 170q-36 -103 -108 -149t-183 -46q-136 0 -211.5 76t-75.5 240v655h156v-641q0 -112 44 -163.5t138 -51.5q41 0 82 18.5t75.5 52.5t56.5 89t22 121v575h155v-946h-133zM508 1368q125 0 196.5 -75t71.5 -203h-125q-7 79 -37 119t-106 40t-106 -40t-37 -119h-125
q0 128 71.5 203t196.5 75z" />
    <glyph glyph-name="Scommaaccent" unicode="&#x218;" horiz-adv-x="952" 
d="M61 295l152 27q35 -224 260 -224q108 0 172 49.5t64 141.5q0 87 -55 140t-212 112q-35 13 -54 20.5t-52 22t-52.5 25.5t-47 29.5t-44 36t-35.5 42t-29 51t-17 60t-7 71.5q0 88 32 154.5t86.5 104.5t118 56.5t134.5 18.5q170 0 275 -77.5t118 -242.5l-155 -24
q-9 104 -72.5 161.5t-163.5 57.5q-97 0 -156 -52t-59 -143q0 -20 2.5 -37.5t10.5 -33.5t14.5 -28t22 -25.5t25.5 -22t33 -20.5t35.5 -18.5t43 -19t45.5 -18.5t51 -20q42 -16 70.5 -28t65.5 -31.5t61.5 -38t50.5 -46t41.5 -58t25.5 -70.5t10 -87q0 -83 -31.5 -148.5t-87 -106
t-128 -61t-156.5 -20.5q-182 0 -282.5 78t-123.5 242zM625 -293q0 -108 -58 -157.5t-174 -49.5v70q61 3 89 22.5t28 69.5q-53 -10 -85 16.5t-32 73.5t29.5 74t79.5 27t86.5 -40t36.5 -106z" />
    <glyph glyph-name="scommaaccent" unicode="&#x219;" horiz-adv-x="841" 
d="M61 211l144 35q17 -160 213 -160q94 0 150.5 36t56.5 107q0 65 -34 103t-122 61l-139 33q-127 30 -181.5 94.5t-54.5 169.5q0 75 28.5 130.5t78.5 87t109 46.5t128 15q148 0 231.5 -60t98.5 -192l-154 -17q-9 150 -186 150q-89 0 -137.5 -37.5t-48.5 -105.5q0 -60 30 -95
t111 -53l129 -33q130 -33 194 -95t64 -183q0 -141 -97 -207t-259 -66q-161 0 -248 55.5t-105 180.5zM557 -293q0 -108 -57.5 -157.5t-173.5 -49.5v70q61 3 88.5 22.5t27.5 69.5q-52 -10 -84 16.5t-32 73.5t29 74t79 27t86.5 -40t36.5 -106z" />
    <glyph glyph-name="Hcaron" unicode="&#x21e;" horiz-adv-x="1277" 
d="M334 0h-160v1206h160v-524h610v524h160v-1206h-160v543h-610v-543zM686 1331h-94l-248 254h178l66 -69q17 -19 29.5 -37t16.5 -27l3 -8h4q10 29 49 72l66 69h178z" />
    <glyph glyph-name="hcaron" unicode="&#x21f;" 
d="M309 1368v-602q66 203 283 203q129 0 210 -72.5t81 -218.5v-678h-156v641q0 91 -46 142t-132 51q-50 0 -91 -14t-75.5 -45.5t-54 -88.5t-19.5 -135v-551h-155v1368h155zM279 1452h-95l-247 254h178l65 -70q17 -19 29.5 -37t16.5 -26l3 -8h4q11 28 50 71l65 70h178z" />
    <glyph glyph-name="Adotabove" unicode="&#x226;" horiz-adv-x="1134" 
d="M942 0l-125 356h-506l-125 -356h-166l441 1206h217l436 -1206h-172zM467 803l-111 -316h414l-108 314q-29 83 -52.5 160t-31.5 113l-9 36h-8q-28 -121 -94 -307zM455 1452q0 47 32 80t76 33q47 0 80 -33t33 -80q0 -45 -33 -78t-80 -33q-44 0 -76 33t-32 78z" />
    <glyph glyph-name="adotabove" unicode="&#x227;" horiz-adv-x="966" 
d="M637 281v151q-205 4 -302 -40.5t-97 -143.5q0 -68 42.5 -110t122.5 -42q89 0 161.5 51t72.5 134zM793 684v-481q0 -51 19 -69.5t52 -18.5q32 0 51 8v-125q-46 -12 -84 -12q-167 0 -184 153q-35 -84 -110 -124t-170 -40q-127 0 -206 68t-79 186q0 339 555 314v127
q0 172 -191 172q-86 0 -135 -40.5t-55 -117.5l-143 21q5 72 37.5 125.5t84.5 82.5t109 42.5t121 13.5q52 0 98 -8.5t89 -29t73.5 -52.5t49 -81.5t18.5 -113.5zM348 1221q0 46 32.5 79t76.5 33q47 0 79.5 -33t32.5 -79q0 -45 -32.5 -78t-79.5 -33q-44 0 -76.5 33.5
t-32.5 77.5z" />
    <glyph glyph-name="Otildemacron" unicode="&#x22c;" horiz-adv-x="1253" 
d="M627 -25q-246 0 -390.5 165t-144.5 462q0 298 144.5 463.5t390.5 165.5t390 -165.5t144 -463.5q0 -297 -144 -462t-390 -165zM627 1092q-178 0 -272.5 -129t-94.5 -361q0 -231 94.5 -360t272.5 -129t272 128.5t94 360.5t-94 361t-272 129zM766 1284q-29 0 -56.5 8.5
t-40 14.5t-48.5 26q-8 5 -25 14.5t-23 13t-18.5 9.5t-20 8t-17.5 4t-21 2q-73 0 -62 -96h-98q-34 94 7.5 166t133.5 72q36 0 68 -9t48.5 -18t53.5 -31q45 -28 64 -36.5t45 -8.5q64 0 59 103h105q30 -104 -11 -173t-143 -69zM885 1618h-514v121h514v-121z" />
    <glyph glyph-name="otildemacron" unicode="&#x22d;" horiz-adv-x="1028" 
d="M514 -25q-195 0 -308.5 132t-113.5 372q0 237 113 363.5t309 126.5t309 -126.5t113 -363.5q0 -240 -113.5 -372t-308.5 -132zM514 842q-268 0 -268 -363q0 -381 268 -381t268 381q0 363 -268 363zM653 1049q-29 0 -56.5 8.5t-40 14.5t-48.5 26q-8 5 -25 14.5t-23 13
t-18.5 9.5t-20 8t-17.5 4t-21 2q-72 0 -61 -96h-99q-34 94 8 162.5t134 68.5q36 0 67.5 -8.5t49 -18t53.5 -30.5q45 -28 63.5 -36.5t44.5 -8.5q64 0 59 102h105q30 -103 -11 -169t-143 -66zM772 1384h-514v125h514v-125z" />
    <glyph glyph-name="Odotabove" unicode="&#x22e;" horiz-adv-x="1253" 
d="M627 -25q-246 0 -390.5 165t-144.5 462q0 298 144.5 463.5t390.5 165.5t390 -165.5t144 -463.5q0 -297 -144 -462t-390 -165zM627 1092q-178 0 -272.5 -129t-94.5 -361q0 -231 94.5 -360t272.5 -129t272 128.5t94 360.5t-94 361t-272 129zM516 1452q0 47 32 80t77 33
q47 0 79.5 -33t32.5 -80q0 -45 -32.5 -78t-79.5 -33q-44 0 -76.5 33.5t-32.5 77.5z" />
    <glyph glyph-name="odotabove" unicode="&#x22f;" horiz-adv-x="1028" 
d="M514 -25q-195 0 -308.5 132t-113.5 372q0 237 113 363.5t309 126.5t309 -126.5t113 -363.5q0 -240 -113.5 -372t-308.5 -132zM514 842q-268 0 -268 -363q0 -381 268 -381t268 381q0 363 -268 363zM403 1219q0 46 32.5 79t76.5 33q47 0 80 -33t33 -79q0 -45 -33 -78
t-80 -33q-44 0 -76.5 33.5t-32.5 77.5z" />
    <glyph glyph-name="odotabovemacron" unicode="&#x231;" horiz-adv-x="1028" 
d="M514 -25q-195 0 -308.5 132t-113.5 372q0 237 113 363.5t309 126.5t309 -126.5t113 -363.5q0 -240 -113.5 -372t-308.5 -132zM514 842q-268 0 -268 -363q0 -381 268 -381t268 381q0 363 -268 363zM403 1178q0 46 32.5 79t76.5 33q47 0 80 -33t33 -79q0 -45 -33 -78
t-80 -33q-44 0 -76.5 33.5t-32.5 77.5zM772 1384h-514v125h514v-125z" />
    <glyph glyph-name="odotabovemacron" unicode="&#xe11e;" horiz-adv-x="1028" 
d="M514 -25q-195 0 -308.5 132t-113.5 372q0 237 113 363.5t309 126.5t309 -126.5t113 -363.5q0 -240 -113.5 -372t-308.5 -132zM514 842q-268 0 -268 -363q0 -381 268 -381t268 381q0 363 -268 363zM403 1178q0 46 32.5 79t76.5 33q47 0 80 -33t33 -79q0 -45 -33 -78
t-80 -33q-44 0 -76.5 33.5t-32.5 77.5zM772 1384h-514v125h514v-125z" />
    <glyph glyph-name="Ymacron" unicode="&#x232;" horiz-adv-x="950" 
d="M201 1206l207 -413q29 -58 49 -105.5t25 -65.5l5 -18h9q14 58 73 187l193 415h168l-363 -731v-475h-159v475l-388 731h181zM733 1386h-514v121h514v-121z" />
    <glyph glyph-name="ymacron" unicode="&#x233;" horiz-adv-x="872" 
d="M190 946l175 -549q26 -83 45.5 -157t25.5 -107l6 -33h9q18 109 73 295l166 551h162l-340 -1022q-66 -196 -154.5 -273t-214.5 -77q-65 0 -129 23l11 129q62 -27 122 -27q79 0 129 54t95 192l-351 1001h170zM709 1155h-514v125h514v-125z" />
    <glyph glyph-name="dotlessj" unicode="&#x237;" horiz-adv-x="462" 
d="M154 946h155v-969q0 -115 -27.5 -193.5t-83.5 -123t-131.5 -62t-179.5 -14.5v131q138 -10 202.5 48t64.5 190v993z" />
    <glyph glyph-name="schwa" unicode="&#x259;" horiz-adv-x="972" 
d="M459 844q-172 0 -221 -174l-138 30q25 137 125.5 203t245.5 66q188 0 299 -129t111 -363q0 -235 -111.5 -368.5t-304.5 -133.5q-175 0 -272.5 111t-100.5 297q0 65 12 117h623q-8 156 -76.5 250t-191.5 94zM723 381h-473q-2 -16 -2 -43q0 -101 63 -169.5t164 -68.5
q108 0 170.5 71.5t77.5 209.5z" />
    <glyph glyph-name="ezh" unicode="&#x292;" horiz-adv-x="786" 
d="M227 430l187 229q34 42 66.5 79.5t48.5 53.5l16 17v8q-70 -6 -199 -6h-280v135h659v-106l-354 -434v-7q158 -1 253 -103t95 -257q0 -166 -112.5 -260t-282.5 -94q-142 0 -234 79.5t-110 206.5l135 31q17 -96 76 -146.5t145 -50.5q99 0 168 63t69 163q0 120 -84.5 198
t-261.5 97v104z" />
    <glyph glyph-name="circumflex" unicode="&#x2c6;" horiz-adv-x="913" 
d="M414 1378h86l250 -293h-166l-74 91q-17 22 -29.5 42t-16.5 30l-3 9h-8q-11 -32 -50 -81l-73 -91h-166z" />
    <glyph glyph-name="caron" unicode="&#x2c7;" horiz-adv-x="913" 
d="M500 1085h-86l-250 293h166l73 -94q17 -22 29.5 -42.5t16.5 -29.5l4 -10h8q10 33 49 82l74 94h166z" />
    <glyph glyph-name="breve" unicode="&#x2d8;" horiz-adv-x="864" 
d="M432 1081q-125 0 -196.5 75.5t-71.5 203.5h125q7 -79 37 -119.5t106 -40.5t106 40.5t37 119.5h125q0 -128 -71.5 -203.5t-196.5 -75.5z" />
    <glyph glyph-name="dotaccent" unicode="&#x2d9;" horiz-adv-x="548" 
d="M164 1253q0 46 32 79.5t76 33.5q47 0 80 -33.5t33 -79.5q0 -45 -33 -77.5t-80 -32.5q-44 0 -76 33t-32 77z" />
    <glyph glyph-name="ring" unicode="&#x2da;" horiz-adv-x="733" 
d="M367 1073q-94 0 -148.5 55.5t-54.5 141.5q0 79 56.5 134.5t146.5 55.5t146 -55.5t56 -134.5q0 -86 -54 -141.5t-148 -55.5zM367 1386q-53 0 -85 -33.5t-32 -86.5q0 -51 30.5 -82t86.5 -31t86 31t30 82q0 53 -31.5 86.5t-84.5 33.5z" />
    <glyph glyph-name="ogonek" unicode="&#x2db;" horiz-adv-x="770" 
d="M123 -223q0 58 23 107.5t58 82t80.5 56.5t86.5 36t80 17l55 -76q-39 0 -80 -13t-77.5 -37t-59.5 -64t-23 -89q0 -58 28 -90.5t83 -32.5q95 0 145 95l60 -72q-64 -129 -230 -129q-107 0 -168 55t-61 154z" />
    <glyph glyph-name="tilde" unicode="&#x2dc;" horiz-adv-x="942" 
d="M610 1087q-11 0 -22 1.5t-19 2.5t-19 5t-16.5 5.5t-18 8t-15.5 8t-17.5 10t-17.5 9.5q-8 5 -25 14.5t-23 13t-18.5 9.5t-20 8t-17.5 4t-21 2q-72 0 -61 -96h-99q-34 94 8 162.5t134 68.5q36 0 67.5 -8.5t49 -18t53.5 -30.5q45 -28 63.5 -36.5t44.5 -8.5q64 0 59 102h105
q30 -104 -11 -170t-143 -66z" />
    <glyph glyph-name="hungarumlaut" unicode="&#x2dd;" horiz-adv-x="972" 
d="M283 1085h-119l133 293h201zM573 1085h-122l153 293h205z" />
    <glyph glyph-name="uni0312" unicode="&#x312;" horiz-adv-x="559" 
d="M164 1485q0 108 57.5 157.5t173.5 49.5v-70q-61 -3 -88.5 -22.5t-27.5 -69.5q52 10 84 -16.5t32 -73.5t-29 -74t-79 -27t-86.5 40t-36.5 106z" />
    <glyph glyph-name="uni0320" unicode="&#x320;" horiz-adv-x="841" 
d="M678 -365h-514v121h514v-121z" />
    <glyph glyph-name="uni0323" unicode="&#x323;" horiz-adv-x="548" 
d="M164 -240q0 47 32 80t76 33q46 0 79.5 -33t33.5 -80q0 -44 -33.5 -77t-79.5 -33q-44 0 -76 33t-32 77z" />
    <glyph glyph-name="uni0329" unicode="&#x329;" horiz-adv-x="460" 
d="M164 -393v276h133v-268z" />
    <glyph glyph-name="pi" unicode="&#x3c0;" horiz-adv-x="1261" 
d="M346 985h805v-127h-223v-637q0 -64 18.5 -93.5t59.5 -29.5q37 0 58 22.5t42 69.5l94 -71q-39 -76 -88 -110t-135 -34q-205 0 -205 222v661h-266l-90 -858h-154l98 858h-28q-178 0 -178 -205h-134q0 163 84.5 247.5t241.5 84.5z" />
    <glyph glyph-name="pi" unicode="&#x3d6;" horiz-adv-x="1261" 
d="M346 985h805v-127h-223v-637q0 -64 18.5 -93.5t59.5 -29.5q37 0 58 22.5t42 69.5l94 -71q-39 -76 -88 -110t-135 -34q-205 0 -205 222v661h-266l-90 -858h-154l98 858h-28q-178 0 -178 -205h-134q0 163 84.5 247.5t241.5 84.5z" />
    <glyph glyph-name="uni0E3F" unicode="&#xe3f;" horiz-adv-x="1079" 
d="M483 -217v217h-299v985h299v191h103v-191h10q156 0 247 -65t91 -187q0 -186 -180 -223v-6q99 -4 161 -70.5t62 -159.5q0 -274 -369 -274h-22v-217h-103zM625 434h-39v-305h20q110 0 162.5 33.5t52.5 122.5q0 149 -196 149zM590 856h-4v-293h16q180 0 180 148
q0 74 -53 109.5t-139 35.5zM342 434v-305h141v305h-141zM342 563h141v293h-141v-293z" />
    <glyph glyph-name="Ddotbelow" unicode="&#x1e0c;" horiz-adv-x="1198" 
d="M334 133h174q194 0 311 117.5t117 359.5q0 128 -33 221t-91.5 144t-129 74.5t-156.5 23.5h-192v-940zM524 0h-350v1206h352q131 0 234.5 -33t182 -102t121 -184.5t42.5 -270.5q0 -130 -30.5 -235t-84 -175t-128 -117t-159 -68t-180.5 -21zM416 -291q0 46 32 79.5t76 33.5
q47 0 80 -33.5t33 -79.5q0 -45 -33 -77.5t-80 -32.5q-44 0 -76 33t-32 77z" />
    <glyph glyph-name="ddotbelow" unicode="&#x1e0d;" horiz-adv-x="1077" 
d="M768 371v221q0 64 -23 114.5t-60.5 80t-80 44.5t-86.5 15q-123 0 -196.5 -92t-73.5 -293q0 -174 71.5 -267.5t196.5 -93.5q42 0 85.5 17t81 49t61.5 85.5t24 119.5zM766 817v551h158v-1368h-138l-18 164q-75 -189 -303 -189q-74 0 -140 30.5t-118.5 89t-83.5 153
t-31 211.5q0 242 111 376t313 134q88 0 159.5 -45t90.5 -107zM397 -291q0 46 32.5 79.5t76.5 33.5q47 0 79.5 -33.5t32.5 -79.5q0 -45 -32.5 -77.5t-79.5 -32.5q-44 0 -76.5 33t-32.5 77z" />
    <glyph glyph-name="Dcedilla" unicode="&#x1e10;" horiz-adv-x="1198" 
d="M717 -258q0 -85 -58 -129.5t-149 -44.5q-115 0 -174 78l47 98q51 -76 127 -76q78 0 78 74q0 90 -144 90l11 168h-281v1206h352q131 0 234.5 -33t182 -102t121 -184.5t42.5 -270.5q0 -128 -29.5 -231.5t-81 -173.5t-123.5 -117.5t-154 -69.5t-177 -24l-4 -86
q180 -16 180 -172zM334 133h174q194 0 311 117.5t117 359.5q0 128 -33 221t-91.5 144t-129 74.5t-156.5 23.5h-192v-940z" />
    <glyph glyph-name="dcedilla" unicode="&#x1e11;" horiz-adv-x="1077" 
d="M698 -258q0 -85 -57.5 -129.5t-148.5 -44.5q-116 0 -175 78l48 98q51 -76 127 -76q77 0 77 74q0 90 -143 90l10 145q-146 11 -245 137t-99 345q0 242 111 376t313 134q88 0 159.5 -45t90.5 -107v551h158v-1368h-138l-18 164q-65 -164 -246 -184l-4 -66q180 -16 180 -172z
M768 371v221q0 64 -23 114.5t-60.5 80t-80 44.5t-86.5 15q-123 0 -196.5 -92t-73.5 -293q0 -174 71.5 -267.5t196.5 -93.5q42 0 85.5 17t81 49t61.5 85.5t24 119.5z" />
    <glyph glyph-name="Hdotbelow" unicode="&#x1e24;" horiz-adv-x="1277" 
d="M334 0h-160v1206h160v-524h610v524h160v-1206h-160v543h-610v-543zM528 -291q0 46 32.5 79.5t76.5 33.5q47 0 80 -33.5t33 -79.5q0 -45 -33 -77.5t-80 -32.5q-44 0 -76.5 33t-32.5 77z" />
    <glyph glyph-name="hdotbelow" unicode="&#x1e25;" 
d="M309 1368v-602q66 203 283 203q129 0 210 -72.5t81 -218.5v-678h-156v641q0 91 -46 142t-132 51q-50 0 -91 -14t-75.5 -45.5t-54 -88.5t-19.5 -135v-551h-155v1368h155zM408 -291q0 46 32 79.5t76 33.5q47 0 80 -33.5t33 -79.5q0 -45 -33 -77.5t-80 -32.5q-44 0 -76 33
t-32 77z" />
    <glyph glyph-name="Ldotbelow" unicode="&#x1e36;" horiz-adv-x="935" 
d="M174 1206h160v-1067h561v-139h-721v1206zM424 -291q0 46 32 79.5t76 33.5q47 0 80 -33.5t33 -79.5q0 -45 -33 -77.5t-80 -32.5q-44 0 -76 33t-32 77z" />
    <glyph glyph-name="ldotbelow" unicode="&#x1e37;" horiz-adv-x="516" 
d="M444 127v-129q-56 -12 -100 -12q-89 0 -145 49t-56 143v1190h156v-1165q0 -43 22 -64.5t60 -21.5q30 0 63 10zM182 -291q0 46 32.5 79.5t76.5 33.5q47 0 79.5 -33.5t32.5 -79.5q0 -45 -32.5 -77.5t-79.5 -32.5q-44 0 -76.5 33t-32.5 77z" />
    <glyph glyph-name="uni004C032300AF" unicode="&#x1e38;" horiz-adv-x="935" 
d="M174 1206h160v-1067h561v-139h-721v1206zM424 -291q0 46 32 79.5t76 33.5q47 0 80 -33.5t33 -79.5q0 -45 -33 -77.5t-80 -32.5q-44 0 -76 33t-32 77zM545 1386h-514v121h514v-121z" />
    <glyph glyph-name="ldotbelowmacron" unicode="&#x1e39;" horiz-adv-x="516" 
d="M444 127v-129q-56 -12 -100 -12q-89 0 -145 49t-56 143v1190h156v-1165q0 -43 22 -64.5t60 -21.5q30 0 63 10zM182 -291q0 46 32.5 79.5t76.5 33.5q47 0 79.5 -33.5t32.5 -79.5q0 -45 -32.5 -77.5t-79.5 -32.5q-44 0 -76.5 33t-32.5 77zM483 1524h-514v121h514v-121z" />
    <glyph glyph-name="Mdotbelow" unicode="&#x1e42;" horiz-adv-x="1458" 
d="M791 301h-123l-246 465q-33 62 -55.5 115t-28.5 75l-6 23h-8q10 -76 10 -221v-758h-160v1206h199l305 -608q18 -36 31.5 -70t17.5 -50l4 -15h8q13 53 54 135l305 608h186v-1206h-160v758q0 64 3 119.5t5 78.5l3 23h-9q-16 -74 -90 -213zM618 -291q0 46 32.5 79.5
t76.5 33.5q47 0 80 -33.5t33 -79.5q0 -45 -33 -77.5t-80 -32.5q-44 0 -76.5 33t-32.5 77z" />
    <glyph glyph-name="mdotbelow" unicode="&#x1e43;" horiz-adv-x="1566" 
d="M846 760q33 108 113 158.5t182 50.5q127 0 204.5 -70.5t77.5 -210.5v-688h-155v641q0 92 -43 142.5t-125 50.5q-95 0 -164.5 -72.5t-69.5 -210.5v-551h-155v641q0 92 -43 142.5t-125 50.5q-95 0 -164.5 -72.5t-69.5 -210.5v-551h-155v946h116l19 -182q35 104 115 154.5
t180 50.5q226 0 262 -209zM678 -291q0 46 32 79.5t76 33.5q47 0 80 -33.5t33 -79.5q0 -45 -33 -77.5t-80 -32.5q-44 0 -76 33t-32 77z" />
    <glyph glyph-name="Ndotaccent" unicode="&#x1e44;" horiz-adv-x="1314" 
d="M344 1206l492 -727q33 -49 69.5 -111.5t56.5 -100.5l21 -38h8q-10 137 -10 289v688h160v-1206h-166l-498 727q-34 49 -70.5 111.5t-56.5 100.5l-20 38h-8q12 -137 12 -289v-688h-160v1206h170zM547 1450q0 47 32 80t76 33q47 0 80 -33t33 -80q0 -45 -33 -78t-80 -33
q-44 0 -76 33t-32 78z" />
    <glyph glyph-name="ndotaccent" unicode="&#x1e45;" 
d="M270 946l19 -182q74 205 303 205q129 0 210 -72.5t81 -218.5v-678h-156v639q0 92 -45.5 143.5t-132.5 51.5q-50 0 -91 -14t-75.5 -45.5t-54 -88.5t-19.5 -135v-551h-155v946h116zM420 1221q0 46 32 79t76 33q47 0 80 -33t33 -79q0 -45 -33 -78t-80 -33q-44 0 -76 33
t-32 78z" />
    <glyph glyph-name="Ndotbelow" unicode="&#x1e46;" horiz-adv-x="1314" 
d="M344 1206l492 -727q33 -49 69.5 -111.5t56.5 -100.5l21 -38h8q-10 137 -10 289v688h160v-1206h-166l-498 727q-34 49 -70.5 111.5t-56.5 100.5l-20 38h-8q12 -137 12 -289v-688h-160v1206h170zM547 -291q0 46 32 79.5t76 33.5q47 0 80 -33.5t33 -79.5q0 -45 -33 -77.5
t-80 -32.5q-44 0 -76 33t-32 77z" />
    <glyph glyph-name="ndotbelow" unicode="&#x1e47;" 
d="M270 946l19 -182q74 205 303 205q129 0 210 -72.5t81 -218.5v-678h-156v639q0 92 -45.5 143.5t-132.5 51.5q-50 0 -91 -14t-75.5 -45.5t-54 -88.5t-19.5 -135v-551h-155v946h116zM416 -291q0 46 32 79.5t76 33.5q47 0 80 -33.5t33 -79.5q0 -45 -33 -77.5t-80 -32.5
q-44 0 -76 33t-32 77z" />
    <glyph glyph-name="Rdotbelow" unicode="&#x1e5a;" horiz-adv-x="1103" 
d="M1028 0h-174q-35 43 -49 109l-51 219q-26 109 -84 146.5t-162 37.5h-174v-512h-160v1206h399q402 0 402 -336q0 -136 -82 -215t-201 -84v-4q88 -11 137.5 -56t75.5 -144l62 -242q19 -74 61 -125zM334 1073v-430h235q122 0 180 53.5t58 163.5q0 102 -59 157.5t-179 55.5
h-235zM414 -291q0 46 32 79.5t76 33.5q47 0 80 -33.5t33 -79.5q0 -45 -33 -77.5t-80 -32.5q-44 0 -76 33t-32 77z" />
    <glyph glyph-name="rdotbelow" unicode="&#x1e5b;" horiz-adv-x="702" 
d="M662 967l-9 -176q-27 6 -75 6q-111 0 -190 -85t-79 -218v-494h-155v946h129l18 -254q29 131 122.5 206t238.5 69zM117 -291q0 46 32 79.5t76 33.5q47 0 80 -33.5t33 -79.5q0 -45 -33 -77.5t-80 -32.5q-44 0 -76 33t-32 77z" />
    <glyph glyph-name="Rdotbelowmacron" unicode="&#x1e5c;" horiz-adv-x="1103" 
d="M1028 0h-174q-35 43 -49 109l-51 219q-26 109 -84 146.5t-162 37.5h-174v-512h-160v1206h399q402 0 402 -336q0 -136 -82 -215t-201 -84v-4q88 -11 137.5 -56t75.5 -144l62 -242q19 -74 61 -125zM334 1073v-430h235q122 0 180 53.5t58 163.5q0 102 -59 157.5t-179 55.5
h-235zM414 -291q0 46 32 79.5t76 33.5q47 0 80 -33.5t33 -79.5q0 -45 -33 -77.5t-80 -32.5q-44 0 -76 33t-32 77zM782 1386h-514v121h514v-121z" />
    <glyph glyph-name="rdotbelowmacron" unicode="&#x1e5d;" horiz-adv-x="702" 
d="M662 967l-9 -176q-27 6 -75 6q-111 0 -190 -85t-79 -218v-494h-155v946h129l18 -254q29 131 122.5 206t238.5 69zM666 1155h-514v125h514v-125zM119 -291q0 46 32 79.5t76 33.5q47 0 80 -33.5t33 -79.5q0 -45 -33 -77.5t-80 -32.5q-44 0 -76 33t-32 77z" />
    <glyph glyph-name="Sdotbelow" unicode="&#x1e62;" horiz-adv-x="952" 
d="M61 295l152 27q35 -224 260 -224q108 0 172 49.5t64 141.5q0 87 -55 140t-212 112q-35 13 -54 20.5t-52 22t-52.5 25.5t-47 29.5t-44 36t-35.5 42t-29 51t-17 60t-7 71.5q0 88 32 154.5t86.5 104.5t118 56.5t134.5 18.5q170 0 275 -77.5t118 -242.5l-155 -24
q-9 104 -72.5 161.5t-163.5 57.5q-97 0 -156 -52t-59 -143q0 -20 2.5 -37.5t10.5 -33.5t14.5 -28t22 -25.5t25.5 -22t33 -20.5t35.5 -18.5t43 -19t45.5 -18.5t51 -20q42 -16 70.5 -28t65.5 -31.5t61.5 -38t50.5 -46t41.5 -58t25.5 -70.5t10 -87q0 -83 -31.5 -148.5t-87 -106
t-128 -61t-156.5 -20.5q-182 0 -282.5 78t-123.5 242zM379 -291q0 46 32 79.5t76 33.5q47 0 80 -33.5t33 -79.5q0 -45 -33 -77.5t-80 -32.5q-44 0 -76 33t-32 77z" />
    <glyph glyph-name="sdotbelow" unicode="&#x1e63;" horiz-adv-x="841" 
d="M61 211l144 35q17 -160 213 -160q94 0 150.5 36t56.5 107q0 65 -34 103t-122 61l-139 33q-127 30 -181.5 94.5t-54.5 169.5q0 75 28.5 130.5t78.5 87t109 46.5t128 15q148 0 231.5 -60t98.5 -192l-154 -17q-9 150 -186 150q-89 0 -137.5 -37.5t-48.5 -105.5q0 -60 30 -95
t111 -53l129 -33q130 -33 194 -95t64 -183q0 -141 -97 -207t-259 -66q-161 0 -248 55.5t-105 180.5zM332 -291q0 46 32 79.5t76 33.5q47 0 80 -33.5t33 -79.5q0 -45 -33 -77.5t-80 -32.5q-44 0 -76 33t-32 77z" />
    <glyph glyph-name="Tdotbelow" unicode="&#x1e6c;" horiz-adv-x="919" 
d="M539 0h-160v1067h-359v139h879v-139h-360v-1067zM348 -291q0 46 32.5 79.5t76.5 33.5q47 0 79.5 -33.5t32.5 -79.5q0 -45 -32.5 -77.5t-79.5 -32.5q-44 0 -76.5 33t-32.5 77z" />
    <glyph glyph-name="tdotbelow" unicode="&#x1e6d;" horiz-adv-x="657" 
d="M596 158l31 -129q-85 -54 -209 -54q-125 0 -192.5 65.5t-67.5 188.5v592h-138v125h138v201l157 20v-221h281v-125h-283v-563q0 -149 127 -149q82 0 156 49zM260 -291q0 46 32.5 79.5t76.5 33.5q47 0 79.5 -33.5t32.5 -79.5q0 -45 -32.5 -77.5t-79.5 -32.5q-44 0 -76.5 33
t-32.5 77z" />
    <glyph glyph-name="Wgrave" unicode="&#x1e80;" horiz-adv-x="1658" 
d="M928 1206l202 -786q22 -86 39 -166.5t23 -117.5l6 -38h8q17 130 66 320l207 788h159l-327 -1206h-226l-198 750q-23 86 -36 165t-15 115l-2 37h-9q-8 -124 -57 -317l-195 -750h-225l-328 1206h170l203 -782q22 -84 39 -165.5t23 -120.5l6 -40h8q15 134 66 324l213 784
h180zM907 1341h-141l-199 238h213z" />
    <glyph glyph-name="wgrave" unicode="&#x1e81;" horiz-adv-x="1341" 
d="M756 946l145 -530q24 -84 40 -161t20 -111l4 -35h8q4 114 53 307l137 530h158l-260 -946h-187l-137 485q-24 84 -39.5 158t-19.5 107l-4 32h-8q-11 -107 -62 -297l-131 -485h-186l-267 946h162l140 -528q23 -84 38.5 -161.5t19.5 -112.5l5 -35h8q7 121 58 309l145 528
h160zM752 1085h-134l-235 293h215z" />
    <glyph glyph-name="Wacute" unicode="&#x1e82;" horiz-adv-x="1658" 
d="M928 1206l202 -786q22 -86 39 -166.5t23 -117.5l6 -38h8q17 130 66 320l207 788h159l-327 -1206h-226l-198 750q-23 86 -36 165t-15 115l-2 37h-9q-8 -124 -57 -317l-195 -750h-225l-328 1206h170l203 -782q22 -84 39 -165.5t23 -120.5l6 -40h8q15 134 66 324l213 784
h180zM897 1341h-141l127 238h213z" />
    <glyph glyph-name="wacute" unicode="&#x1e83;" horiz-adv-x="1341" 
d="M756 946l145 -530q24 -84 40 -161t20 -111l4 -35h8q4 114 53 307l137 530h158l-260 -946h-187l-137 485q-24 84 -39.5 158t-19.5 107l-4 32h-8q-11 -107 -62 -297l-131 -485h-186l-267 946h162l140 -528q23 -84 38.5 -161.5t19.5 -112.5l5 -35h8q7 121 58 309l145 528
h160zM723 1085h-133l153 293h215z" />
    <glyph glyph-name="Wdieresis" unicode="&#x1e84;" horiz-adv-x="1658" 
d="M928 1206l202 -786q22 -86 39 -166.5t23 -117.5l6 -38h8q17 130 66 320l207 788h159l-327 -1206h-226l-198 750q-23 86 -36 165t-15 115l-2 37h-9q-8 -124 -57 -317l-195 -750h-225l-328 1206h170l203 -782q22 -84 39 -165.5t23 -120.5l6 -40h8q15 134 66 324l213 784
h180zM524 1454q0 45 33 78t78 33q46 0 78 -32.5t32 -78.5q0 -45 -32.5 -78t-77.5 -33q-44 0 -77.5 33.5t-33.5 77.5zM911 1452q0 45 33 78t78 33q46 0 78.5 -32.5t32.5 -78.5q0 -45 -33 -78t-78 -33q-44 0 -77.5 33.5t-33.5 77.5z" />
    <glyph glyph-name="wdieresis" unicode="&#x1e85;" horiz-adv-x="1341" 
d="M756 946l145 -530q24 -84 40 -161t20 -111l4 -35h8q4 114 53 307l137 530h158l-260 -946h-187l-137 485q-24 84 -39.5 158t-19.5 107l-4 32h-8q-11 -107 -62 -297l-131 -485h-186l-267 946h162l140 -528q23 -84 38.5 -161.5t19.5 -112.5l5 -35h8q7 121 58 309l145 528
h160zM365 1219q0 45 32.5 77.5t77.5 32.5q46 0 78.5 -32t32.5 -78q0 -45 -33 -78t-78 -33q-44 0 -77 33.5t-33 77.5zM752 1217q0 45 32.5 77.5t77.5 32.5q46 0 78.5 -32t32.5 -78q0 -45 -33 -78t-78 -33q-44 0 -77 33.5t-33 77.5z" />
    <glyph glyph-name="Idotbelow" unicode="&#x1eca;" horiz-adv-x="507" 
d="M174 1206h160v-1206h-160v1206zM143 -291q0 46 32.5 79.5t76.5 33.5q47 0 80 -33.5t33 -79.5q0 -45 -33 -77.5t-80 -32.5q-44 0 -76.5 33t-32.5 77z" />
    <glyph glyph-name="idotbelow" unicode="&#x1ecb;" horiz-adv-x="462" 
d="M121 1253q0 47 32 80t76 33q46 0 79.5 -33t33.5 -80q0 -44 -33.5 -77t-79.5 -33q-44 0 -76 33t-32 77zM154 946h155v-946h-155v946zM121 -291q0 46 32 79.5t76 33.5q47 0 80 -33.5t33 -79.5q0 -45 -33 -77.5t-80 -32.5q-44 0 -76 33t-32 77z" />
    <glyph glyph-name="Odotbelow" unicode="&#x1ecc;" horiz-adv-x="1253" 
d="M627 -25q-246 0 -390.5 165t-144.5 462q0 298 144.5 463.5t390.5 165.5t390 -165.5t144 -463.5q0 -297 -144 -462t-390 -165zM627 1092q-178 0 -272.5 -129t-94.5 -361q0 -231 94.5 -360t272.5 -129t272 128.5t94 360.5t-94 361t-272 129zM516 -291q0 46 32.5 79.5
t76.5 33.5q47 0 79.5 -33.5t32.5 -79.5q0 -45 -32.5 -77.5t-79.5 -32.5q-44 0 -76.5 33t-32.5 77z" />
    <glyph glyph-name="odotbelow" unicode="&#x1ecd;" horiz-adv-x="1028" 
d="M514 -25q-195 0 -308.5 132t-113.5 372q0 237 113 363.5t309 126.5t309 -126.5t113 -363.5q0 -240 -113.5 -372t-308.5 -132zM514 842q-268 0 -268 -363q0 -381 268 -381t268 381q0 363 -268 363zM403 -291q0 46 32.5 79.5t76.5 33.5q47 0 80 -33.5t33 -79.5
q0 -45 -33 -77.5t-80 -32.5q-44 0 -76.5 33t-32.5 77z" />
    <glyph glyph-name="Udotbelow" unicode="&#x1ee4;" horiz-adv-x="1173" 
d="M881 1206h159v-813q0 -90 -26 -162.5t-69 -119.5t-102.5 -78t-123 -44.5t-133.5 -13.5t-133.5 13.5t-123 44.5t-102.5 78t-68.5 119.5t-25.5 162.5v813h160v-774q0 -168 78 -247t215 -79q138 0 216.5 78t78.5 242v780zM475 -291q0 46 32.5 79.5t76.5 33.5
q47 0 79.5 -33.5t32.5 -79.5q0 -45 -32.5 -77.5t-79.5 -32.5q-44 0 -76.5 33t-32.5 77z" />
    <glyph glyph-name="udotbelow" unicode="&#x1ee5;" 
d="M739 0l-18 170q-36 -103 -108 -149t-183 -46q-136 0 -211.5 76t-75.5 240v655h156v-641q0 -112 44 -163.5t138 -51.5q41 0 82 18.5t75.5 52.5t56.5 89t22 121v575h155v-946h-133zM397 -291q0 46 32.5 79.5t76.5 33.5q47 0 79.5 -33.5t32.5 -79.5q0 -45 -32.5 -77.5
t-79.5 -32.5q-44 0 -76.5 33t-32.5 77z" />
    <glyph glyph-name="Ygrave" unicode="&#x1ef2;" horiz-adv-x="950" 
d="M201 1206l207 -413q29 -58 49 -105.5t25 -65.5l5 -18h9q14 58 73 187l193 415h168l-363 -731v-475h-159v475l-388 731h181zM553 1341h-141l-199 238h213z" />
    <glyph glyph-name="ygrave" unicode="&#x1ef3;" horiz-adv-x="872" 
d="M190 946l175 -549q26 -83 45.5 -157t25.5 -107l6 -33h9q18 109 73 295l166 551h162l-340 -1022q-66 -196 -154.5 -273t-214.5 -77q-65 0 -129 23l11 129q62 -27 122 -27q79 0 129 54t95 192l-351 1001h170zM532 1085h-133l-235 293h215z" />
    <glyph glyph-name="Ytilde" unicode="&#x1ef8;" horiz-adv-x="950" 
d="M201 1206l207 -413q29 -58 49 -105.5t25 -65.5l5 -18h9q14 58 73 187l193 415h168l-363 -731v-475h-159v475l-388 731h181zM614 1341q-11 0 -22 1.5t-19 2.5t-19 5t-16.5 5.5t-18 8t-15.5 8t-17.5 10t-17.5 9.5q-8 5 -25 14.5t-23 13t-18.5 9.5t-20 8t-17.5 4t-21 2
q-72 0 -61 -96h-99q-34 94 8 165.5t134 71.5q36 0 67.5 -8.5t49 -18t53.5 -30.5q45 -28 63.5 -36.5t44.5 -8.5q65 0 60 102h104q30 -104 -11 -173t-143 -69z" />
    <glyph glyph-name="ytilde" unicode="&#x1ef9;" horiz-adv-x="872" 
d="M190 946l175 -549q26 -83 45.5 -157t25.5 -107l6 -33h9q18 109 73 295l166 551h162l-340 -1022q-66 -196 -154.5 -273t-214.5 -77q-65 0 -129 23l11 129q62 -27 122 -27q79 0 129 54t95 192l-351 1001h170zM592 1087q-10 0 -19 0.5t-18.5 3t-16 3.5t-17 5t-14.5 5.5
t-15.5 7.5t-14 7.5t-16 9t-15.5 8.5q-9 5 -25 14t-22.5 13t-18.5 10t-19.5 8t-17.5 4t-21 2q-73 0 -62 -96h-98q-34 94 7.5 162.5t133.5 68.5q36 0 67.5 -8.5t49 -18t53.5 -30.5q45 -28 64 -36.5t45 -8.5q64 0 59 102h104q30 -104 -10.5 -170t-142.5 -66z" />
    <glyph glyph-name="enspace" unicode="&#x2002;" horiz-adv-x="921" 
 />
    <glyph glyph-name="emspace" unicode="&#x2003;" horiz-adv-x="1843" 
 />
    <glyph glyph-name="threeperemspace" unicode="&#x2004;" horiz-adv-x="614" 
 />
    <glyph glyph-name="fourperemspace" unicode="&#x2005;" horiz-adv-x="460" 
 />
    <glyph glyph-name="sixperemspace" unicode="&#x2006;" horiz-adv-x="307" 
 />
    <glyph glyph-name="figurespace" unicode="&#x2007;" horiz-adv-x="1050" 
 />
    <glyph glyph-name="punctuationspace" unicode="&#x2008;" horiz-adv-x="350" 
 />
    <glyph glyph-name="thinspace" unicode="&#x2009;" horiz-adv-x="184" 
 />
    <glyph glyph-name="hairspace" unicode="&#x200a;" horiz-adv-x="92" 
 />
    <glyph glyph-name="zerowidthspace" unicode="&#x200b;" horiz-adv-x="0" 
 />
    <glyph glyph-name="figuredash" unicode="&#x2012;" horiz-adv-x="1226" 
d="M143 459v112h940v-112h-940z" />
    <glyph glyph-name="endash" unicode="&#x2013;" horiz-adv-x="1024" 
d="M143 459v112h738v-112h-738z" />
    <glyph glyph-name="emdash" unicode="&#x2014;" horiz-adv-x="2048" 
d="M143 459v112h1762v-112h-1762z" />
    <glyph glyph-name="uni2015" unicode="&#x2015;" horiz-adv-x="2560" 
d="M143 459v112h2274v-112h-2274z" />
    <glyph glyph-name="doublebar" unicode="&#x2016;" horiz-adv-x="849" 
d="M342 -416h-137v1786h137v-1786zM645 -416h-137v1786h137v-1786z" />
    <glyph glyph-name="quoteleft" unicode="&#x2018;" horiz-adv-x="452" 
d="M82 1104q0 262 289 282v-79q-158 -24 -158 -150q60 12 97.5 -18.5t37.5 -85.5q0 -54 -34 -84.5t-91 -30.5q-58 0 -99.5 45.5t-41.5 120.5z" />
    <glyph glyph-name="quoteright" unicode="&#x2019;" horiz-adv-x="452" 
d="M371 1221q0 -135 -76 -204.5t-213 -78.5v80q158 24 158 149q-60 -12 -98 19t-38 86q0 54 33.5 84t91.5 30t100 -45t42 -120z" />
    <glyph glyph-name="quotesinglbase" unicode="&#x201a;" horiz-adv-x="452" 
d="M371 55q0 -262 -289 -282v80q158 24 158 149q-60 -12 -98 18.5t-38 85.5q0 54 34 84.5t91 30.5q58 0 100 -45.5t42 -120.5z" />
    <glyph glyph-name="reversequoteleft" unicode="&#x201b;" horiz-adv-x="452" 
d="M82 1221q0 75 41.5 120t99.5 45t91.5 -30t33.5 -84q0 -55 -37.5 -86t-97.5 -19q0 -125 158 -149v-80q-137 9 -213 78.5t-76 204.5z" />
    <glyph glyph-name="quotedblleft" unicode="&#x201c;" horiz-adv-x="821" 
d="M82 1104q0 262 289 282v-79q-158 -24 -158 -150q60 12 97.5 -18.5t37.5 -85.5q0 -54 -34 -84.5t-91 -30.5q-58 0 -99.5 45.5t-41.5 120.5zM451 1104q0 262 288 282v-79q-157 -23 -157 -150q60 12 97.5 -18.5t37.5 -85.5q0 -54 -34 -84.5t-91 -30.5q-58 0 -99.5 45.5
t-41.5 120.5z" />
    <glyph glyph-name="quotedblright" unicode="&#x201d;" horiz-adv-x="821" 
d="M371 1221q0 -135 -76 -204.5t-213 -78.5v80q158 24 158 149q-60 -12 -98 19t-38 86q0 54 33.5 84t91.5 30t100 -45t42 -120zM739 1221q0 -263 -288 -283v80q157 23 157 149q-60 -12 -97.5 19t-37.5 86q0 54 33.5 84t91.5 30t99.5 -45t41.5 -120z" />
    <glyph glyph-name="quotedblbase" unicode="&#x201e;" horiz-adv-x="821" 
d="M371 55q0 -262 -289 -282v80q158 24 158 149q-60 -12 -98 18.5t-38 85.5q0 54 34 84.5t91 30.5q58 0 100 -45.5t42 -120.5zM739 55q0 -262 -288 -282v80q157 23 157 149q-60 -12 -97.5 18.5t-37.5 85.5q0 54 34 84.5t91 30.5q58 0 99.5 -45.5t41.5 -120.5z" />
    <glyph glyph-name="reversequotedblleft" unicode="&#x201f;" horiz-adv-x="821" 
d="M82 1221q0 75 41.5 120t99.5 45t91.5 -30t33.5 -84q0 -55 -37.5 -86t-97.5 -19q0 -125 158 -149v-80q-137 9 -213 78.5t-76 204.5zM451 1221q0 75 41.5 120t99.5 45t91.5 -30t33.5 -84q0 -55 -37.5 -86t-97.5 -19q0 -126 157 -149v-80q-288 20 -288 283z" />
    <glyph glyph-name="dagger" unicode="&#x2020;" horiz-adv-x="1114" 
d="M494 612l-392 -22v160l392 -21l-21 477h168l-20 -477l391 21v-160l-389 22l20 -917h-170z" />
    <glyph glyph-name="daggerdbl" unicode="&#x2021;" horiz-adv-x="1112" 
d="M621 633l-3 -367l392 23v-156l-389 23l22 -463h-170l21 463l-392 -23v156l392 -23v367l-392 -23v156l392 -23l-21 463h170l-25 -463l392 23v-156z" />
    <glyph glyph-name="bullet" unicode="&#x2022;" horiz-adv-x="655" 
d="M174 487q0 64 45 110t107 46q64 0 109.5 -45.5t45.5 -110.5q0 -62 -45.5 -106.5t-109.5 -44.5q-62 0 -107 45t-45 106z" />
    <glyph glyph-name="ellipsis" unicode="&#x2026;" horiz-adv-x="1744" 
d="M164 115q0 54 36.5 90.5t90.5 36.5t90.5 -36.5t36.5 -90.5t-36.5 -90.5t-90.5 -36.5t-90.5 36.5t-36.5 90.5zM745 115q0 54 36.5 90.5t90.5 36.5t90.5 -36.5t36.5 -90.5t-36.5 -90.5t-90.5 -36.5t-90.5 36.5t-36.5 90.5zM1327 115q0 54 36.5 90.5t90.5 36.5t90.5 -36.5
t36.5 -90.5t-36.5 -90.5t-90.5 -36.5t-90.5 36.5t-36.5 90.5z" />
    <glyph glyph-name="perthousand" unicode="&#x2030;" horiz-adv-x="2469" 
d="M354 469q-135 0 -208.5 102t-73.5 275q0 170 77 273.5t205 103.5t205.5 -104t77.5 -273q0 -172 -74 -274.5t-209 -102.5zM354 1110q-74 0 -113.5 -72.5t-39.5 -193.5q0 -119 40 -195t113 -76t113.5 76.5t40.5 194.5q0 121 -40 193.5t-114 72.5zM508 0l627 1208h114
l-624 -1208h-117zM1399 -14q-135 0 -209 102t-74 274q0 169 77.5 273t205.5 104t205 -103.5t77 -273.5q0 -173 -73.5 -274.5t-208.5 -101.5zM1399 627q-74 0 -114 -73t-40 -194q0 -118 40.5 -194t113.5 -76t113 75.5t40 194.5q0 121 -39.5 194t-113.5 73zM2116 -14
q-135 0 -209 102t-74 274q0 169 77.5 273t205.5 104t205 -103.5t77 -273.5q0 -173 -73.5 -274.5t-208.5 -101.5zM2116 627q-74 0 -114 -73t-40 -194q0 -118 40.5 -194t113.5 -76t113 75.5t40 194.5q0 121 -39.5 194t-113.5 73z" />
    <glyph glyph-name="tripleprime" unicode="&#x2034;" horiz-adv-x="952" 
d="M123 844v524h178l-80 -524h-98zM408 844v524h178l-80 -524h-98zM692 844v524h178l-79 -524h-99z" />
    <glyph glyph-name="guilsinglleft" unicode="&#x2039;" horiz-adv-x="581" 
d="M199 481v-8q32 -15 114 -113l205 -245l-86 -74l-371 436l371 436l88 -88l-207 -239q-37 -43 -65.5 -69t-38.5 -31z" />
    <glyph glyph-name="guilsinglright" unicode="&#x203a;" horiz-adv-x="581" 
d="M383 473v8q-31 9 -115 105l-207 239l89 88l370 -436l-370 -436l-87 74l205 245q36 44 65 72t39 34z" />
    <glyph glyph-name="fraction" unicode="&#x2044;" horiz-adv-x="331" 
d="M-205 0l627 1208h115l-625 -1208h-117z" />
    <glyph glyph-name="uni2070" unicode="&#x2070;" horiz-adv-x="708" 
d="M354 469q-135 0 -208.5 102t-73.5 275q0 170 77 273.5t205 103.5t205.5 -104t77.5 -273q0 -172 -74 -274.5t-209 -102.5zM354 1110q-74 0 -113.5 -72.5t-39.5 -193.5q0 -119 40 -195t113 -76t113.5 76.5t40.5 194.5q0 121 -40 193.5t-114 72.5z" />
    <glyph glyph-name="uni2074" unicode="&#x2074;" horiz-adv-x="692" 
d="M399 483v189h-368v100l360 434h137v-436h123v-98h-123v-189h-129zM403 768v186q0 37 2.5 73t5.5 53l3 18h-8q-23 -53 -78 -127l-92 -109q-23 -27 -47.5 -50.5t-38.5 -33.5l-13 -10v-8q27 8 115 8h151z" />
    <glyph glyph-name="uni2075" unicode="&#x2075;" horiz-adv-x="634" 
d="M106 805l19 401h416v-106h-314l-10 -207q20 28 58.5 43.5t84.5 15.5q97 0 155 -57.5t58 -167.5q0 -124 -73.5 -191t-210.5 -67q-104 0 -171.5 48t-76.5 124l111 47q23 -123 149 -123q68 0 108 38t40 112q0 69 -33 105t-90 36q-75 0 -115 -51h-105z" />
    <glyph glyph-name="uni2076" unicode="&#x2076;" horiz-adv-x="671" 
d="M606 1077l-100 -45q-34 86 -131 86q-91 0 -142 -87t-51 -245h8q11 73 64 117.5t137 44.5q102 0 166 -66t64 -167q0 -103 -71 -174.5t-198 -71.5q-129 0 -204.5 89t-75.5 263q0 196 88.5 299t222.5 103q80 0 139 -38t84 -108zM219 705q0 -66 40.5 -105t100.5 -39
q62 0 103 39t41 105q0 64 -40 103.5t-99 39.5q-63 0 -104.5 -39t-41.5 -104z" />
    <glyph glyph-name="uni2077" unicode="&#x2077;" horiz-adv-x="595" 
d="M432 1096h-278v-109h-113v219h534v-61l-294 -662h-129z" />
    <glyph glyph-name="uni2078" unicode="&#x2078;" horiz-adv-x="716" 
d="M358 801q-61 0 -103 -31t-42 -88q0 -59 38 -90t107 -31t107.5 31t38.5 90q0 57 -42.5 88t-103.5 31zM358 469q-125 0 -200.5 52.5t-75.5 148.5q0 68 43 114.5t113 57.5v8q-67 13 -103.5 58t-36.5 110q0 95 72 150t188 55t188 -55t72 -150q0 -65 -36 -110t-103 -58v-8
q70 -11 113 -57.5t43 -114.5q0 -96 -76 -148.5t-201 -52.5zM358 1126q-64 0 -104.5 -30t-40.5 -82q0 -51 43.5 -81t101.5 -30t102 30t44 81q0 52 -41 82t-105 30z" />
    <glyph glyph-name="uni2079" unicode="&#x2079;" horiz-adv-x="671" 
d="M57 614l101 45q34 -86 131 -86q95 0 147.5 87t52.5 245h-8q-11 -73 -63.5 -117.5t-136.5 -44.5q-102 0 -166 66.5t-64 167.5q0 103 70.5 174.5t197.5 71.5q129 0 205 -89.5t76 -263.5q0 -196 -88.5 -298.5t-222.5 -102.5q-82 0 -145 38t-87 107zM453 983
q0 66 -40.5 104.5t-101.5 38.5q-62 0 -102.5 -38.5t-40.5 -104.5q0 -64 40 -103.5t99 -39.5q63 0 104.5 39t41.5 104z" />
    <glyph glyph-name="uni207A" unicode="&#x207a;" horiz-adv-x="911" 
d="M92 899h320v309h80v-309h327v-80h-327v-336h-80v336h-320v80z" />
    <glyph glyph-name="uni207B" unicode="&#x207b;" horiz-adv-x="913" 
d="M821 817h-729v82h729v-82z" />
    <glyph glyph-name="uni207C" unicode="&#x207c;" horiz-adv-x="913" 
d="M821 707h-729v81h729v-81zM821 946h-729v82h729v-82z" />
    <glyph glyph-name="uni207D" unicode="&#x207d;" horiz-adv-x="468" 
d="M184 838q0 -139 47 -242.5t146 -222.5h-105q-180 210 -180 465t180 465h105q-98 -114 -145.5 -220t-47.5 -245z" />
    <glyph glyph-name="uni207E" unicode="&#x207e;" horiz-adv-x="468" 
d="M285 838q0 139 -47.5 245t-145.5 220h103q182 -208 182 -465t-182 -465h-103q99 119 146 222.5t47 242.5z" />
    <glyph glyph-name="n.superior" unicode="&#x207f;" horiz-adv-x="786" 
d="M223 1214l19 -120q23 68 82 102.5t129 34.5q92 0 156.5 -55t64.5 -170v-418h-135v397q0 137 -121 137q-160 0 -160 -204v-330h-135v626h100z" />
    <glyph glyph-name="uni2080" unicode="&#x2080;" horiz-adv-x="708" 
d="M354 -14q-135 0 -208.5 101.5t-73.5 274.5q0 170 77 273.5t205 103.5t205.5 -104t77.5 -273q0 -172 -74 -274t-209 -102zM354 627q-74 0 -113.5 -73t-39.5 -194q0 -119 40 -194.5t113 -75.5t113.5 76t40.5 194q0 121 -40 194t-114 73z" />
    <glyph glyph-name="uni2081" unicode="&#x2081;" horiz-adv-x="600" 
d="M580 0h-519v102h205v494l-225 -25v105l356 49v-623h183v-102z" />
    <glyph glyph-name="uni2082" unicode="&#x2082;" horiz-adv-x="616" 
d="M575 102v-102h-534v98q81 57 128.5 92t98.5 79.5t77.5 79t43.5 75.5t17 84q0 58 -31 87.5t-88 29.5q-65 0 -97 -40.5t-34 -103.5l-107 51q0 81 71 144t189 63q98 0 165 -55.5t67 -163.5q0 -43 -13 -84.5t-30 -73t-49 -65.5t-55.5 -55.5t-64.5 -49.5t-60 -40t-58 -35
q-7 -4 -10 -6v-9h374z" />
    <glyph glyph-name="uni2083" unicode="&#x2083;" horiz-adv-x="643" 
d="M362 379v-6q100 -9 149.5 -58t49.5 -131q0 -92 -74 -145t-192 -53t-189.5 46t-85.5 120l115 45q12 -47 57.5 -80t102.5 -33q135 0 135 111q0 64 -51 97t-174 34v90q108 4 156.5 33t48.5 86q0 46 -31 74t-86 28q-48 0 -82.5 -24.5t-46.5 -73.5l-113 41q21 72 85.5 115.5
t164.5 43.5q101 0 168.5 -46.5t67.5 -141.5q0 -70 -42 -116t-133 -56z" />
    <glyph glyph-name="uni2084" unicode="&#x2084;" horiz-adv-x="692" 
d="M399 0v188h-368v101l360 434h137v-436h123v-99h-123v-188h-129zM403 285v186q0 37 2.5 73t5.5 53l3 17h-8q-23 -53 -78 -127l-92 -108q-23 -27 -47.5 -50.5t-38.5 -33.5l-13 -10v-9q27 9 115 9h151z" />
    <glyph glyph-name="uni2085" unicode="&#x2085;" horiz-adv-x="634" 
d="M106 322l19 401h416v-107h-314l-10 -206q20 28 58.5 43.5t84.5 15.5q97 0 155 -57.5t58 -167.5q0 -124 -73.5 -191t-210.5 -67q-104 0 -171.5 48t-76.5 124l111 47q23 -123 149 -123q69 0 108.5 37.5t39.5 111.5q0 69 -33 105.5t-90 36.5q-75 0 -115 -51h-105z" />
    <glyph glyph-name="uni2086" unicode="&#x2086;" horiz-adv-x="671" 
d="M606 594l-100 -45q-34 86 -131 86q-91 0 -142 -87t-51 -245h8q11 73 64 117.5t137 44.5q102 0 166 -66.5t64 -167.5q0 -103 -71 -174t-198 -71q-129 0 -204.5 89t-75.5 263q0 196 88.5 298.5t222.5 102.5q81 0 140 -37.5t83 -107.5zM219 221q0 -66 40.5 -104.5
t100.5 -38.5q62 0 103 38.5t41 104.5q0 64 -40 104t-99 40q-63 0 -104.5 -39.5t-41.5 -104.5z" />
    <glyph glyph-name="uni2087" unicode="&#x2087;" horiz-adv-x="595" 
d="M432 612h-278v-108h-113v219h534v-61l-294 -662h-129z" />
    <glyph glyph-name="uni2088" unicode="&#x2088;" horiz-adv-x="716" 
d="M358 317q-61 0 -103 -30.5t-42 -87.5q0 -59 38 -90t107 -31t107.5 31t38.5 90q0 57 -42.5 87.5t-103.5 30.5zM358 -14q-125 0 -200.5 52t-75.5 148q0 68 43 114.5t113 57.5v9q-67 13 -103.5 58t-36.5 110q0 95 72 149.5t188 54.5t188 -54.5t72 -149.5q0 -65 -36 -110
t-103 -58v-9q70 -11 113 -57.5t43 -114.5q0 -96 -76 -148t-201 -52zM358 643q-63 0 -104 -30t-41 -83q0 -51 43.5 -80.5t101.5 -29.5t102 29.5t44 80.5q0 53 -41 83t-105 30z" />
    <glyph glyph-name="uni2089" unicode="&#x2089;" horiz-adv-x="671" 
d="M57 131l101 45q34 -86 131 -86q95 0 147.5 87t52.5 245h-8q-11 -73 -63.5 -117.5t-136.5 -44.5q-102 0 -166 66.5t-64 167.5q0 103 70.5 174t197.5 71q129 0 205 -89t76 -263q0 -196 -88.5 -298.5t-222.5 -102.5q-82 0 -145 38t-87 107zM453 500q0 66 -40.5 104.5
t-101.5 38.5q-62 0 -102.5 -38.5t-40.5 -104.5q0 -64 40 -104t99 -40q63 0 104.5 39.5t41.5 104.5z" />
    <glyph glyph-name="uni208A" unicode="&#x208a;" horiz-adv-x="911" 
d="M92 416h320v311h80v-311h327v-80h-327v-336h-80v336h-320v80z" />
    <glyph glyph-name="uni208B" unicode="&#x208b;" horiz-adv-x="913" 
d="M821 334h-729v82h729v-82z" />
    <glyph glyph-name="uni208C" unicode="&#x208c;" horiz-adv-x="913" 
d="M821 223h-729v82h729v-82zM821 463h-729v82h729v-82z" />
    <glyph glyph-name="uni208D" unicode="&#x208d;" horiz-adv-x="468" 
d="M184 356q0 -141 47 -244.5t146 -222.5h-105q-85 99 -132.5 211.5t-47.5 255.5q0 253 180 463h105q-98 -114 -145.5 -220t-47.5 -243z" />
    <glyph glyph-name="uni208E" unicode="&#x208e;" horiz-adv-x="468" 
d="M285 356q0 137 -47.5 243t-145.5 220h103q182 -208 182 -463q0 -259 -182 -467h-103q99 119 146 222.5t47 244.5z" />
    <glyph glyph-name="uni20A1" unicode="&#x20a1;" horiz-adv-x="1038" 
d="M213 -135l66 196q-177 137 -177 428q0 244 131.5 382.5t341.5 138.5h23l59 176l97 -33l-54 -156q54 -12 97 -36l57 172l96 -33l-69 -207q45 -47 75 -119l-141 -80l-199 -588q71 8 123.5 44.5t98.5 111.5l116 -88q-65 -101 -158 -148.5t-223 -50.5l-65 -194l-98 31l57 172
q-52 9 -96 26l-60 -178zM262 498q0 -171 72 -275l221 658q-140 -6 -216.5 -108.5t-76.5 -274.5zM416 145q40 -27 94 -36l235 700q-39 39 -88 57z" />
    <glyph glyph-name="uni20A2" unicode="&#x20a2;" horiz-adv-x="1069" 
d="M848 262l117 -88q-66 -104 -163.5 -151.5t-234.5 -47.5q-97 0 -178.5 32t-143.5 94t-97 161.5t-35 226.5q0 244 131.5 382.5t341.5 138.5q146 0 237 -57.5t144 -178.5l-144 -80q-68 187 -241 187q-148 0 -229 -103.5t-81 -279.5q0 -154 57.5 -253t164.5 -130v428h122
l13 -135q18 66 72 106.5t118 40.5l-4 -160q-16 8 -39 8q-58 0 -100.5 -38.5t-42.5 -102.5v-156q68 9 119.5 46t95.5 110z" />
    <glyph glyph-name="franc" unicode="&#x20a3;" horiz-adv-x="907" 
d="M707 311h-330v-311h-158v311h-158v103h158v102h-158v102h158v367h647v-133h-489v-234h330v-102h-330v-102h330v-103z" />
    <glyph glyph-name="lira" unicode="&#x20a4;" horiz-adv-x="1003" 
d="M676 311h-252q2 -10 2 -28q0 -115 -94 -150h370q38 0 65 6.5t52 29.5t33 64l121 -61q-44 -172 -254 -172h-592v139h59q42 0 67.5 35.5t25.5 95.5q0 6 -5 41h-202v103h174q-26 68 -35 102h-139v102h118q-2 20 -2 70q0 84 31 148t84 101t115.5 55t132.5 18q278 0 319 -262
l-145 -25q-15 82 -56 122t-132 40q-89 0 -141 -49t-52 -148q0 -36 6 -70h326v-102h-301l31 -102h270v-103z" />
    <glyph glyph-name="uni20A6" unicode="&#x20a6;" horiz-adv-x="1361" 
d="M1280 332h-166v-332h-168l-395 535q-41 56 -80 117t-57 94l-19 34h-8q10 -161 10 -313v-467h-157v332h-158v102h158v82h-158v102h158v367h174l399 -553q41 -57 76.5 -115.5t50.5 -88.5l16 -29h9q-9 167 -9 319v467h158v-367h166v-102h-166v-82h166v-102z" />
    <glyph glyph-name="peseta" unicode="&#x20a7;" horiz-adv-x="2406" 
d="M342 0h-158v985h326q315 0 391 -184h662q28 107 124.5 158t229.5 51q155 0 242 -62.5t102 -199.5l-160 -17q-5 77 -57.5 118.5t-145.5 41.5q-88 0 -140 -41t-52 -113q0 -65 34 -102.5t115 -54.5l140 -29q124 -26 196 -99.5t72 -195.5q0 -145 -102.5 -213t-274.5 -68
q-330 0 -370 263l157 20q9 -82 68.5 -124t156.5 -42q98 0 155.5 37.5t57.5 114.5q0 69 -34.5 107t-126.5 59l-152 32q-216 45 -239 226h-256v-668h-158v668h-217v-15q0 -184 -107.5 -267t-312.5 -83h-166v-303zM342 856v-424h154q142 0 204 48.5t62 172.5q0 106 -64 154.5
t-200 48.5h-156z" />
    <glyph glyph-name="uni20A8" unicode="&#x20a8;" horiz-adv-x="1699" 
d="M342 856v-336h190q114 0 161.5 38.5t47.5 125.5q0 172 -209 172h-190zM559 985q352 0 352 -291q0 -116 -67 -176t-182 -65v-7q47 -8 80 -30t76 -69.5t59 -61.5l102 -101q56 -53 119.5 -70.5t173.5 -17.5q68 0 115 22t47 70q0 41 -26 67t-93 40l-103 22q-184 41 -184 215
q0 57 24 100t64.5 67.5t88.5 36.5t102 12q242 0 264 -199l-150 -14q-6 49 -36.5 74.5t-96.5 25.5q-114 0 -114 -92q0 -37 24 -59.5t82 -34.5l86 -19q114 -26 162.5 -82t48.5 -155q0 -109 -88 -163.5t-244 -54.5q-172 0 -265.5 39.5t-184.5 135.5l-99 102q-7 8 -32.5 35
t-34.5 35.5t-32.5 27t-40.5 25.5t-43.5 13.5t-55.5 6.5h-115v-395h-158v985h375z" />
    <glyph glyph-name="uni20A9" unicode="&#x20a9;" horiz-adv-x="1724" 
d="M1642 373h-274l-102 -373h-195l-164 569q-20 69 -30.5 138t-11.5 103l-1 34h-6q-2 -117 -47 -275l-160 -569h-198l-103 373h-268v102h242l-23 82h-219v102h190l-88 326h160l166 -616q19 -70 31.5 -137.5t14.5 -99.5l3 -32h6q8 111 51 267l170 618h162l166 -620
q19 -70 32.5 -136.5t17.5 -97.5l3 -31h7q6 106 47 262l165 623h154l-92 -326h194v-102h-223l-22 -82h245v-102z" />
    <glyph glyph-name="uni20AA" unicode="&#x20aa;" horiz-adv-x="1400" 
d="M934 236h-160v469q0 69 -34 110t-122 41h-274v-856h-160v985h465q89 0 147 -21.5t87.5 -66t40 -96t10.5 -127.5v-438zM1077 985h160v-674q0 -76 -11 -128t-40.5 -96t-88 -65.5t-147.5 -21.5h-471v748h160v-619h283q87 0 121 41t34 111v704z" />
    <glyph glyph-name="Euro" unicode="&#x20ac;" horiz-adv-x="1087" 
d="M686 332h-309q31 -109 102.5 -168.5t177.5 -59.5q87 0 145 36t109 122l113 -88q-64 -104 -157 -151.5t-226 -47.5q-160 0 -273.5 90.5t-150.5 266.5h-156v102h142v55q0 51 2 76h-144v103h162q42 164 158 253t278 89q140 0 227.5 -57.5t139.5 -178.5l-137 -80
q-68 187 -234 187q-104 0 -174.5 -56t-101.5 -157h362l-20 -103h-363q-2 -23 -2 -67t2 -64h349z" />
    <glyph glyph-name="uni20AE" unicode="&#x20ae;" horiz-adv-x="923" 
d="M539 0h-158v303l-227 -39v103l227 39v102l-227 -39v102l227 39v242h-340v133h842v-133h-344v-215l219 37v-103l-219 -36v-103l219 37v-102l-219 -37v-330z" />
    <glyph glyph-name="uni20B1" unicode="&#x20b1;" horiz-adv-x="1161" 
d="M1120 580h-164q-21 -146 -125 -211.5t-288 -65.5h-166v-303h-158v580h-158v102h158v303h326q399 0 416 -303h159v-102zM377 856v-174h418q-7 91 -71 132.5t-192 41.5h-155zM530 432q120 0 182 33t79 115h-414v-148h153z" />
    <glyph glyph-name="afii61289" unicode="&#x2113;" horiz-adv-x="649" 
d="M80 266l-62 96l127 89v495q0 219 68 321.5t201 102.5q105 0 151.5 -66.5t46.5 -193.5q0 -114 -29 -226.5t-78 -203t-104.5 -162t-115.5 -123.5v-135q0 -90 32.5 -124t108.5 -34q60 0 117 23v-129q-61 -21 -137 -21q-129 0 -195 61t-66 200v81zM285 979v-436
q90 86 154.5 245.5t64.5 339.5q0 69 -21.5 101.5t-68.5 32.5q-59 0 -94 -71t-35 -212z" />
    <glyph glyph-name="afii61352" unicode="&#x2116;" horiz-adv-x="2000" 
d="M1319 0v125h600v-125h-600zM336 688v-473q0 -121 -54 -184.5t-169 -87.5l-52 141q68 14 91.5 47t23.5 117v958h170l492 -727q33 -49 69.5 -111.5t56.5 -100.5l21 -38h8q-10 137 -10 289v447q0 121 54 184.5t169 87.5l51 -141q-68 -14 -91 -47t-23 -117v-932h-166
l-498 727q-34 49 -70.5 111.5t-56.5 100.5l-20 38h-8q12 -137 12 -289zM1616 313q-135 0 -214 87t-79 247q0 158 79 242t214 84t214 -84t79 -242q0 -160 -79 -247t-214 -87zM1612 856q-144 0 -144 -209q0 -223 144 -223q143 0 143 223q0 209 -143 209z" />
    <glyph glyph-name="published" unicode="&#x2117;" horiz-adv-x="1439" 
d="M780 516h-157v-285h-134v762h289q126 0 199.5 -58.5t73.5 -178.5q0 -117 -76.5 -178.5t-194.5 -61.5zM623 881v-250h137q84 0 121 32t37 93q0 59 -41.5 92t-118.5 33h-135zM92 602q0 179 84.5 323.5t227.5 225t315 80.5q128 0 244 -47.5t200.5 -129.5t134.5 -200t50 -252
t-50 -251.5t-134.5 -199.5t-200.5 -129t-244 -47t-243.5 47t-200 129t-134 199.5t-49.5 251.5zM156 602q0 -122 44.5 -228.5t121 -180t180.5 -116t219 -42.5t219 42.5t180.5 116t121 180t44.5 228.5t-44.5 228.5t-121 181t-180.5 117t-219 42.5t-219 -42.5t-180.5 -117
t-121 -181t-44.5 -228.5z" />
    <glyph glyph-name="servicemark" unicode="&#x2120;" horiz-adv-x="1204" 
d="M41 821l106 17q11 -72 109 -72q90 0 90 63q0 56 -76 74l-69 15q-64 14 -101 51t-37 94q0 82 56.5 119t142.5 37q176 0 193 -134l-105 -12q-8 68 -92 68q-39 0 -63.5 -16t-24.5 -48q0 -56 76 -73l65 -15q66 -14 105 -53.5t39 -101.5q0 -144 -205 -144q-189 0 -209 131z
M1102 700h-103v353h-10l-104 -256h-97l-110 256h-10v-353h-103v508h140l129 -293h8l127 293h133v-508z" />
    <glyph glyph-name="trademark" unicode="&#x2122;" horiz-adv-x="1200" 
d="M295 698h-102v418h-152v90h408v-90h-154v-418zM1098 698h-103v353h-10l-104 -256h-97l-110 256h-10v-353h-103v508h139l129 -293h9l127 293h133v-508z" />
    <glyph glyph-name="estimated" unicode="&#x212e;" horiz-adv-x="1325" 
d="M662 1231q145 0 257.5 -53t179.5 -143t100.5 -199.5t33.5 -233.5v-53h-883v-346q122 -119 312 -119q264 0 376 213h136q-62 -149 -190.5 -235.5t-321.5 -86.5q-116 0 -211.5 35t-161 94.5t-111 140t-66 170.5t-20.5 187q0 98 21 188t66 171t110.5 140.5t161 94.5
t211.5 35zM662 1122q-194 0 -312 -118v-349h623v349q-118 118 -311 118z" />
    <glyph glyph-name="uni2153" unicode="&#x2153;" horiz-adv-x="1765" 
d="M623 483h-519v103h205v493l-225 -24v104l356 49v-622h183v-103zM512 0l627 1208h114l-624 -1208h-117zM1411 379v-6q100 -9 149.5 -58t49.5 -131q0 -92 -74.5 -145t-192.5 -53t-189 46t-85 120l115 45q12 -47 57 -80t102 -33q136 0 136 111q0 64 -51.5 97t-174.5 34v90
q108 4 156.5 33t48.5 86q0 46 -31 74t-86 28q-48 0 -82.5 -24.5t-46.5 -73.5l-112 41q21 72 85.5 115.5t164.5 43.5q101 0 168 -46.5t67 -141.5q0 -70 -41.5 -116t-132.5 -56z" />
    <glyph glyph-name="uni2154" unicode="&#x2154;" horiz-adv-x="1765" 
d="M641 586v-103h-535v99q81 57 128 92t99 79.5t77.5 78.5t43 75t17.5 84q0 58 -31.5 87.5t-87.5 29.5q-65 0 -97 -40.5t-34 -102.5l-106 51q0 81 71 144t189 63q98 0 164.5 -55.5t66.5 -163.5q0 -35 -8.5 -68.5t-19.5 -60.5t-34 -56.5t-39 -49t-48 -45.5t-48 -38.5
t-52 -35.5t-46.5 -29.5t-44.5 -26.5v-8h375zM512 0l627 1208h114l-624 -1208h-117zM1411 379v-6q100 -9 149.5 -58t49.5 -131q0 -92 -74.5 -145t-192.5 -53t-189 46t-85 120l115 45q12 -47 57 -80t102 -33q136 0 136 111q0 64 -51.5 97t-174.5 34v90q108 4 156.5 33t48.5 86
q0 46 -31 74t-86 28q-48 0 -82.5 -24.5t-46.5 -73.5l-112 41q21 72 85.5 115.5t164.5 43.5q101 0 168 -46.5t67 -141.5q0 -70 -41.5 -116t-132.5 -56z" />
    <glyph glyph-name="uni215B" unicode="&#x215b;" horiz-adv-x="1765" 
d="M623 483h-519v103h205v493l-225 -24v104l356 49v-622h183v-103zM512 0l627 1208h114l-624 -1208h-117zM1407 317q-61 0 -103 -30.5t-42 -87.5q0 -59 38 -90t107 -31t107 31t38 90q0 57 -42 87.5t-103 30.5zM1407 -14q-125 0 -201 52t-76 148q0 68 43 114.5t113 57.5v9
q-67 13 -103 58t-36 110q0 95 72 149.5t188 54.5t188 -54.5t72 -149.5q0 -65 -36 -110t-103 -58v-9q70 -11 112.5 -57.5t42.5 -114.5q0 -96 -75.5 -148t-200.5 -52zM1407 643q-63 0 -104 -30t-41 -83q0 -51 43.5 -80.5t101.5 -29.5t101.5 29.5t43.5 80.5q0 53 -41 83
t-104 30z" />
    <glyph glyph-name="uni215C" unicode="&#x215c;" horiz-adv-x="1765" 
d="M428 862v-6q100 -9 149.5 -57.5t49.5 -130.5q0 -92 -74.5 -145.5t-192.5 -53.5t-189 46t-85 120l115 45q12 -47 57 -80t102 -33q136 0 136 111q0 64 -51.5 97t-174.5 34v90q108 4 156.5 33t48.5 86q0 46 -31 74t-86 28q-48 0 -82.5 -24.5t-46.5 -73.5l-112 41
q21 72 85.5 116t164.5 44q101 0 168 -47t67 -142q0 -70 -41.5 -116t-132.5 -56zM512 0l627 1208h114l-624 -1208h-117zM1407 317q-61 0 -103 -30.5t-42 -87.5q0 -59 38 -90t107 -31t107 31t38 90q0 57 -42 87.5t-103 30.5zM1407 -14q-125 0 -201 52t-76 148q0 68 43 114.5
t113 57.5v9q-67 13 -103 58t-36 110q0 95 72 149.5t188 54.5t188 -54.5t72 -149.5q0 -65 -36 -110t-103 -58v-9q70 -11 112.5 -57.5t42.5 -114.5q0 -96 -75.5 -148t-200.5 -52zM1407 643q-63 0 -104 -30t-41 -83q0 -51 43.5 -80.5t101.5 -29.5t101.5 29.5t43.5 80.5
q0 53 -41 83t-104 30z" />
    <glyph glyph-name="uni215D" unicode="&#x215d;" horiz-adv-x="1765" 
d="M156 805l18 401h416v-106h-314l-10 -207q20 28 59 43.5t85 15.5q97 0 155 -57.5t58 -167.5q0 -124 -74 -191t-211 -67q-104 0 -171.5 48t-76.5 124l111 47q23 -123 149 -123q68 0 108 38t40 112q0 69 -33 105t-90 36q-75 0 -115 -51h-104zM512 0l627 1208h114l-624 -1208
h-117zM1407 317q-61 0 -103 -30.5t-42 -87.5q0 -59 38 -90t107 -31t107 31t38 90q0 57 -42 87.5t-103 30.5zM1407 -14q-125 0 -201 52t-76 148q0 68 43 114.5t113 57.5v9q-67 13 -103 58t-36 110q0 95 72 149.5t188 54.5t188 -54.5t72 -149.5q0 -65 -36 -110t-103 -58v-9
q70 -11 112.5 -57.5t42.5 -114.5q0 -96 -75.5 -148t-200.5 -52zM1407 643q-63 0 -104 -30t-41 -83q0 -51 43.5 -80.5t101.5 -29.5t101.5 29.5t43.5 80.5q0 53 -41 83t-104 30z" />
    <glyph glyph-name="uni215E" unicode="&#x215e;" horiz-adv-x="1640" 
d="M481 1096h-278v-109h-113v219h535v-61l-295 -662h-129zM387 0l627 1208h114l-624 -1208h-117zM1282 317q-61 0 -103 -30.5t-42 -87.5q0 -59 38 -90t107 -31t107 31t38 90q0 57 -42 87.5t-103 30.5zM1282 -14q-125 0 -200.5 52t-75.5 148q0 68 42.5 114.5t112.5 57.5v9
q-67 13 -103 58t-36 110q0 95 72 149.5t188 54.5t188 -54.5t72 -149.5q0 -65 -36 -110t-103 -58v-9q70 -11 113 -57.5t43 -114.5q0 -96 -76 -148t-201 -52zM1282 643q-63 0 -104 -30t-41 -83q0 -51 43.5 -80.5t101.5 -29.5t101.5 29.5t43.5 80.5q0 53 -41 83t-104 30z" />
    <glyph glyph-name="arrowleft" unicode="&#x2190;" horiz-adv-x="1353" 
d="M305 678h957v-148h-961l447 -454l-111 -101l-600 625l600 631l113 -98z" />
    <glyph glyph-name="arrowup" unicode="&#x2191;" horiz-adv-x="1402" 
d="M776 963v-963h-147v967l-455 -447l-100 111l624 600l631 -600l-100 -113z" />
    <glyph glyph-name="arrowright" unicode="&#x2192;" horiz-adv-x="1353" 
d="M37 678h956l-436 455l113 98l592 -631l-590 -625l-111 101l438 454h-962v148z" />
    <glyph glyph-name="arrowdown" unicode="&#x2193;" horiz-adv-x="1402" 
d="M627 246v960h147v-966l455 448l100 -110l-624 -603l-631 603l100 112z" />
    <glyph glyph-name="uni2196" unicode="&#x2196;" horiz-adv-x="1398" 
d="M1260 0l-955 961v-758h-139v1003h956v-137h-716l956 -965z" />
    <glyph glyph-name="uni2197" unicode="&#x2197;" horiz-adv-x="1398" 
d="M1094 961l-955 -961l-102 104l956 965h-717v137h957v-1003h-139v758z" />
    <glyph glyph-name="uni2198" unicode="&#x2198;" horiz-adv-x="1398" 
d="M139 1206l955 -958v756h139v-1004h-957v137h717l-956 965z" />
    <glyph glyph-name="uni2199" unicode="&#x2199;" horiz-adv-x="1398" 
d="M305 248l955 958l102 -104l-956 -965h716v-137h-956v1004h139v-756z" />
    <glyph glyph-name="partialdiff" unicode="&#x2202;" horiz-adv-x="1050" 
d="M289 1280l90 94q173 -70 304 -205t198 -298.5t67 -331.5q0 -280 -112.5 -416.5t-311.5 -136.5q-195 0 -308.5 128.5t-113.5 362.5q0 231 108.5 356t283.5 125q160 0 256 -124q-123 287 -461 446zM791 477q0 170 -70.5 260t-202.5 90q-262 0 -262 -350q0 -173 67 -266.5
t199 -93.5q135 0 202 93t67 267z" />
    <glyph glyph-name="increment" unicode="&#x2206;" horiz-adv-x="1134" 
d="M1114 0h-1094l441 1206h217zM895 133l-233 668q-29 83 -53 158t-33 109l-9 34h-8q-26 -113 -92 -299l-234 -668z" />
    <glyph glyph-name="product" unicode="&#x220f;" horiz-adv-x="1257" 
d="M322 -414h-158v1620h930v-1620h-158v1473h-614v-1473z" />
    <glyph glyph-name="summation" unicode="&#x2211;" horiz-adv-x="894" 
d="M813 1067h-311q-57 0 -110 1.5t-77 3.5l-24 1v-8q67 -56 143 -150l250 -311l-266 -313q-35 -41 -71 -78.5t-55 -54.5l-18 -17v-8q82 6 211 6h328v-139h-813l487 606l-487 600h813v-139z" />
    <glyph glyph-name="minus" unicode="&#x2212;" horiz-adv-x="1019" 
d="M928 461h-836v94h836v-94z" />
    <glyph glyph-name="radical" unicode="&#x221a;" horiz-adv-x="1142" 
d="M377 946l278 -762h7l317 1221l143 -12l-372 -1393h-166l-291 729l-191 -104l-61 123z" />
    <glyph glyph-name="infinity" unicode="&#x221e;" horiz-adv-x="1769" 
d="M246 512q0 -112 60 -175t149 -63q73 0 127 25t108 82l115 131l-115 131q-52 58 -106.5 82.5t-128.5 24.5q-89 0 -149 -63t-60 -175zM885 424l-103 -117q-130 -155 -325 -155q-157 0 -256 98t-99 262t99 262t256 98q195 0 325 -155l103 -117l102 117q136 155 326 155
q157 0 255.5 -98t98.5 -262t-98.5 -262t-255.5 -98q-196 0 -326 155zM1524 512q0 112 -60 175t-149 63q-74 0 -129 -24.5t-107 -82.5l-114 -131l114 -131q52 -58 107 -82.5t129 -24.5q89 0 149 63t60 175z" />
    <glyph glyph-name="integral" unicode="&#x222b;" horiz-adv-x="559" 
d="M190 -92v1147q0 86 27 150t73 99t100 51.5t116 16.5q92 0 176 -33l-33 -139q-80 41 -147 41q-71 0 -113.5 -47t-42.5 -147v-1147q0 -86 -26.5 -150t-72.5 -99.5t-99.5 -52t-116.5 -16.5q-90 0 -174 33l32 139q77 -41 148 -41q69 0 111 47.5t42 147.5z" />
    <glyph glyph-name="approxequal" unicode="&#x2248;" horiz-adv-x="1019" 
d="M741 522q-81 0 -231.5 51.5t-224.5 51.5q-109 0 -193 -103v103q30 46 82 69t105 23q76 0 234 -51.5t235 -51.5q42 0 92.5 27t87.5 72v-119q-66 -72 -187 -72zM741 289q-81 0 -231.5 52t-224.5 52q-111 0 -193 -104v104q30 45 83 68.5t104 23.5q76 0 234 -52t235 -52
q43 0 93.5 26.5t86.5 73.5v-121q-68 -71 -187 -71z" />
    <glyph glyph-name="notequal" unicode="&#x2260;" horiz-adv-x="1019" 
d="M928 586h-262l-142 -164h404v-94h-486l-221 -258l-71 63l167 195h-225v94h305l142 164h-447v94h526l201 233l74 -63l-148 -170h183v-94z" />
    <glyph glyph-name="lessequal" unicode="&#x2264;" horiz-adv-x="811" 
d="M698 915l-432 -323l434 -326l-69 -80l-531 406l531 403zM719 43h-627v94h627v-94z" />
    <glyph glyph-name="greaterequal" unicode="&#x2265;" horiz-adv-x="811" 
d="M545 592l-432 323l67 80l529 -403l-529 -406l-69 80zM719 43h-627v94h627v-94z" />
    <glyph glyph-name="blacksquare" unicode="&#x25a0;" horiz-adv-x="1554" 
d="M174 0v1206h1206v-1206h-1206z" />
    <glyph glyph-name="whitesquare" unicode="&#x25a1;" horiz-adv-x="1554" 
d="M174 0v1206h1206v-1206h-1206zM262 1118v-1030h1030v1030h-1030z" />
    <glyph glyph-name="blacksmallsquare" unicode="&#x25aa;" horiz-adv-x="1015" 
d="M174 285v665h668v-665h-668z" />
    <glyph glyph-name="whitesmallsquare" unicode="&#x25ab;" horiz-adv-x="1015" 
d="M174 285v665h668v-665h-668zM262 862v-489h492v489h-492z" />
    <glyph glyph-name="triagup" unicode="&#x25b2;" horiz-adv-x="1169" 
d="M82 0l502 1231l503 -1231h-1005z" />
    <glyph glyph-name="triagrt" unicode="&#x25ba;" horiz-adv-x="1404" 
d="M174 1098l1231 -502l-1231 -504v1006z" />
    <glyph glyph-name="triagdn" unicode="&#x25bc;" horiz-adv-x="1169" 
d="M584 -25l-502 1231h1005z" />
    <glyph glyph-name="triaglf" unicode="&#x25c4;" horiz-adv-x="1404" 
d="M0 596l1231 502v-1006z" />
    <glyph glyph-name="lozenge" unicode="&#x25ca;" horiz-adv-x="1036" 
d="M934 623l-361 -691h-112l-359 691l359 669h112zM784 621l-264 512l-266 -512l266 -533z" />
    <glyph glyph-name="whitecircle" unicode="&#x25cb;" horiz-adv-x="1439" 
d="M92 602q0 170 84 315t228.5 229.5t314.5 84.5t315 -84.5t229.5 -229.5t84.5 -315t-84.5 -314.5t-229.5 -228.5t-315 -84t-314.5 84t-228.5 228.5t-84 314.5zM182 600q0 -147 71.5 -272t195.5 -198t270 -73q145 0 268.5 73t195.5 198t72 272q0 148 -72 274t-195.5 199.5
t-268.5 73.5q-109 0 -208.5 -43.5t-171.5 -117t-114.5 -174.5t-42.5 -212z" />
    <glyph glyph-name="whitecircle" unicode="&#x25ef;" horiz-adv-x="1439" 
d="M92 602q0 170 84 315t228.5 229.5t314.5 84.5t315 -84.5t229.5 -229.5t84.5 -315t-84.5 -314.5t-229.5 -228.5t-315 -84t-314.5 84t-228.5 228.5t-84 314.5zM182 600q0 -147 71.5 -272t195.5 -198t270 -73q145 0 268.5 73t195.5 198t72 272q0 148 -72 274t-195.5 199.5
t-268.5 73.5q-109 0 -208.5 -43.5t-171.5 -117t-114.5 -174.5t-42.5 -212z" />
    <glyph glyph-name="blackcircle" unicode="&#x25cf;" horiz-adv-x="1439" 
d="M92 602q0 170 84 315t228.5 229.5t314.5 84.5t315 -84.5t229.5 -229.5t84.5 -315t-84.5 -314.5t-229.5 -228.5t-315 -84t-314.5 84t-228.5 228.5t-84 314.5z" />
    <glyph glyph-name="anglebracketleft" unicode="&#x3008;" horiz-adv-x="659" 
d="M567 -416h-141l-313 903l313 881h141l-305 -885z" />
    <glyph glyph-name="anglebracketright" unicode="&#x3009;" horiz-adv-x="659" 
d="M233 -416h-141l305 899l-305 885h141l314 -881z" />
    <glyph glyph-name="lcedilla" unicode="&#xe100;" horiz-adv-x="516" 
d="M504 -258q0 -85 -58 -129.5t-149 -44.5q-115 0 -174 78l47 98q51 -76 127 -76q78 0 78 74q0 90 -144 90l13 172q-101 48 -101 174v1190h156v-1165q0 -43 22 -64.5t60 -21.5q30 0 63 10v-129q-56 -12 -100 -12h-16l-4 -72q180 -16 180 -172z" />
    <glyph glyph-name="uni004500600323" unicode="&#xe101;" horiz-adv-x="997" 
d="M895 139v-139h-721v1206h721v-139h-561v-395h497v-140h-497v-393h561zM424 -291q0 46 32 79.5t76 33.5q47 0 80 -33.5t33 -79.5q0 -45 -33 -77.5t-80 -32.5q-44 0 -76 33t-32 77zM602 1341h-141l127 238h213z" />
    <glyph glyph-name="uni006500600323" unicode="&#xe102;" horiz-adv-x="972" 
d="M514 98q88 0 142.5 39t78.5 125l137 -31q-25 -136 -123.5 -196t-246.5 -60q-188 0 -299 129t-111 363t114 368t308 134q174 0 270.5 -110t96.5 -290q0 -83 -19 -131h-620q8 -154 78 -247t194 -93zM246 563h481q2 16 2 43q0 101 -62.5 169.5t-162.5 68.5
q-109 0 -176 -72.5t-82 -208.5zM569 1085h-133l154 293h215zM406 -291q0 46 32 79.5t76 33.5q47 0 80 -33.5t33 -79.5q0 -45 -33 -77.5t-80 -32.5q-44 0 -76 33t-32 77z" />
    <glyph glyph-name="uni004500B40323" unicode="&#xe103;" horiz-adv-x="997" 
d="M895 139v-139h-721v1206h721v-139h-561v-395h497v-140h-497v-393h561zM424 -291q0 46 32 79.5t76 33.5q47 0 80 -33.5t33 -79.5q0 -45 -33 -77.5t-80 -32.5q-44 0 -76 33t-32 77zM612 1341h-141l-199 238h213z" />
    <glyph glyph-name="uni006500B40323" unicode="&#xe104;" horiz-adv-x="972" 
d="M514 98q88 0 142.5 39t78.5 125l137 -31q-25 -136 -123.5 -196t-246.5 -60q-188 0 -299 129t-111 363t114 368t308 134q174 0 270.5 -110t96.5 -290q0 -83 -19 -131h-620q8 -154 78 -247t194 -93zM246 563h481q2 16 2 43q0 101 -62.5 169.5t-162.5 68.5
q-109 0 -176 -72.5t-82 -208.5zM598 1085h-133l-236 293h215zM406 -291q0 46 32 79.5t76 33.5q47 0 80 -33.5t33 -79.5q0 -45 -33 -77.5t-80 -32.5q-44 0 -76 33t-32 77z" />
    <glyph glyph-name="Gtilde" unicode="&#xe105;" horiz-adv-x="1236" 
d="M637 614h467v-614h-141l-19 162q-32 -87 -127.5 -137t-204.5 -50q-236 0 -378 164t-142 459q0 297 152.5 465t402.5 168q167 0 275 -70t165 -215l-145 -72q-39 109 -120 165.5t-187 56.5q-177 0 -276 -132.5t-99 -363.5q0 -226 92.5 -358.5t268.5 -132.5q86 0 156.5 25
t118.5 84.5t48 146.5v106h-307v143zM786 1341q-11 0 -22 1.5t-19 2.5t-19 5t-16.5 5.5t-18 8t-15.5 8t-17.5 10t-17.5 9.5q-8 5 -25 14.5t-23 13t-18.5 9.5t-20 8t-17.5 4t-21 2q-72 0 -61 -96h-99q-34 94 8 165.5t134 71.5q36 0 67.5 -8.5t49 -18t53.5 -30.5
q45 -28 63.5 -36.5t44.5 -8.5q65 0 60 102h104q30 -104 -11 -173t-143 -69z" />
    <glyph glyph-name="gtilde" unicode="&#xe106;" horiz-adv-x="980" 
d="M463 969q173 0 274 -82q57 24 74 143l139 -49q-10 -67 -51 -111.5t-102 -56.5q45 -71 45 -180q0 -158 -106.5 -243t-268.5 -85q-79 0 -125 17q-72 -38 -72 -105q0 -86 111 -86h219q161 0 243.5 -65t82.5 -193q0 -70 -29.5 -124.5t-77 -88t-114.5 -55t-134.5 -29.5
t-144.5 -8q-82 0 -150 12t-128 39t-94 78t-34 123q0 94 65 155t177 70q-60 7 -92.5 45.5t-32.5 95.5q0 124 135 158q-86 39 -133 113t-47 176q0 155 101.5 245.5t269.5 90.5zM170 -170q0 -149 268 -149q338 0 338 172q0 141 -176 141h-194q-236 0 -236 -164zM244 635
q0 -98 58.5 -156.5t160.5 -58.5q105 0 165 54t60 161q0 106 -60.5 162.5t-164.5 54.5t-161.5 -58t-57.5 -159zM623 1087q-10 0 -19 0.5t-18.5 3t-16 3.5t-17 5t-14.5 5.5t-15.5 7.5t-14 7.5t-16 9t-15.5 8.5q-8 5 -25 14.5t-23 13t-18.5 9.5t-20 8t-17.5 4t-21 2
q-72 0 -61 -96h-98q-34 94 7.5 162.5t133.5 68.5q36 0 67.5 -8.5t49 -18t53.5 -30.5q45 -28 63.5 -36.5t44.5 -8.5q65 0 60 102h104q30 -104 -10.5 -170t-142.5 -66z" />
    <glyph glyph-name="Gcommaturnedabove" unicode="&#xe107;" horiz-adv-x="1236" 
d="M637 614h467v-614h-141l-19 162q-32 -87 -127.5 -137t-204.5 -50q-236 0 -378 164t-142 459q0 297 152.5 465t402.5 168q167 0 275 -70t165 -215l-145 -72q-39 109 -120 165.5t-187 56.5q-177 0 -276 -132.5t-99 -363.5q0 -226 92.5 -358.5t268.5 -132.5q86 0 156.5 25
t118.5 84.5t48 146.5v106h-307v143zM500 1485q0 108 57.5 157.5t173.5 49.5v-70q-61 -3 -89 -22.5t-28 -69.5q53 10 85 -16.5t32 -73.5t-29 -74t-79 -27t-86.5 40t-36.5 106z" />
    <glyph glyph-name="gcommaturnedabove" unicode="&#xe108;" horiz-adv-x="980" 
d="M463 969q173 0 274 -82q57 24 74 143l139 -49q-10 -67 -51 -111.5t-102 -56.5q45 -71 45 -180q0 -158 -106.5 -243t-268.5 -85q-79 0 -125 17q-72 -38 -72 -105q0 -86 111 -86h219q161 0 243.5 -65t82.5 -193q0 -70 -29.5 -124.5t-77 -88t-114.5 -55t-134.5 -29.5
t-144.5 -8q-82 0 -150 12t-128 39t-94 78t-34 123q0 94 65 155t177 70q-60 7 -92.5 45.5t-32.5 95.5q0 124 135 158q-86 39 -133 113t-47 176q0 155 101.5 245.5t269.5 90.5zM170 -170q0 -149 268 -149q338 0 338 172q0 141 -176 141h-194q-236 0 -236 -164zM244 635
q0 -98 58.5 -156.5t160.5 -58.5q105 0 165 54t60 161q0 106 -60.5 162.5t-164.5 54.5t-161.5 -58t-57.5 -159zM338 1239q0 108 57.5 157.5t173.5 49.5v-70q-61 -3 -88.5 -22.5t-27.5 -69.5q52 10 84 -16.5t32 -73.5t-29 -73.5t-79 -26.5t-86.5 39.5t-36.5 105.5z" />
    <glyph glyph-name="Hmacronbelow" unicode="&#xe109;" horiz-adv-x="1277" 
d="M334 0h-160v1206h160v-524h610v524h160v-1206h-160v543h-610v-543zM897 -365h-514v121h514v-121z" />
    <glyph glyph-name="hmacronbelow" unicode="&#xe10a;" 
d="M309 1368v-602q66 203 283 203q129 0 210 -72.5t81 -218.5v-678h-156v641q0 91 -46 142t-132 51q-50 0 -91 -14t-75.5 -45.5t-54 -88.5t-19.5 -135v-551h-155v1368h155zM776 -365h-514v121h514v-121z" />
    <glyph glyph-name="Jcaron" unicode="&#xe10b;" horiz-adv-x="872" 
d="M580 1206h159v-856q0 -102 -30 -176.5t-82.5 -117t-115.5 -62t-138 -19.5q-260 0 -373 238l129 84q51 -106 105 -146t143 -40q116 0 159.5 71t43.5 209v815zM707 1331h-95l-247 254h178l65 -69q17 -19 29.5 -37t16.5 -27l3 -8h5q10 29 49 72l65 69h178z" />
    <glyph glyph-name="Kcedilla" unicode="&#xe10d;" horiz-adv-x="1069" 
d="M1028 0h-197l-397 543h-100v-543h-160v1206h160v-524h106l371 524h188l-432 -585zM705 -258q0 -85 -58 -129.5t-149 -44.5q-115 0 -174 78l47 98q51 -76 127 -76q77 0 77 74q0 90 -143 90l12 178h86l-6 -96q181 -17 181 -172z" />
    <glyph glyph-name="kcedilla" unicode="&#xe10e;" horiz-adv-x="923" 
d="M485 506l428 -506h-196l-352 434h-56v-434h-155v1368h155v-811h43l338 389h193zM678 -258q0 -85 -58 -129.5t-149 -44.5q-115 0 -174 78l47 98q51 -76 127 -76q78 0 78 74q0 90 -143 90l12 178h86l-6 -96q180 -16 180 -172z" />
    <glyph glyph-name="Lcedilla" unicode="&#xe10f;" horiz-adv-x="935" 
d="M725 -258q0 -85 -58 -129.5t-149 -44.5q-115 0 -174 78l47 98q51 -76 127 -76q78 0 78 74q0 90 -143 90l10 168h-289v1206h160v-1067h561v-139h-346l-4 -86q180 -16 180 -172z" />
    <glyph glyph-name="ocedilla" unicode="&#xe110;" horiz-adv-x="1028" 
d="M725 -258q0 -85 -58 -129.5t-149 -44.5q-115 0 -174 78l47 98q51 -76 127 -76q78 0 78 74q0 90 -143 90l10 145q-173 18 -272 148t-99 354q0 237 113 363.5t309 126.5t309 -126.5t113 -363.5q0 -229 -103.5 -360t-283.5 -142l-4 -63q180 -16 180 -172zM514 842
q-268 0 -268 -363q0 -381 268 -381t268 381q0 363 -268 363z" />
    <glyph glyph-name="Mmacron" unicode="&#xe111;" horiz-adv-x="1458" 
d="M791 301h-123l-246 465q-33 62 -55.5 115t-28.5 75l-6 23h-8q10 -76 10 -221v-758h-160v1206h199l305 -608q18 -36 31.5 -70t17.5 -50l4 -15h8q13 53 54 135l305 608h186v-1206h-160v758q0 64 3 119.5t5 78.5l3 23h-9q-16 -74 -90 -213zM987 1386h-514v121h514v-121z" />
    </font>
</defs>
</svg>
