<?xml version="1.0" standalone="no"?>
<!DOCTYPE svg PUBLIC "-//W3C//DTD SVG 1.1//EN" "http://www.w3.org/Graphics/SVG/1.1/DTD/svg11.dtd" >
<svg xmlns="http://www.w3.org/2000/svg" xmlns:xlink="http://www.w3.org/1999/xlink" version="1.1">
<metadata>
Created by FontForge 20170731 at Fri Sep 17 22:21:27 2021
 By Aleksey,,,
Copyright (c) 2004-9 by Kris Sowersby. All rights reserved.
</metadata>
<defs>
<font id="National-Black" horiz-adv-x="1024" >
  <font-face 
    font-family="National Black"
    font-weight="920"
    font-stretch="normal"
    units-per-em="2048"
    panose-1="0 0 0 0 0 0 0 0 0 0"
    ascent="1638"
    descent="-410"
    x-height="946"
    cap-height="1206"
    bbox="-297 -549 2728 2054"
    underline-thickness="102"
    underline-position="-204"
    unicode-range="U+0020-F778"
  />
<missing-glyph horiz-adv-x="1546" 
d="M170 0v1206h1206v-1206h-1206zM772 541l-453 -453h908zM319 1118l453 -454l455 454h-908zM834 602l454 -452v907zM711 602l-453 455v-907z" />
    <glyph glyph-name="f_b" unicode="fb" horiz-adv-x="1841" 
d="M1143 492v-62q0 -73 29.5 -114.5t80.5 -41.5q69 0 97 50t28 153q0 91 -28.5 132.5t-87.5 41.5q-55 0 -87 -42t-32 -117zM729 0v1040q-47 37 -100 37q-47 0 -67.5 -22t-20.5 -70v-39h118v-303h-122v-643h-414v643h-113v303h117v12q0 208 114.5 318t315.5 110
q165 0 262 -53l324 35v-596q28 93 103 146t179 53q181 0 280 -126.5t99 -348.5q0 -255 -107 -388t-302 -133q-106 0 -176 45.5t-99 124.5l-90 -145h-301z" />
    <glyph glyph-name="f_f_b" unicode="ffb" horiz-adv-x="2447" 
d="M1749 492v-62q0 -73 30 -114.5t81 -41.5q69 0 97 50t28 153q0 91 -29 132.5t-88 41.5q-55 0 -87 -42t-32 -117zM1335 0v1040q-47 37 -100 37q-47 0 -67.5 -22t-20.5 -70v-39h119v-303h-123v-643h-414v643h-192v-643h-414v643h-113v303h117v12q0 202 102.5 304t266.5 102
q128 0 233 -57l-80 -295q-31 22 -59 22q-49 0 -49 -71v-17h192v12q0 208 114.5 318t315.5 110q165 0 262 -53l324 35v-596q28 92 103.5 145.5t179.5 53.5q181 0 279.5 -126.5t98.5 -348.5q0 -255 -107 -388t-302 -133q-106 0 -176 45.5t-99 124.5l-90 -145h-301z" />
    <glyph glyph-name="f_f_h" unicode="ffh" horiz-adv-x="2412" 
d="M1335 0v1040q-47 37 -100 37q-47 0 -67.5 -22t-20.5 -70v-39h119v-303h-123v-643h-414v643h-192v-643h-414v643h-113v303h117v12q0 202 102.5 304t266.5 102q128 0 233 -57l-80 -295q-31 22 -59 22q-49 0 -49 -71v-17h192v12q0 208 114.5 318t315.5 110q165 0 262 -53
l324 35v-604q34 103 113 155t184 52q125 0 205 -77t80 -232v-662h-414v510q0 61 -16.5 90t-59.5 29q-41 0 -66.5 -35t-25.5 -111v-483h-414z" />
    <glyph glyph-name="f_f_j" unicode="ffj" horiz-adv-x="1837" 
d="M1335 643h-192v-643h-414v643h-192v-643h-414v643h-113v303h117v12q0 202 102.5 304t266.5 102q128 0 233 -57l-80 -295q-31 22 -59 22q-49 0 -49 -71v-17h192v12q0 207 122.5 317.5t326.5 110.5q224 0 372 -98l-139 -270q-68 47 -151 47q-53 0 -85 -25.5t-32 -76.5v-17
h602v-921q0 -126 -34 -214t-100 -138t-150 -71.5t-197 -21.5q-118 0 -174 25v338q67 -31 129 -31t87 26.5t25 102.5v602z" />
    <glyph glyph-name="f_f_k" unicode="ffk" horiz-adv-x="2422" 
d="M1335 0v1040q-47 37 -100 37q-47 0 -67.5 -22t-20.5 -70v-39h119v-303h-123v-643h-414v643h-192v-643h-414v643h-113v303h117v12q0 202 102.5 304t266.5 102q128 0 233 -57l-80 -295q-31 22 -59 22q-49 0 -49 -71v-17h192v12q0 208 114.5 318t315.5 110q165 0 262 -53
l324 35v-715h47l125 293h463l-223 -438l262 -508h-463l-164 350h-47v-350h-414z" />
    <glyph glyph-name="f_h" unicode="fh" horiz-adv-x="1806" 
d="M729 0v1040q-47 37 -100 37q-47 0 -67.5 -22t-20.5 -70v-39h118v-303h-122v-643h-414v643h-113v303h117v12q0 208 114.5 318t315.5 110q165 0 262 -53l324 35v-604q34 103 113 155t184 52q125 0 204.5 -77t79.5 -232v-662h-413v510q0 61 -16.5 90t-59.5 29
q-41 0 -66.5 -35t-25.5 -111v-483h-414z" />
    <glyph glyph-name="f_j" unicode="fj" horiz-adv-x="1230" 
d="M729 643h-192v-643h-414v643h-113v303h117v12q0 207 122 317.5t326 110.5q225 0 373 -98l-139 -270q-68 47 -152 47q-53 0 -84.5 -25t-31.5 -77v-17h602v-921q0 -126 -34 -214t-100 -138t-150 -71.5t-197 -21.5q-119 0 -175 25v338q67 -31 129 -31t87.5 26.5t25.5 102.5
v602z" />
    <glyph glyph-name="f_k" unicode="fk" horiz-adv-x="1816" 
d="M729 0v1040q-47 37 -100 37q-47 0 -67.5 -22t-20.5 -70v-39h118v-303h-122v-643h-414v643h-113v303h117v12q0 208 114.5 318t315.5 110q165 0 262 -53l324 35v-715h47l125 293h463l-224 -438l263 -508h-463l-164 350h-47v-350h-414z" />
    <glyph glyph-name="ff" unicode="ff" horiz-adv-x="1363" 
d="M729 643h-192v-643h-414v643h-113v303h117v12q0 202 102.5 304t266.5 102q128 0 233 -57l-80 -295q-31 22 -59 22q-49 0 -49 -71v-17h194v12q0 197 109.5 312.5t310.5 115.5q182 0 309 -86l-100 -278q-53 47 -129 47q-88 0 -88 -90v-33h207v-303h-211v-643h-414v643z" />
    <glyph glyph-name="ffi" unicode="ffi" horiz-adv-x="1837" 
d="M127 946v12q0 202 102.5 304t266.5 102q128 0 233 -57l-80 -295q-31 22 -59 22q-49 0 -49 -71v-17h192v12q0 207 122.5 317.5t326.5 110.5q224 0 372 -98l-139 -270q-68 47 -151 47q-53 0 -85 -25.5t-32 -76.5v-17h602v-946h-414v643h-192v-643h-414v643h-192v-643h-414
v643h-113v303h117z" />
    <glyph glyph-name="ffl" unicode="ffl" horiz-adv-x="1900" 
d="M127 946v12q0 202 102.5 304t266.5 102q128 0 233 -57l-80 -295q-31 22 -59 22q-49 0 -49 -71v-17h192v12q0 208 114.5 318t315.5 110q165 0 262 -53l324 35v-962q0 -31 15 -47.5t40 -16.5q37 0 76 20l-14 -333q-74 -54 -226 -54q-43 0 -84 9t-81.5 31t-71 55t-49.5 85.5
t-19 118.5v766q-47 37 -100 37q-47 0 -67.5 -22t-20.5 -70v-39h119v-303h-123v-643h-414v643h-192v-643h-414v643h-113v303h117z" />
    <glyph glyph-name="fi" unicode="fi" horiz-adv-x="1230" 
d="M123 643h-113v303h117v12q0 207 122 317.5t326 110.5q225 0 373 -98l-139 -270q-68 47 -152 47q-53 0 -84.5 -25t-31.5 -77v-17h602v-946h-414v643h-192v-643h-414v643z" />
    <glyph glyph-name="fl" unicode="fl" horiz-adv-x="1294" 
d="M1274 362l-14 -333q-74 -54 -226 -54q-43 0 -84 9t-81.5 31t-71 55t-49.5 85.5t-19 118.5v766q-47 37 -100 37q-47 0 -67.5 -22t-20.5 -70v-39h118v-303h-122v-643h-414v643h-113v303h117v12q0 208 114.5 318t315.5 110q165 0 262 -53l324 35v-962q0 -31 15 -47.5
t40 -16.5q37 0 76 20z" />
    <glyph glyph-name=".notdef" horiz-adv-x="1546" 
d="M170 0v1206h1206v-1206h-1206zM772 541l-453 -453h908zM319 1118l453 -454l455 454h-908zM834 602l454 -452v907zM711 602l-453 455v-907z" />
    <glyph glyph-name=".null" horiz-adv-x="0" 
 />
    <glyph glyph-name="nonmarkingreturn" horiz-adv-x="682" 
 />
    <glyph glyph-name="space" unicode=" " horiz-adv-x="348" 
 />
    <glyph glyph-name="exclam" unicode="!" horiz-adv-x="647" 
d="M61 1206h525l-107 -778h-311zM109 166q0 92 61.5 145.5t155.5 53.5q98 0 159.5 -53t61.5 -146q0 -88 -62 -139.5t-159 -51.5q-93 0 -155 52t-62 139z" />
    <glyph glyph-name="quotedbl" unicode="&#x22;" horiz-adv-x="1064" 
d="M162 844v524h375l-134 -524h-241zM610 844v524h375l-133 -524h-242z" />
    <glyph glyph-name="numbersign" unicode="#" horiz-adv-x="1374" 
d="M113 582v245h282l49 158h289l-49 -158h176l49 158h289l-49 -158h133v-245h-211l-45 -144h215v-245h-293l-59 -193h-289l59 193h-176l-59 -193h-289l60 193h-123v245h200l45 144h-204zM606 582l-45 -144h176l45 144h-176z" />
    <glyph glyph-name="dollar" unicode="$" horiz-adv-x="1044" 
d="M432 -193v170q-341 19 -391 246l373 82q3 -74 73 -74q68 0 68 48q0 45 -68 53l-100 8q-162 14 -246 94.5t-84 222.5q0 161 102.5 247t272.5 102v172h172v-172q152 -15 245 -86.5t118 -196.5l-373 -37q0 72 -72 72q-63 0 -63 -45q0 -43 63 -49l107 -11q176 -13 260 -100
t84 -229q0 -301 -369 -342v-175h-172z" />
    <glyph glyph-name="percent" unicode="%" horiz-adv-x="1734" 
d="M424 0l663 1204h226l-676 -1204h-213zM383 676q72 0 72 170t-72 170t-72 -170t72 -170zM41 846q0 172 89.5 274.5t252.5 102.5t252.5 -102.5t89.5 -274.5t-89.5 -274.5t-252.5 -102.5t-252.5 102.5t-89.5 274.5zM1352 193q71 0 71 169q0 92 -18 131t-53 39
q-72 0 -72 -170q0 -169 72 -169zM1010 362q0 172 89.5 274.5t252.5 102.5t252.5 -102.5t89.5 -274.5t-89.5 -274t-252.5 -102t-252.5 102t-89.5 274z" />
    <glyph glyph-name="ampersand" unicode="&#x26;" horiz-adv-x="1325" 
d="M1286 236l-256 -261l-137 119q-65 -56 -170.5 -87.5t-237.5 -31.5q-80 0 -154 16t-142.5 51.5t-110 101.5t-41.5 155q0 118 76 198t194 95q-79 75 -115 145t-36 156q0 156 122 247t345 91q118 0 210.5 -30t151.5 -96.5t59 -162.5q0 -111 -77.5 -182.5t-182.5 -81.5
l129 -113q27 38 39 123l297 -92q-12 -62 -43.5 -128t-66.5 -106zM403 389q0 -58 40 -90.5t106 -32.5q61 0 106 29l-217 190q-35 -44 -35 -96zM649 977q-32 0 -50.5 -17.5t-18.5 -46.5q0 -48 47 -90l43 -39q21 20 35 53t14 68q0 34 -18 53t-52 19z" />
    <glyph glyph-name="quotesingle" unicode="'" horiz-adv-x="616" 
d="M162 844v524h375l-134 -524h-241z" />
    <glyph glyph-name="parenleft" unicode="(" horiz-adv-x="833" 
d="M504 477q0 -84 11 -165.5t24 -143.5t43.5 -137.5t49 -118.5t62 -117t62 -103.5t67.5 -105.5h-403q-47 66 -78.5 115.5t-77 139t-73 175.5t-48 208t-20.5 253t20.5 253t48 208t73 175.5t77 139t78.5 115.5h403q-49 -76 -67.5 -105.5t-62 -103.5t-62 -117t-49 -118.5
t-43.5 -137.5t-24 -143.5t-11 -165.5z" />
    <glyph glyph-name="parenright" unicode=")" horiz-adv-x="833" 
d="M330 477q0 66 -7 130.5t-15 115.5t-28 112.5t-32 98.5t-42.5 97.5t-43.5 87t-50.5 88.5t-48.5 79t-53 82h404q47 -66 78.5 -115.5t77 -139t73 -175.5t48 -208t20.5 -253t-20.5 -253t-48 -208t-73 -175.5t-77 -139t-78.5 -115.5h-404q42 65 53 82t48.5 79t50.5 88.5
t43.5 87t42.5 97.5t32 98.5t28 112.5t15 115.5t7 130.5z" />
    <glyph glyph-name="asterisk" unicode="*" horiz-adv-x="921" 
d="M61 805l97 287l178 -84l-25 198h299l-24 -198l182 86l92 -285l-194 -39l139 -147l-246 -177l-94 175l-98 -177l-244 179l137 145z" />
    <glyph glyph-name="plus" unicode="+" horiz-adv-x="1019" 
d="M92 618h303v293h221v-293h312v-221h-312v-321h-221v321h-303v221z" />
    <glyph glyph-name="comma" unicode="," horiz-adv-x="606" 
d="M535 164q0 -203 -110.5 -304.5t-315.5 -101.5v164q174 17 174 109q-88 -5 -149.5 42.5t-61.5 153.5q0 100 65 157.5t156 57.5q115 0 178.5 -80.5t63.5 -197.5z" />
    <glyph glyph-name="hyphen" unicode="-" horiz-adv-x="770" 
d="M102 362v349h566v-349h-566z" />
    <glyph glyph-name="period" unicode="." horiz-adv-x="602" 
d="M72 213q0 97 64.5 163t164.5 66t164.5 -66t64.5 -163t-64.5 -163t-164.5 -66t-164.5 66t-64.5 163z" />
    <glyph glyph-name="slash" unicode="/" horiz-adv-x="989" 
d="M0 -416l557 1782h350l-561 -1782h-346z" />
    <glyph glyph-name="zero" unicode="0" horiz-adv-x="1138" 
d="M1098 492q0 -107 -36 -201t-102.5 -164.5t-167.5 -111t-223 -40.5t-223 40.5t-167 111t-102 164.5t-36 201q0 145 61.5 261.5t183 186.5t283.5 70t284 -70t183.5 -186.5t61.5 -261.5zM709 492q0 85 -36.5 131.5t-103.5 46.5t-103 -46.5t-36 -131.5q0 -83 36 -129t103 -46
t103.5 46.5t36.5 128.5z" />
    <glyph glyph-name="one" unicode="1" horiz-adv-x="733" 
d="M645 0h-420v586l-194 -21v353l614 77v-995z" />
    <glyph glyph-name="two" unicode="2" horiz-adv-x="1044" 
d="M983 332v-332h-911v289q235 57 356 137.5t121 155.5q0 33 -20 51t-50 18q-34 0 -55.5 -32.5t-22.5 -94.5l-358 127q24 169 144.5 264t326.5 95q212 0 325 -96t113 -255q0 -137 -78.5 -214.5t-207.5 -104.5v-8h317z" />
    <glyph glyph-name="three" unicode="3" horiz-adv-x="1026" 
d="M31 668q15 111 84.5 189.5t172.5 115.5t232 37q203 0 319.5 -96.5t116.5 -266.5q0 -114 -57 -186t-158 -96v-11q109 -26 166.5 -99t57.5 -185q0 -174 -135.5 -263.5t-362.5 -89.5q-387 0 -477 295l362 158q10 -77 39 -112t80 -35q36 0 60 20t24 57q0 76 -59 102.5
t-205 26.5v250q150 0 205 27.5t55 89.5q0 76 -76 76q-41 0 -62.5 -33.5t-21.5 -91.5z" />
    <glyph glyph-name="four" unicode="4" horiz-adv-x="1253" 
d="M639 -268v268h-608v299l618 672h393v-688h181v-283h-181v-268h-403zM489 283h150v123q0 30 2 67t4 59l2 21h-8q-10 -18 -82 -96l-80 -88q-26 -29 -48 -50t-31 -27l-9 -7v-9q41 7 100 7z" />
    <glyph glyph-name="five" unicode="5" horiz-adv-x="1048" 
d="M111 227l32 758h799v-342h-465l-8 -156q61 48 184 48q166 0 265.5 -101t99.5 -262q0 -119 -42 -208.5t-117 -141.5t-170.5 -77.5t-211.5 -25.5q-199 0 -330 79.5t-167 228.5l385 141q15 -135 124 -135q52 0 80.5 30t28.5 89q0 54 -23.5 84t-64.5 30q-52 0 -74 -39h-325z
" />
    <glyph glyph-name="six" unicode="6" horiz-adv-x="1091" 
d="M1024 1055l-244 -240q-46 82 -159 82q-96 0 -141.5 -66t-45.5 -184h10q24 62 87.5 93.5t150.5 31.5q166 0 267.5 -101t101.5 -263q0 -209 -131 -321t-345 -112q-246 0 -390 157t-144 433q0 167 45.5 296t126.5 209t186 120.5t230 40.5q137 0 238.5 -48t156.5 -128z
M469 395q0 -46 28 -75t74 -29t74.5 29t28.5 75t-28.5 75.5t-74.5 29.5q-45 0 -73.5 -29.5t-28.5 -75.5z" />
    <glyph glyph-name="seven" unicode="7" horiz-adv-x="1073" 
d="M608 653h-223v-133h-354v451h1001v-318l-424 -921h-438z" />
    <glyph glyph-name="eight" unicode="8" horiz-adv-x="1093" 
d="M547 -25q-249 0 -377.5 95t-128.5 252q0 109 62 189t167 103v9q-102 27 -149 97t-47 163q0 152 125 250t348 98t348 -98t125 -250q0 -93 -47.5 -162.5t-149.5 -97.5v-9q105 -23 167.5 -103t62.5 -189q0 -157 -128.5 -252t-377.5 -95zM444 375q-1 -46 28 -75.5t75 -29.5
q45 0 73.5 29.5t28.5 75.5t-28 75t-74 29t-74.5 -29t-28.5 -75zM457 850q0 -40 25 -66t65 -26q41 0 66.5 26t25.5 66q0 41 -25.5 67.5t-66.5 26.5q-40 0 -65 -26.5t-25 -67.5z" />
    <glyph glyph-name="nine" unicode="9" horiz-adv-x="1112" 
d="M41 -96l231 227q23 -42 73 -66t114 -24q209 0 209 262h-11q-61 -121 -235 -121q-171 0 -274 107.5t-103 281.5q0 207 133.5 323t349.5 116q250 0 396.5 -162.5t146.5 -450.5q0 -171 -45 -302t-127 -213t-193 -123.5t-247 -41.5q-143 0 -254.5 50.5t-163.5 136.5zM637 578
q0 47 -29.5 76.5t-75.5 29.5q-47 0 -75.5 -29.5t-28.5 -76.5q0 -48 28.5 -78.5t75.5 -30.5q46 0 75.5 31t29.5 78z" />
    <glyph glyph-name="colon" unicode=":" horiz-adv-x="602" 
d="M72 213q0 97 64.5 163t164.5 66t164.5 -66t64.5 -163t-64.5 -163t-164.5 -66t-164.5 66t-64.5 163zM72 741q0 97 64.5 163.5t164.5 66.5t164.5 -66.5t64.5 -163.5t-64.5 -163t-164.5 -66t-164.5 66t-64.5 163z" />
    <glyph glyph-name="semicolon" unicode=";" horiz-adv-x="612" 
d="M541 164q0 -203 -110.5 -304.5t-315.5 -101.5v164q174 17 174 109q-88 -5 -149.5 42.5t-61.5 153.5q0 100 65 157.5t156 57.5q115 0 178.5 -80.5t63.5 -197.5zM72 741q0 97 64.5 163.5t164.5 66.5t164.5 -66.5t64.5 -163.5t-64.5 -163t-164.5 -66t-164.5 66t-64.5 163z
" />
    <glyph glyph-name="less" unicode="&#x3c;" horiz-adv-x="862" 
d="M780 756l-303 -250l285 -246l-170 -199l-500 445l522 434z" />
    <glyph glyph-name="equal" unicode="=" horiz-adv-x="1019" 
d="M928 213h-836v223h836v-223zM928 571h-836v224h836v-224z" />
    <glyph glyph-name="greater" unicode="&#x3e;" horiz-adv-x="862" 
d="M395 506l-303 250l166 184l522 -434l-499 -445l-170 199z" />
    <glyph glyph-name="question" unicode="?" horiz-adv-x="1056" 
d="M291 166q0 92 61.5 145.5t155.5 53.5q98 0 159.5 -53t61.5 -146q0 -88 -62 -139.5t-159 -51.5q-93 0 -155 52t-62 139zM395 743l-375 101q24 186 156.5 286.5t341.5 100.5q84 0 156 -12t136 -40t109 -71.5t71 -109t26 -148.5q0 -82 -27 -144.5t-74.5 -100.5t-102.5 -60
t-122 -31v-86h-366v254h63q108 0 160.5 24t52.5 91q0 100 -100 100q-105 0 -105 -154z" />
    <glyph glyph-name="at" unicode="@" horiz-adv-x="1849" 
d="M1004 354v111q0 45 -22 70.5t-62 25.5q-84 0 -84 -151q0 -73 23.5 -111.5t62.5 -38.5q82 0 82 94zM1438 162q147 0 147 358q0 141 -48 251.5t-133.5 180.5t-198.5 106t-247 36q-138 0 -262 -47t-219.5 -134t-152 -222t-56.5 -300q0 -313 191.5 -489t531.5 -176
q114 0 200.5 15t211.5 54l35 -141q-207 -66 -449 -66q-224 1 -396 62t-278 170.5t-159.5 253.5t-53.5 319q0 183 65.5 339.5t179.5 264.5t272 169t339 61q187 0 338.5 -54t249 -147.5t149.5 -218t52 -268.5q0 -564 -422 -564q-223 0 -278 187q-26 -100 -92.5 -143.5
t-188.5 -43.5q-154 0 -247 113.5t-93 304.5q0 209 94 329t271 120q95 0 156 -38.5t102 -113.5l71 133h269v-592q0 -40 12.5 -54.5t36.5 -14.5z" />
    <glyph glyph-name="A" unicode="A" horiz-adv-x="1368" 
d="M926 0l-54 164h-397l-49 -164h-418l395 1206h560l397 -1206h-434zM776 477l-43 166l-59 236h-8q-19 -105 -54 -236l-43 -166h207z" />
    <glyph glyph-name="B" unicode="B" horiz-adv-x="1208" 
d="M915 623v-11q122 -18 187 -99t65 -194q0 -147 -108 -233t-322 -86h-635v1206h635q180 0 277.5 -85t97.5 -232q0 -111 -51.5 -178t-145.5 -88zM508 721h102q50 0 72.5 19t22.5 61q0 92 -91 92h-106v-172zM508 485v-170h135q53 0 74.5 19.5t21.5 62.5q0 88 -96 88h-135z
" />
    <glyph glyph-name="C" unicode="C" horiz-adv-x="1216" 
d="M487 596q0 -270 175 -270q74 0 111 39.5t48 123.5l396 -188q-70 -166 -207.5 -246t-358.5 -80q-273 0 -436.5 164t-163.5 459q0 305 159 469t464 164q205 0 350.5 -90t189.5 -244l-401 -166q-8 66 -44 107t-101 41q-181 0 -181 -283z" />
    <glyph glyph-name="D" unicode="D" horiz-adv-x="1302" 
d="M522 346h56q69 0 109.5 8.5t71 36.5t42.5 79.5t12 137.5q0 134 -51.5 193t-167.5 59h-72v-514zM612 0h-510v1206h547q138 0 246.5 -34.5t189 -105t123.5 -186.5t43 -272q0 -164 -43.5 -282.5t-128 -189.5t-199.5 -103.5t-268 -32.5z" />
    <glyph glyph-name="E" unicode="E" horiz-adv-x="1087" 
d="M1016 344v-344h-914v1206h906v-344h-502v-108h446v-301h-446v-109h510z" />
    <glyph glyph-name="F" unicode="F" horiz-adv-x="1013" 
d="M522 0h-420v1206h871v-360h-451v-164h387v-342h-387v-340z" />
    <glyph glyph-name="G" unicode="G" horiz-adv-x="1333" 
d="M682 678h565v-678h-280l-43 133q-79 -158 -332 -158q-91 0 -170.5 22t-148 70.5t-117.5 120.5t-77 176.5t-28 233.5q0 305 159 469t464 164q205 0 350.5 -90t189.5 -244l-401 -166q-8 66 -44 107t-101 41q-181 0 -181 -283q0 -144 44 -214.5t147 -70.5q71 0 109 26.5
t38 68.5v10h-143v262z" />
    <glyph glyph-name="H" unicode="H" horiz-adv-x="1335" 
d="M522 0h-420v1206h420v-413h291v413h420v-1206h-420v432h-291v-432z" />
    <glyph glyph-name="I" unicode="I" horiz-adv-x="624" 
d="M102 1206h420v-1206h-420v1206z" />
    <glyph glyph-name="J" unicode="J" horiz-adv-x="1079" 
d="M580 1206h417v-800q0 -115 -36.5 -199.5t-104.5 -134.5t-157.5 -73.5t-202.5 -23.5q-197 0 -328 89t-168 280l397 148q3 -173 101 -173q82 0 82 99v788z" />
    <glyph glyph-name="K" unicode="K" horiz-adv-x="1298" 
d="M1298 0h-487l-229 438h-60v-438h-420v1206h420v-420h66l217 420h463l-322 -581z" />
    <glyph glyph-name="L" unicode="L" horiz-adv-x="993" 
d="M102 1206h420v-846h420v-360h-840v1206z" />
    <glyph glyph-name="M" unicode="M" horiz-adv-x="1560" 
d="M893 219h-225l-70 148q-16 32 -34.5 77t-29.5 74l-10 29h-8q6 -102 6 -213v-334h-420v1206h457l125 -262q30 -63 53 -118.5t31 -79.5l8 -25h8q25 82 93 223l124 262h457v-1206h-420v334l6 213h-8q-38 -108 -73 -180z" />
    <glyph glyph-name="N" unicode="N" horiz-adv-x="1366" 
d="M471 1206l242 -354q36 -51 67.5 -100.5t45.5 -73.5l14 -23h8q-4 98 -4 213v338h420v-1206h-349l-258 354q-35 48 -67.5 97t-47.5 73l-16 25h-8q4 -94 4 -248v-301h-420v1206h369z" />
    <glyph glyph-name="O" unicode="O" horiz-adv-x="1318" 
d="M1268 602q0 -304 -159 -465.5t-450 -161.5t-449.5 161.5t-158.5 465.5q0 305 158.5 467t449.5 162t450 -162t159 -467zM829 602q0 140 -39 209.5t-131 69.5t-131 -69.5t-39 -209.5q0 -138 39 -207t131 -69t131 69t39 207z" />
    <glyph glyph-name="P" unicode="P" horiz-adv-x="1181" 
d="M522 854v-221h101q49 0 74.5 25t25.5 85q0 111 -100 111h-101zM522 0h-420v1206h572q477 0 477 -458q0 -219 -128.5 -335t-348.5 -116h-152v-297z" />
    <glyph glyph-name="Q" unicode="Q" horiz-adv-x="1318" 
d="M1268 602q0 -255 -122.5 -410.5t-338.5 -189.5q22 -31 75.5 -48t116.5 -17q69 0 123 16l-75 -359q-259 3 -394 101t-168 297q-209 43 -321.5 199.5t-112.5 410.5q0 305 158.5 467t449.5 162t450 -162t159 -467zM829 602q0 140 -39 209.5t-131 69.5t-131 -69.5t-39 -209.5
q0 -138 39 -207t131 -69t131 69t39 207z" />
    <glyph glyph-name="R" unicode="R" horiz-adv-x="1243" 
d="M1243 0h-461q-28 29 -41 60t-26 90l-21 94q-10 53 -34 73.5t-70 20.5h-76v-338h-412v1206h584q107 0 192.5 -20.5t152 -65t102.5 -121.5t36 -182q0 -271 -243 -313v-8q79 -12 122.5 -54t67.5 -125l45 -159q16 -58 33 -92t49 -66zM514 852v-197h123q102 0 102 101
q0 46 -26 71t-72 25h-127z" />
    <glyph glyph-name="S" unicode="S" horiz-adv-x="1112" 
d="M10 262l381 137q38 -104 137 -104q84 0 84 55q0 25 -21.5 40t-70.5 22q-260 40 -367.5 135t-107.5 266q0 92 27.5 164t74 119.5t113 78t139.5 43.5t158 13q428 0 498 -311l-404 -91q-13 86 -108 86q-72 0 -72 -51q0 -30 30 -46t103 -25q457 -55 457 -422
q0 -106 -42.5 -184t-119 -123.5t-172.5 -67t-213 -21.5q-197 0 -330.5 71t-173.5 216z" />
    <glyph glyph-name="T" unicode="T" horiz-adv-x="1099" 
d="M756 0h-420v846h-295v360h1018v-360h-303v-846z" />
    <glyph glyph-name="U" unicode="U" horiz-adv-x="1273" 
d="M637 -25q-555 0 -555 492v739h420v-696q0 -40 5 -71t19 -60.5t42 -45.5t69 -16t69 16t42 45.5t19 60.5t5 71v696h420v-739q0 -492 -555 -492z" />
    <glyph glyph-name="V" unicode="V" horiz-adv-x="1290" 
d="M449 1206l131 -442q25 -88 43.5 -172t24.5 -124l5 -40h9q14 139 65 336l117 442h438l-397 -1206h-477l-400 1206h441z" />
    <glyph glyph-name="W" unicode="W" horiz-adv-x="1839" 
d="M707 1206h434l76 -440q14 -78 24 -163.5t13 -132.5l3 -46h9q12 166 45 344l80 438h438l-275 -1206h-505l-78 332q-16 64 -30.5 145t-20.5 131l-7 49h-8q-18 -184 -47 -325l-67 -332h-506l-275 1206h447l80 -438q15 -78 26 -164t15 -133l4 -47h8q10 164 41 342z" />
    <glyph glyph-name="X" unicode="X" horiz-adv-x="1329" 
d="M670 342h-11q-18 -53 -94 -186l-90 -156h-465l350 604l-335 602h483l63 -125q30 -59 53 -114t30 -80l8 -25h12q16 86 84 219l63 125h484l-336 -602l350 -604h-465l-90 156q-34 59 -57.5 105.5t-30.5 63.5z" />
    <glyph glyph-name="Y" unicode="Y" horiz-adv-x="1314" 
d="M664 791h8q22 85 100 237l92 178h443l-441 -811v-395h-417v395l-441 811h457l92 -178q35 -68 61.5 -127t35.5 -85z" />
    <glyph glyph-name="Z" unicode="Z" horiz-adv-x="1159" 
d="M1071 879l-344 -379q-38 -42 -73.5 -77t-51.5 -49l-16 -14v-8q53 8 170 8h338v-360h-1022v334l323 366q37 43 71.5 79t49.5 51l16 14v8q-53 -6 -180 -6h-278v360h997v-327z" />
    <glyph glyph-name="bracketleft" unicode="[" horiz-adv-x="817" 
d="M528 1067v-1184h269v-299h-643v1784h643v-301h-269z" />
    <glyph glyph-name="backslash" unicode="\" horiz-adv-x="989" 
d="M436 1366l553 -1782h-344l-563 1782h354z" />
    <glyph glyph-name="bracketright" unicode="]" horiz-adv-x="817" 
d="M289 -117v1184h-269v301h644v-1784h-644v299h269z" />
    <glyph glyph-name="asciicircum" unicode="^" horiz-adv-x="1171" 
d="M377 1368h418l325 -711h-395l-80 201q-21 53 -34.5 97.5t-16.5 62.5l-4 18h-8q-9 -59 -56 -178l-80 -201h-395z" />
    <glyph glyph-name="underscore" unicode="_" horiz-adv-x="985" 
d="M102 -346v301h781v-301h-781z" />
    <glyph glyph-name="grave" unicode="`" 
d="M827 1055h-348l-282 319h497z" />
    <glyph glyph-name="a" unicode="a" horiz-adv-x="1091" 
d="M551 299v76q-12 2 -35 2q-98 0 -98 -78q0 -28 16.5 -44.5t46.5 -16.5q70 0 70 61zM961 625v-267q0 -27 9.5 -40t33.5 -13q25 0 57 19v-281q-80 -57 -209 -57q-203 0 -252 147q-20 -74 -88.5 -111.5t-173.5 -37.5q-147 0 -227 70.5t-80 197.5q0 137 101 212t278 75
q67 0 141 -9v107q0 53 -43 53q-51 0 -51 -108l-377 55q11 156 122.5 245t319.5 89q228 0 333.5 -92t105.5 -254z" />
    <glyph glyph-name="b" unicode="b" horiz-adv-x="1200" 
d="M502 492v-62q0 -73 29.5 -114.5t80.5 -41.5q69 0 97 50t28 153q0 91 -28.5 132.5t-87.5 41.5q-55 0 -87 -42t-32 -117zM479 145l-90 -145h-301v1368h414v-596q28 93 103 146t179 53q181 0 280 -126.5t99 -348.5q0 -255 -107 -388t-302 -133q-106 0 -176 45.5t-99 124.5z
" />
    <glyph glyph-name="c" unicode="c" horiz-adv-x="1009" 
d="M651 399l348 -118q-33 -150 -152 -228t-294 -78q-238 0 -377 132t-139 364q0 234 137 367t367 133q198 0 313 -92.5t129 -253.5l-340 -84q-3 64 -22 96.5t-68 32.5q-100 0 -100 -199q0 -103 25 -149t81 -46q37 0 61.5 30.5t30.5 92.5z" />
    <glyph glyph-name="d" unicode="d" horiz-adv-x="1200" 
d="M752 0l-54 164q-24 -91 -100 -140t-182 -49q-182 0 -280.5 129t-98.5 361q0 245 106.5 375.5t296.5 130.5q94 0 161.5 -38t96.5 -108v543h414v-1368h-360zM698 453v61q0 73 -29.5 114.5t-80.5 41.5q-69 0 -97 -50t-28 -153q0 -91 29 -132.5t88 -41.5q55 0 86.5 42
t31.5 118z" />
    <glyph glyph-name="e" unicode="e" horiz-adv-x="1019" 
d="M539 281q91 0 116 96l322 -127q-49 -135 -170.5 -205t-274.5 -70q-226 0 -360.5 129t-134.5 353q0 247 132.5 379.5t375.5 132.5q217 0 327.5 -121t110.5 -322q0 -55 -14 -116h-533q0 -64 27 -96.5t76 -32.5zM444 557h156q6 12 6 43q0 33 -17 56.5t-54 23.5
q-40 0 -64 -33.5t-27 -89.5z" />
    <glyph glyph-name="f" unicode="f" horiz-adv-x="757" 
d="M123 643h-113v303h117v12q0 211 108.5 319.5t313.5 108.5q182 0 309 -86l-100 -278q-53 47 -129 47q-88 0 -88 -90v-33h207v-303h-211v-643h-414v643z" />
    <glyph glyph-name="g" unicode="g" horiz-adv-x="1060" 
d="M512 971q148 0 268 -47q36 50 39 157l283 -98q-7 -77 -62 -121t-125 -51q62 -80 62 -174q0 -83 -36 -145t-101 -99.5t-147 -55.5t-181 -18q-82 0 -123 13q-35 -6 -35 -37t43 -31h289q184 0 282.5 -89.5t98.5 -246.5q0 -82 -32 -145t-84.5 -103t-128 -66t-156 -36
t-174.5 -10q-482 0 -482 213q0 77 48.5 117t144.5 51q-76 18 -121 73.5t-45 137.5q0 86 54.5 143.5t146.5 69.5q-84 30 -134.5 96t-50.5 168q0 163 123.5 248.5t335.5 85.5zM313 -150q0 -35 40.5 -50t138.5 -15q107 0 155.5 15.5t48.5 49.5q0 23 -21 31t-63 8h-237
q-62 0 -62 -39zM440 641q0 -46 18 -74t54 -28q35 0 53.5 27t18.5 75q0 102 -72 102t-72 -102z" />
    <glyph glyph-name="h" unicode="h" horiz-adv-x="1165" 
d="M502 1368v-604q34 103 113 155t184 52q125 0 204.5 -77t79.5 -232v-662h-413v510q0 61 -16.5 90t-59.5 29q-41 0 -66.5 -35t-25.5 -111v-483h-414v1368h414z" />
    <glyph glyph-name="i" unicode="i" horiz-adv-x="589" 
d="M88 946h414v-946h-414v946zM61 1214q0 100 68.5 155.5t165.5 55.5t165 -55.5t68 -155.5t-68 -155t-165 -55q-98 0 -166 55t-68 155z" />
    <glyph glyph-name="j" unicode="j" horiz-adv-x="589" 
d="M502 946v-921q0 -126 -34 -214t-100 -138t-150.5 -71.5t-197.5 -21.5q-118 0 -174 25v338q67 -31 129 -31t87.5 26.5t25.5 102.5v905h414zM61 1214q0 100 68.5 155.5t165.5 55.5t165 -55.5t68 -155.5t-68 -155t-165 -55q-98 0 -166 55t-68 155z" />
    <glyph glyph-name="k" unicode="k" horiz-adv-x="1175" 
d="M913 508l263 -508h-463l-164 350h-47v-350h-414v1368h414v-715h47l125 293h463z" />
    <glyph glyph-name="l" unicode="l" horiz-adv-x="632" 
d="M612 342l-14 -307q-72 -53 -225 -53q-58 0 -109.5 15t-97 48t-72 93.5t-26.5 142.5v1087h413v-969q0 -77 56 -77q36 0 75 20z" />
    <glyph glyph-name="m" unicode="m" horiz-adv-x="1677" 
d="M1032 754q24 100 104 158.5t183 58.5q127 0 201.5 -76t74.5 -233v-662h-413v516q0 60 -14 86.5t-50 26.5t-52.5 -34.5t-16.5 -111.5v-483h-414v516q0 60 -14 86.5t-50 26.5t-52.5 -34.5t-16.5 -111.5v-483h-414v946h365l51 -178q24 100 94.5 151.5t173.5 51.5
q219 0 260 -217z" />
    <glyph glyph-name="n" unicode="n" horiz-adv-x="1165" 
d="M453 946l51 -182q28 102 108.5 154.5t186.5 52.5q125 0 204.5 -77t79.5 -232v-662h-413v510q0 61 -16.5 90t-59.5 29q-41 0 -66.5 -35t-25.5 -111v-483h-414v946h365z" />
    <glyph glyph-name="o" unicode="o" horiz-adv-x="1114" 
d="M37 473q0 238 141 368t379 130t379 -130t141 -368t-141 -368t-379 -130t-379 130t-141 368zM662 473q0 102 -24.5 149.5t-80.5 47.5t-80 -47.5t-24 -149.5t24 -149.5t80 -47.5t80.5 47.5t24.5 149.5z" />
    <glyph glyph-name="p" unicode="p" horiz-adv-x="1200" 
d="M502 485v-61q0 -73 29.5 -114.5t80.5 -41.5q69 0 97 50t28 153q0 91 -28.5 132.5t-87.5 41.5q-55 0 -87 -42t-32 -118zM502 111v-527h-414v1362h367l47 -174q28 93 103 146t179 53q181 0 280 -126.5t99 -348.5q0 -255 -107 -388t-302 -133q-90 0 -159.5 37.5t-92.5 98.5z
" />
    <glyph glyph-name="q" unicode="q" horiz-adv-x="1196" 
d="M727 801l57 145h324v-1362h-410v580q-24 -91 -100 -140t-182 -49q-182 0 -280.5 129t-98.5 361q0 245 109 375.5t307 130.5q100 0 172 -46.5t102 -123.5zM698 453v61q0 73 -29.5 114.5t-80.5 41.5q-69 0 -97 -50t-28 -153q0 -91 29 -132.5t88 -41.5q55 0 86.5 42
t31.5 118z" />
    <glyph glyph-name="r" unicode="r" horiz-adv-x="884" 
d="M885 958l-56 -471q-33 23 -81.5 38.5t-92.5 15.5q-66 0 -109.5 -39t-43.5 -125v-377h-414v946h365l41 -268q13 123 93 205t214 82q37 0 84 -7z" />
    <glyph glyph-name="s" unicode="s" horiz-adv-x="952" 
d="M14 213l359 80q3 -72 71 -72q66 0 66 45q0 46 -66 51l-96 9q-155 14 -236 91.5t-81 213.5q0 91 34.5 158t97 106t140.5 57.5t172 18.5q182 0 293 -70t137 -207l-358 -35q0 70 -70 70q-61 0 -61 -45q0 -41 61 -47l103 -8q170 -13 250.5 -97.5t80.5 -220.5
q0 -336 -467 -336q-77 0 -142.5 11t-127 37t-103.5 74t-57 116z" />
    <glyph glyph-name="t" unicode="t" horiz-adv-x="833" 
d="M741 389l68 -315q-57 -47 -144 -73t-188 -26q-179 0 -265.5 87.5t-86.5 277.5v303h-113v303h117v201l397 45v-246h228v-303h-230v-223q0 -48 19 -71t61 -23q82 0 137 63z" />
    <glyph glyph-name="u" unicode="u" horiz-adv-x="1153" 
d="M707 0l-52 172q-15 -94 -84.5 -145.5t-191.5 -51.5q-141 0 -221 81t-80 241v649h414v-561q0 -53 15 -79.5t50 -26.5q52 0 73 40.5t21 135.5v491h414v-946h-358z" />
    <glyph glyph-name="v" unicode="v" horiz-adv-x="1132" 
d="M344 0l-336 946h430l84 -319q14 -52 26.5 -113.5t18.5 -97.5l6 -35h9q16 127 51 242l98 323h393l-336 -946h-444z" />
    <glyph glyph-name="w" unicode="w" horiz-adv-x="1597" 
d="M618 946h361l57 -315q10 -53 17.5 -122.5t9.5 -112.5l2 -44h8q6 160 33 279l70 315h413l-252 -946h-463l-40 211q-9 46 -18 112.5t-14 110.5l-5 43h-9q-16 -162 -36 -266l-41 -211h-451l-252 946h414l70 -315q12 -53 20.5 -122.5t11.5 -112.5l2 -44h9q3 160 26 279z" />
    <glyph glyph-name="x" unicode="x" horiz-adv-x="1150" 
d="M578 297h-9q-16 -72 -67 -178l-58 -119h-436l236 481l-221 465h450l53 -143q16 -42 27 -83t15 -61l3 -20h9q10 70 45 164l53 143h450l-223 -465l238 -481h-436l-58 119q-23 47 -40.5 91.5t-24.5 65.5z" />
    <glyph glyph-name="y" unicode="y" horiz-adv-x="1140" 
d="M338 -39l-330 985h441l88 -358q12 -48 21.5 -114t13.5 -108l3 -42h9q16 149 47 260l98 362h404l-310 -893q-81 -250 -215.5 -364.5t-326.5 -114.5q-157 0 -254 55l82 299q49 -43 118 -43q80 0 111 76z" />
    <glyph glyph-name="z" unicode="z" horiz-adv-x="993" 
d="M913 680l-233 -254q-36 -38 -65.5 -68.5t-41.5 -41.5l-12 -11v-8q31 8 111 8h260v-305h-871v262l213 242q37 43 69.5 77t46.5 47l13 13v8q-59 -6 -137 -6h-196v303h843v-266z" />
    <glyph glyph-name="braceleft" unicode="{" horiz-adv-x="907" 
d="M41 332v291h84q74 0 97.5 34t23.5 123v215q0 81 19 147t59.5 117.5t109.5 80t162 28.5q99 0 166.5 -24.5t134.5 -71.5l-66 -258q-61 41 -124 41q-84 0 -84 -109v-190q0 -74 -23.5 -129t-64.5 -85t-87 -44.5t-100 -16.5v-8q42 -1 80 -10t74.5 -29t62.5 -50t42 -77.5
t16 -107.5v-191q0 -108 84 -108q63 0 124 41l66 -258q-68 -48 -135.5 -72.5t-165.5 -24.5q-93 0 -162 28.5t-109.5 80t-59.5 117.5t-19 147v215q0 89 -24 123.5t-97 34.5h-84z" />
    <glyph glyph-name="bar" unicode="|" horiz-adv-x="735" 
d="M530 -416h-325v1782h325v-1782z" />
    <glyph glyph-name="braceright" unicode="}" horiz-adv-x="907" 
d="M866 623v-291h-84q-73 0 -96.5 -34.5t-23.5 -123.5v-215q0 -81 -19.5 -147t-59.5 -117.5t-109.5 -80t-162.5 -28.5q-98 0 -165.5 24.5t-135.5 72.5l66 258q61 -41 125 -41q84 0 84 108v191q0 74 23.5 129t64.5 85t86.5 44t99.5 16v8q-54 2 -100 16.5t-86.5 44.5t-64 85
t-23.5 129v190q0 109 -84 109q-64 0 -125 -41l-66 258q67 47 134.5 71.5t166.5 24.5q93 0 162.5 -28.5t109.5 -80t59.5 -117.5t19.5 -147v-215q0 -89 23.5 -123t96.5 -34h84z" />
    <glyph glyph-name="asciitilde" unicode="~" horiz-adv-x="1087" 
d="M551 457q-52 37 -77.5 50t-49.5 13q-70 0 -70 -129h-237q-25 98 -25 166q0 129 73.5 208t196.5 79q55 0 91.5 -14t83.5 -48q52 -37 77.5 -50t49.5 -13q35 0 52 30t17 99h238q24 -94 24 -166q0 -129 -73.5 -208t-196.5 -79q-55 0 -91 14t-83 48z" />
    <glyph glyph-name="nbspace" unicode="&#xa0;" horiz-adv-x="313" 
 />
    <glyph glyph-name="exclamdown" unicode="&#xa1;" horiz-adv-x="647" 
d="M586 -246h-525l107 778h311zM539 795q0 -92 -61.5 -145.5t-155.5 -53.5q-98 0 -160 53t-62 146q0 87 62.5 138.5t159.5 51.5q93 0 155 -51.5t62 -138.5z" />
    <glyph glyph-name="cent" unicode="&#xa2;" horiz-adv-x="1101" 
d="M496 -193v173q-209 24 -329 157t-120 352q0 227 120 361t329 156v172h172v-174q162 -17 260.5 -98t124.5 -224l-361 -119q0 129 -102 129q-66 0 -94.5 -50t-28.5 -153t31 -149.5t94 -46.5q41 0 73 31t35 92l361 -135q-37 -134 -139.5 -210t-253.5 -91v-173h-172z" />
    <glyph glyph-name="sterling" unicode="&#xa3;" horiz-adv-x="1075" 
d="M102 399v138h109q-37 83 -37 165q0 140 106.5 224t294.5 84q151 0 250 -64t131 -182l-262 -166q-12 49 -33 72.5t-67 23.5q-34 0 -53 -20t-19 -51q0 -38 27 -86h186v-138h-164q-18 -76 -94 -100h260q56 0 87 18t46 60l205 -182q-33 -93 -108.5 -144t-188.5 -51h-676v299
h62q52 0 71 21.5t19 62.5q0 2 -1 7.5t-1 8.5h-150z" />
    <glyph glyph-name="currency" unicode="&#xa4;" horiz-adv-x="952" 
d="M178 989l96 -98q82 49 201 49t201 -49l98 98l96 -96l-98 -98q53 -80 53 -201q0 -118 -51 -203l96 -94l-96 -96l-94 94q-86 -53 -205 -53q-125 0 -205 51l-92 -92l-96 96l92 92q-51 85 -51 205q0 123 53 203l-94 96zM475 729q-36 0 -49.5 -31.5t-13.5 -103.5
q0 -68 14 -99.5t49 -31.5q34 0 49 32t15 99q0 70 -14.5 102.5t-49.5 32.5z" />
    <glyph glyph-name="yen" unicode="&#xa5;" horiz-adv-x="1302" 
d="M123 483v121h141l-223 381h459l88 -164q20 -37 36 -78t22 -63l7 -23h9q20 80 65 164l88 164h447l-224 -381h142v-121h-213l-62 -106h275v-121h-322v-256h-414v256h-321v121h274l-63 106h-211z" />
    <glyph glyph-name="brokenbar" unicode="&#xa6;" horiz-adv-x="724" 
d="M520 569h-315v797h315v-797zM520 -412h-315v793h315v-793z" />
    <glyph glyph-name="section" unicode="&#xa7;" horiz-adv-x="1040" 
d="M547 561l-131 33q-15 -18 -15 -39q0 -25 16 -41.5t56 -26.5l129 -34q16 19 16 41q0 25 -15.5 41t-55.5 26zM942 143q0 -86 -35 -150t-97 -101.5t-140 -55.5t-172 -18q-182 0 -293 70t-137 206l358 35q0 -70 70 -70q61 0 61 45q0 20 -14 30t-47 18l-142 34
q-144 36 -218.5 99.5t-74.5 173.5q0 160 142 219q-55 28 -90 91.5t-35 135.5q0 86 35 150t97 102t140 56t172 18q182 0 293 -70t137 -207l-358 -34q0 69 -70 69q-61 0 -61 -45q0 -20 13.5 -29.5t47.5 -17.5l142 -35q144 -36 218 -99t74 -173q0 -160 -141 -219q55 -28 90 -92
t35 -136z" />
    <glyph glyph-name="dieresis" unicode="&#xa8;" 
d="M82 1208q0 93 60 145t145 52t145 -52t60 -145q0 -92 -60 -143t-145 -51t-145 51t-60 143zM532 1208q0 93 60 145t145 52t145 -52t60 -145q0 -92 -60 -143t-145 -51t-145 51t-60 143z" />
    <glyph glyph-name="copyright" unicode="&#xa9;" horiz-adv-x="1439" 
d="M92 602q0 179 84.5 323.5t227.5 225t315 80.5q128 0 244 -47.5t200.5 -129.5t134.5 -200t50 -252t-50 -251.5t-134.5 -199.5t-200.5 -129t-244 -47t-243.5 47t-200 129t-134 199.5t-49.5 251.5zM156 602q0 -164 77.5 -295t207 -201.5t284.5 -70.5q114 0 217 42t179 115
t120.5 180t44.5 230q0 122 -44.5 228.5t-120.5 181t-179 117t-217 42.5q-115 0 -219.5 -42.5t-181.5 -117t-122.5 -181t-45.5 -228.5zM737 762q-51 0 -73.5 -40t-22.5 -120q0 -81 24.5 -117t73.5 -36q33 0 58 24.5t26 71.5l283 -105q-33 -119 -131.5 -179t-241.5 -60
q-194 0 -307 106t-113 295q0 195 111.5 301.5t302.5 106.5q158 0 254 -64.5t119 -191.5l-283 -92q0 100 -80 100z" />
    <glyph glyph-name="ordfeminine" unicode="&#xaa;" horiz-adv-x="790" 
d="M383 776v72q-84 0 -84 -70q0 -43 43 -43q15 0 28 10t13 31zM680 1001v-178q0 -35 29 -35q19 0 41 11v-183q-63 -36 -158 -36q-74 0 -115.5 19t-68.5 67q-16 -40 -59 -65.5t-111 -25.5q-100 0 -153.5 45.5t-53.5 127.5q0 49 21 85t53.5 56t82 32t94 15.5t101.5 3.5v55
q0 43 -29 43q-43 0 -43 -65l-250 37q8 103 89 162t231 59q140 0 219.5 -58.5t79.5 -171.5z" />
    <glyph glyph-name="guillemotleft" unicode="&#xab;" horiz-adv-x="1271" 
d="M41 492l448 432l193 -195l-125 -129q-37 -38 -68 -64t-43 -33l-12 -7v-9q39 -18 123 -106l125 -127l-193 -195zM549 492l448 432l193 -195l-125 -129q-37 -38 -68 -64t-43 -33l-12 -7v-9q39 -18 123 -106l125 -127l-193 -195z" />
    <glyph glyph-name="logicalnot" unicode="&#xac;" horiz-adv-x="1054" 
d="M707 422h-596v223h835v-405h-239v182z" />
    <glyph glyph-name="uni00AD" unicode="&#xad;" horiz-adv-x="663" 
d="M102 362v349h459v-349h-459z" />
    <glyph glyph-name="registered" unicode="&#xae;" horiz-adv-x="1439" 
d="M92 602q0 179 84.5 323.5t227.5 225t315 80.5q128 0 244 -47.5t200.5 -129.5t134.5 -200t50 -252t-50 -251.5t-134.5 -199.5t-200.5 -129t-244 -47t-243.5 47t-200 129t-134 199.5t-49.5 251.5zM156 602q0 -164 77.5 -295t207 -201.5t284.5 -70.5q114 0 217 42t179 115
t120.5 180t44.5 230q0 122 -44.5 228.5t-120.5 181t-179 117t-217 42.5q-115 0 -219.5 -42.5t-181.5 -117t-122.5 -181t-45.5 -228.5zM1153 248h-330q-29 19 -59 96l-27 66q-9 25 -20.5 35t-32.5 10h-14v-207h-312v739h416q157 0 235 -65.5t78 -182.5q0 -89 -45 -139.5
t-114 -56.5v-8q52 -7 78 -29t47 -72l45 -102q23 -52 55 -84zM670 762v-119h53q63 0 63 59q0 60 -63 60h-53z" />
    <glyph glyph-name="macron" unicode="&#xaf;" 
d="M864 1055h-706v288h706v-288z" />
    <glyph glyph-name="degree" unicode="&#xb0;" horiz-adv-x="673" 
d="M41 944q0 134 83.5 210.5t211.5 76.5t212.5 -76.5t84.5 -210.5q0 -133 -84.5 -209t-212.5 -76t-211.5 75.5t-83.5 209.5zM250 944q0 -43 24.5 -68.5t61.5 -25.5q38 0 63 25.5t25 68.5t-25 68.5t-63 25.5q-37 0 -61.5 -25.5t-24.5 -68.5z" />
    <glyph glyph-name="plusminus" unicode="&#xb1;" horiz-adv-x="1019" 
d="M92 801h303v217h221v-217h312v-223h-312v-248h-221v248h-303v223zM928 -10h-836v223h836v-223z" />
    <glyph glyph-name="twosuperior" unicode="&#xb2;" horiz-adv-x="751" 
d="M690 707v-224h-627v189q167 62 255 128t88 130q0 61 -58 61q-65 0 -65 -104l-242 67q34 269 334 269q142 0 228.5 -69t86.5 -187q0 -108 -76 -173.5t-188 -78.5v-8h264z" />
    <glyph glyph-name="threesuperior" unicode="&#xb3;" horiz-adv-x="718" 
d="M279 946l-222 76q18 94 101 147.5t202 53.5q129 0 206 -57.5t77 -157.5q0 -69 -43 -108.5t-113 -49.5v-8q74 -6 119 -53t45 -123q0 -95 -85 -146t-214 -51q-125 0 -211.5 43.5t-113.5 124.5l231 104q11 -73 70 -73q21 0 34 11t13 32q0 29 -25.5 46t-97.5 17v133
q76 1 100.5 15t24.5 49q0 19 -12 31t-33 12q-53 0 -53 -68z" />
    <glyph glyph-name="acute" unicode="&#xb4;" 
d="M545 1055h-348l133 319h497z" />
    <glyph glyph-name="mu" unicode="&#xb5;" horiz-adv-x="1153" 
d="M707 0l-52 172q-11 -65 -57 -118t-106 -60v-410h-414v1362h414v-561q0 -53 15 -79.5t50 -26.5q52 0 73 40.5t21 135.5v491h414v-946h-358z" />
    <glyph glyph-name="paragraph" unicode="&#xb6;" horiz-adv-x="1261" 
d="M1018 864v-825q0 -100 -29.5 -174t-82 -116.5t-116.5 -62.5t-141 -20q-102 0 -169.5 19.5t-127.5 56.5l64 285q50 -41 121 -41q96 0 96 120v250h-103q-97 0 -180.5 25.5t-148.5 74.5t-102.5 129.5t-37.5 182.5q0 438 480 438h639v-342h-162z" />
    <glyph glyph-name="periodcentered" unicode="&#xb7;" horiz-adv-x="602" 
d="M72 520q0 97 64.5 163.5t164.5 66.5t164.5 -66.5t64.5 -163.5t-64.5 -163t-164.5 -66t-164.5 66t-64.5 163z" />
    <glyph glyph-name="periodcentered" unicode="&#x22c5;" horiz-adv-x="602" 
d="M72 520q0 97 64.5 163.5t164.5 66.5t164.5 -66.5t64.5 -163.5t-64.5 -163t-164.5 -66t-164.5 66t-64.5 163z" />
    <glyph glyph-name="cedilla" unicode="&#xb8;" 
d="M764 -238q0 -92 -68 -143t-184 -51q-161 0 -252 72l55 155q59 -49 123 -49q54 0 54 41q0 51 -82 51l34 230h125l-14 -129q93 0 151 -45t58 -132z" />
    <glyph glyph-name="onesuperior" unicode="&#xb9;" horiz-adv-x="661" 
d="M627 483h-566v205h156v275l-151 -11v215l423 45v-524h138v-205z" />
    <glyph glyph-name="ordmasculine" unicode="&#xba;" horiz-adv-x="827" 
d="M346 901q0 -75 16 -110t52 -35t51.5 35t15.5 110t-15.5 110.5t-51.5 35.5t-52 -35.5t-16 -110.5zM51 901q0 157 98.5 243.5t264.5 86.5t264 -86.5t98 -243.5t-98 -243.5t-264 -86.5t-264.5 86.5t-98.5 243.5z" />
    <glyph glyph-name="guillemotright" unicode="&#xbb;" horiz-adv-x="1271" 
d="M782 924l449 -432l-449 -433l-192 195l125 127q37 39 68 65.5t43 33.5l12 7v9q-39 18 -123 104l-125 129zM274 924l449 -432l-449 -433l-192 195l125 127q37 39 68 65.5t43 33.5l12 7v9q-39 18 -123 104l-125 129z" />
    <glyph glyph-name="onequarter" unicode="&#xbc;" horiz-adv-x="1685" 
d="M627 483h-566v199h148v274l-143 -10v221l428 45v-530h133v-199zM401 0l664 1204h225l-676 -1204h-213zM1266 0v115h-351v190l334 418h301v-420h95v-188h-95v-115h-284zM1194 299h76v111q0 24 2 50.5t4 41.5l2 14h-8q-19 -43 -60 -96l-47 -60q-12 -16 -26.5 -30.5
t-22.5 -21.5l-8 -7v-8q33 6 88 6z" />
    <glyph glyph-name="onehalf" unicode="&#xbd;" horiz-adv-x="1714" 
d="M401 0l664 1204h225l-676 -1204h-213zM1653 223v-223h-627v188q166 62 254 128t88 130q0 62 -57 62q-66 0 -66 -105l-241 68q34 268 333 268q142 0 229 -69.5t87 -186.5q0 -108 -76 -173.5t-188 -78.5v-8h264zM627 483h-566v205h156v275l-151 -11v215l423 45v-524h138
v-205z" />
    <glyph glyph-name="threequarters" unicode="&#xbe;" horiz-adv-x="1701" 
d="M418 0l663 1204h226l-676 -1204h-213zM1282 0v115h-350v190l334 418h301v-420h94v-188h-94v-115h-285zM1210 299h76v111q0 24 2 50.5t4 41.5l2 14h-8q-18 -43 -59 -96l-47 -60q-12 -16 -26.5 -30.5t-23.5 -21.5l-8 -7v-8q33 6 88 6zM279 946l-222 76q18 94 101 147.5
t202 53.5q129 0 206 -57.5t77 -157.5q0 -69 -43 -108.5t-113 -49.5v-8q74 -6 119 -53t45 -123q0 -95 -85 -146t-214 -51q-125 0 -211.5 43.5t-113.5 124.5l231 104q11 -73 70 -73q21 0 34 11t13 32q0 29 -25.5 46t-97.5 17v133q76 1 100.5 15t24.5 49q0 19 -12 31t-33 12
q-53 0 -53 -68z" />
    <glyph glyph-name="questiondown" unicode="&#xbf;" horiz-adv-x="1056" 
d="M766 780q0 -92 -61.5 -145t-155.5 -53q-98 0 -159.5 52.5t-61.5 145.5q0 88 62 139.5t159 51.5q93 0 155 -52t62 -139zM662 203l374 -101q-24 -186 -156 -286.5t-341 -100.5q-84 0 -156 12t-136 40t-109 71.5t-71 109t-26 148.5q0 82 27 144.5t74.5 100.5t102.5 60
t122 31v86h366v-254h-63q-109 0 -161 -23.5t-52 -90.5q0 -101 100 -101q105 0 105 154z" />
    <glyph glyph-name="Agrave" unicode="&#xc0;" horiz-adv-x="1368" 
d="M926 0l-54 164h-397l-49 -164h-418l395 1206h560l397 -1206h-434zM776 477l-43 166l-59 236h-8q-19 -105 -54 -236l-43 -166h207zM860 1284h-348l-283 320h498z" />
    <glyph glyph-name="Aacute" unicode="&#xc1;" horiz-adv-x="1368" 
d="M926 0l-54 164h-397l-49 -164h-418l395 1206h560l397 -1206h-434zM776 477l-43 166l-59 236h-8q-19 -105 -54 -236l-43 -166h207zM840 1284h-348l133 320h497z" />
    <glyph glyph-name="Acircumflex" unicode="&#xc2;" horiz-adv-x="1368" 
d="M926 0l-54 164h-397l-49 -164h-418l395 1206h560l397 -1206h-434zM776 477l-43 166l-59 236h-8q-19 -105 -54 -236l-43 -166h207zM547 1618h276l324 -334h-367l-51 66q-16 20 -25.5 38t-11.5 26l-2 7h-10q-4 -26 -39 -71l-51 -66h-367z" />
    <glyph glyph-name="Atilde" unicode="&#xc3;" horiz-adv-x="1368" 
d="M926 0l-54 164h-397l-49 -164h-418l395 1206h560l397 -1206h-434zM776 477l-43 166l-59 236h-8q-19 -105 -54 -236l-43 -166h207zM295 1427q0 106 59 166t154 60q50 0 84.5 -12.5t83.5 -41.5q44 -26 64 -34.5t40 -8.5q68 0 68 91h205q20 -78 20 -144q0 -106 -59 -165.5
t-154 -59.5q-50 0 -85 12.5t-83 40.5q-44 26 -64 34.5t-40 8.5q-68 0 -68 -90h-205q-20 78 -20 143z" />
    <glyph glyph-name="Adieresis" unicode="&#xc4;" horiz-adv-x="1368" 
d="M926 0l-54 164h-397l-49 -164h-418l395 1206h560l397 -1206h-434zM776 477l-43 166l-59 236h-8q-19 -105 -54 -236l-43 -166h207zM254 1464q0 93 60 145t145 52t145 -52t60 -145q0 -92 -60 -143t-145 -51t-145 51t-60 143zM705 1464q0 93 59.5 145t144.5 52t145 -52
t60 -145q0 -92 -60 -143t-145 -51t-144.5 51t-59.5 143z" />
    <glyph glyph-name="Aring" unicode="&#xc5;" horiz-adv-x="1368" 
d="M926 0l-54 164h-397l-49 -164h-418l395 1206h560l397 -1206h-434zM776 477l-43 166l-59 236h-8q-19 -105 -54 -236l-43 -166h207zM684 1272q-121 0 -188.5 68.5t-67.5 175.5q0 100 71 168.5t185 68.5t185 -68.5t71 -168.5q0 -107 -67.5 -175.5t-188.5 -68.5zM684 1599
q-38 0 -59 -23t-21 -60q0 -36 21 -60t59 -24q37 0 57.5 24t20.5 60q0 37 -21 60t-57 23z" />
    <glyph glyph-name="AE" unicode="&#xc6;" horiz-adv-x="1912" 
d="M942 164h-414l-88 -164h-432l688 1206h1137v-344h-494v-108h439v-301h-439v-109h502v-344h-899v164zM946 930l-248 -453h244v176q0 46 3 115.5t6 115.5l3 46h-8z" />
    <glyph glyph-name="Ccedilla" unicode="&#xc7;" horiz-adv-x="1216" 
d="M911 -238q0 -92 -68 -143t-184 -51q-160 0 -251 72l55 155q59 -49 123 -49q53 0 53 41q0 51 -82 51l21 142q-242 22 -384.5 182.5t-142.5 435.5q0 305 159 469t464 164q205 0 350.5 -90t189.5 -244l-401 -166q-8 66 -44 107t-101 41q-181 0 -181 -283q0 -270 175 -270
q74 0 111 39.5t48 123.5l396 -188q-65 -155 -189.5 -235t-320.5 -89l-5 -38q93 0 151 -45t58 -132z" />
    <glyph glyph-name="Egrave" unicode="&#xc8;" horiz-adv-x="1087" 
d="M1016 344v-344h-914v1206h906v-344h-502v-108h446v-301h-446v-109h510zM735 1284h-348l-283 320h498z" />
    <glyph glyph-name="Eacute" unicode="&#xc9;" horiz-adv-x="1087" 
d="M1016 344v-344h-914v1206h906v-344h-502v-108h446v-301h-446v-109h510zM715 1284h-348l133 320h497z" />
    <glyph glyph-name="Ecircumflex" unicode="&#xca;" horiz-adv-x="1087" 
d="M1016 344v-344h-914v1206h906v-344h-502v-108h446v-301h-446v-109h510zM422 1618h276l324 -334h-367l-51 66q-16 20 -25.5 38t-11.5 26l-2 7h-10q-4 -26 -39 -71l-51 -66h-367z" />
    <glyph glyph-name="Edieresis" unicode="&#xcb;" horiz-adv-x="1087" 
d="M1016 344v-344h-914v1206h906v-344h-502v-108h446v-301h-446v-109h510zM129 1464q0 93 60 145t145 52t145 -52t60 -145q0 -92 -60 -143t-145 -51t-145 51t-60 143zM580 1464q0 93 59.5 145t144.5 52t145 -52t60 -145q0 -92 -60 -143t-145 -51t-144.5 51t-59.5 143z" />
    <glyph glyph-name="Igrave" unicode="&#xcc;" horiz-adv-x="624" 
d="M102 1206h420v-1206h-420v1206zM487 1284h-348l-282 320h497z" />
    <glyph glyph-name="Iacute" unicode="&#xcd;" horiz-adv-x="624" 
d="M102 1206h420v-1206h-420v1206zM467 1284h-348l133 320h498z" />
    <glyph glyph-name="Icircumflex" unicode="&#xce;" horiz-adv-x="624" 
d="M102 1206h420v-1206h-420v1206zM174 1618h277l323 -334h-366l-52 66q-16 20 -25.5 37.5t-11.5 25.5l-2 8h-10q-4 -26 -39 -71l-51 -66h-367z" />
    <glyph glyph-name="Idieresis" unicode="&#xcf;" horiz-adv-x="624" 
d="M102 1206h420v-1206h-420v1206zM-119 1464q0 93 60 145t145 52t145 -52t60 -145q0 -92 -60 -143t-145 -51t-145 51t-60 143zM332 1464q0 93 60 145t145 52t144.5 -52t59.5 -145q0 -92 -59.5 -143t-144.5 -51t-145 51t-60 143z" />
    <glyph glyph-name="Eth" unicode="&#xd0;" horiz-adv-x="1300" 
d="M10 459v293h117v454h520q138 0 246.5 -34.5t189 -105t123.5 -186.5t43 -272q0 -164 -43.5 -282.5t-128 -189.5t-199.5 -103.5t-268 -32.5h-483v459h-117zM520 346h55q69 0 109.5 8.5t71.5 36.5t43 79.5t12 137.5q0 134 -51.5 193t-167.5 59h-72v-108h144v-293h-144v-113z
" />
    <glyph glyph-name="Ntilde" unicode="&#xd1;" horiz-adv-x="1366" 
d="M471 1206l242 -354q36 -51 67.5 -100.5t45.5 -73.5l14 -23h8q-4 98 -4 213v338h420v-1206h-349l-258 354q-35 48 -67.5 97t-47.5 73l-16 25h-8q4 -94 4 -248v-301h-420v1206h369zM293 1427q0 106 59 166t154 60q50 0 84.5 -12.5t83.5 -41.5q44 -26 64 -34.5t40 -8.5
q68 0 68 91h205q20 -78 20 -144q0 -106 -59 -165.5t-154 -59.5q-50 0 -85 12.5t-83 40.5q-44 26 -64 34.5t-40 8.5q-68 0 -68 -90h-205q-20 78 -20 143z" />
    <glyph glyph-name="Ograve" unicode="&#xd2;" horiz-adv-x="1318" 
d="M1268 602q0 -304 -159 -465.5t-450 -161.5t-449.5 161.5t-158.5 465.5q0 305 158.5 467t449.5 162t450 -162t159 -467zM829 602q0 140 -39 209.5t-131 69.5t-131 -69.5t-39 -209.5q0 -138 39 -207t131 -69t131 69t39 207zM836 1284h-349l-282 320h497z" />
    <glyph glyph-name="Oacute" unicode="&#xd3;" horiz-adv-x="1318" 
d="M1268 602q0 -304 -159 -465.5t-450 -161.5t-449.5 161.5t-158.5 465.5q0 305 158.5 467t449.5 162t450 -162t159 -467zM829 602q0 140 -39 209.5t-131 69.5t-131 -69.5t-39 -209.5q0 -138 39 -207t131 -69t131 69t39 207zM815 1284h-348l133 320h498z" />
    <glyph glyph-name="Ocircumflex" unicode="&#xd4;" horiz-adv-x="1318" 
d="M1268 602q0 -304 -159 -465.5t-450 -161.5t-449.5 161.5t-158.5 465.5q0 305 158.5 467t449.5 162t450 -162t159 -467zM829 602q0 140 -39 209.5t-131 69.5t-131 -69.5t-39 -209.5q0 -138 39 -207t131 -69t131 69t39 207zM522 1618h277l323 -334h-366l-51 66
q-16 20 -25.5 38t-11.5 26l-2 7h-11q-4 -26 -39 -71l-51 -66h-366z" />
    <glyph glyph-name="Otilde" unicode="&#xd5;" horiz-adv-x="1318" 
d="M1268 602q0 -304 -159 -465.5t-450 -161.5t-449.5 161.5t-158.5 465.5q0 305 158.5 467t449.5 162t450 -162t159 -467zM829 602q0 140 -39 209.5t-131 69.5t-131 -69.5t-39 -209.5q0 -138 39 -207t131 -69t131 69t39 207zM270 1427q0 106 59 166t154 60q50 0 84.5 -12.5
t83.5 -41.5q43 -25 63.5 -34t41.5 -9q67 0 67 91h205q21 -82 21 -144q0 -106 -59 -165.5t-154 -59.5q-50 0 -85 12.5t-83 40.5q-43 25 -63.5 34t-41.5 9q-67 0 -67 -90h-205q-21 82 -21 143z" />
    <glyph glyph-name="Odieresis" unicode="&#xd6;" horiz-adv-x="1318" 
d="M1268 602q0 -304 -159 -465.5t-450 -161.5t-449.5 161.5t-158.5 465.5q0 305 158.5 467t449.5 162t450 -162t159 -467zM829 602q0 140 -39 209.5t-131 69.5t-131 -69.5t-39 -209.5q0 -138 39 -207t131 -69t131 69t39 207zM229 1464q0 93 60 145t145 52t145 -52t60 -145
q0 -92 -60 -143t-145 -51t-145 51t-60 143zM680 1464q0 93 60 145t145 52t145 -52t60 -145q0 -92 -60 -143t-145 -51t-145 51t-60 143z" />
    <glyph glyph-name="multiply" unicode="&#xd7;" horiz-adv-x="991" 
d="M92 272l238 238l-230 238l156 153l231 -231l244 245l162 -157l-248 -248l254 -254l-160 -154l-252 254l-237 -241z" />
    <glyph glyph-name="Oslash" unicode="&#xd8;" horiz-adv-x="1318" 
d="M1268 602q0 -304 -159 -465.5t-450 -161.5q-235 0 -385 107l-104 -107l-119 113l109 111q-109 151 -109 403q0 305 158.5 467t449.5 162q246 0 400 -117l115 117l118 -113l-123 -125q99 -157 99 -391zM479 602q0 -51 2 -76l305 310q-44 53 -127 53q-98 0 -139 -71.5
t-41 -215.5zM842 602q0 39 -2 55l-295 -301q39 -39 114 -39q99 0 141 71t42 214z" />
    <glyph glyph-name="Ugrave" unicode="&#xd9;" horiz-adv-x="1273" 
d="M637 -25q-555 0 -555 492v739h420v-696q0 -40 5 -71t19 -60.5t42 -45.5t69 -16t69 16t42 45.5t19 60.5t5 71v696h420v-739q0 -492 -555 -492zM813 1284h-348l-283 320h498z" />
    <glyph glyph-name="Uacute" unicode="&#xda;" horiz-adv-x="1273" 
d="M637 -25q-555 0 -555 492v739h420v-696q0 -40 5 -71t19 -60.5t42 -45.5t69 -16t69 16t42 45.5t19 60.5t5 71v696h420v-739q0 -492 -555 -492zM793 1284h-349l134 320h497z" />
    <glyph glyph-name="Ucircumflex" unicode="&#xdb;" horiz-adv-x="1273" 
d="M637 -25q-555 0 -555 492v739h420v-696q0 -40 5 -71t19 -60.5t42 -45.5t69 -16t69 16t42 45.5t19 60.5t5 71v696h420v-739q0 -492 -555 -492zM500 1618h276l324 -334h-367l-51 66q-16 20 -25.5 38t-11.5 26l-2 7h-10q-4 -26 -39 -71l-51 -66h-367z" />
    <glyph glyph-name="Udieresis" unicode="&#xdc;" horiz-adv-x="1273" 
d="M637 -25q-555 0 -555 492v739h420v-696q0 -40 5 -71t19 -60.5t42 -45.5t69 -16t69 16t42 45.5t19 60.5t5 71v696h420v-739q0 -492 -555 -492zM207 1464q0 93 60 145t145 52t144.5 -52t59.5 -145q0 -92 -59.5 -143t-144.5 -51t-145 51t-60 143zM657 1464q0 93 60 145
t145 52t145 -52t60 -145q0 -92 -60 -143t-145 -51t-145 51t-60 143z" />
    <glyph glyph-name="Yacute" unicode="&#xdd;" horiz-adv-x="1314" 
d="M664 791h8q22 85 100 237l92 178h443l-441 -811v-395h-417v395l-441 811h457l92 -178q35 -68 61.5 -127t35.5 -85zM813 1284h-348l133 320h498z" />
    <glyph glyph-name="Thorn" unicode="&#xde;" horiz-adv-x="1181" 
d="M516 698v-221h107q49 0 74.5 25.5t25.5 85.5q0 110 -100 110h-107zM516 0h-414v1206h414v-155h158q477 0 477 -459q0 -219 -128.5 -335t-348.5 -116h-158v-141z" />
    <glyph glyph-name="germandbls" unicode="&#xdf;" horiz-adv-x="1306" 
d="M88 0v752q0 145 31 255.5t84.5 182t133 117t169.5 64t201 18.5q240 0 367.5 -103.5t127.5 -273.5q0 -72 -25 -133.5t-79.5 -106t-130.5 -57.5v-8q132 -14 215.5 -106t83.5 -243q0 -176 -106.5 -279.5t-307.5 -103.5q-186 0 -289 80l31 336q54 -46 95 -64t85 -18
q47 0 73.5 28.5t26.5 76.5q0 61 -44 85.5t-132 24.5h-118v330h112q64 0 93.5 24.5t29.5 75.5q0 44 -37 71.5t-94 27.5q-182 0 -182 -254v-799h-414z" />
    <glyph glyph-name="agrave" unicode="&#xe0;" horiz-adv-x="1091" 
d="M551 299v76q-12 2 -35 2q-98 0 -98 -78q0 -28 16.5 -44.5t46.5 -16.5q70 0 70 61zM961 625v-267q0 -27 9.5 -40t33.5 -13q25 0 57 19v-281q-80 -57 -209 -57q-203 0 -252 147q-20 -74 -88.5 -111.5t-173.5 -37.5q-147 0 -227 70.5t-80 197.5q0 137 101 212t278 75
q67 0 141 -9v107q0 53 -43 53q-51 0 -51 -108l-377 55q11 156 122.5 245t319.5 89q228 0 333.5 -92t105.5 -254zM717 1055h-348l-283 319h498z" />
    <glyph glyph-name="aacute" unicode="&#xe1;" horiz-adv-x="1091" 
d="M551 299v76q-12 2 -35 2q-98 0 -98 -78q0 -28 16.5 -44.5t46.5 -16.5q70 0 70 61zM961 625v-267q0 -27 9.5 -40t33.5 -13q25 0 57 19v-281q-80 -57 -209 -57q-203 0 -252 147q-20 -74 -88.5 -111.5t-173.5 -37.5q-147 0 -227 70.5t-80 197.5q0 137 101 212t278 75
q67 0 141 -9v107q0 53 -43 53q-51 0 -51 -108l-377 55q11 156 122.5 245t319.5 89q228 0 333.5 -92t105.5 -254zM692 1055h-348l133 319h498z" />
    <glyph glyph-name="acircumflex" unicode="&#xe2;" horiz-adv-x="1091" 
d="M551 299v76q-12 2 -35 2q-98 0 -98 -78q0 -28 16.5 -44.5t46.5 -16.5q70 0 70 61zM961 625v-267q0 -27 9.5 -40t33.5 -13q25 0 57 19v-281q-80 -57 -209 -57q-203 0 -252 147q-20 -74 -88.5 -111.5t-173.5 -37.5q-147 0 -227 70.5t-80 197.5q0 137 101 212t278 75
q67 0 141 -9v107q0 53 -43 53q-51 0 -51 -108l-377 55q11 156 122.5 245t319.5 89q228 0 333.5 -92t105.5 -254zM399 1389h277l323 -334h-366l-51 65q-16 20 -25.5 38t-11.5 26l-2 8h-11q-3 -27 -38 -72l-52 -65h-366z" />
    <glyph glyph-name="atilde" unicode="&#xe3;" horiz-adv-x="1091" 
d="M551 299v76q-12 2 -35 2q-98 0 -98 -78q0 -28 16.5 -44.5t46.5 -16.5q70 0 70 61zM961 625v-267q0 -27 9.5 -40t33.5 -13q25 0 57 19v-281q-80 -57 -209 -57q-203 0 -252 147q-20 -74 -88.5 -111.5t-173.5 -37.5q-147 0 -227 70.5t-80 197.5q0 137 101 212t278 75
q67 0 141 -9v107q0 53 -43 53q-51 0 -51 -108l-377 55q11 156 122.5 245t319.5 89q228 0 333.5 -92t105.5 -254zM147 1188q0 106 59 165.5t154 59.5q50 0 85 -12.5t83 -40.5q43 -25 63.5 -34t41.5 -9q67 0 67 90h205q21 -82 21 -143q0 -106 -59 -166t-154 -60
q-50 0 -84.5 12.5t-83.5 41.5q-43 25 -63.5 34t-41.5 9q-67 0 -67 -91h-205q-21 82 -21 144z" />
    <glyph glyph-name="adieresis" unicode="&#xe4;" horiz-adv-x="1091" 
d="M551 299v76q-12 2 -35 2q-98 0 -98 -78q0 -28 16.5 -44.5t46.5 -16.5q70 0 70 61zM961 625v-267q0 -27 9.5 -40t33.5 -13q25 0 57 19v-281q-80 -57 -209 -57q-203 0 -252 147q-20 -74 -88.5 -111.5t-173.5 -37.5q-147 0 -227 70.5t-80 197.5q0 137 101 212t278 75
q67 0 141 -9v107q0 53 -43 53q-51 0 -51 -108l-377 55q11 156 122.5 245t319.5 89q228 0 333.5 -92t105.5 -254zM106 1208q0 93 60 145t145 52t145 -52t60 -145q0 -92 -60 -143t-145 -51t-145 51t-60 143zM557 1208q0 93 60 145t145 52t145 -52t60 -145q0 -92 -60 -143
t-145 -51t-145 51t-60 143z" />
    <glyph glyph-name="aring" unicode="&#xe5;" horiz-adv-x="1091" 
d="M551 299v76q-12 2 -35 2q-98 0 -98 -78q0 -28 16.5 -44.5t46.5 -16.5q70 0 70 61zM961 625v-267q0 -27 9.5 -40t33.5 -13q25 0 57 19v-281q-80 -57 -209 -57q-203 0 -252 147q-20 -74 -88.5 -111.5t-173.5 -37.5q-147 0 -227 70.5t-80 197.5q0 137 101 212t278 75
q67 0 141 -9v107q0 53 -43 53q-51 0 -51 -108l-377 55q11 156 122.5 245t319.5 89q228 0 333.5 -92t105.5 -254zM537 1004q-121 0 -188.5 68t-67.5 175q0 100 71 169t185 69t185 -69t71 -169q0 -107 -67.5 -175t-188.5 -68zM537 1331q-37 0 -58.5 -23t-21.5 -61
q0 -36 21 -60t59 -24q37 0 57 24t20 60q0 38 -20.5 61t-56.5 23z" />
    <glyph glyph-name="ae" unicode="&#xe6;" horiz-adv-x="1513" 
d="M1032 281q92 0 117 96l321 -127q-49 -135 -170 -205t-274 -70q-230 0 -364 131q-46 -58 -126.5 -94.5t-181.5 -36.5q-150 0 -236.5 72.5t-86.5 204.5q0 57 18.5 102.5t47 75.5t73.5 51.5t88 33t101 18.5t101.5 8.5t100.5 1.5v94q0 24 -12 38.5t-35 14.5q-27 0 -42 -29
t-15 -79l-377 55q11 156 122.5 245t319.5 89q169 0 258 -53q105 51 258 51q110 0 195 -34t138 -95t79.5 -141.5t26.5 -178.5q0 -51 -15 -117h-532q0 -122 102 -122zM938 551h156q6 21 6 49q0 33 -17.5 56.5t-54.5 23.5q-40 0 -63.5 -36t-26.5 -93zM561 317v74
q-65 0 -104 -23.5t-39 -68.5q0 -28 16.5 -44.5t46.5 -16.5q34 0 57 19.5t23 59.5z" />
    <glyph glyph-name="ccedilla" unicode="&#xe7;" horiz-adv-x="1009" 
d="M791 -238q0 -92 -68 -143t-184 -51q-161 0 -252 72l55 155q59 -49 123 -49q53 0 53 41q0 51 -82 51l21 144q-197 25 -308.5 153t-111.5 336q0 234 137 367t367 133q198 0 313 -92.5t129 -253.5l-340 -84q-3 64 -22 96.5t-68 32.5q-100 0 -100 -199q0 -103 25 -149t81 -46
q37 0 61.5 30.5t30.5 92.5l348 -118q-31 -143 -140.5 -220.5t-272.5 -83.5l-4 -38q93 0 151 -45t58 -132z" />
    <glyph glyph-name="egrave" unicode="&#xe8;" horiz-adv-x="1019" 
d="M539 281q91 0 116 96l322 -127q-49 -135 -170.5 -205t-274.5 -70q-226 0 -360.5 129t-134.5 353q0 247 132.5 379.5t375.5 132.5q217 0 327.5 -121t110.5 -322q0 -55 -14 -116h-533q0 -64 27 -96.5t76 -32.5zM444 557h156q6 12 6 43q0 33 -17 56.5t-54 23.5
q-40 0 -64 -33.5t-27 -89.5zM715 1055h-348l-283 319h498z" />
    <glyph glyph-name="eacute" unicode="&#xe9;" horiz-adv-x="1019" 
d="M539 281q91 0 116 96l322 -127q-49 -135 -170.5 -205t-274.5 -70q-226 0 -360.5 129t-134.5 353q0 247 132.5 379.5t375.5 132.5q217 0 327.5 -121t110.5 -322q0 -55 -14 -116h-533q0 -64 27 -96.5t76 -32.5zM444 557h156q6 12 6 43q0 33 -17 56.5t-54 23.5
q-40 0 -64 -33.5t-27 -89.5zM690 1055h-348l133 319h498z" />
    <glyph glyph-name="ecircumflex" unicode="&#xea;" horiz-adv-x="1019" 
d="M539 281q91 0 116 96l322 -127q-49 -135 -170.5 -205t-274.5 -70q-226 0 -360.5 129t-134.5 353q0 247 132.5 379.5t375.5 132.5q217 0 327.5 -121t110.5 -322q0 -55 -14 -116h-533q0 -64 27 -96.5t76 -32.5zM444 557h156q6 12 6 43q0 33 -17 56.5t-54 23.5
q-40 0 -64 -33.5t-27 -89.5zM397 1389h277l323 -334h-366l-51 65q-16 20 -25.5 38t-11.5 26l-2 8h-11q-3 -27 -38 -72l-52 -65h-366z" />
    <glyph glyph-name="edieresis" unicode="&#xeb;" horiz-adv-x="1019" 
d="M539 281q91 0 116 96l322 -127q-49 -135 -170.5 -205t-274.5 -70q-226 0 -360.5 129t-134.5 353q0 247 132.5 379.5t375.5 132.5q217 0 327.5 -121t110.5 -322q0 -55 -14 -116h-533q0 -64 27 -96.5t76 -32.5zM444 557h156q6 12 6 43q0 33 -17 56.5t-54 23.5
q-40 0 -64 -33.5t-27 -89.5zM104 1208q0 93 60 145t145 52t145 -52t60 -145q0 -92 -60 -143t-145 -51t-145 51t-60 143zM555 1208q0 93 60 145t145 52t145 -52t60 -145q0 -92 -60 -143t-145 -51t-145 51t-60 143z" />
    <glyph glyph-name="igrave" unicode="&#xec;" horiz-adv-x="589" 
d="M88 946h414v-946h-414v946zM475 1055h-348l-283 319h498z" />
    <glyph glyph-name="iacute" unicode="&#xed;" horiz-adv-x="589" 
d="M88 946h414v-946h-414v946zM451 1055h-349l134 319h497z" />
    <glyph glyph-name="icircumflex" unicode="&#xee;" horiz-adv-x="589" 
d="M88 946h414v-946h-414v946zM158 1389h276l324 -334h-367l-51 65q-16 20 -25.5 38t-11.5 26l-2 8h-10q-4 -27 -39 -72l-51 -65h-367z" />
    <glyph glyph-name="idieresis" unicode="&#xef;" horiz-adv-x="589" 
d="M88 946h414v-946h-414v946zM-135 1208q0 93 60 145t145 52t144.5 -52t59.5 -145q0 -92 -59.5 -143t-144.5 -51t-145 51t-60 143zM315 1208q0 93 60 145t145 52t145 -52t60 -145q0 -92 -60 -143t-145 -51t-145 51t-60 143z" />
    <glyph glyph-name="eth" unicode="&#xf0;" horiz-adv-x="1114" 
d="M248 926l-29 131l199 51q-105 76 -225 141l405 142q127 -79 225 -177l187 50l28 -131l-120 -33q159 -226 159 -520q0 -605 -518 -605q-240 0 -381 129t-141 361q0 91 24 166.5t62.5 125t89.5 84t103.5 49.5t105.5 15q96 0 154 -30t102 -89q-28 108 -135 215zM662 473
q0 102 -24.5 149.5t-80.5 47.5t-80 -47.5t-24 -149.5t24 -149.5t80 -47.5t80.5 47.5t24.5 149.5z" />
    <glyph glyph-name="ntilde" unicode="&#xf1;" horiz-adv-x="1165" 
d="M453 946l51 -182q28 102 108.5 154.5t186.5 52.5q125 0 204.5 -77t79.5 -232v-662h-413v510q0 61 -16.5 90t-59.5 29q-41 0 -66.5 -35t-25.5 -111v-483h-414v946h365zM197 1188q0 106 59 165.5t154 59.5q50 0 85 -12.5t83 -40.5q44 -26 64 -34.5t40 -8.5q68 0 68 90h204
q21 -82 21 -143q0 -106 -59 -166t-154 -60q-50 0 -84.5 12.5t-83.5 41.5q-43 25 -63.5 34t-41.5 9q-67 0 -67 -91h-205q-20 78 -20 144z" />
    <glyph glyph-name="ograve" unicode="&#xf2;" horiz-adv-x="1114" 
d="M37 473q0 238 141 368t379 130t379 -130t141 -368t-141 -368t-379 -130t-379 130t-141 368zM662 473q0 102 -24.5 149.5t-80.5 47.5t-80 -47.5t-24 -149.5t24 -149.5t80 -47.5t80.5 47.5t24.5 149.5zM737 1055h-348l-283 319h498z" />
    <glyph glyph-name="oacute" unicode="&#xf3;" horiz-adv-x="1114" 
d="M37 473q0 238 141 368t379 130t379 -130t141 -368t-141 -368t-379 -130t-379 130t-141 368zM662 473q0 102 -24.5 149.5t-80.5 47.5t-80 -47.5t-24 -149.5t24 -149.5t80 -47.5t80.5 47.5t24.5 149.5zM713 1055h-348l133 319h497z" />
    <glyph glyph-name="ocircumflex" unicode="&#xf4;" horiz-adv-x="1114" 
d="M37 473q0 238 141 368t379 130t379 -130t141 -368t-141 -368t-379 -130t-379 130t-141 368zM662 473q0 102 -24.5 149.5t-80.5 47.5t-80 -47.5t-24 -149.5t24 -149.5t80 -47.5t80.5 47.5t24.5 149.5zM420 1389h276l324 -334h-367l-51 65q-16 20 -25.5 38t-11.5 26l-2 8
h-10q-4 -27 -39 -72l-51 -65h-367z" />
    <glyph glyph-name="otilde" unicode="&#xf5;" horiz-adv-x="1114" 
d="M37 473q0 238 141 368t379 130t379 -130t141 -368t-141 -368t-379 -130t-379 130t-141 368zM662 473q0 102 -24.5 149.5t-80.5 47.5t-80 -47.5t-24 -149.5t24 -149.5t80 -47.5t80.5 47.5t24.5 149.5zM168 1188q0 106 59 165.5t154 59.5q50 0 85 -12.5t83 -40.5
q44 -26 64 -34.5t40 -8.5q68 0 68 90h205q20 -78 20 -143q0 -106 -59 -166t-154 -60q-50 0 -84.5 12.5t-83.5 41.5q-44 26 -64 34.5t-40 8.5q-68 0 -68 -91h-205q-20 78 -20 144z" />
    <glyph glyph-name="odieresis" unicode="&#xf6;" horiz-adv-x="1114" 
d="M37 473q0 238 141 368t379 130t379 -130t141 -368t-141 -368t-379 -130t-379 130t-141 368zM662 473q0 102 -24.5 149.5t-80.5 47.5t-80 -47.5t-24 -149.5t24 -149.5t80 -47.5t80.5 47.5t24.5 149.5zM127 1208q0 93 60 145t145 52t145 -52t60 -145q0 -92 -60 -143
t-145 -51t-145 51t-60 143zM578 1208q0 93 59.5 145t144.5 52t145 -52t60 -145q0 -92 -60 -143t-145 -51t-144.5 51t-59.5 143z" />
    <glyph glyph-name="divide" unicode="&#xf7;" horiz-adv-x="1019" 
d="M928 397h-836v221h836v-221zM352 166q0 62 42.5 105.5t103.5 43.5t104 -43.5t43 -105.5q0 -60 -42.5 -101.5t-104.5 -41.5q-61 0 -103.5 41.5t-42.5 101.5zM352 844q0 62 42.5 105.5t103.5 43.5t104 -43.5t43 -105.5q0 -60 -43 -102t-104 -42t-103.5 42t-42.5 102z" />
    <glyph glyph-name="oslash" unicode="&#xf8;" horiz-adv-x="1114" 
d="M37 80l88 84q-88 120 -88 309q0 238 141 368t379 130q193 0 326 -88l92 88l102 -105l-90 -84q90 -126 90 -309q0 -238 -141 -368t-379 -130q-196 0 -326 86l-92 -86zM434 473v-16l203 192q-32 29 -80 29q-66 0 -94.5 -49.5t-28.5 -155.5zM680 473v14l-203 -190
q29 -29 80 -29q66 0 94.5 49.5t28.5 155.5z" />
    <glyph glyph-name="ugrave" unicode="&#xf9;" horiz-adv-x="1153" 
d="M707 0l-52 172q-15 -94 -84.5 -145.5t-191.5 -51.5q-141 0 -221 81t-80 241v649h414v-561q0 -53 15 -79.5t50 -26.5q52 0 73 40.5t21 135.5v491h414v-946h-358zM772 1055h-348l-283 319h498z" />
    <glyph glyph-name="uacute" unicode="&#xfa;" horiz-adv-x="1153" 
d="M707 0l-52 172q-15 -94 -84.5 -145.5t-191.5 -51.5q-141 0 -221 81t-80 241v649h414v-561q0 -53 15 -79.5t50 -26.5q52 0 73 40.5t21 135.5v491h414v-946h-358zM727 1055h-348l133 319h498z" />
    <glyph glyph-name="ucircumflex" unicode="&#xfb;" horiz-adv-x="1153" 
d="M707 0l-52 172q-15 -94 -84.5 -145.5t-191.5 -51.5q-141 0 -221 81t-80 241v649h414v-561q0 -53 15 -79.5t50 -26.5q52 0 73 40.5t21 135.5v491h414v-946h-358zM434 1389h277l323 -334h-366l-52 65q-16 20 -25.5 38t-10.5 26l-2 8h-11q-4 -27 -39 -72l-51 -65h-366z" />
    <glyph glyph-name="udieresis" unicode="&#xfc;" horiz-adv-x="1153" 
d="M707 0l-52 172q-15 -94 -84.5 -145.5t-191.5 -51.5q-141 0 -221 81t-80 241v649h414v-561q0 -53 15 -79.5t50 -26.5q52 0 73 40.5t21 135.5v491h414v-946h-358zM141 1208q0 93 60 145t145 52t145 -52t60 -145q0 -92 -60 -143t-145 -51t-145 51t-60 143zM592 1208
q0 93 60 145t145 52t144.5 -52t59.5 -145q0 -92 -59.5 -143t-144.5 -51t-145 51t-60 143z" />
    <glyph glyph-name="yacute" unicode="&#xfd;" horiz-adv-x="1140" 
d="M338 -39l-330 985h441l88 -358q12 -48 21.5 -114t13.5 -108l3 -42h9q16 149 47 260l98 362h404l-310 -893q-81 -250 -215.5 -364.5t-326.5 -114.5q-157 0 -254 55l82 299q49 -43 118 -43q80 0 111 76zM745 1055h-348l133 319h498z" />
    <glyph glyph-name="thorn" unicode="&#xfe;" horiz-adv-x="1200" 
d="M502 485v-61q0 -73 29.5 -114.5t80.5 -41.5q69 0 97 50t28 153q0 91 -28.5 132.5t-87.5 41.5q-55 0 -87 -42t-32 -118zM502 111v-527h-414v1784h414v-596q28 93 103 146t179 53q181 0 280 -126.5t99 -348.5q0 -255 -107 -388t-302 -133q-90 0 -159.5 37.5t-92.5 98.5z
" />
    <glyph glyph-name="ydieresis" unicode="&#xff;" horiz-adv-x="1140" 
d="M338 -39l-330 985h441l88 -358q12 -48 21.5 -114t13.5 -108l3 -42h9q16 149 47 260l98 362h404l-310 -893q-81 -250 -215.5 -364.5t-326.5 -114.5q-157 0 -254 55l82 299q49 -43 118 -43q80 0 111 76zM160 1208q0 93 60 145t145 52t144.5 -52t59.5 -145q0 -92 -59.5 -143
t-144.5 -51t-145 51t-60 143zM610 1208q0 93 60 145t145 52t145 -52t60 -145q0 -92 -60 -143t-145 -51t-145 51t-60 143z" />
    <glyph glyph-name="Amacron" unicode="&#x100;" horiz-adv-x="1368" 
d="M926 0l-54 164h-397l-49 -164h-418l395 1206h560l397 -1206h-434zM776 477l-43 166l-59 236h-8q-19 -105 -54 -236l-43 -166h207zM1038 1284h-706v289h706v-289z" />
    <glyph glyph-name="amacron" unicode="&#x101;" horiz-adv-x="1091" 
d="M551 299v76q-12 2 -35 2q-98 0 -98 -78q0 -28 16.5 -44.5t46.5 -16.5q70 0 70 61zM961 625v-267q0 -27 9.5 -40t33.5 -13q25 0 57 19v-281q-80 -57 -209 -57q-203 0 -252 147q-20 -74 -88.5 -111.5t-173.5 -37.5q-147 0 -227 70.5t-80 197.5q0 137 101 212t278 75
q67 0 141 -9v107q0 53 -43 53q-51 0 -51 -108l-377 55q11 156 122.5 245t319.5 89q228 0 333.5 -92t105.5 -254zM891 1055h-707v288h707v-288z" />
    <glyph glyph-name="Abreve" unicode="&#x102;" horiz-adv-x="1368" 
d="M926 0l-54 164h-397l-49 -164h-418l395 1206h560l397 -1206h-434zM776 477l-43 166l-59 236h-8q-19 -105 -54 -236l-43 -166h207zM684 1274q-99 0 -169.5 28t-110 78.5t-57 112t-17.5 137.5h282q0 -50 16 -75t56 -25t56 25t16 75h282q0 -76 -17.5 -137.5t-57 -112
t-110 -78.5t-169.5 -28z" />
    <glyph glyph-name="abreve" unicode="&#x103;" horiz-adv-x="1091" 
d="M551 299v76q-12 2 -35 2q-98 0 -98 -78q0 -28 16.5 -44.5t46.5 -16.5q70 0 70 61zM961 625v-267q0 -27 9.5 -40t33.5 -13q25 0 57 19v-281q-80 -57 -209 -57q-203 0 -252 147q-20 -74 -88.5 -111.5t-173.5 -37.5q-147 0 -227 70.5t-80 197.5q0 137 101 212t278 75
q67 0 141 -9v107q0 53 -43 53q-51 0 -51 -108l-377 55q11 156 122.5 245t319.5 89q228 0 333.5 -92t105.5 -254zM537 1044q-99 0 -170 28t-110 79t-57 112.5t-18 137.5h283q0 -50 16 -75.5t56 -25.5t55.5 25.5t15.5 75.5h283q0 -76 -17.5 -137.5t-57 -112.5t-110 -79
t-169.5 -28z" />
    <glyph glyph-name="Aogonek" unicode="&#x104;" horiz-adv-x="1368" 
d="M721 -176q0 93 48.5 157t129.5 99l-27 84h-397l-49 -164h-418l395 1206h560l397 -1206h-221q-66 0 -94.5 -29t-28.5 -73q0 -37 25 -56.5t65 -19.5q63 0 123 51l82 -205q-109 -100 -291 -100q-60 0 -111.5 13.5t-94.5 42.5t-68 80t-25 120zM776 477l-43 166l-59 236h-8
q-19 -105 -54 -236l-43 -166h207z" />
    <glyph glyph-name="aogonek" unicode="&#x105;" horiz-adv-x="1091" 
d="M545 -176q0 139 112 219q-41 38 -57 90q-20 -74 -88.5 -111.5t-173.5 -37.5q-147 0 -227 70.5t-80 197.5q0 137 101 212t278 75q67 0 141 -9v107q0 53 -43 53q-51 0 -51 -108l-377 55q11 156 122.5 245t319.5 89q228 0 333.5 -92t105.5 -254v-267q0 -27 9.5 -40t33.5 -13
q25 0 57 19v-281q-40 -10 -61 -16t-56 -20.5t-53 -28.5t-32.5 -37.5t-14.5 -51.5q0 -67 86 -67q63 0 123 51l82 -205q-109 -100 -291 -100q-61 0 -111.5 13t-94.5 41t-68.5 79.5t-24.5 122.5zM551 299v76q-12 2 -35 2q-98 0 -98 -78q0 -28 16.5 -44.5t46.5 -16.5q70 0 70 61
z" />
    <glyph glyph-name="Cacute" unicode="&#x106;" horiz-adv-x="1216" 
d="M487 596q0 -270 175 -270q74 0 111 39.5t48 123.5l396 -188q-70 -166 -207.5 -246t-358.5 -80q-273 0 -436.5 164t-163.5 459q0 305 159 469t464 164q205 0 350.5 -90t189.5 -244l-401 -166q-8 66 -44 107t-101 41q-181 0 -181 -283zM813 1284h-348l133 320h498z" />
    <glyph glyph-name="cacute" unicode="&#x107;" horiz-adv-x="1009" 
d="M651 399l348 -118q-33 -150 -152 -228t-294 -78q-238 0 -377 132t-139 364q0 234 137 367t367 133q198 0 313 -92.5t129 -253.5l-340 -84q-3 64 -22 96.5t-68 32.5q-100 0 -100 -199q0 -103 25 -149t81 -46q37 0 61.5 30.5t30.5 92.5zM694 1055h-348l133 319h498z" />
    <glyph glyph-name="Ccircumflex" unicode="&#x108;" horiz-adv-x="1216" 
d="M487 596q0 -270 175 -270q74 0 111 39.5t48 123.5l396 -188q-70 -166 -207.5 -246t-358.5 -80q-273 0 -436.5 164t-163.5 459q0 305 159 469t464 164q205 0 350.5 -90t189.5 -244l-401 -166q-8 66 -44 107t-101 41q-181 0 -181 -283zM520 1618h277l323 -334h-366l-52 66
q-16 20 -25.5 38t-10.5 26l-2 7h-11q-4 -26 -39 -71l-51 -66h-366z" />
    <glyph glyph-name="ccircumflex" unicode="&#x109;" horiz-adv-x="1009" 
d="M651 399l348 -118q-33 -150 -152 -228t-294 -78q-238 0 -377 132t-139 364q0 234 137 367t367 133q198 0 313 -92.5t129 -253.5l-340 -84q-3 64 -22 96.5t-68 32.5q-100 0 -100 -199q0 -103 25 -149t81 -46q37 0 61.5 30.5t30.5 92.5zM401 1389h277l323 -334h-366l-51 65
q-16 20 -25.5 38t-11.5 26l-2 8h-10q-4 -27 -39 -72l-52 -65h-366z" />
    <glyph glyph-name="Cdotaccent" unicode="&#x10a;" horiz-adv-x="1216" 
d="M487 596q0 -270 175 -270q74 0 111 39.5t48 123.5l396 -188q-70 -166 -207.5 -246t-358.5 -80q-273 0 -436.5 164t-163.5 459q0 305 159 469t464 164q205 0 350.5 -90t189.5 -244l-401 -166q-8 66 -44 107t-101 41q-181 0 -181 -283zM424 1479q0 100 68 155.5t165 55.5
t165.5 -55.5t68.5 -155.5t-68.5 -155.5t-165.5 -55.5t-165 55.5t-68 155.5z" />
    <glyph glyph-name="cdotaccent" unicode="&#x10b;" horiz-adv-x="1009" 
d="M651 399l348 -118q-33 -150 -152 -228t-294 -78q-238 0 -377 132t-139 364q0 234 137 367t367 133q198 0 313 -92.5t129 -253.5l-340 -84q-3 64 -22 96.5t-68 32.5q-100 0 -100 -199q0 -103 25 -149t81 -46q37 0 61.5 30.5t30.5 92.5zM305 1214q0 100 68.5 155.5
t165.5 55.5t165 -55.5t68 -155.5t-68 -155t-165 -55q-98 0 -166 55t-68 155z" />
    <glyph glyph-name="Ccaron" unicode="&#x10c;" horiz-adv-x="1216" 
d="M487 596q0 -270 175 -270q74 0 111 39.5t48 123.5l396 -188q-70 -166 -207.5 -246t-358.5 -80q-273 0 -436.5 164t-163.5 459q0 305 159 469t464 164q205 0 350.5 -90t189.5 -244l-401 -166q-8 66 -44 107t-101 41q-181 0 -181 -283zM797 1284h-277l-323 334h366l51 -66
q16 -20 25.5 -37.5t11.5 -25.5l2 -8h11q3 26 38 71l52 66h366z" />
    <glyph glyph-name="ccaron" unicode="&#x10d;" horiz-adv-x="1009" 
d="M651 399l348 -118q-33 -150 -152 -228t-294 -78q-238 0 -377 132t-139 364q0 234 137 367t367 133q198 0 313 -92.5t129 -253.5l-340 -84q-3 64 -22 96.5t-68 32.5q-100 0 -100 -199q0 -103 25 -149t81 -46q37 0 61.5 30.5t30.5 92.5zM678 1055h-277l-323 334h366l52 -66
q16 -20 25.5 -38t11.5 -26l2 -8h10q4 27 39 72l51 66h366z" />
    <glyph glyph-name="Dcaron" unicode="&#x10e;" horiz-adv-x="1302" 
d="M522 346h56q69 0 109.5 8.5t71 36.5t42.5 79.5t12 137.5q0 134 -51.5 193t-167.5 59h-72v-514zM612 0h-510v1206h547q138 0 246.5 -34.5t189 -105t123.5 -186.5t43 -272q0 -164 -43.5 -282.5t-128 -189.5t-199.5 -103.5t-268 -32.5zM750 1284h-277l-323 334h366l51 -66
q16 -20 25.5 -37.5t11.5 -25.5l2 -8h10q4 26 39 71l52 66h366z" />
    <glyph glyph-name="dcaron" unicode="&#x10f;" horiz-adv-x="1200" 
d="M752 0l-54 164q-24 -91 -100 -140t-182 -49q-182 0 -280.5 129t-98.5 361q0 245 106.5 375.5t296.5 130.5q94 0 161.5 -38t96.5 -108v543h414v-1368h-360zM698 453v61q0 73 -29.5 114.5t-80.5 41.5q-69 0 -97 -50t-28 -153q0 -91 29 -132.5t88 -41.5q55 0 86.5 42
t31.5 118zM1597 1368l-129 -362h-294l24 362h399z" />
    <glyph glyph-name="Dcroat" unicode="&#x110;" horiz-adv-x="1300" 
d="M10 459v293h117v454h520q138 0 246.5 -34.5t189 -105t123.5 -186.5t43 -272q0 -164 -43.5 -282.5t-128 -189.5t-199.5 -103.5t-268 -32.5h-483v459h-117zM520 346h55q69 0 109.5 8.5t71.5 36.5t43 79.5t12 137.5q0 134 -51.5 193t-167.5 59h-72v-108h144v-293h-144v-113z
" />
    <glyph glyph-name="dcroat" unicode="&#x111;" horiz-adv-x="1230" 
d="M444 1034v217h254v117h414v-117h109v-217h-109v-1034h-360l-54 164q-24 -91 -100 -140t-182 -49q-182 0 -280.5 129t-98.5 361q0 245 106.5 375.5t296.5 130.5q94 0 161.5 -38t96.5 -108v209h-254zM698 453v61q0 73 -29.5 114.5t-80.5 41.5q-69 0 -97 -50t-28 -153
q0 -91 29 -132.5t88 -41.5q55 0 86.5 42t31.5 118z" />
    <glyph glyph-name="Emacron" unicode="&#x112;" horiz-adv-x="1087" 
d="M1016 344v-344h-914v1206h906v-344h-502v-108h446v-301h-446v-109h510zM913 1284h-706v289h706v-289z" />
    <glyph glyph-name="emacron" unicode="&#x113;" horiz-adv-x="1019" 
d="M539 281q91 0 116 96l322 -127q-49 -135 -170.5 -205t-274.5 -70q-226 0 -360.5 129t-134.5 353q0 247 132.5 379.5t375.5 132.5q217 0 327.5 -121t110.5 -322q0 -55 -14 -116h-533q0 -64 27 -96.5t76 -32.5zM444 557h156q6 12 6 43q0 33 -17 56.5t-54 23.5
q-40 0 -64 -33.5t-27 -89.5zM889 1055h-707v288h707v-288z" />
    <glyph glyph-name="Ebreve" unicode="&#x114;" horiz-adv-x="1087" 
d="M1016 344v-344h-914v1206h906v-344h-502v-108h446v-301h-446v-109h510zM559 1274q-99 0 -169.5 28t-110 78.5t-57 112t-17.5 137.5h282q0 -50 16 -75t56 -25t56 25t16 75h282q0 -76 -17.5 -137.5t-57 -112t-110 -78.5t-169.5 -28z" />
    <glyph glyph-name="ebreve" unicode="&#x115;" horiz-adv-x="1019" 
d="M539 281q91 0 116 96l322 -127q-49 -135 -170.5 -205t-274.5 -70q-226 0 -360.5 129t-134.5 353q0 247 132.5 379.5t375.5 132.5q217 0 327.5 -121t110.5 -322q0 -55 -14 -116h-533q0 -64 27 -96.5t76 -32.5zM444 557h156q6 12 6 43q0 33 -17 56.5t-54 23.5
q-40 0 -64 -33.5t-27 -89.5zM535 1044q-99 0 -170 28t-110 79t-57 112.5t-18 137.5h283q0 -50 16 -75.5t56 -25.5t55.5 25.5t15.5 75.5h283q0 -76 -17.5 -137.5t-57 -112.5t-110 -79t-169.5 -28z" />
    <glyph glyph-name="Edotaccent" unicode="&#x116;" horiz-adv-x="1087" 
d="M1016 344v-344h-914v1206h906v-344h-502v-108h446v-301h-446v-109h510zM326 1479q0 100 68 155.5t165 55.5t165.5 -55.5t68.5 -155.5t-68.5 -155.5t-165.5 -55.5t-165 55.5t-68 155.5z" />
    <glyph glyph-name="edotaccent" unicode="&#x117;" horiz-adv-x="1019" 
d="M539 281q91 0 116 96l322 -127q-49 -135 -170.5 -205t-274.5 -70q-226 0 -360.5 129t-134.5 353q0 247 132.5 379.5t375.5 132.5q217 0 327.5 -121t110.5 -322q0 -55 -14 -116h-533q0 -64 27 -96.5t76 -32.5zM444 557h156q6 12 6 43q0 33 -17 56.5t-54 23.5
q-40 0 -64 -33.5t-27 -89.5zM301 1214q0 100 68.5 155.5t165.5 55.5t165 -55.5t68 -155.5t-68 -155t-165 -55q-98 0 -166 55t-68 155z" />
    <glyph glyph-name="Eogonek" unicode="&#x118;" horiz-adv-x="1087" 
d="M498 -195q0 130 86 195h-482v1206h906v-344h-502v-108h446v-301h-446v-109h510v-344h-96q-66 0 -97.5 -27t-31.5 -71q0 -80 92 -80q63 0 123 51l81 -205q-109 -100 -299 -100q-57 0 -106.5 12.5t-92 39t-67 74t-24.5 111.5z" />
    <glyph glyph-name="eogonek" unicode="&#x119;" horiz-adv-x="1019" 
d="M352 -176q0 94 54 164q-172 33 -270.5 156t-98.5 313q0 247 132.5 379.5t375.5 132.5q217 0 327.5 -121t110.5 -322q0 -55 -14 -116h-533q0 -64 27 -96.5t76 -32.5q91 0 116 96l322 -127q-31 -84 -94 -139.5t-158 -104.5q-74 -38 -74 -106q0 -43 22 -60.5t64 -17.5
q63 0 123 51l82 -205q-109 -100 -291 -100q-61 0 -111.5 13t-94.5 41t-68.5 79.5t-24.5 122.5zM444 557h156q6 12 6 43q0 33 -17 56.5t-54 23.5q-40 0 -64 -33.5t-27 -89.5z" />
    <glyph glyph-name="Ecaron" unicode="&#x11a;" horiz-adv-x="1087" 
d="M1016 344v-344h-914v1206h906v-344h-502v-108h446v-301h-446v-109h510zM698 1284h-276l-324 334h367l51 -66q16 -20 25.5 -37.5t11.5 -25.5l2 -8h10q4 26 39 71l51 66h367z" />
    <glyph glyph-name="ecaron" unicode="&#x11b;" horiz-adv-x="1019" 
d="M539 281q91 0 116 96l322 -127q-49 -135 -170.5 -205t-274.5 -70q-226 0 -360.5 129t-134.5 353q0 247 132.5 379.5t375.5 132.5q217 0 327.5 -121t110.5 -322q0 -55 -14 -116h-533q0 -64 27 -96.5t76 -32.5zM444 557h156q6 12 6 43q0 33 -17 56.5t-54 23.5
q-40 0 -64 -33.5t-27 -89.5zM674 1055h-277l-323 334h366l52 -66q16 -20 25.5 -38t10.5 -26l2 -8h11q4 27 39 72l51 66h366z" />
    <glyph glyph-name="Gcircumflex" unicode="&#x11c;" horiz-adv-x="1333" 
d="M682 678h565v-678h-280l-43 133q-79 -158 -332 -158q-91 0 -170.5 22t-148 70.5t-117.5 120.5t-77 176.5t-28 233.5q0 305 159 469t464 164q205 0 350.5 -90t189.5 -244l-401 -166q-8 66 -44 107t-101 41q-181 0 -181 -283q0 -144 44 -214.5t147 -70.5q71 0 109 26.5
t38 68.5v10h-143v262zM524 1618h277l323 -334h-366l-51 66q-16 20 -25.5 38t-11.5 26l-2 7h-11q-4 -26 -39 -71l-51 -66h-366z" />
    <glyph glyph-name="gcircumflex" unicode="&#x11d;" horiz-adv-x="1060" 
d="M512 971q148 0 268 -47q36 50 39 157l283 -98q-7 -77 -62 -121t-125 -51q62 -80 62 -174q0 -83 -36 -145t-101 -99.5t-147 -55.5t-181 -18q-82 0 -123 13q-35 -6 -35 -37t43 -31h289q184 0 282.5 -89.5t98.5 -246.5q0 -82 -32 -145t-84.5 -103t-128 -66t-156 -36
t-174.5 -10q-482 0 -482 213q0 77 48.5 117t144.5 51q-76 18 -121 73.5t-45 137.5q0 86 54.5 143.5t146.5 69.5q-84 30 -134.5 96t-50.5 168q0 163 123.5 248.5t335.5 85.5zM313 -150q0 -35 40.5 -50t138.5 -15q107 0 155.5 15.5t48.5 49.5q0 23 -21 31t-63 8h-237
q-62 0 -62 -39zM440 641q0 -46 18 -74t54 -28q35 0 53.5 27t18.5 75q0 102 -72 102t-72 -102zM418 1450h276l324 -334h-367l-51 66q-16 20 -25.5 37.5t-11.5 25.5l-2 8h-10q-4 -26 -39 -71l-51 -66h-367z" />
    <glyph glyph-name="Gbreve" unicode="&#x11e;" horiz-adv-x="1333" 
d="M682 678h565v-678h-280l-43 133q-79 -158 -332 -158q-91 0 -170.5 22t-148 70.5t-117.5 120.5t-77 176.5t-28 233.5q0 305 159 469t464 164q205 0 350.5 -90t189.5 -244l-401 -166q-8 66 -44 107t-101 41q-181 0 -181 -283q0 -144 44 -214.5t147 -70.5q71 0 109 26.5
t38 68.5v10h-143v262zM662 1274q-99 0 -170 28t-110 78.5t-57 112t-18 137.5h283q0 -50 16 -75t56 -25t55.5 25t15.5 75h283q0 -76 -17.5 -137.5t-57 -112t-110 -78.5t-169.5 -28z" />
    <glyph glyph-name="gbreve" unicode="&#x11f;" horiz-adv-x="1060" 
d="M512 971q148 0 268 -47q36 50 39 157l283 -98q-7 -77 -62 -121t-125 -51q62 -80 62 -174q0 -83 -36 -145t-101 -99.5t-147 -55.5t-181 -18q-82 0 -123 13q-35 -6 -35 -37t43 -31h289q184 0 282.5 -89.5t98.5 -246.5q0 -82 -32 -145t-84.5 -103t-128 -66t-156 -36
t-174.5 -10q-482 0 -482 213q0 77 48.5 117t144.5 51q-76 18 -121 73.5t-45 137.5q0 86 54.5 143.5t146.5 69.5q-84 30 -134.5 96t-50.5 168q0 163 123.5 248.5t335.5 85.5zM313 -150q0 -35 40.5 -50t138.5 -15q107 0 155.5 15.5t48.5 49.5q0 23 -21 31t-63 8h-237
q-62 0 -62 -39zM440 641q0 -46 18 -74t54 -28q35 0 53.5 27t18.5 75q0 102 -72 102t-72 -102zM555 1044q-99 0 -169.5 28t-110 79t-57 112.5t-17.5 137.5h282q0 -50 16 -75.5t56 -25.5t56 25.5t16 75.5h282q0 -76 -17.5 -137.5t-57 -112.5t-110 -79t-169.5 -28z" />
    <glyph glyph-name="Gdotaccent" unicode="&#x120;" horiz-adv-x="1333" 
d="M682 678h565v-678h-280l-43 133q-79 -158 -332 -158q-91 0 -170.5 22t-148 70.5t-117.5 120.5t-77 176.5t-28 233.5q0 305 159 469t464 164q205 0 350.5 -90t189.5 -244l-401 -166q-8 66 -44 107t-101 41q-181 0 -181 -283q0 -144 44 -214.5t147 -70.5q71 0 109 26.5
t38 68.5v10h-143v262zM428 1479q0 100 68.5 155.5t165.5 55.5t165 -55.5t68 -155.5t-68 -155.5t-165 -55.5t-165.5 55.5t-68.5 155.5z" />
    <glyph glyph-name="gdotaccent" unicode="&#x121;" horiz-adv-x="1060" 
d="M512 971q148 0 268 -47q36 50 39 157l283 -98q-7 -77 -62 -121t-125 -51q62 -80 62 -174q0 -83 -36 -145t-101 -99.5t-147 -55.5t-181 -18q-82 0 -123 13q-35 -6 -35 -37t43 -31h289q184 0 282.5 -89.5t98.5 -246.5q0 -82 -32 -145t-84.5 -103t-128 -66t-156 -36
t-174.5 -10q-482 0 -482 213q0 77 48.5 117t144.5 51q-76 18 -121 73.5t-45 137.5q0 86 54.5 143.5t146.5 69.5q-84 30 -134.5 96t-50.5 168q0 163 123.5 248.5t335.5 85.5zM313 -150q0 -35 40.5 -50t138.5 -15q107 0 155.5 15.5t48.5 49.5q0 23 -21 31t-63 8h-237
q-62 0 -62 -39zM440 641q0 -46 18 -74t54 -28q35 0 53.5 27t18.5 75q0 102 -72 102t-72 -102zM322 1235q0 100 68 155.5t165 55.5t165 -55.5t68 -155.5t-68 -155.5t-165 -55.5t-165 55.5t-68 155.5z" />
    <glyph glyph-name="Gcommaaccent" unicode="&#x122;" horiz-adv-x="1333" 
d="M682 678h565v-678h-280l-43 133q-79 -158 -332 -158q-91 0 -170.5 22t-148 70.5t-117.5 120.5t-77 176.5t-28 233.5q0 305 159 469t464 164q205 0 350.5 -90t189.5 -244l-401 -166q-8 66 -44 107t-101 41q-181 0 -181 -283q0 -144 44 -214.5t147 -70.5q71 0 109 26.5
t38 68.5v10h-143v262zM858 -283q0 -137 -97 -201.5t-269 -64.5v119q159 0 159 63q-184 0 -184 148q0 80 53 122t129 42q97 0 153 -63.5t56 -164.5z" />
    <glyph glyph-name="gcommaaccent" unicode="&#x123;" horiz-adv-x="1060" 
d="M512 971q148 0 268 -47q36 50 39 157l283 -98q-7 -77 -62 -121t-125 -51q62 -80 62 -174q0 -83 -36 -145t-101 -99.5t-147 -55.5t-181 -18q-82 0 -123 13q-35 -6 -35 -37t43 -31h289q184 0 282.5 -89.5t98.5 -246.5q0 -82 -32 -145t-84.5 -103t-128 -66t-156 -36
t-174.5 -10q-482 0 -482 213q0 77 48.5 117t144.5 51q-76 18 -121 73.5t-45 137.5q0 86 54.5 143.5t146.5 69.5q-84 30 -134.5 96t-50.5 168q0 163 123.5 248.5t335.5 85.5zM313 -150q0 -35 40.5 -50t138.5 -15q107 0 155.5 15.5t48.5 49.5q0 23 -21 31t-63 8h-237
q-62 0 -62 -39zM440 641q0 -46 18 -74t54 -28q35 0 53.5 27t18.5 75q0 102 -72 102t-72 -102zM319 1260q0 137 97 201.5t270 64.5v-119q-160 0 -160 -64q185 0 185 -147q0 -80 -53 -122t-130 -42q-97 0 -153 63.5t-56 164.5z" />
    <glyph glyph-name="Hcircumflex" unicode="&#x124;" horiz-adv-x="1335" 
d="M522 0h-420v1206h420v-413h291v413h420v-1206h-420v432h-291v-432zM530 1618h277l323 -334h-366l-51 66q-16 20 -25.5 38t-11.5 26l-2 7h-10q-4 -26 -39 -71l-52 -66h-366z" />
    <glyph glyph-name="hcircumflex" unicode="&#x125;" horiz-adv-x="1165" 
d="M502 1368v-604q34 103 113 155t184 52q125 0 204.5 -77t79.5 -232v-662h-413v510q0 61 -16.5 90t-59.5 29q-41 0 -66.5 -35t-25.5 -111v-483h-414v1368h414zM152 1745h276l324 -334h-367l-51 66q-16 20 -25.5 37.5t-11.5 25.5l-2 8h-10q-4 -26 -39 -71l-51 -66h-367z" />
    <glyph glyph-name="Hbar" unicode="&#x126;" horiz-adv-x="1388" 
d="M10 807v272h119v127h420v-127h291v127h420v-127h118v-272h-118v-807h-420v371h-291v-371h-420v807h-119zM549 690h291v117h-291v-117z" />
    <glyph glyph-name="hbar" unicode="&#x127;" horiz-adv-x="1212" 
d="M10 1034v217h125v117h414v-117h237v-217h-237v-270q34 103 113 155t184 52q125 0 204.5 -77t79.5 -232v-662h-413v510q0 61 -16.5 90t-59.5 29q-41 0 -66.5 -35t-25.5 -111v-483h-414v1034h-125z" />
    <glyph glyph-name="Itilde" unicode="&#x128;" horiz-adv-x="624" 
d="M102 1206h420v-1206h-420v1206zM-78 1427q0 106 59 166t154 60q50 0 84.5 -12.5t83.5 -41.5q43 -25 63.5 -34t41.5 -9q67 0 67 91h205q20 -78 20 -144q0 -106 -59 -165.5t-154 -59.5q-50 0 -85 12.5t-83 40.5q-44 26 -64 34.5t-40 8.5q-68 0 -68 -90h-204q-21 82 -21 143
z" />
    <glyph glyph-name="itilde" unicode="&#x129;" horiz-adv-x="589" 
d="M88 946h414v-946h-414v946zM-94 1188q0 106 59 165.5t154 59.5q50 0 85 -12.5t83 -40.5q44 -26 64 -34.5t40 -8.5q68 0 68 90h205q20 -78 20 -143q0 -106 -59 -166t-154 -60q-50 0 -84.5 12.5t-83.5 41.5q-44 26 -64 34.5t-40 8.5q-68 0 -68 -91h-205q-20 78 -20 144z
" />
    <glyph glyph-name="Imacron" unicode="&#x12a;" horiz-adv-x="624" 
d="M102 1206h420v-1206h-420v1206zM666 1284h-707v289h707v-289z" />
    <glyph glyph-name="imacron" unicode="&#x12b;" horiz-adv-x="589" 
d="M608 1055h-624v288h624v-288zM88 946h414v-946h-414v946z" />
    <glyph glyph-name="Ibreve" unicode="&#x12c;" horiz-adv-x="624" 
d="M102 1206h420v-1206h-420v1206zM311 1274q-99 0 -169.5 28t-110 78.5t-57 112t-17.5 137.5h283q0 -50 15.5 -75t55.5 -25t56 25t16 75h283q0 -76 -18 -137.5t-57 -112t-110 -78.5t-170 -28z" />
    <glyph glyph-name="Iogonek" unicode="&#x12e;" horiz-adv-x="624" 
d="M49 -176q0 104 53 176v1206h420v-1206h-55q-68 0 -98.5 -26t-30.5 -68t27.5 -63t68.5 -21q63 0 123 51l82 -205q-109 -100 -291 -100q-61 0 -111.5 13t-94.5 41t-68.5 79.5t-24.5 122.5z" />
    <glyph glyph-name="iogonek" unicode="&#x12f;" horiz-adv-x="589" 
d="M12 -176q0 113 76 186v936h414v-946h-113q-78 -40 -78 -111q0 -67 86 -67q63 0 123 51l82 -205q-109 -100 -291 -100q-61 0 -111.5 13t-94.5 41t-68.5 79.5t-24.5 122.5zM61 1214q0 100 68.5 155.5t165.5 55.5t165 -55.5t68 -155.5t-68 -155t-165 -55q-98 0 -166 55
t-68 155z" />
    <glyph glyph-name="Idotaccent" unicode="&#x130;" horiz-adv-x="624" 
d="M102 1206h420v-1206h-420v1206zM78 1479q0 100 68 155.5t165 55.5t165.5 -55.5t68.5 -155.5t-68.5 -155.5t-165.5 -55.5t-165 55.5t-68 155.5z" />
    <glyph glyph-name="dotlessi" unicode="&#x131;" horiz-adv-x="589" 
d="M88 946h414v-946h-414v946z" />
    <glyph glyph-name="IJ" unicode="&#x132;" horiz-adv-x="1662" 
d="M102 1206h420v-1206h-420v1206zM1163 1206h418v-800q0 -115 -36.5 -199.5t-105 -134.5t-158 -73.5t-202.5 -23.5q-197 0 -327.5 89t-167.5 280l397 148q3 -173 100 -173q82 0 82 99v788z" />
    <glyph glyph-name="ij" unicode="&#x133;" horiz-adv-x="1136" 
d="M88 946h414v-946h-414v946zM61 1214q0 100 68.5 155.5t165.5 55.5t165 -55.5t68 -155.5t-68 -155t-165 -55q-98 0 -166 55t-68 155zM1049 946v-921q0 -126 -34 -214t-100 -138t-150.5 -71.5t-197.5 -21.5q-118 0 -174 25v338q67 -31 129 -31t87.5 26.5t25.5 102.5v905
h414zM608 1214q0 100 68.5 155.5t165.5 55.5t165 -55.5t68 -155.5t-68 -155t-165 -55q-98 0 -166 55t-68 155z" />
    <glyph glyph-name="Jcircumflex" unicode="&#x134;" horiz-adv-x="1079" 
d="M580 1206h417v-800q0 -115 -36.5 -199.5t-104.5 -134.5t-157.5 -73.5t-202.5 -23.5q-197 0 -328 89t-168 280l397 148q3 -173 101 -173q82 0 82 99v788zM643 1618h277l323 -334h-366l-52 66q-16 20 -25.5 38t-11.5 26l-2 7h-10q-4 -26 -39 -71l-51 -66h-367z" />
    <glyph glyph-name="jcircumflex" unicode="&#x135;" horiz-adv-x="589" 
d="M502 946v-921q0 -126 -34 -214t-100 -138t-150.5 -71.5t-197.5 -21.5q-118 0 -174 25v338q67 -31 129 -31t87.5 26.5t25.5 102.5v905h414zM150 1389h276l324 -334h-367l-51 65q-16 20 -25.5 38t-11.5 26l-2 8h-10q-4 -27 -39 -72l-51 -65h-367z" />
    <glyph glyph-name="Kcommaaccent" unicode="&#x136;" horiz-adv-x="1298" 
d="M1298 0h-487l-229 438h-60v-438h-420v1206h420v-420h66l217 420h463l-322 -581zM848 -283q0 -137 -97 -201.5t-270 -64.5v119q160 0 160 63q-184 0 -184 148q0 80 53 122t129 42q97 0 153 -63.5t56 -164.5z" />
    <glyph glyph-name="kcommaaccent" unicode="&#x137;" horiz-adv-x="1175" 
d="M913 508l263 -508h-463l-164 350h-47v-350h-414v1368h414v-715h47l125 293h463zM799 -283q0 -137 -97 -201.5t-270 -64.5v119q160 0 160 63q-184 0 -184 148q0 80 53 122t129 42q97 0 153 -63.5t56 -164.5z" />
    <glyph glyph-name="kgreenlandic" unicode="&#x138;" horiz-adv-x="1175" 
d="M913 508l263 -508h-463l-164 350h-47v-350h-414v946h414v-293h47l125 293h463z" />
    <glyph glyph-name="Lacute" unicode="&#x139;" horiz-adv-x="993" 
d="M102 1206h420v-846h420v-360h-840v1206zM481 1282h-348l133 320h498z" />
    <glyph glyph-name="lacute" unicode="&#x13a;" horiz-adv-x="632" 
d="M612 342l-14 -307q-72 -53 -225 -53q-58 0 -109.5 15t-97 48t-72 93.5t-26.5 142.5v1087h413v-969q0 -77 56 -77q36 0 75 20zM442 1423h-348l133 320h498z" />
    <glyph glyph-name="Lcommaaccent" unicode="&#x13b;" horiz-adv-x="993" 
d="M102 1206h420v-846h420v-360h-840v1206zM719 -283q0 -137 -97 -201.5t-270 -64.5v119q160 0 160 63q-184 0 -184 148q0 80 53 122t129 42q97 0 153 -63.5t56 -164.5z" />
    <glyph glyph-name="lcommaaccent" unicode="&#x13c;" horiz-adv-x="632" 
d="M612 342l-14 -307q-72 -53 -225 -53q-58 0 -109.5 15t-97 48t-72 93.5t-26.5 142.5v1087h413v-969q0 -77 56 -77q36 0 75 20zM537 -283q0 -137 -97 -201.5t-270 -64.5v119q160 0 160 63q-185 0 -185 148q0 80 53 122t130 42q97 0 153 -63.5t56 -164.5z" />
    <glyph glyph-name="Lcaron" unicode="&#x13d;" horiz-adv-x="993" 
d="M102 1206h420v-846h420v-360h-840v1206zM1061 1206l-129 -362h-295l25 362h399z" />
    <glyph glyph-name="lcaron" unicode="&#x13e;" horiz-adv-x="632" 
d="M612 342l-14 -307q-72 -53 -225 -53q-58 0 -109.5 15t-97 48t-72 93.5t-26.5 142.5v1087h413v-969q0 -77 56 -77q36 0 75 20zM967 1368l-129 -362h-295l24 362h400z" />
    <glyph glyph-name="Ldot" unicode="&#x13f;" horiz-adv-x="1021" 
d="M102 1206h420v-846h420v-360h-840v1206zM563 684q0 97 65 163t165 66t164.5 -66t64.5 -163t-64.5 -163t-164.5 -66t-165 66t-65 163z" />
    <glyph glyph-name="ldot" unicode="&#x140;" horiz-adv-x="976" 
d="M612 342l-14 -307q-72 -53 -225 -53q-58 0 -109.5 15t-97 48t-72 93.5t-26.5 142.5v1087h413v-969q0 -77 56 -77q36 0 75 20zM526 725q0 97 65 163t165 66t164.5 -66t64.5 -163t-64.5 -163t-164.5 -66t-165 66t-65 163z" />
    <glyph glyph-name="Lslash" unicode="&#x141;" horiz-adv-x="1003" 
d="M10 379v272l103 33v522h419v-395l240 80v-273l-240 -79v-179h420v-360h-839v414z" />
    <glyph glyph-name="lslash" unicode="&#x142;" horiz-adv-x="677" 
d="M0 449v253l102 50v616h414v-446l129 63v-254l-129 -61v-271q0 -77 55 -77q37 0 76 20l-14 -307q-72 -53 -225 -53q-58 0 -109.5 15t-97 48t-72.5 93.5t-27 142.5v217z" />
    <glyph glyph-name="Nacute" unicode="&#x143;" horiz-adv-x="1366" 
d="M471 1206l242 -354q36 -51 67.5 -100.5t45.5 -73.5l14 -23h8q-4 98 -4 213v338h420v-1206h-349l-258 354q-35 48 -67.5 97t-47.5 73l-16 25h-8q4 -94 4 -248v-301h-420v1206h369zM817 1284h-348l133 320h498z" />
    <glyph glyph-name="nacute" unicode="&#x144;" horiz-adv-x="1165" 
d="M453 946l51 -182q28 102 108.5 154.5t186.5 52.5q125 0 204.5 -77t79.5 -232v-662h-413v510q0 61 -16.5 90t-59.5 29q-41 0 -66.5 -35t-25.5 -111v-483h-414v946h365zM741 1055h-348l133 319h498z" />
    <glyph glyph-name="Ncommaaccent" unicode="&#x145;" horiz-adv-x="1366" 
d="M471 1206l242 -354q36 -51 67.5 -100.5t45.5 -73.5l14 -23h8q-4 98 -4 213v338h420v-1206h-349l-258 354q-35 48 -67.5 97t-47.5 73l-16 25h-8q4 -94 4 -248v-301h-420v1206h369zM879 -283q0 -137 -97 -201.5t-270 -64.5v119q160 0 160 63q-185 0 -185 148q0 80 53 122
t130 42q97 0 153 -63.5t56 -164.5z" />
    <glyph glyph-name="ncommaaccent" unicode="&#x146;" horiz-adv-x="1165" 
d="M453 946l51 -182q28 102 108.5 154.5t186.5 52.5q125 0 204.5 -77t79.5 -232v-662h-413v510q0 61 -16.5 90t-59.5 29q-41 0 -66.5 -35t-25.5 -111v-483h-414v946h365zM782 -283q0 -137 -97 -201.5t-269 -64.5v119q159 0 159 63q-184 0 -184 148q0 80 53 122t129 42
q97 0 153 -63.5t56 -164.5z" />
    <glyph glyph-name="Ncaron" unicode="&#x147;" horiz-adv-x="1366" 
d="M471 1206l242 -354q36 -51 67.5 -100.5t45.5 -73.5l14 -23h8q-4 98 -4 213v338h420v-1206h-349l-258 354q-35 48 -67.5 97t-47.5 73l-16 25h-8q4 -94 4 -248v-301h-420v1206h369zM803 1284h-277l-323 334h366l52 -66q16 -20 25.5 -38t11.5 -26l1 -7h11q4 26 39 71l51 66
h366z" />
    <glyph glyph-name="ncaron" unicode="&#x148;" horiz-adv-x="1165" 
d="M453 946l51 -182q28 102 108.5 154.5t186.5 52.5q125 0 204.5 -77t79.5 -232v-662h-413v510q0 61 -16.5 90t-59.5 29q-41 0 -66.5 -35t-25.5 -111v-483h-414v946h365zM725 1055h-276l-324 334h367l51 -66q16 -20 25.5 -38t11.5 -26l2 -8h10q4 27 39 72l51 66h367z" />
    <glyph glyph-name="Eng" unicode="&#x14a;" horiz-adv-x="1366" 
d="M846 96l-189 258q-35 48 -67.5 97t-47.5 73l-16 25h-8q4 -94 4 -248v-301h-420v1206h369l242 -354q36 -51 67.5 -100.5t45.5 -73.5l14 -23h8q-4 98 -4 213v338h420v-1200q0 -115 -36.5 -199.5t-105 -134t-158 -73t-202.5 -23.5q-332 0 -449 229l359 207q20 -92 92 -92
q82 0 82 98v78z" />
    <glyph glyph-name="eng" unicode="&#x14b;" horiz-adv-x="1165" 
d="M670 41v469q0 61 -16.5 90t-59.5 29q-41 0 -66.5 -35t-25.5 -111v-483h-414v946h365l51 -182q28 102 108.5 154.5t186.5 52.5q125 0 204.5 -77t79.5 -232v-637q0 -126 -34 -214t-100 -138t-150 -71.5t-197 -21.5q-118 0 -174 25v338q67 -31 129 -31t87.5 26.5t25.5 102.5
z" />
    <glyph glyph-name="Omacron" unicode="&#x14c;" horiz-adv-x="1318" 
d="M1268 602q0 -304 -159 -465.5t-450 -161.5t-449.5 161.5t-158.5 465.5q0 305 158.5 467t449.5 162t450 -162t159 -467zM829 602q0 140 -39 209.5t-131 69.5t-131 -69.5t-39 -209.5q0 -138 39 -207t131 -69t131 69t39 207zM1014 1284h-707v289h707v-289z" />
    <glyph glyph-name="omacron" unicode="&#x14d;" horiz-adv-x="1114" 
d="M37 473q0 238 141 368t379 130t379 -130t141 -368t-141 -368t-379 -130t-379 130t-141 368zM662 473q0 102 -24.5 149.5t-80.5 47.5t-80 -47.5t-24 -149.5t24 -149.5t80 -47.5t80.5 47.5t24.5 149.5zM911 1055h-706v288h706v-288z" />
    <glyph glyph-name="Obreve" unicode="&#x14e;" horiz-adv-x="1318" 
d="M1268 602q0 -304 -159 -465.5t-450 -161.5t-449.5 161.5t-158.5 465.5q0 305 158.5 467t449.5 162t450 -162t159 -467zM829 602q0 140 -39 209.5t-131 69.5t-131 -69.5t-39 -209.5q0 -138 39 -207t131 -69t131 69t39 207zM659 1274q-99 0 -169.5 28t-110 78.5t-57 112
t-17.5 137.5h283q0 -50 15.5 -75t55.5 -25t56 25t16 75h283q0 -76 -18 -137.5t-57 -112t-110 -78.5t-170 -28z" />
    <glyph glyph-name="obreve" unicode="&#x14f;" horiz-adv-x="1114" 
d="M37 473q0 238 141 368t379 130t379 -130t141 -368t-141 -368t-379 -130t-379 130t-141 368zM662 473q0 102 -24.5 149.5t-80.5 47.5t-80 -47.5t-24 -149.5t24 -149.5t80 -47.5t80.5 47.5t24.5 149.5zM557 1044q-99 0 -169.5 28t-110 79t-57 112.5t-17.5 137.5h282
q0 -50 16 -75.5t56 -25.5t56 25.5t16 75.5h282q0 -76 -17.5 -137.5t-57 -112.5t-110 -79t-169.5 -28z" />
    <glyph glyph-name="Ohungarumlaut" unicode="&#x150;" horiz-adv-x="1318" 
d="M1268 602q0 -304 -159 -465.5t-450 -161.5t-449.5 161.5t-158.5 465.5q0 305 158.5 467t449.5 162t450 -162t159 -467zM829 602q0 140 -39 209.5t-131 69.5t-131 -69.5t-39 -209.5q0 -138 39 -207t131 -69t131 69t39 207zM567 1284h-282l75 340h394zM1006 1284h-320
l131 340h432z" />
    <glyph glyph-name="ohungarumlaut" unicode="&#x151;" horiz-adv-x="1114" 
d="M37 473q0 238 141 368t379 130t379 -130t141 -368t-141 -368t-379 -130t-379 130t-141 368zM662 473q0 102 -24.5 149.5t-80.5 47.5t-80 -47.5t-24 -149.5t24 -149.5t80 -47.5t80.5 47.5t24.5 149.5zM485 1055h-282l76 340h393zM924 1055h-320l131 340h432z" />
    <glyph glyph-name="OE" unicode="&#x152;" horiz-adv-x="1830" 
d="M1759 352v-352h-893q-98 -25 -207 -25q-291 0 -449.5 161.5t-158.5 465.5q0 305 158.5 467t449.5 162q109 0 207 -25h885v-352h-518q11 -37 22 -100h441v-301h-441q-11 -66 -22 -101h526zM829 602q0 140 -39 209.5t-131 69.5t-131 -69.5t-39 -209.5q0 -138 39 -207
t131 -69t131 69t39 207z" />
    <glyph glyph-name="oe" unicode="&#x153;" horiz-adv-x="1615" 
d="M1135 281q91 0 116 96l322 -127q-49 -135 -170.5 -205t-274.5 -70q-159 0 -284 88q-133 -88 -287 -88q-238 0 -379 130t-141 368t141 368t379 130q165 0 299 -90q126 88 285 88q217 0 327.5 -121t110.5 -322q0 -55 -14 -116h-533q0 -64 27 -96.5t76 -32.5zM662 473
q0 102 -24.5 149.5t-80.5 47.5t-80 -47.5t-24 -149.5t24 -149.5t80 -47.5t80.5 47.5t24.5 149.5zM1040 557h156q6 12 6 43q0 33 -17.5 56.5t-54.5 23.5q-40 0 -63.5 -33.5t-26.5 -89.5z" />
    <glyph glyph-name="Racute" unicode="&#x154;" horiz-adv-x="1243" 
d="M1243 0h-461q-28 29 -41 60t-26 90l-21 94q-10 53 -34 73.5t-70 20.5h-76v-338h-412v1206h584q107 0 192.5 -20.5t152 -65t102.5 -121.5t36 -182q0 -271 -243 -313v-8q79 -12 122.5 -54t67.5 -125l45 -159q16 -58 33 -92t49 -66zM514 852v-197h123q102 0 102 101
q0 46 -26 71t-72 25h-127zM750 1284h-349l134 320h497z" />
    <glyph glyph-name="racute" unicode="&#x155;" horiz-adv-x="884" 
d="M885 958l-56 -471q-33 23 -81.5 38.5t-92.5 15.5q-66 0 -109.5 -39t-43.5 -125v-377h-414v946h365l41 -268q13 123 93 205t214 82q37 0 84 -7zM641 1055h-348l133 319h498z" />
    <glyph glyph-name="Rcommaaccent" unicode="&#x156;" horiz-adv-x="1243" 
d="M1243 0h-461q-28 29 -41 60t-26 90l-21 94q-10 53 -34 73.5t-70 20.5h-76v-338h-412v1206h584q107 0 192.5 -20.5t152 -65t102.5 -121.5t36 -182q0 -271 -243 -313v-8q79 -12 122.5 -54t67.5 -125l45 -159q16 -58 33 -92t49 -66zM514 852v-197h123q102 0 102 101
q0 46 -26 71t-72 25h-127zM831 -283q0 -137 -96.5 -201.5t-269.5 -64.5v119q160 0 160 63q-185 0 -185 148q0 80 53 122t130 42q97 0 152.5 -63.5t55.5 -164.5z" />
    <glyph glyph-name="rcommaaccent" unicode="&#x157;" horiz-adv-x="884" 
d="M885 958l-56 -471q-33 23 -81.5 38.5t-92.5 15.5q-66 0 -109.5 -39t-43.5 -125v-377h-414v946h365l41 -268q13 123 93 205t214 82q37 0 84 -7zM502 -283q0 -137 -97 -201.5t-270 -64.5v119q160 0 160 63q-184 0 -184 148q0 80 53 122t129 42q97 0 153 -63.5t56 -164.5z
" />
    <glyph glyph-name="Rcaron" unicode="&#x158;" horiz-adv-x="1243" 
d="M1243 0h-461q-28 29 -41 60t-26 90l-21 94q-10 53 -34 73.5t-70 20.5h-76v-338h-412v1206h584q107 0 192.5 -20.5t152 -65t102.5 -121.5t36 -182q0 -271 -243 -313v-8q79 -12 122.5 -54t67.5 -125l45 -159q16 -58 33 -92t49 -66zM514 852v-197h123q102 0 102 101
q0 46 -26 71t-72 25h-127zM733 1284h-276l-324 334h367l51 -66q16 -20 25.5 -37.5t11.5 -25.5l2 -8h10q4 26 39 71l51 66h367z" />
    <glyph glyph-name="rcaron" unicode="&#x159;" horiz-adv-x="884" 
d="M885 958l-56 -471q-33 23 -81.5 38.5t-92.5 15.5q-66 0 -109.5 -39t-43.5 -125v-377h-414v946h365l41 -268q13 123 93 205t214 82q37 0 84 -7zM625 1055h-277l-323 334h366l51 -66q16 -20 25.5 -38t11.5 -26l2 -8h11q3 27 38 72l52 66h366z" />
    <glyph glyph-name="Sacute" unicode="&#x15a;" horiz-adv-x="1112" 
d="M10 262l381 137q38 -104 137 -104q84 0 84 55q0 25 -21.5 40t-70.5 22q-260 40 -367.5 135t-107.5 266q0 92 27.5 164t74 119.5t113 78t139.5 43.5t158 13q428 0 498 -311l-404 -91q-13 86 -108 86q-72 0 -72 -51q0 -30 30 -46t103 -25q457 -55 457 -422
q0 -106 -42.5 -184t-119 -123.5t-172.5 -67t-213 -21.5q-197 0 -330.5 71t-173.5 216zM707 1284h-349l134 320h497z" />
    <glyph glyph-name="sacute" unicode="&#x15b;" horiz-adv-x="952" 
d="M14 213l359 80q3 -72 71 -72q66 0 66 45q0 46 -66 51l-96 9q-155 14 -236 91.5t-81 213.5q0 91 34.5 158t97 106t140.5 57.5t172 18.5q182 0 293 -70t137 -207l-358 -35q0 70 -70 70q-61 0 -61 -45q0 -41 61 -47l103 -8q170 -13 250.5 -97.5t80.5 -220.5
q0 -336 -467 -336q-77 0 -142.5 11t-127 37t-103.5 74t-57 116zM618 1055h-348l133 319h498z" />
    <glyph glyph-name="Scircumflex" unicode="&#x15c;" horiz-adv-x="1112" 
d="M10 262l381 137q38 -104 137 -104q84 0 84 55q0 25 -21.5 40t-70.5 22q-260 40 -367.5 135t-107.5 266q0 92 27.5 164t74 119.5t113 78t139.5 43.5t158 13q428 0 498 -311l-404 -91q-13 86 -108 86q-72 0 -72 -51q0 -30 30 -46t103 -25q457 -55 457 -422
q0 -106 -42.5 -184t-119 -123.5t-172.5 -67t-213 -21.5q-197 0 -330.5 71t-173.5 216zM414 1618h276l324 -334h-367l-51 66q-16 20 -25.5 38t-11.5 26l-2 7h-10q-4 -26 -39 -71l-51 -66h-367z" />
    <glyph glyph-name="scircumflex" unicode="&#x15d;" horiz-adv-x="952" 
d="M14 213l359 80q3 -72 71 -72q66 0 66 45q0 46 -66 51l-96 9q-155 14 -236 91.5t-81 213.5q0 91 34.5 158t97 106t140.5 57.5t172 18.5q182 0 293 -70t137 -207l-358 -35q0 70 -70 70q-61 0 -61 -45q0 -41 61 -47l103 -8q170 -13 250.5 -97.5t80.5 -220.5
q0 -336 -467 -336q-77 0 -142.5 11t-127 37t-103.5 74t-57 116zM338 1389h276l324 -334h-367l-51 65q-16 20 -25.5 38t-11.5 26l-2 8h-10q-4 -27 -39 -72l-51 -65h-367z" />
    <glyph glyph-name="Scedilla" unicode="&#x15e;" horiz-adv-x="1112" 
d="M803 -238q0 -92 -68 -143t-184 -51q-161 0 -252 72l55 155q59 -49 123 -49q53 0 53 41q0 51 -81 51l20 139q-180 8 -301 78.5t-158 206.5l381 137q38 -104 137 -104q84 0 84 55q0 25 -21.5 40t-70.5 22q-260 40 -367.5 135t-107.5 266q0 92 27.5 164t74 119.5t113 78
t139.5 43.5t158 13q428 0 498 -311l-404 -91q-13 86 -108 86q-72 0 -72 -51q0 -30 30 -46t103 -25q457 -55 457 -422q0 -77 -23.5 -140t-64.5 -106.5t-100 -74.5t-127 -47.5t-148 -22.5l-4 -41q93 0 151 -45t58 -132z" />
    <glyph glyph-name="scedilla" unicode="&#x15f;" horiz-adv-x="952" 
d="M727 -238q0 -92 -68 -143t-184 -51q-161 0 -252 72l56 155q59 -49 122 -49q54 0 54 41q0 51 -82 51l20 139q-148 7 -250.5 62t-128.5 174l359 80q3 -72 71 -72q66 0 66 45q0 46 -66 51l-96 9q-155 14 -236 91.5t-81 213.5q0 91 34.5 158t97 106t140.5 57.5t172 18.5
q182 0 293 -70t137 -207l-358 -35q0 70 -70 70q-61 0 -61 -45q0 -41 61 -47l103 -8q170 -13 250.5 -97.5t80.5 -220.5q0 -305 -389 -331l-4 -41q93 0 151 -45t58 -132z" />
    <glyph glyph-name="Scaron" unicode="&#x160;" horiz-adv-x="1112" 
d="M10 262l381 137q38 -104 137 -104q84 0 84 55q0 25 -21.5 40t-70.5 22q-260 40 -367.5 135t-107.5 266q0 92 27.5 164t74 119.5t113 78t139.5 43.5t158 13q428 0 498 -311l-404 -91q-13 86 -108 86q-72 0 -72 -51q0 -30 30 -46t103 -25q457 -55 457 -422
q0 -106 -42.5 -184t-119 -123.5t-172.5 -67t-213 -21.5q-197 0 -330.5 71t-173.5 216zM690 1284h-276l-324 334h367l51 -66q16 -20 25.5 -37.5t11.5 -25.5l2 -8h10q4 26 39 71l51 66h367z" />
    <glyph glyph-name="scaron" unicode="&#x161;" horiz-adv-x="952" 
d="M14 213l359 80q3 -72 71 -72q66 0 66 45q0 46 -66 51l-96 9q-155 14 -236 91.5t-81 213.5q0 91 34.5 158t97 106t140.5 57.5t172 18.5q182 0 293 -70t137 -207l-358 -35q0 70 -70 70q-61 0 -61 -45q0 -41 61 -47l103 -8q170 -13 250.5 -97.5t80.5 -220.5
q0 -336 -467 -336q-77 0 -142.5 11t-127 37t-103.5 74t-57 116zM614 1055h-276l-324 334h367l51 -66q16 -20 25.5 -38t11.5 -26l2 -8h10q4 27 39 72l51 66h367z" />
    <glyph glyph-name="Tcommaaccent" unicode="&#x162;" horiz-adv-x="1099" 
d="M756 0h-420v846h-295v360h1018v-360h-303v-846zM745 -283q0 -137 -96.5 -201.5t-269.5 -64.5v119q160 0 160 63q-185 0 -185 148q0 80 53 122t130 42q97 0 152.5 -63.5t55.5 -164.5z" />
    <glyph glyph-name="tcommaaccent" unicode="&#x163;" horiz-adv-x="833" 
d="M741 389l68 -315q-57 -47 -144 -73t-188 -26q-179 0 -265.5 87.5t-86.5 277.5v303h-113v303h117v201l397 45v-246h228v-303h-230v-223q0 -48 19 -71t61 -23q82 0 137 63zM655 -283q0 -137 -97 -201.5t-269 -64.5v119q160 0 160 63q-185 0 -185 148q0 80 53 122t129 42
q97 0 153 -63.5t56 -164.5z" />
    <glyph glyph-name="Tcaron" unicode="&#x164;" horiz-adv-x="1099" 
d="M756 0h-420v846h-295v360h1018v-360h-303v-846zM688 1284h-276l-324 334h367l51 -66q16 -20 25.5 -37.5t11.5 -25.5l2 -8h10q4 26 39 71l51 66h367z" />
    <glyph glyph-name="tcaron" unicode="&#x165;" horiz-adv-x="833" 
d="M741 389l68 -315q-57 -47 -144 -73t-188 -26q-179 0 -265.5 87.5t-86.5 277.5v303h-113v303h117v201l397 45v-246h228v-303h-230v-223q0 -48 19 -71t61 -23q82 0 137 63zM995 1364l-129 -363h-295l25 363h399z" />
    <glyph glyph-name="Tbar" unicode="&#x166;" horiz-adv-x="1099" 
d="M143 373v305h193v168h-295v360h1018v-360h-303v-168h192v-305h-192v-373h-420v373h-193z" />
    <glyph glyph-name="tbar" unicode="&#x167;" horiz-adv-x="833" 
d="M12 434v166h113v70h-113v276h117v201l397 45v-246h228v-276h-230v-70h230v-166h-230v-14q0 -48 19 -71t61 -23q82 0 137 63l68 -315q-57 -47 -144 -73t-188 -26q-179 0 -265.5 87.5t-86.5 277.5v94h-113z" />
    <glyph glyph-name="Utilde" unicode="&#x168;" horiz-adv-x="1273" 
d="M637 -25q-555 0 -555 492v739h420v-696q0 -40 5 -71t19 -60.5t42 -45.5t69 -16t69 16t42 45.5t19 60.5t5 71v696h420v-739q0 -492 -555 -492zM248 1427q0 106 59 166t154 60q50 0 84.5 -12.5t83.5 -41.5q44 -26 64 -34.5t40 -8.5q68 0 68 91h205q20 -78 20 -144
q0 -106 -59 -165.5t-154 -59.5q-50 0 -85 12.5t-83 40.5q-44 26 -64 34.5t-40 8.5q-68 0 -68 -90h-205q-20 78 -20 143z" />
    <glyph glyph-name="utilde" unicode="&#x169;" horiz-adv-x="1153" 
d="M707 0l-52 172q-15 -94 -84.5 -145.5t-191.5 -51.5q-141 0 -221 81t-80 241v649h414v-561q0 -53 15 -79.5t50 -26.5q52 0 73 40.5t21 135.5v491h414v-946h-358zM182 1188q0 106 59 165.5t154 59.5q50 0 85 -12.5t83 -40.5q43 -25 63.5 -34t41.5 -9q67 0 67 90h205
q21 -82 21 -143q0 -106 -59 -166t-154 -60q-50 0 -84.5 12.5t-83.5 41.5q-43 25 -63.5 34t-41.5 9q-67 0 -67 -91h-205q-21 82 -21 144z" />
    <glyph glyph-name="Umacron" unicode="&#x16a;" horiz-adv-x="1273" 
d="M637 -25q-555 0 -555 492v739h420v-696q0 -40 5 -71t19 -60.5t42 -45.5t69 -16t69 16t42 45.5t19 60.5t5 71v696h420v-739q0 -492 -555 -492zM991 1284h-706v289h706v-289z" />
    <glyph glyph-name="umacron" unicode="&#x16b;" horiz-adv-x="1153" 
d="M707 0l-52 172q-15 -94 -84.5 -145.5t-191.5 -51.5q-141 0 -221 81t-80 241v649h414v-561q0 -53 15 -79.5t50 -26.5q52 0 73 40.5t21 135.5v491h414v-946h-358zM926 1055h-707v288h707v-288z" />
    <glyph glyph-name="Ubreve" unicode="&#x16c;" horiz-adv-x="1273" 
d="M637 -25q-555 0 -555 492v739h420v-696q0 -40 5 -71t19 -60.5t42 -45.5t69 -16t69 16t42 45.5t19 60.5t5 71v696h420v-739q0 -492 -555 -492zM637 1274q-99 0 -169.5 28t-110 78.5t-57 112t-17.5 137.5h282q0 -50 16 -75t56 -25t56 25t16 75h282q0 -76 -17.5 -137.5
t-57 -112t-110 -78.5t-169.5 -28z" />
    <glyph glyph-name="ubreve" unicode="&#x16d;" horiz-adv-x="1153" 
d="M707 0l-52 172q-15 -94 -84.5 -145.5t-191.5 -51.5q-141 0 -221 81t-80 241v649h414v-561q0 -53 15 -79.5t50 -26.5q52 0 73 40.5t21 135.5v491h414v-946h-358zM571 1044q-99 0 -169.5 28t-110 79t-57 112.5t-17.5 137.5h283q0 -50 15.5 -75.5t55.5 -25.5t56 25.5
t16 75.5h283q0 -76 -18 -137.5t-57 -112.5t-110 -79t-170 -28z" />
    <glyph glyph-name="Uring" unicode="&#x16e;" horiz-adv-x="1273" 
d="M637 -25q-555 0 -555 492v739h420v-696q0 -40 5 -71t19 -60.5t42 -45.5t69 -16t69 16t42 45.5t19 60.5t5 71v696h420v-739q0 -492 -555 -492zM637 1272q-121 0 -188.5 68.5t-67.5 175.5q0 100 71 168.5t185 68.5t185 -68.5t71 -168.5q0 -107 -67.5 -175.5t-188.5 -68.5z
M637 1599q-38 0 -59 -23t-21 -60q0 -36 21 -60t59 -24q37 0 57.5 24t20.5 60q0 37 -21 60t-57 23z" />
    <glyph glyph-name="uring" unicode="&#x16f;" horiz-adv-x="1153" 
d="M707 0l-52 172q-15 -94 -84.5 -145.5t-191.5 -51.5q-141 0 -221 81t-80 241v649h414v-561q0 -53 15 -79.5t50 -26.5q52 0 73 40.5t21 135.5v491h414v-946h-358zM571 1004q-121 0 -188.5 68t-67.5 175q0 100 71 169t185 69t185 -69t71 -169q0 -107 -67.5 -175t-188.5 -68z
M571 1331q-37 0 -58 -23t-21 -61q0 -36 20.5 -60t58.5 -24q37 0 57.5 24t20.5 60q0 37 -21 60.5t-57 23.5z" />
    <glyph glyph-name="Uhungarumlaut" unicode="&#x170;" horiz-adv-x="1273" 
d="M637 -25q-555 0 -555 492v739h420v-696q0 -40 5 -71t19 -60.5t42 -45.5t69 -16t69 16t42 45.5t19 60.5t5 71v696h420v-739q0 -492 -555 -492zM565 1284h-282l75 340h394zM1004 1284h-320l131 340h432z" />
    <glyph glyph-name="uhungarumlaut" unicode="&#x171;" horiz-adv-x="1153" 
d="M707 0l-52 172q-15 -94 -84.5 -145.5t-191.5 -51.5q-141 0 -221 81t-80 241v649h414v-561q0 -53 15 -79.5t50 -26.5q52 0 73 40.5t21 135.5v491h414v-946h-358zM489 1055h-282l76 340h393zM928 1055h-320l131 340h432z" />
    <glyph glyph-name="Uogonek" unicode="&#x172;" horiz-adv-x="1273" 
d="M457 -176q0 92 49 160q-424 53 -424 483v739h420v-696q0 -40 5 -71t19 -60.5t42 -45.5t69 -16t69 16t42 45.5t19 60.5t5 71v696h420v-739q0 -406 -373 -475q-63 -38 -63 -103q0 -67 86 -67q63 0 123 51l82 -205q-109 -100 -291 -100q-61 0 -111.5 13t-94.5 41t-68.5 79.5
t-24.5 122.5z" />
    <glyph glyph-name="uogonek" unicode="&#x173;" horiz-adv-x="1153" 
d="M551 -176q0 81 42.5 135.5t111.5 79.5l-50 133q-15 -94 -84.5 -145.5t-191.5 -51.5q-141 0 -221 81t-80 241v649h414v-561q0 -53 15 -79.5t50 -26.5q52 0 73 40.5t21 135.5v491h414v-946h-76q-66 0 -102.5 -30t-36.5 -72q0 -37 23 -56.5t63 -19.5q63 0 123 51l82 -205
q-109 -100 -291 -100q-61 0 -111.5 13t-94.5 41t-68.5 79.5t-24.5 122.5z" />
    <glyph glyph-name="Wcircumflex" unicode="&#x174;" horiz-adv-x="1839" 
d="M707 1206h434l76 -440q14 -78 24 -163.5t13 -132.5l3 -46h9q12 166 45 344l80 438h438l-275 -1206h-505l-78 332q-16 64 -30.5 145t-20.5 131l-7 49h-8q-18 -184 -47 -325l-67 -332h-506l-275 1206h447l80 -438q15 -78 26 -164t15 -133l4 -47h8q10 164 41 342zM782 1618
h277l323 -334h-366l-51 66q-16 20 -25.5 38t-11.5 26l-2 7h-11q-3 -26 -38 -71l-52 -66h-366z" />
    <glyph glyph-name="wcircumflex" unicode="&#x175;" horiz-adv-x="1597" 
d="M618 946h361l57 -315q10 -53 17.5 -122.5t9.5 -112.5l2 -44h8q6 160 33 279l70 315h413l-252 -946h-463l-40 211q-9 46 -18 112.5t-14 110.5l-5 43h-9q-16 -162 -36 -266l-41 -211h-451l-252 946h414l70 -315q12 -53 20.5 -122.5t11.5 -112.5l2 -44h9q3 160 26 279z
M662 1389h276l324 -334h-367l-51 65q-16 20 -25.5 38t-11.5 26l-2 8h-10q-4 -27 -39 -72l-51 -65h-367z" />
    <glyph glyph-name="Ycircumflex" unicode="&#x176;" horiz-adv-x="1314" 
d="M664 791h8q22 85 100 237l92 178h443l-441 -811v-395h-417v395l-441 811h457l92 -178q35 -68 61.5 -127t35.5 -85zM520 1618h277l323 -334h-366l-52 66q-16 20 -25.5 38t-10.5 26l-2 7h-11q-4 -26 -39 -71l-51 -66h-366z" />
    <glyph glyph-name="ycircumflex" unicode="&#x177;" horiz-adv-x="1140" 
d="M338 -39l-330 985h441l88 -358q12 -48 21.5 -114t13.5 -108l3 -42h9q16 149 47 260l98 362h404l-310 -893q-81 -250 -215.5 -364.5t-326.5 -114.5q-157 0 -254 55l82 299q49 -43 118 -43q80 0 111 76zM453 1389h276l324 -334h-367l-51 65q-16 20 -25.5 38t-11.5 26l-2 8
h-10q-4 -27 -39 -72l-51 -65h-367z" />
    <glyph glyph-name="Ydieresis" unicode="&#x178;" horiz-adv-x="1314" 
d="M664 791h8q22 85 100 237l92 178h443l-441 -811v-395h-417v395l-441 811h457l92 -178q35 -68 61.5 -127t35.5 -85zM227 1464q0 93 60 145t145 52t145 -52t60 -145q0 -92 -60 -143t-145 -51t-145 51t-60 143zM678 1464q0 93 60 145t145 52t144.5 -52t59.5 -145
q0 -92 -59.5 -143t-144.5 -51t-145 51t-60 143z" />
    <glyph glyph-name="Zacute" unicode="&#x179;" horiz-adv-x="1159" 
d="M1071 879l-344 -379q-38 -42 -73.5 -77t-51.5 -49l-16 -14v-8q53 8 170 8h338v-360h-1022v334l323 366q37 43 71.5 79t49.5 51l16 14v8q-53 -6 -180 -6h-278v360h997v-327zM745 1284h-348l133 320h498z" />
    <glyph glyph-name="zacute" unicode="&#x17a;" horiz-adv-x="993" 
d="M913 680l-233 -254q-36 -38 -65.5 -68.5t-41.5 -41.5l-12 -11v-8q31 8 111 8h260v-305h-871v262l213 242q37 43 69.5 77t46.5 47l13 13v8q-59 -6 -137 -6h-196v303h843v-266zM651 1055h-348l133 319h498z" />
    <glyph glyph-name="Zdotaccent" unicode="&#x17b;" horiz-adv-x="1159" 
d="M1071 879l-344 -379q-38 -42 -73.5 -77t-51.5 -49l-16 -14v-8q53 8 170 8h338v-360h-1022v334l323 366q37 43 71.5 79t49.5 51l16 14v8q-53 -6 -180 -6h-278v360h997v-327zM356 1479q0 100 68.5 155.5t165.5 55.5t165 -55.5t68 -155.5t-68 -155.5t-165 -55.5t-165.5 55.5
t-68.5 155.5z" />
    <glyph glyph-name="zdotaccent" unicode="&#x17c;" horiz-adv-x="993" 
d="M913 680l-233 -254q-36 -38 -65.5 -68.5t-41.5 -41.5l-12 -11v-8q31 8 111 8h260v-305h-871v262l213 242q37 43 69.5 77t46.5 47l13 13v8q-59 -6 -137 -6h-196v303h843v-266zM262 1214q0 100 68.5 155.5t165.5 55.5t165 -55.5t68 -155.5t-68 -155t-165 -55q-98 0 -166 55
t-68 155z" />
    <glyph glyph-name="Zcaron" unicode="&#x17d;" horiz-adv-x="1159" 
d="M1071 879l-344 -379q-38 -42 -73.5 -77t-51.5 -49l-16 -14v-8q53 8 170 8h338v-360h-1022v334l323 366q37 43 71.5 79t49.5 51l16 14v8q-53 -6 -180 -6h-278v360h997v-327zM729 1284h-276l-324 334h367l51 -66q16 -20 25.5 -37.5t11.5 -25.5l2 -8h10q4 26 39 71l51 66
h367z" />
    <glyph glyph-name="zcaron" unicode="&#x17e;" horiz-adv-x="993" 
d="M913 680l-233 -254q-36 -38 -65.5 -68.5t-41.5 -41.5l-12 -11v-8q31 8 111 8h260v-305h-871v262l213 242q37 43 69.5 77t46.5 47l13 13v8q-59 -6 -137 -6h-196v303h843v-266zM635 1055h-277l-323 334h366l52 -66q16 -20 25.5 -38t11.5 -26l2 -8h10q4 27 39 72l51 66h366z
" />
    <glyph glyph-name="Schwa" unicode="&#x18f;" horiz-adv-x="1232" 
d="M588 860q-103 0 -144 -137l-385 162q61 172 201.5 259t323.5 87q274 0 436 -162.5t162 -445.5q0 -316 -147.5 -482t-438.5 -166q-263 0 -404 154t-141 406q0 94 19 147h651q0 178 -133 178zM721 496h-217q-8 -16 -8 -62q0 -51 26.5 -86t79.5 -35q62 0 90.5 51.5
t28.5 131.5z" />
    <glyph glyph-name="florin" unicode="&#x192;" horiz-adv-x="1210" 
d="M90 -248l109 451h-138l48 262h141l20 86q59 248 185 353.5t344 105.5q117 0 222.5 -43.5t158.5 -116.5l-191 -293q-24 45 -65 73.5t-86 28.5q-65 0 -95.5 -30t-46.5 -101l-14 -63h242l-47 -262h-246l-111 -451h-430z" />
    <glyph glyph-name="Khook" unicode="&#x198;" horiz-adv-x="1298" 
d="M963 741l-27 -98l362 -643h-487l-229 438h-60v-438h-420v1206h420v-420h66l39 127q48 161 125.5 239.5t222.5 78.5q224 0 319 -189l-204 -272q-15 23 -28.5 31t-37.5 8q-42 0 -61 -68z" />
    <glyph glyph-name="khook" unicode="&#x199;" horiz-adv-x="1175" 
d="M502 979v-326h47l125 293h463l-224 -438l263 -508h-463l-164 350h-47v-350h-414v958q0 211 108.5 319.5t313.5 108.5q182 0 309 -86l-100 -278q-53 47 -129 47q-88 0 -88 -90z" />
    <glyph glyph-name="Ezh" unicode="&#x1b7;" horiz-adv-x="1093" 
d="M309 569l105 136q30 38 61 73t47 50l15 16v8q-66 -6 -144 -6h-301v360h940v-301l-317 -385v-2q119 -13 202 -76t119.5 -148.5t36.5 -184.5q0 -207 -141.5 -338t-394.5 -131q-230 0 -381 89.5t-197 266.5l348 188q29 -113 83.5 -166t139.5 -53q61 0 96.5 34.5t35.5 90.5
q0 96 -87.5 150.5t-265.5 54.5v274z" />
    <glyph glyph-name="Acaron" unicode="&#x1cd;" horiz-adv-x="1368" 
d="M926 0l-54 164h-397l-49 -164h-418l395 1206h560l397 -1206h-434zM776 477l-43 166l-59 236h-8q-19 -105 -54 -236l-43 -166h207zM823 1284h-276l-324 334h367l51 -66q16 -20 25.5 -37.5t11.5 -25.5l2 -8h10q4 26 39 71l51 66h367z" />
    <glyph glyph-name="acaron" unicode="&#x1ce;" horiz-adv-x="1091" 
d="M551 299v76q-12 2 -35 2q-98 0 -98 -78q0 -28 16.5 -44.5t46.5 -16.5q70 0 70 61zM961 625v-267q0 -27 9.5 -40t33.5 -13q25 0 57 19v-281q-80 -57 -209 -57q-203 0 -252 147q-20 -74 -88.5 -111.5t-173.5 -37.5q-147 0 -227 70.5t-80 197.5q0 137 101 212t278 75
q67 0 141 -9v107q0 53 -43 53q-51 0 -51 -108l-377 55q11 156 122.5 245t319.5 89q228 0 333.5 -92t105.5 -254zM676 1055h-277l-323 334h366l52 -66q16 -20 25.5 -38t10.5 -26l2 -8h11q4 27 39 72l51 66h366z" />
    <glyph glyph-name="Icaron" unicode="&#x1cf;" horiz-adv-x="624" 
d="M102 1206h420v-1206h-420v1206zM451 1284h-277l-324 334h367l51 -66q16 -20 25.5 -37.5t11.5 -25.5l2 -8h10q4 26 39 71l52 66h366z" />
    <glyph glyph-name="icaron" unicode="&#x1d0;" horiz-adv-x="589" 
d="M88 946h414v-946h-414v946zM434 1055h-276l-324 334h367l51 -66q16 -20 25.5 -38t11.5 -26l2 -8h10q4 27 39 72l51 66h367z" />
    <glyph glyph-name="Ocaron" unicode="&#x1d1;" horiz-adv-x="1318" 
d="M1268 602q0 -304 -159 -465.5t-450 -161.5t-449.5 161.5t-158.5 465.5q0 305 158.5 467t449.5 162t450 -162t159 -467zM829 602q0 140 -39 209.5t-131 69.5t-131 -69.5t-39 -209.5q0 -138 39 -207t131 -69t131 69t39 207zM799 1284h-277l-323 334h366l51 -66
q16 -20 25.5 -37.5t11.5 -25.5l2 -8h11q4 26 39 71l51 66h366z" />
    <glyph glyph-name="ocaron" unicode="&#x1d2;" horiz-adv-x="1114" 
d="M37 473q0 238 141 368t379 130t379 -130t141 -368t-141 -368t-379 -130t-379 130t-141 368zM662 473q0 102 -24.5 149.5t-80.5 47.5t-80 -47.5t-24 -149.5t24 -149.5t80 -47.5t80.5 47.5t24.5 149.5zM696 1055h-276l-324 334h367l51 -66q16 -20 25.5 -38t11.5 -26l2 -8
h10q4 27 39 72l51 66h367z" />
    <glyph glyph-name="Ucaron" unicode="&#x1d3;" horiz-adv-x="1273" 
d="M637 -25q-555 0 -555 492v739h420v-696q0 -40 5 -71t19 -60.5t42 -45.5t69 -16t69 16t42 45.5t19 60.5t5 71v696h420v-739q0 -492 -555 -492zM776 1284h-276l-324 334h367l51 -66q16 -20 25.5 -37.5t11.5 -25.5l2 -8h10q4 26 39 71l51 66h367z" />
    <glyph glyph-name="ucaron" unicode="&#x1d4;" horiz-adv-x="1153" 
d="M707 0l-52 172q-15 -94 -84.5 -145.5t-191.5 -51.5q-141 0 -221 81t-80 241v649h414v-561q0 -53 15 -79.5t50 -26.5q52 0 73 40.5t21 135.5v491h414v-946h-358zM711 1055h-277l-323 334h366l51 -66q16 -20 25.5 -38t11.5 -26l2 -8h11q3 27 38 72l52 66h366z" />
    <glyph glyph-name="uni01D9" unicode="&#x1d9;" horiz-adv-x="1273" 
d="M637 -25q-555 0 -555 492v739h420v-696q0 -40 5 -71t19 -60.5t42 -45.5t69 -16t69 16t42 45.5t19 60.5t5 71v696h420v-739q0 -492 -555 -492zM207 1444q0 93 60 144.5t145 51.5t144.5 -51.5t59.5 -144.5q0 -92 -59.5 -143.5t-144.5 -51.5t-145 51.5t-60 143.5zM657 1444
q0 93 60 144.5t145 51.5t145 -51.5t60 -144.5q0 -92 -60 -143.5t-145 -51.5t-145 51.5t-60 143.5zM776 1673h-276l-324 334h367l51 -65q16 -20 25.5 -38t11.5 -26l2 -8h10q4 27 39 72l51 65h367z" />
    <glyph glyph-name="uni01DA" unicode="&#x1da;" horiz-adv-x="1153" 
d="M707 0l-52 172q-15 -94 -84.5 -145.5t-191.5 -51.5q-141 0 -221 81t-80 241v649h414v-561q0 -53 15 -79.5t50 -26.5q52 0 73 40.5t21 135.5v491h414v-946h-358zM141 1198q0 93 60 145t145 52t145 -52t60 -145q0 -92 -60 -143t-145 -51t-145 51t-60 143zM592 1198
q0 93 60 145t145 52t144.5 -52t59.5 -145q0 -92 -59.5 -143t-144.5 -51t-145 51t-60 143zM711 1427h-277l-323 334h366l51 -65q16 -20 25.5 -38t11.5 -26l2 -8h11q3 27 38 72l52 65h366z" />
    <glyph glyph-name="uni004100A800AF" unicode="&#x1de;" horiz-adv-x="1368" 
d="M926 0l-54 164h-397l-49 -164h-418l395 1206h560l397 -1206h-434zM776 477l-43 166l-59 236h-8q-19 -105 -54 -236l-43 -166h207zM254 1423q0 93 60 145t145 52t145 -52t60 -145q0 -92 -60 -143t-145 -51t-145 51t-60 143zM705 1423q0 93 59.5 145t144.5 52t145 -52
t60 -145q0 -92 -60 -143t-145 -51t-144.5 51t-59.5 143zM1042 1645h-706v288h706v-288z" />
    <glyph glyph-name="adieresismacron" unicode="&#x1df;" horiz-adv-x="1091" 
d="M551 299v76q-12 2 -35 2q-98 0 -98 -78q0 -28 16.5 -44.5t46.5 -16.5q70 0 70 61zM961 625v-267q0 -27 9.5 -40t33.5 -13q25 0 57 19v-281q-80 -57 -209 -57q-203 0 -252 147q-20 -74 -88.5 -111.5t-173.5 -37.5q-147 0 -227 70.5t-80 197.5q0 137 101 212t278 75
q67 0 141 -9v107q0 53 -43 53q-51 0 -51 -108l-377 55q11 156 122.5 245t319.5 89q228 0 333.5 -92t105.5 -254zM106 1176q0 93 60 144.5t145 51.5t145 -51.5t60 -144.5q0 -92 -60 -143.5t-145 -51.5t-145 51.5t-60 143.5zM557 1176q0 93 60 144.5t145 51.5t145 -51.5
t60 -144.5q0 -92 -60 -143.5t-145 -51.5t-145 51.5t-60 143.5zM891 1411h-707v289h707v-289z" />
    <glyph glyph-name="AEmacron" unicode="&#x1e2;" horiz-adv-x="1912" 
d="M942 164h-414l-88 -164h-432l688 1206h1137v-344h-494v-108h439v-301h-439v-109h502v-344h-899v164zM1581 1284h-707v289h707v-289zM946 930l-248 -453h244v176q0 46 3 115.5t6 115.5l3 46h-8z" />
    <glyph glyph-name="aemacron" unicode="&#x1e3;" horiz-adv-x="1513" 
d="M1032 281q92 0 117 96l321 -127q-49 -135 -170 -205t-274 -70q-230 0 -364 131q-46 -58 -126.5 -94.5t-181.5 -36.5q-150 0 -236.5 72.5t-86.5 204.5q0 57 18.5 102.5t47 75.5t73.5 51.5t88 33t101 18.5t101.5 8.5t100.5 1.5v94q0 24 -12 38.5t-35 14.5q-27 0 -42 -29
t-15 -79l-377 55q11 156 122.5 245t319.5 89q169 0 258 -53q105 51 258 51q110 0 195 -34t138 -95t79.5 -141.5t26.5 -178.5q0 -51 -15 -117h-532q0 -122 102 -122zM938 551h156q6 21 6 49q0 33 -17.5 56.5t-54.5 23.5q-40 0 -63.5 -36t-26.5 -93zM561 317v74
q-65 0 -104 -23.5t-39 -68.5q0 -28 16.5 -44.5t46.5 -16.5q34 0 57 19.5t23 59.5zM1108 1055h-707v288h707v-288z" />
    <glyph glyph-name="Gstroke" unicode="&#x1e4;" horiz-adv-x="1355" 
d="M682 356v142h143v51h-143v141h565v-192h109v-142h-109v-356h-280l-43 133q-36 -83 -118.5 -120.5t-213.5 -37.5q-91 0 -170.5 22t-148 70.5t-117.5 120.5t-77 176.5t-28 233.5q0 305 159 469t464 164q205 0 350.5 -90t189.5 -244l-401 -154q-8 66 -44 107t-101 41
q-84 0 -132.5 -71t-48.5 -224q0 -320 191 -320q60 0 96.5 22t46.5 58h-139z" />
    <glyph glyph-name="gstroke" unicode="&#x1e5;" horiz-adv-x="1060" 
d="M-49 -184v71h96q47 50 156 62q-76 18 -121 73.5t-45 137.5q0 86 54.5 143.5t146.5 69.5q-84 30 -134.5 96t-50.5 168q0 163 123.5 248.5t335.5 85.5q148 0 268 -47q36 50 39 157l283 -98q-7 -77 -62 -121t-125 -51q62 -80 62 -174q0 -83 -36 -145t-101 -99.5t-147 -55.5
t-181 -18q-82 0 -123 13q-35 -6 -35 -37t43 -31h289q184 0 282.5 -89.5t98.5 -246.5q0 -7 -1 -20.5t-1 -20.5h68v-71h-84q-25 -68 -79.5 -117.5t-131 -77.5t-162 -40.5t-184.5 -12.5q-482 0 -482 213q0 25 2 35h-61zM440 641q0 -46 18 -74t54 -28q35 0 53.5 27t18.5 75
q0 102 -72 102t-72 -102zM356 -57q-66 0 -75 -56h471q-4 33 -30 44.5t-73 11.5h-293zM500 -248q191 0 237 64h-444q19 -34 67.5 -49t139.5 -15z" />
    <glyph glyph-name="Gcaron" unicode="&#x1e6;" horiz-adv-x="1333" 
d="M682 678h565v-678h-280l-43 133q-79 -158 -332 -158q-91 0 -170.5 22t-148 70.5t-117.5 120.5t-77 176.5t-28 233.5q0 305 159 469t464 164q205 0 350.5 -90t189.5 -244l-401 -166q-8 66 -44 107t-101 41q-181 0 -181 -283q0 -144 44 -214.5t147 -70.5q71 0 109 26.5
t38 68.5v10h-143v262zM801 1284h-277l-323 334h366l51 -66q16 -20 25.5 -37.5t11.5 -25.5l2 -8h11q4 26 39 71l51 66h366z" />
    <glyph glyph-name="gcaron" unicode="&#x1e7;" horiz-adv-x="1060" 
d="M512 971q148 0 268 -47q36 50 39 157l283 -98q-7 -77 -62 -121t-125 -51q62 -80 62 -174q0 -83 -36 -145t-101 -99.5t-147 -55.5t-181 -18q-82 0 -123 13q-35 -6 -35 -37t43 -31h289q184 0 282.5 -89.5t98.5 -246.5q0 -82 -32 -145t-84.5 -103t-128 -66t-156 -36
t-174.5 -10q-482 0 -482 213q0 77 48.5 117t144.5 51q-76 18 -121 73.5t-45 137.5q0 86 54.5 143.5t146.5 69.5q-84 30 -134.5 96t-50.5 168q0 163 123.5 248.5t335.5 85.5zM313 -150q0 -35 40.5 -50t138.5 -15q107 0 155.5 15.5t48.5 49.5q0 23 -21 31t-63 8h-237
q-62 0 -62 -39zM440 641q0 -46 18 -74t54 -28q35 0 53.5 27t18.5 75q0 102 -72 102t-72 -102zM694 1055h-276l-324 334h367l51 -66q16 -20 25.5 -38t11.5 -26l2 -8h10q4 27 39 72l51 66h367z" />
    <glyph glyph-name="Kcaron" unicode="&#x1e8;" horiz-adv-x="1298" 
d="M1298 0h-487l-229 438h-60v-438h-420v1206h420v-420h66l217 420h463l-322 -581zM791 1284h-277l-324 334h367l51 -66q16 -20 25.5 -37.5t11.5 -25.5l2 -8h10q4 26 39 71l52 66h366z" />
    <glyph glyph-name="kcaron" unicode="&#x1e9;" horiz-adv-x="1175" 
d="M913 508l263 -508h-463l-164 350h-47v-350h-414v1368h414v-715h47l125 293h463zM432 1423h-276l-324 334h367l51 -65q16 -20 25.5 -38t11.5 -26l2 -8h10q4 27 39 72l51 65h367z" />
    <glyph glyph-name="Oogonek" unicode="&#x1ea;" horiz-adv-x="1318" 
d="M1268 602q0 -280 -136 -439.5t-389 -182.5q-45 -36 -45 -91q0 -67 86 -67q63 0 123 51l82 -205q-109 -100 -291 -100q-61 0 -111.5 13t-94.5 41t-68.5 79.5t-24.5 122.5q0 102 66 174q-200 48 -307 202t-107 402q0 305 158.5 467t449.5 162t450 -162t159 -467zM829 602
q0 140 -39 209.5t-131 69.5t-131 -69.5t-39 -209.5q0 -138 39 -207t131 -69t131 69t39 207z" />
    <glyph glyph-name="oogonek" unicode="&#x1eb;" horiz-adv-x="1114" 
d="M354 -176q0 97 56 166q-175 36 -274 160t-99 323q0 238 141 368t379 130t379 -130t141 -368q0 -194 -95 -317t-263 -162q-66 -40 -66 -105q0 -67 86 -67q63 0 123 51l82 -205q-109 -100 -291 -100q-61 0 -111.5 13t-94.5 41t-68.5 79.5t-24.5 122.5zM662 473
q0 102 -24.5 149.5t-80.5 47.5t-80 -47.5t-24 -149.5t24 -149.5t80 -47.5t80.5 47.5t24.5 149.5z" />
    <glyph glyph-name="uni004F02DB00AF" unicode="&#x1ec;" horiz-adv-x="1318" 
d="M1014 1284h-707v289h707v-289zM1268 602q0 -280 -136 -439.5t-389 -182.5q-45 -36 -45 -91q0 -67 86 -67q63 0 123 51l82 -205q-109 -100 -291 -100q-61 0 -111.5 13t-94.5 41t-68.5 79.5t-24.5 122.5q0 102 66 174q-200 48 -307 202t-107 402q0 305 158.5 467t449.5 162
t450 -162t159 -467zM829 602q0 140 -39 209.5t-131 69.5t-131 -69.5t-39 -209.5q0 -138 39 -207t131 -69t131 69t39 207z" />
    <glyph glyph-name="oogonekmacron" unicode="&#x1ed;" horiz-adv-x="1114" 
d="M911 1055h-706v288h706v-288zM354 -176q0 97 56 166q-175 36 -274 160t-99 323q0 238 141 368t379 130t379 -130t141 -368q0 -194 -95 -317t-263 -162q-66 -40 -66 -105q0 -67 86 -67q63 0 123 51l82 -205q-109 -100 -291 -100q-61 0 -111.5 13t-94.5 41t-68.5 79.5
t-24.5 122.5zM662 473q0 102 -24.5 149.5t-80.5 47.5t-80 -47.5t-24 -149.5t24 -149.5t80 -47.5t80.5 47.5t24.5 149.5z" />
    <glyph glyph-name="Ezhcaron" unicode="&#x1ee;" horiz-adv-x="1093" 
d="M309 569l105 136q30 38 61 73t47 50l15 16v8q-66 -6 -144 -6h-301v360h940v-301l-317 -385v-2q119 -13 202 -76t119.5 -148.5t36.5 -184.5q0 -207 -141.5 -338t-394.5 -131q-230 0 -381 89.5t-197 266.5l348 188q29 -113 83.5 -166t139.5 -53q61 0 96.5 34.5t35.5 90.5
q0 96 -87.5 150.5t-265.5 54.5v274zM713 1284h-277l-323 334h366l51 -66q16 -20 25.5 -37.5t11.5 -25.5l2 -8h11q3 26 38 71l52 66h366z" />
    <glyph glyph-name="ezhcaron" unicode="&#x1ef;" horiz-adv-x="919" 
d="M236 457l71 84q14 16 38.5 40.5t42.5 40.5l18 17v8q-88 -4 -168 -4h-183v303h799v-278l-242 -238v-6q138 -25 217.5 -111.5t79.5 -224.5q0 -185 -123.5 -292t-371.5 -107q-180 0 -301 73t-158 222l344 157q18 -135 121 -135q44 0 68 24.5t24 67.5q0 64 -64 94.5
t-212 30.5v234zM612 1055h-276l-324 334h367l51 -66q16 -20 25.5 -38t11.5 -26l2 -8h10q4 27 39 72l51 66h367z" />
    <glyph glyph-name="jcaron" unicode="&#x1f0;" horiz-adv-x="589" 
d="M502 946v-921q0 -126 -34 -214t-100 -138t-150.5 -71.5t-197.5 -21.5q-118 0 -174 25v338q67 -31 129 -31t87.5 26.5t25.5 102.5v905h414zM426 1055h-276l-324 334h367l51 -66q16 -20 25.5 -38t11.5 -26l2 -8h10q4 27 39 72l51 66h367z" />
    <glyph glyph-name="jcaron" unicode="&#xe10c;" horiz-adv-x="589" 
d="M502 946v-921q0 -126 -34 -214t-100 -138t-150.5 -71.5t-197.5 -21.5q-118 0 -174 25v338q67 -31 129 -31t87.5 26.5t25.5 102.5v905h414zM426 1055h-276l-324 334h367l51 -66q16 -20 25.5 -38t11.5 -26l2 -8h10q4 27 39 72l51 66h367z" />
    <glyph glyph-name="Gacute" unicode="&#x1f4;" horiz-adv-x="1333" 
d="M682 678h565v-678h-280l-43 133q-79 -158 -332 -158q-91 0 -170.5 22t-148 70.5t-117.5 120.5t-77 176.5t-28 233.5q0 305 159 469t464 164q205 0 350.5 -90t189.5 -244l-401 -166q-8 66 -44 107t-101 41q-181 0 -181 -283q0 -144 44 -214.5t147 -70.5q71 0 109 26.5
t38 68.5v10h-143v262zM817 1284h-348l133 320h498z" />
    <glyph glyph-name="gacute" unicode="&#x1f5;" horiz-adv-x="1060" 
d="M512 971q148 0 268 -47q36 50 39 157l283 -98q-7 -77 -62 -121t-125 -51q62 -80 62 -174q0 -83 -36 -145t-101 -99.5t-147 -55.5t-181 -18q-82 0 -123 13q-35 -6 -35 -37t43 -31h289q184 0 282.5 -89.5t98.5 -246.5q0 -82 -32 -145t-84.5 -103t-128 -66t-156 -36
t-174.5 -10q-482 0 -482 213q0 77 48.5 117t144.5 51q-76 18 -121 73.5t-45 137.5q0 86 54.5 143.5t146.5 69.5q-84 30 -134.5 96t-50.5 168q0 163 123.5 248.5t335.5 85.5zM313 -150q0 -35 40.5 -50t138.5 -15q107 0 155.5 15.5t48.5 49.5q0 23 -21 31t-63 8h-237
q-62 0 -62 -39zM440 641q0 -46 18 -74t54 -28q35 0 53.5 27t18.5 75q0 102 -72 102t-72 -102zM711 1055h-349l134 319h497z" />
    <glyph glyph-name="Ngrave" unicode="&#x1f8;" horiz-adv-x="1366" 
d="M471 1206l242 -354q36 -51 67.5 -100.5t45.5 -73.5l14 -23h8q-4 98 -4 213v338h420v-1206h-349l-258 354q-35 48 -67.5 97t-47.5 73l-16 25h-8q4 -94 4 -248v-301h-420v1206h369zM858 1284h-348l-283 320h498z" />
    <glyph glyph-name="ngrave" unicode="&#x1f9;" horiz-adv-x="1165" 
d="M453 946l51 -182q28 102 108.5 154.5t186.5 52.5q125 0 204.5 -77t79.5 -232v-662h-413v510q0 61 -16.5 90t-59.5 29q-41 0 -66.5 -35t-25.5 -111v-483h-414v946h365zM766 1055h-348l-283 319h498z" />
    <glyph glyph-name="uni004102DA00B4" unicode="&#x1fa;" horiz-adv-x="1368" 
d="M926 0l-54 164h-397l-49 -164h-418l395 1206h560l397 -1206h-434zM776 477l-43 166l-59 236h-8q-19 -105 -54 -236l-43 -166h207zM684 1231q-121 0 -188.5 68.5t-67.5 175.5q0 100 71 168.5t185 68.5t185 -68.5t71 -168.5q0 -107 -67.5 -175.5t-188.5 -68.5zM684 1559
q-37 0 -58.5 -23t-21.5 -61q0 -36 21 -60t59 -24q37 0 57.5 24t20.5 60q0 37 -21 60.5t-57 23.5zM860 1735h-348l133 319h498z" />
    <glyph glyph-name="aringacute" unicode="&#x1fb;" horiz-adv-x="1091" 
d="M551 299v76q-12 2 -35 2q-98 0 -98 -78q0 -28 16.5 -44.5t46.5 -16.5q70 0 70 61zM961 625v-267q0 -27 9.5 -40t33.5 -13q25 0 57 19v-281q-80 -57 -209 -57q-203 0 -252 147q-20 -74 -88.5 -111.5t-173.5 -37.5q-147 0 -227 70.5t-80 197.5q0 137 101 212t278 75
q67 0 141 -9v107q0 53 -43 53q-51 0 -51 -108l-377 55q11 156 122.5 245t319.5 89q228 0 333.5 -92t105.5 -254zM692 1491h-348l133 319h498zM537 989q-121 0 -188.5 68.5t-67.5 175.5q0 100 71 168.5t185 68.5t185 -68.5t71 -168.5q0 -107 -67.5 -175.5t-188.5 -68.5z
M537 1317q-37 0 -58.5 -23t-21.5 -61q0 -36 21 -60t59 -24q37 0 57 24t20 60q0 38 -20.5 61t-56.5 23z" />
    <glyph glyph-name="AEacute" unicode="&#x1fc;" horiz-adv-x="1912" 
d="M942 164h-414l-88 -164h-432l688 1206h1137v-344h-494v-108h439v-301h-439v-109h502v-344h-899v164zM1391 1284h-349l134 320h497zM946 930l-248 -453h244v176q0 46 3 115.5t6 115.5l3 46h-8z" />
    <glyph glyph-name="aeacute" unicode="&#x1fd;" horiz-adv-x="1513" 
d="M1032 281q92 0 117 96l321 -127q-49 -135 -170 -205t-274 -70q-230 0 -364 131q-46 -58 -126.5 -94.5t-181.5 -36.5q-150 0 -236.5 72.5t-86.5 204.5q0 57 18.5 102.5t47 75.5t73.5 51.5t88 33t101 18.5t101.5 8.5t100.5 1.5v94q0 24 -12 38.5t-35 14.5q-27 0 -42 -29
t-15 -79l-377 55q11 156 122.5 245t319.5 89q169 0 258 -53q105 51 258 51q110 0 195 -34t138 -95t79.5 -141.5t26.5 -178.5q0 -51 -15 -117h-532q0 -122 102 -122zM938 551h156q6 21 6 49q0 33 -17.5 56.5t-54.5 23.5q-40 0 -63.5 -36t-26.5 -93zM561 317v74
q-65 0 -104 -23.5t-39 -68.5q0 -28 16.5 -44.5t46.5 -16.5q34 0 57 19.5t23 59.5zM909 1055h-348l133 319h498z" />
    <glyph glyph-name="Oslashacute" unicode="&#x1fe;" horiz-adv-x="1318" 
d="M1268 602q0 -304 -159 -465.5t-450 -161.5q-235 0 -385 107l-104 -107l-119 113l109 111q-109 151 -109 403q0 305 158.5 467t449.5 162q246 0 400 -117l115 117l118 -113l-123 -125q99 -157 99 -391zM827 1284h-348l133 320h498zM479 602q0 -51 2 -76l305 310
q-44 53 -127 53q-98 0 -139 -71.5t-41 -215.5zM842 602q0 39 -2 55l-295 -301q39 -39 114 -39q99 0 141 71t42 214z" />
    <glyph glyph-name="oslashacute" unicode="&#x1ff;" horiz-adv-x="1114" 
d="M37 80l88 84q-88 120 -88 309q0 238 141 368t379 130q193 0 326 -88l92 88l102 -105l-90 -84q90 -126 90 -309q0 -238 -141 -368t-379 -130q-196 0 -326 86l-92 -86zM713 1055h-348l133 319h497zM434 473v-16l203 192q-32 29 -80 29q-66 0 -94.5 -49.5t-28.5 -155.5z
M680 473v14l-203 -190q29 -29 80 -29q66 0 94.5 49.5t28.5 155.5z" />
    <glyph glyph-name="Adoublegrave" unicode="&#x200;" horiz-adv-x="1368" 
d="M926 0l-54 164h-397l-49 -164h-418l395 1206h560l397 -1206h-434zM776 477l-43 166l-59 236h-8q-19 -105 -54 -236l-43 -166h207zM1051 1284h-285l-186 340h395zM649 1284h-321l-242 340h430z" />
    <glyph glyph-name="edoublegrave" unicode="&#x201;" horiz-adv-x="1019" 
d="M539 281q91 0 116 96l322 -127q-49 -135 -170.5 -205t-274.5 -70q-226 0 -360.5 129t-134.5 353q0 247 132.5 379.5t375.5 132.5q217 0 327.5 -121t110.5 -322q0 -55 -14 -116h-533q0 -64 27 -96.5t76 -32.5zM444 557h156q6 12 6 43q0 33 -17 56.5t-54 23.5
q-40 0 -64 -33.5t-27 -89.5zM920 1055h-285l-186 340h395zM518 1055h-321l-242 340h430z" />
    <glyph glyph-name="edoublegrave" unicode="&#x205;" horiz-adv-x="1019" 
d="M539 281q91 0 116 96l322 -127q-49 -135 -170.5 -205t-274.5 -70q-226 0 -360.5 129t-134.5 353q0 247 132.5 379.5t375.5 132.5q217 0 327.5 -121t110.5 -322q0 -55 -14 -116h-533q0 -64 27 -96.5t76 -32.5zM444 557h156q6 12 6 43q0 33 -17 56.5t-54 23.5
q-40 0 -64 -33.5t-27 -89.5zM920 1055h-285l-186 340h395zM518 1055h-321l-242 340h430z" />
    <glyph glyph-name="Ainvertedbreve" unicode="&#x202;" horiz-adv-x="1368" 
d="M926 0l-54 164h-397l-49 -164h-418l395 1206h560l397 -1206h-434zM776 477l-43 166l-59 236h-8q-19 -105 -54 -236l-43 -166h207zM684 1640q99 0 169.5 -28t110 -78.5t57 -112t17.5 -137.5h-282q0 50 -16 75t-56 25t-56 -25t-16 -75h-282q0 76 17.5 137.5t57 112
t110 78.5t169.5 28z" />
    <glyph glyph-name="ainvertedbreve" unicode="&#x203;" horiz-adv-x="1091" 
d="M551 299v76q-12 2 -35 2q-98 0 -98 -78q0 -28 16.5 -44.5t46.5 -16.5q70 0 70 61zM961 625v-267q0 -27 9.5 -40t33.5 -13q25 0 57 19v-281q-80 -57 -209 -57q-203 0 -252 147q-20 -74 -88.5 -111.5t-173.5 -37.5q-147 0 -227 70.5t-80 197.5q0 137 101 212t278 75
q67 0 141 -9v107q0 53 -43 53q-51 0 -51 -108l-377 55q11 156 122.5 245t319.5 89q228 0 333.5 -92t105.5 -254zM537 1411q99 0 169.5 -28t110 -78.5t57 -112t17.5 -137.5h-283q0 50 -15.5 75t-55.5 25t-56 -25t-16 -75h-283q0 76 18 137.5t57 112t110 78.5t170 28z" />
    <glyph glyph-name="Edoublegrave" unicode="&#x204;" horiz-adv-x="1087" 
d="M1016 344v-344h-914v1206h906v-344h-502v-108h446v-301h-446v-109h510zM930 1284h-285l-186 340h395zM528 1284h-321l-242 340h430z" />
    <glyph glyph-name="Einvertedbreve" unicode="&#x206;" horiz-adv-x="1087" 
d="M1016 344v-344h-914v1206h906v-344h-502v-108h446v-301h-446v-109h510zM559 1640q99 0 169.5 -28t110 -78.5t57 -112t17.5 -137.5h-282q0 50 -16 75t-56 25t-56 -25t-16 -75h-282q0 76 17.5 137.5t57 112t110 78.5t169.5 28z" />
    <glyph glyph-name="einvertedbreve" unicode="&#x207;" horiz-adv-x="1019" 
d="M539 281q91 0 116 96l322 -127q-49 -135 -170.5 -205t-274.5 -70q-226 0 -360.5 129t-134.5 353q0 247 132.5 379.5t375.5 132.5q217 0 327.5 -121t110.5 -322q0 -55 -14 -116h-533q0 -64 27 -96.5t76 -32.5zM444 557h156q6 12 6 43q0 33 -17 56.5t-54 23.5
q-40 0 -64 -33.5t-27 -89.5zM535 1411q99 0 169.5 -28t110 -78.5t57 -112t17.5 -137.5h-283q0 50 -15.5 75t-55.5 25t-56 -25t-16 -75h-283q0 76 18 137.5t57 112t110 78.5t170 28z" />
    <glyph glyph-name="Idoublegrave" unicode="&#x208;" horiz-adv-x="624" 
d="M102 1206h420v-1206h-420v1206zM668 1284h-285l-186 340h395zM266 1284h-321l-242 340h430z" />
    <glyph glyph-name="idoublegrave" unicode="&#x209;" horiz-adv-x="589" 
d="M88 946h414v-946h-414v946zM680 1055h-285l-186 340h395zM279 1055h-322l-242 340h430z" />
    <glyph glyph-name="Iinvertedbreve" unicode="&#x20a;" horiz-adv-x="624" 
d="M102 1206h420v-1206h-420v1206zM311 1640q99 0 170 -28t110 -78.5t57 -112t18 -137.5h-283q0 50 -16 75t-56 25t-55.5 -25t-15.5 -75h-283q0 76 17.5 137.5t57 112t110 78.5t169.5 28z" />
    <glyph glyph-name="iinvertedbreve" unicode="&#x20b;" horiz-adv-x="589" 
d="M88 946h414v-946h-414v946zM295 1411q99 0 169.5 -28t110 -78.5t57 -112t17.5 -137.5h-282q0 50 -16 75t-56 25t-56 -25t-16 -75h-282q0 76 17.5 137.5t57 112t110 78.5t169.5 28z" />
    <glyph glyph-name="Odoublegrave" unicode="&#x20c;" horiz-adv-x="1318" 
d="M1268 602q0 -304 -159 -465.5t-450 -161.5t-449.5 161.5t-158.5 465.5q0 305 158.5 467t449.5 162t450 -162t159 -467zM829 602q0 140 -39 209.5t-131 69.5t-131 -69.5t-39 -209.5q0 -138 39 -207t131 -69t131 69t39 207zM1036 1284h-284l-187 340h396zM635 1284h-322
l-241 340h430z" />
    <glyph glyph-name="odoublegrave" unicode="&#x20d;" horiz-adv-x="1114" 
d="M37 473q0 238 141 368t379 130t379 -130t141 -368t-141 -368t-379 -130t-379 130t-141 368zM662 473q0 102 -24.5 149.5t-80.5 47.5t-80 -47.5t-24 -149.5t24 -149.5t80 -47.5t80.5 47.5t24.5 149.5zM942 1055h-285l-186 340h395zM541 1055h-322l-242 340h431z" />
    <glyph glyph-name="Oinvertedbreve" unicode="&#x20e;" horiz-adv-x="1318" 
d="M1268 602q0 -304 -159 -465.5t-450 -161.5t-449.5 161.5t-158.5 465.5q0 305 158.5 467t449.5 162t450 -162t159 -467zM829 602q0 140 -39 209.5t-131 69.5t-131 -69.5t-39 -209.5q0 -138 39 -207t131 -69t131 69t39 207zM659 1640q99 0 170 -28t110 -78.5t57 -112
t18 -137.5h-283q0 50 -16 75t-56 25t-55.5 -25t-15.5 -75h-283q0 76 17.5 137.5t57 112t110 78.5t169.5 28z" />
    <glyph glyph-name="oinvertedbreve" unicode="&#x20f;" horiz-adv-x="1114" 
d="M37 473q0 238 141 368t379 130t379 -130t141 -368t-141 -368t-379 -130t-379 130t-141 368zM662 473q0 102 -24.5 149.5t-80.5 47.5t-80 -47.5t-24 -149.5t24 -149.5t80 -47.5t80.5 47.5t24.5 149.5zM557 1411q99 0 169.5 -28t110 -78.5t57 -112t17.5 -137.5h-282
q0 50 -16 75t-56 25t-56 -25t-16 -75h-282q0 76 17.5 137.5t57 112t110 78.5t169.5 28z" />
    <glyph glyph-name="Rinvertedbreve" unicode="&#x212;" horiz-adv-x="1243" 
d="M1243 0h-461q-28 29 -41 60t-26 90l-21 94q-10 53 -34 73.5t-70 20.5h-76v-338h-412v1206h584q107 0 192.5 -20.5t152 -65t102.5 -121.5t36 -182q0 -271 -243 -313v-8q79 -12 122.5 -54t67.5 -125l45 -159q16 -58 33 -92t49 -66zM514 852v-197h123q102 0 102 101
q0 46 -26 71t-72 25h-127zM594 1640q99 0 169.5 -28t110 -78.5t57 -112t17.5 -137.5h-282q0 50 -16 75t-56 25t-56 -25t-16 -75h-282q0 76 17.5 137.5t57 112t110 78.5t169.5 28z" />
    <glyph glyph-name="rinvertedbreve" unicode="&#x213;" horiz-adv-x="884" 
d="M885 958l-56 -471q-33 23 -81.5 38.5t-92.5 15.5q-66 0 -109.5 -39t-43.5 -125v-377h-414v946h365l41 -268q13 123 93 205t214 82q37 0 84 -7zM485 1411q99 0 170 -28t110 -78.5t57 -112t18 -137.5h-283q0 50 -16 75t-56 25t-55.5 -25t-15.5 -75h-283q0 76 17.5 137.5
t57 112t110 78.5t169.5 28z" />
    <glyph glyph-name="Udoublegrave" unicode="&#x214;" horiz-adv-x="1273" 
d="M637 -25q-555 0 -555 492v739h420v-696q0 -40 5 -71t19 -60.5t42 -45.5t69 -16t69 16t42 45.5t19 60.5t5 71v696h420v-739q0 -492 -555 -492zM993 1284h-284l-187 340h396zM592 1284h-322l-241 340h430z" />
    <glyph glyph-name="udoublegrave" unicode="&#x215;" horiz-adv-x="1153" 
d="M707 0l-52 172q-15 -94 -84.5 -145.5t-191.5 -51.5q-141 0 -221 81t-80 241v649h414v-561q0 -53 15 -79.5t50 -26.5q52 0 73 40.5t21 135.5v491h414v-946h-358zM961 1055h-285l-187 340h396zM559 1055h-321l-242 340h430z" />
    <glyph glyph-name="Uinvertedbreve" unicode="&#x216;" horiz-adv-x="1273" 
d="M637 -25q-555 0 -555 492v739h420v-696q0 -40 5 -71t19 -60.5t42 -45.5t69 -16t69 16t42 45.5t19 60.5t5 71v696h420v-739q0 -492 -555 -492zM637 1640q99 0 169.5 -28t110 -78.5t57 -112t17.5 -137.5h-282q0 50 -16 75t-56 25t-56 -25t-16 -75h-282q0 76 17.5 137.5
t57 112t110 78.5t169.5 28z" />
    <glyph glyph-name="uinvertedbreve" unicode="&#x217;" horiz-adv-x="1153" 
d="M707 0l-52 172q-15 -94 -84.5 -145.5t-191.5 -51.5q-141 0 -221 81t-80 241v649h414v-561q0 -53 15 -79.5t50 -26.5q52 0 73 40.5t21 135.5v491h414v-946h-358zM571 1411q99 0 170 -28t110 -78.5t57 -112t18 -137.5h-283q0 50 -16 75t-56 25t-55.5 -25t-15.5 -75h-283
q0 76 17.5 137.5t57 112t110 78.5t169.5 28z" />
    <glyph glyph-name="Scommaaccent" unicode="&#x218;" horiz-adv-x="1112" 
d="M10 262l381 137q38 -104 137 -104q84 0 84 55q0 25 -21.5 40t-70.5 22q-260 40 -367.5 135t-107.5 266q0 92 27.5 164t74 119.5t113 78t139.5 43.5t158 13q428 0 498 -311l-404 -91q-13 86 -108 86q-72 0 -72 -51q0 -30 30 -46t103 -25q457 -55 457 -422
q0 -106 -42.5 -184t-119 -123.5t-172.5 -67t-213 -21.5q-197 0 -330.5 71t-173.5 216zM748 -283q0 -137 -97 -201.5t-270 -64.5v119q160 0 160 63q-185 0 -185 148q0 80 53 122t130 42q97 0 153 -63.5t56 -164.5z" />
    <glyph glyph-name="scommaaccent" unicode="&#x219;" horiz-adv-x="952" 
d="M14 213l359 80q3 -72 71 -72q66 0 66 45q0 46 -66 51l-96 9q-155 14 -236 91.5t-81 213.5q0 91 34.5 158t97 106t140.5 57.5t172 18.5q182 0 293 -70t137 -207l-358 -35q0 70 -70 70q-61 0 -61 -45q0 -41 61 -47l103 -8q170 -13 250.5 -97.5t80.5 -220.5
q0 -336 -467 -336q-77 0 -142.5 11t-127 37t-103.5 74t-57 116zM672 -283q0 -137 -97 -201.5t-270 -64.5v119q160 0 160 63q-184 0 -184 148q0 80 53 122t129 42q97 0 153 -63.5t56 -164.5z" />
    <glyph glyph-name="Hcaron" unicode="&#x21e;" horiz-adv-x="1335" 
d="M522 0h-420v1206h420v-413h291v413h420v-1206h-420v432h-291v-432zM807 1284h-277l-323 334h366l52 -66q16 -20 25.5 -37.5t11.5 -25.5l2 -8h10q4 26 39 71l51 66h366z" />
    <glyph glyph-name="hcaron" unicode="&#x21f;" horiz-adv-x="1165" 
d="M502 1368v-604q34 103 113 155t184 52q125 0 204.5 -77t79.5 -232v-662h-413v510q0 61 -16.5 90t-59.5 29q-41 0 -66.5 -35t-25.5 -111v-483h-414v1368h414zM432 1423h-276l-324 334h367l51 -65q16 -20 25.5 -38t11.5 -26l2 -8h10q4 27 39 72l51 65h367z" />
    <glyph glyph-name="Adotabove" unicode="&#x226;" horiz-adv-x="1368" 
d="M926 0l-54 164h-397l-49 -164h-418l395 1206h560l397 -1206h-434zM776 477l-43 166l-59 236h-8q-19 -105 -54 -236l-43 -166h207zM451 1479q0 100 68 155.5t165 55.5t165.5 -55.5t68.5 -155.5t-68.5 -155.5t-165.5 -55.5t-165 55.5t-68 155.5z" />
    <glyph glyph-name="adotabove" unicode="&#x227;" horiz-adv-x="1091" 
d="M551 299v76q-12 2 -35 2q-98 0 -98 -78q0 -28 16.5 -44.5t46.5 -16.5q70 0 70 61zM961 625v-267q0 -27 9.5 -40t33.5 -13q25 0 57 19v-281q-80 -57 -209 -57q-203 0 -252 147q-20 -74 -88.5 -111.5t-173.5 -37.5q-147 0 -227 70.5t-80 197.5q0 137 101 212t278 75
q67 0 141 -9v107q0 53 -43 53q-51 0 -51 -108l-377 55q11 156 122.5 245t319.5 89q228 0 333.5 -92t105.5 -254zM303 1214q0 100 68.5 155.5t165.5 55.5t165 -55.5t68 -155.5t-68 -155t-165 -55q-98 0 -166 55t-68 155z" />
    <glyph glyph-name="Otildemacron" unicode="&#x22c;" horiz-adv-x="1318" 
d="M1268 602q0 -304 -159 -465.5t-450 -161.5t-449.5 161.5t-158.5 465.5q0 305 158.5 467t449.5 162t450 -162t159 -467zM829 602q0 140 -39 209.5t-131 69.5t-131 -69.5t-39 -209.5q0 -138 39 -207t131 -69t131 69t39 207zM270 1389q0 106 59 165.5t154 59.5
q50 0 85 -12.5t83 -40.5q43 -25 63.5 -34t41.5 -9q67 0 67 90h205q21 -82 21 -144q0 -106 -59 -165.5t-154 -59.5q-50 0 -85 12.5t-83 40.5q-43 25 -63.5 34t-41.5 9q-67 0 -67 -90h-205q-21 82 -21 144zM1014 1638h-707v289h707v-289z" />
    <glyph glyph-name="otildemacron" unicode="&#x22d;" horiz-adv-x="1114" 
d="M37 473q0 238 141 368t379 130t379 -130t141 -368t-141 -368t-379 -130t-379 130t-141 368zM662 473q0 102 -24.5 149.5t-80.5 47.5t-80 -47.5t-24 -149.5t24 -149.5t80 -47.5t80.5 47.5t24.5 149.5zM168 1130q0 106 59 166t154 60q50 0 85 -12.5t83 -40.5
q44 -26 64 -34.5t40 -8.5q68 0 68 90h205q20 -78 20 -144q0 -106 -59 -165.5t-154 -59.5q-50 0 -85 12.5t-83 40.5q-44 26 -64 34.5t-40 8.5q-68 0 -68 -90h-205q-20 78 -20 143zM911 1386h-706v289h706v-289z" />
    <glyph glyph-name="Odotabove" unicode="&#x22e;" horiz-adv-x="1318" 
d="M1268 602q0 -304 -159 -465.5t-450 -161.5t-449.5 161.5t-158.5 465.5q0 305 158.5 467t449.5 162t450 -162t159 -467zM829 602q0 140 -39 209.5t-131 69.5t-131 -69.5t-39 -209.5q0 -138 39 -207t131 -69t131 69t39 207zM426 1479q0 100 68 155.5t165 55.5t165.5 -55.5
t68.5 -155.5t-68.5 -155.5t-165.5 -55.5t-165 55.5t-68 155.5z" />
    <glyph glyph-name="odotabove" unicode="&#x22f;" horiz-adv-x="1114" 
d="M37 473q0 238 141 368t379 130t379 -130t141 -368t-141 -368t-379 -130t-379 130t-141 368zM662 473q0 102 -24.5 149.5t-80.5 47.5t-80 -47.5t-24 -149.5t24 -149.5t80 -47.5t80.5 47.5t24.5 149.5zM324 1214q0 100 68 155.5t165 55.5t165.5 -55.5t68.5 -155.5t-68 -155
t-166 -55q-97 0 -165 55t-68 155z" />
    <glyph glyph-name="odotabovemacron" unicode="&#x231;" horiz-adv-x="1114" 
d="M37 473q0 238 141 368t379 130t379 -130t141 -368t-141 -368t-379 -130t-379 130t-141 368zM662 473q0 102 -24.5 149.5t-80.5 47.5t-80 -47.5t-24 -149.5t24 -149.5t80 -47.5t80.5 47.5t24.5 149.5zM324 1210q0 100 68 155.5t165 55.5t165.5 -55.5t68.5 -155.5
t-68.5 -155.5t-165.5 -55.5t-165 55.5t-68 155.5zM911 1456h-706v289h706v-289z" />
    <glyph glyph-name="odotabovemacron" unicode="&#xe11e;" horiz-adv-x="1114" 
d="M37 473q0 238 141 368t379 130t379 -130t141 -368t-141 -368t-379 -130t-379 130t-141 368zM662 473q0 102 -24.5 149.5t-80.5 47.5t-80 -47.5t-24 -149.5t24 -149.5t80 -47.5t80.5 47.5t24.5 149.5zM324 1210q0 100 68 155.5t165 55.5t165.5 -55.5t68.5 -155.5
t-68.5 -155.5t-165.5 -55.5t-165 55.5t-68 155.5zM911 1456h-706v289h706v-289z" />
    <glyph glyph-name="Ymacron" unicode="&#x232;" horiz-adv-x="1314" 
d="M664 791h8q22 85 100 237l92 178h443l-441 -811v-395h-417v395l-441 811h457l92 -178q35 -68 61.5 -127t35.5 -85zM1012 1284h-707v289h707v-289z" />
    <glyph glyph-name="ymacron" unicode="&#x233;" horiz-adv-x="1140" 
d="M338 -39l-330 985h441l88 -358q12 -48 21.5 -114t13.5 -108l3 -42h9q16 149 47 260l98 362h404l-310 -893q-81 -250 -215.5 -364.5t-326.5 -114.5q-157 0 -254 55l82 299q49 -43 118 -43q80 0 111 76zM944 1055h-706v288h706v-288z" />
    <glyph glyph-name="dotlessj" unicode="&#x237;" horiz-adv-x="589" 
d="M502 946v-921q0 -126 -34 -214t-100 -138t-150.5 -71.5t-197.5 -21.5q-118 0 -174 25v338q67 -31 129 -31t87.5 26.5t25.5 102.5v905h414z" />
    <glyph glyph-name="schwa" unicode="&#x259;" horiz-adv-x="1019" 
d="M481 664q-90 0 -116 -97l-322 127q49 135 170 205t274 70q226 0 361 -129t135 -353q0 -247 -132.5 -379.5t-375.5 -132.5q-217 0 -327.5 121t-110.5 322q0 56 14 117h533q0 64 -27 96.5t-76 32.5zM575 387h-155q-6 -12 -6 -43q0 -33 17 -56.5t54 -23.5q40 0 63.5 33.5
t26.5 89.5z" />
    <glyph glyph-name="ezh" unicode="&#x292;" horiz-adv-x="919" 
d="M236 457l71 84q14 16 38.5 40.5t42.5 40.5l18 17v8q-88 -4 -168 -4h-183v303h799v-278l-242 -238v-6q138 -25 217.5 -111.5t79.5 -224.5q0 -185 -123.5 -292t-371.5 -107q-180 0 -301 73t-158 222l344 157q18 -135 121 -135q44 0 68 24.5t24 67.5q0 64 -64 94.5
t-212 30.5v234z" />
    <glyph glyph-name="circumflex" unicode="&#x2c6;" 
d="M373 1389h276l324 -334h-367l-51 65q-16 20 -25.5 38t-11.5 26l-2 8h-10q-4 -27 -39 -72l-51 -65h-367z" />
    <glyph glyph-name="caron" unicode="&#x2c7;" 
d="M649 1055h-276l-324 334h367l51 -66q16 -20 25.5 -38t11.5 -26l2 -8h10q4 27 39 72l51 66h367z" />
    <glyph glyph-name="breve" unicode="&#x2d8;" 
d="M512 1044q-99 0 -169.5 28t-110 79t-57 112.5t-17.5 137.5h282q0 -50 16 -75.5t56 -25.5t56 25.5t16 75.5h282q0 -76 -17.5 -137.5t-57 -112.5t-110 -79t-169.5 -28z" />
    <glyph glyph-name="dotaccent" unicode="&#x2d9;" 
d="M279 1214q0 100 68 155.5t165 55.5t165 -55.5t68 -155.5t-68 -155t-165 -55t-165 55t-68 155z" />
    <glyph glyph-name="ring" unicode="&#x2da;" 
d="M512 1004q-121 0 -188.5 68t-67.5 175q0 100 71 169t185 69t185 -69t71 -169q0 -107 -67.5 -175t-188.5 -68zM512 1331q-37 0 -58.5 -23t-21.5 -61q0 -36 21 -60t59 -24q37 0 57.5 24t20.5 60q0 37 -21 60.5t-57 23.5z" />
    <glyph glyph-name="ogonek" unicode="&#x2db;" 
d="M217 -176q0 73 32.5 131t85.5 92t115.5 51.5t127.5 16.5l118 -78q-88 -24 -134 -58t-46 -90q0 -67 86 -67q63 0 123 51l82 -205q-109 -100 -291 -100q-61 0 -111.5 13t-94.5 41t-68.5 79.5t-24.5 122.5z" />
    <glyph glyph-name="tilde" unicode="&#x2dc;" 
d="M123 1188q0 106 59 165.5t154 59.5q50 0 85 -12.5t83 -40.5q44 -26 64 -34.5t40 -8.5q68 0 68 90h205q20 -78 20 -143q0 -106 -59 -166t-154 -60q-50 0 -84.5 12.5t-83.5 41.5q-44 26 -64 34.5t-40 8.5q-68 0 -68 -91h-205q-20 78 -20 144z" />
    <glyph glyph-name="hungarumlaut" unicode="&#x2dd;" 
d="M311 1055h-282l75 340h394zM750 1055h-320l131 340h432z" />
    <glyph glyph-name="uni0312" unicode="&#x312;" 
d="M315 1501q0 137 97 201.5t270 64.5v-118q-160 0 -160 -64q185 0 185 -147q0 -80 -53 -122t-130 -42q-98 0 -153.5 63t-55.5 164z" />
    <glyph glyph-name="uni0320" unicode="&#x320;" 
d="M864 -393h-706v289h706v-289z" />
    <glyph glyph-name="uni0323" unicode="&#x323;" 
d="M293 -266q0 95 64 146.5t155 51.5q93 0 157 -51.5t64 -146.5t-64.5 -147t-156.5 -52q-91 0 -155 52t-64 147z" />
    <glyph glyph-name="uni0329" unicode="&#x329;" 
d="M297 -489v436h430v-404z" />
    <glyph glyph-name="pi" unicode="&#x3c0;" horiz-adv-x="1708" 
d="M440 985h1086v-317h-176v-273q0 -84 71 -84q43 0 73 16.5t65 59.5l88 -256q-103 -156 -353 -156q-358 0 -358 387v306h-76l-104 -668h-408l109 668h-37q-64 0 -64 -101h-295q0 47 3.5 86t13.5 83.5t27 79t46 67.5t68 54.5t95 34.5t126 13z" />
    <glyph glyph-name="uni0E3F" unicode="&#xe3f;" horiz-adv-x="1150" 
d="M496 -193v193h-394v985h394v193h172v-193h84q149 0 229 -66t80 -194q0 -187 -178 -219v-12q109 -12 165 -72t56 -162q0 -133 -98 -196.5t-267 -63.5h-71v-193h-172zM504 399v-137h110q34 0 51 18.5t17 49.5q0 30 -17.5 49.5t-50.5 19.5h-110zM504 596h80q78 0 78 66
q0 67 -78 67h-80v-133z" />
    <glyph glyph-name="Ddotbelow" unicode="&#x1e0c;" horiz-adv-x="1302" 
d="M522 346h56q69 0 109.5 8.5t71 36.5t42.5 79.5t12 137.5q0 134 -51.5 193t-167.5 59h-72v-514zM612 0h-510v1206h547q138 0 246.5 -34.5t189 -105t123.5 -186.5t43 -272q0 -164 -43.5 -282.5t-128 -189.5t-199.5 -103.5t-268 -32.5zM391 -258q0 95 64 147t155 52
q92 0 156.5 -52t64.5 -147t-64.5 -147t-156.5 -52q-91 0 -155 52t-64 147z" />
    <glyph glyph-name="ddotbelow" unicode="&#x1e0d;" horiz-adv-x="1200" 
d="M752 0l-54 164q-24 -91 -100 -140t-182 -49q-182 0 -280.5 129t-98.5 361q0 245 106.5 375.5t296.5 130.5q94 0 161.5 -38t96.5 -108v543h414v-1368h-360zM698 453v61q0 73 -29.5 114.5t-80.5 41.5q-69 0 -97 -50t-28 -153q0 -91 29 -132.5t88 -41.5q55 0 86.5 42
t31.5 118zM395 -258q0 95 64 147t155 52q93 0 157.5 -52t64.5 -147t-64.5 -147t-157.5 -52q-91 0 -155 52t-64 147z" />
    <glyph glyph-name="Dcedilla" unicode="&#x1e10;" horiz-adv-x="1302" 
d="M829 -238q0 -92 -67.5 -143t-183.5 -51q-161 0 -252 72l55 155q59 -49 123 -49q53 0 53 41q0 51 -82 51l25 162h-398v1206h547q138 0 246.5 -34.5t189 -105t123.5 -186.5t43 -272q0 -318 -159.5 -461.5t-464.5 -146.5l-6 -61q93 0 150.5 -45t57.5 -132zM522 346h56
q69 0 109.5 8.5t71 36.5t42.5 79.5t12 137.5q0 134 -51.5 193t-167.5 59h-72v-514z" />
    <glyph glyph-name="dcedilla" unicode="&#x1e11;" horiz-adv-x="1200" 
d="M752 0l-54 164q-24 -91 -100 -140t-182 -49q-182 0 -280.5 129t-98.5 361q0 245 106.5 375.5t296.5 130.5q94 0 161.5 -38t96.5 -108v543h414v-1368h-360zM698 453v61q0 73 -29.5 114.5t-80.5 41.5q-69 0 -97 -50t-28 -153q0 -91 29 -132.5t88 -41.5q55 0 86.5 42
t31.5 118zM907 -238q0 -92 -68 -143t-184 -51q-161 0 -252 72l56 155q59 -49 123 -49q53 0 53 41q0 51 -82 51l18 107q43 12 95 12q110 0 175.5 -49t65.5 -146z" />
    <glyph glyph-name="Hdotbelow" unicode="&#x1e24;" horiz-adv-x="1335" 
d="M522 0h-420v1206h420v-413h291v413h420v-1206h-420v432h-291v-432zM449 -258q0 95 64 147t155 52q92 0 156.5 -52t64.5 -147t-64.5 -147t-156.5 -52q-91 0 -155 52t-64 147z" />
    <glyph glyph-name="hdotbelow" unicode="&#x1e25;" horiz-adv-x="1165" 
d="M502 1368v-604q34 103 113 155t184 52q125 0 204.5 -77t79.5 -232v-662h-413v510q0 61 -16.5 90t-59.5 29q-41 0 -66.5 -35t-25.5 -111v-483h-414v1368h414zM367 -258q0 95 64 147t155 52q92 0 156.5 -52t64.5 -147t-64.5 -147t-156.5 -52q-91 0 -155 52t-64 147z" />
    <glyph glyph-name="Ldotbelow" unicode="&#x1e36;" horiz-adv-x="993" 
d="M102 1206h420v-846h420v-360h-840v1206zM303 -258q0 95 64 147t155 52q92 0 156.5 -52t64.5 -147t-64.5 -147t-156.5 -52q-91 0 -155 52t-64 147z" />
    <glyph glyph-name="ldotbelow" unicode="&#x1e37;" horiz-adv-x="632" 
d="M612 342l-14 -307q-72 -53 -225 -53q-58 0 -109.5 15t-97 48t-72 93.5t-26.5 142.5v1087h413v-969q0 -77 56 -77q36 0 75 20zM121 -258q0 95 64 147t155 52q92 0 156.5 -52t64.5 -147t-64.5 -147t-156.5 -52q-91 0 -155 52t-64 147z" />
    <glyph glyph-name="uni004C032300AF" unicode="&#x1e38;" horiz-adv-x="993" 
d="M102 1206h420v-846h420v-360h-840v1206zM672 1284h-707v289h707v-289zM303 -258q0 95 64 147t155 52q92 0 156.5 -52t64.5 -147t-64.5 -147t-156.5 -52q-91 0 -155 52t-64 147z" />
    <glyph glyph-name="ldotbelowmacron" unicode="&#x1e39;" horiz-adv-x="632" 
d="M612 342l-14 -307q-72 -53 -225 -53q-58 0 -109.5 15t-97 48t-72 93.5t-26.5 142.5v1087h413v-969q0 -77 56 -77q36 0 75 20zM635 1423h-707v289h707v-289zM121 -258q0 95 64 147t155 52q92 0 156.5 -52t64.5 -147t-64.5 -147t-156.5 -52q-91 0 -155 52t-64 147z" />
    <glyph glyph-name="Mdotbelow" unicode="&#x1e42;" horiz-adv-x="1560" 
d="M893 219h-225l-70 148q-16 32 -34.5 77t-29.5 74l-10 29h-8q6 -102 6 -213v-334h-420v1206h457l125 -262q30 -63 53 -118.5t31 -79.5l8 -25h8q25 82 93 223l124 262h457v-1206h-420v334l6 213h-8q-38 -108 -73 -180zM561 -258q0 95 64 147t155 52q92 0 156.5 -52
t64.5 -147t-64.5 -147t-156.5 -52q-91 0 -155 52t-64 147z" />
    <glyph glyph-name="mdotbelow" unicode="&#x1e43;" horiz-adv-x="1677" 
d="M1032 754q24 100 104 158.5t183 58.5q127 0 201.5 -76t74.5 -233v-662h-413v516q0 60 -14 86.5t-50 26.5t-52.5 -34.5t-16.5 -111.5v-483h-414v516q0 60 -14 86.5t-50 26.5t-52.5 -34.5t-16.5 -111.5v-483h-414v946h365l51 -178q24 100 94.5 151.5t173.5 51.5
q219 0 260 -217zM623 -258q0 95 64 147t155 52q92 0 156.5 -52t64.5 -147t-64.5 -147t-156.5 -52q-91 0 -155 52t-64 147z" />
    <glyph glyph-name="Ndotaccent" unicode="&#x1e44;" horiz-adv-x="1366" 
d="M471 1206l242 -354q36 -51 67.5 -100.5t45.5 -73.5l14 -23h8q-4 98 -4 213v338h420v-1206h-349l-258 354q-35 48 -67.5 97t-47.5 73l-16 25h-8q4 -94 4 -248v-301h-420v1206h369zM449 1479q0 100 68 155.5t165 55.5t165 -55.5t68 -155.5t-68 -155.5t-165 -55.5t-165 55.5
t-68 155.5z" />
    <glyph glyph-name="ndotaccent" unicode="&#x1e45;" horiz-adv-x="1165" 
d="M453 946l51 -182q28 102 108.5 154.5t186.5 52.5q125 0 204.5 -77t79.5 -232v-662h-413v510q0 61 -16.5 90t-59.5 29q-41 0 -66.5 -35t-25.5 -111v-483h-414v946h365zM352 1214q0 100 68.5 155.5t165.5 55.5t165 -55.5t68 -155.5t-68 -155t-165 -55q-98 0 -166 55
t-68 155z" />
    <glyph glyph-name="Ndotbelow" unicode="&#x1e46;" horiz-adv-x="1366" 
d="M471 1206l242 -354q36 -51 67.5 -100.5t45.5 -73.5l14 -23h8q-4 98 -4 213v338h420v-1206h-349l-258 354q-35 48 -67.5 97t-47.5 73l-16 25h-8q4 -94 4 -248v-301h-420v1206h369zM483 -258q0 95 64 147t155 52q93 0 157.5 -52t64.5 -147t-64.5 -147t-157.5 -52
q-91 0 -155 52t-64 147z" />
    <glyph glyph-name="ndotbelow" unicode="&#x1e47;" horiz-adv-x="1165" 
d="M453 946l51 -182q28 102 108.5 154.5t186.5 52.5q125 0 204.5 -77t79.5 -232v-662h-413v510q0 61 -16.5 90t-59.5 29q-41 0 -66.5 -35t-25.5 -111v-483h-414v946h365zM367 -258q0 95 64 147t155 52q92 0 156.5 -52t64.5 -147t-64.5 -147t-156.5 -52q-91 0 -155 52
t-64 147z" />
    <glyph glyph-name="Rdotbelow" unicode="&#x1e5a;" horiz-adv-x="1243" 
d="M1243 0h-461q-28 29 -41 60t-26 90l-21 94q-10 53 -34 73.5t-70 20.5h-76v-338h-412v1206h584q107 0 192.5 -20.5t152 -65t102.5 -121.5t36 -182q0 -271 -243 -313v-8q79 -12 122.5 -54t67.5 -125l45 -159q16 -58 33 -92t49 -66zM514 852v-197h123q102 0 102 101
q0 46 -26 71t-72 25h-127zM416 -258q0 95 64 147t155 52q92 0 156.5 -52t64.5 -147t-64.5 -147t-156.5 -52q-91 0 -155 52t-64 147z" />
    <glyph glyph-name="rdotbelow" unicode="&#x1e5b;" horiz-adv-x="884" 
d="M885 958l-56 -471q-33 23 -81.5 38.5t-92.5 15.5q-66 0 -109.5 -39t-43.5 -125v-377h-414v946h365l41 -268q13 123 93 205t214 82q37 0 84 -7zM90 -258q0 95 64 147t155 52q92 0 156.5 -52t64.5 -147t-64.5 -147t-156.5 -52q-91 0 -155 52t-64 147z" />
    <glyph glyph-name="Rdotbelowmacron" unicode="&#x1e5c;" horiz-adv-x="1243" 
d="M1243 0h-461q-28 29 -41 60t-26 90l-21 94q-10 53 -34 73.5t-70 20.5h-76v-338h-412v1206h584q107 0 192.5 -20.5t152 -65t102.5 -121.5t36 -182q0 -271 -243 -313v-8q79 -12 122.5 -54t67.5 -125l45 -159q16 -58 33 -92t49 -66zM514 852v-197h123q102 0 102 101
q0 46 -26 71t-72 25h-127zM416 -258q0 95 64 147t155 52q92 0 156.5 -52t64.5 -147t-64.5 -147t-156.5 -52q-91 0 -155 52t-64 147zM948 1284h-706v289h706v-289z" />
    <glyph glyph-name="rdotbelowmacron" unicode="&#x1e5d;" horiz-adv-x="884" 
d="M885 958l-56 -471q-33 23 -81.5 38.5t-92.5 15.5q-66 0 -109.5 -39t-43.5 -125v-377h-414v946h365l41 -268q13 123 93 205t214 82q37 0 84 -7zM78 -258q0 95 64 147t155 52q92 0 156.5 -52t64.5 -147t-64.5 -147t-156.5 -52q-91 0 -155 52t-64 147zM840 1055h-707v288
h707v-288z" />
    <glyph glyph-name="Sdotbelow" unicode="&#x1e62;" horiz-adv-x="1112" 
d="M10 262l381 137q38 -104 137 -104q84 0 84 55q0 25 -21.5 40t-70.5 22q-260 40 -367.5 135t-107.5 266q0 92 27.5 164t74 119.5t113 78t139.5 43.5t158 13q428 0 498 -311l-404 -91q-13 86 -108 86q-72 0 -72 -51q0 -30 30 -46t103 -25q457 -55 457 -422
q0 -106 -42.5 -184t-119 -123.5t-172.5 -67t-213 -21.5q-197 0 -330.5 71t-173.5 216zM332 -258q0 95 64 147t155 52q92 0 156.5 -52t64.5 -147t-64.5 -147t-156.5 -52q-91 0 -155 52t-64 147z" />
    <glyph glyph-name="sdotbelow" unicode="&#x1e63;" horiz-adv-x="952" 
d="M14 213l359 80q3 -72 71 -72q66 0 66 45q0 46 -66 51l-96 9q-155 14 -236 91.5t-81 213.5q0 91 34.5 158t97 106t140.5 57.5t172 18.5q182 0 293 -70t137 -207l-358 -35q0 70 -70 70q-61 0 -61 -45q0 -41 61 -47l103 -8q170 -13 250.5 -97.5t80.5 -220.5
q0 -336 -467 -336q-77 0 -142.5 11t-127 37t-103.5 74t-57 116zM256 -258q0 95 64 147t155 52q92 0 156.5 -52t64.5 -147t-64.5 -147t-156.5 -52q-91 0 -155 52t-64 147z" />
    <glyph glyph-name="Tdotbelow" unicode="&#x1e6c;" horiz-adv-x="1099" 
d="M756 0h-420v846h-295v360h1018v-360h-303v-846zM330 -258q0 95 64 147t155 52q92 0 156.5 -52t64.5 -147t-64.5 -147t-156.5 -52q-91 0 -155 52t-64 147z" />
    <glyph glyph-name="tdotbelow" unicode="&#x1e6d;" horiz-adv-x="833" 
d="M741 389l68 -315q-57 -47 -144 -73t-188 -26q-179 0 -265.5 87.5t-86.5 277.5v303h-113v303h117v201l397 45v-246h228v-303h-230v-223q0 -48 19 -71t61 -23q82 0 137 63zM240 -258q0 95 64 147t155 52q92 0 156.5 -52t64.5 -147t-64.5 -147t-156.5 -52q-91 0 -155 52
t-64 147z" />
    <glyph glyph-name="Wgrave" unicode="&#x1e80;" horiz-adv-x="1839" 
d="M707 1206h434l76 -440q14 -78 24 -163.5t13 -132.5l3 -46h9q12 166 45 344l80 438h438l-275 -1206h-505l-78 332q-16 64 -30.5 145t-20.5 131l-7 49h-8q-18 -184 -47 -325l-67 -332h-506l-275 1206h447l80 -438q15 -78 26 -164t15 -133l4 -47h8q10 164 41 342zM1096 1284
h-348l-283 320h498z" />
    <glyph glyph-name="wgrave" unicode="&#x1e81;" horiz-adv-x="1597" 
d="M618 946h361l57 -315q10 -53 17.5 -122.5t9.5 -112.5l2 -44h8q6 160 33 279l70 315h413l-252 -946h-463l-40 211q-9 46 -18 112.5t-14 110.5l-5 43h-9q-16 -162 -36 -266l-41 -211h-451l-252 946h414l70 -315q12 -53 20.5 -122.5t11.5 -112.5l2 -44h9q3 160 26 279z
M979 1055h-348l-283 319h498z" />
    <glyph glyph-name="Wacute" unicode="&#x1e82;" horiz-adv-x="1839" 
d="M707 1206h434l76 -440q14 -78 24 -163.5t13 -132.5l3 -46h9q12 166 45 344l80 438h438l-275 -1206h-505l-78 332q-16 64 -30.5 145t-20.5 131l-7 49h-8q-18 -184 -47 -325l-67 -332h-506l-275 1206h447l80 -438q15 -78 26 -164t15 -133l4 -47h8q10 164 41 342zM1075 1284
h-348l133 320h498z" />
    <glyph glyph-name="wacute" unicode="&#x1e83;" horiz-adv-x="1597" 
d="M618 946h361l57 -315q10 -53 17.5 -122.5t9.5 -112.5l2 -44h8q6 160 33 279l70 315h413l-252 -946h-463l-40 211q-9 46 -18 112.5t-14 110.5l-5 43h-9q-16 -162 -36 -266l-41 -211h-451l-252 946h414l70 -315q12 -53 20.5 -122.5t11.5 -112.5l2 -44h9q3 160 26 279z
M979 1055h-348l133 319h498z" />
    <glyph glyph-name="Wdieresis" unicode="&#x1e84;" horiz-adv-x="1839" 
d="M707 1206h434l76 -440q14 -78 24 -163.5t13 -132.5l3 -46h9q12 166 45 344l80 438h438l-275 -1206h-505l-78 332q-16 64 -30.5 145t-20.5 131l-7 49h-8q-18 -184 -47 -325l-67 -332h-506l-275 1206h447l80 -438q15 -78 26 -164t15 -133l4 -47h8q10 164 41 342zM489 1464
q0 93 60 145t145 52t145 -52t60 -145q0 -92 -60 -143t-145 -51t-145 51t-60 143zM940 1464q0 93 60 145t145 52t145 -52t60 -145q0 -92 -60 -143t-145 -51t-145 51t-60 143z" />
    <glyph glyph-name="wdieresis" unicode="&#x1e85;" horiz-adv-x="1597" 
d="M618 946h361l57 -315q10 -53 17.5 -122.5t9.5 -112.5l2 -44h8q6 160 33 279l70 315h413l-252 -946h-463l-40 211q-9 46 -18 112.5t-14 110.5l-5 43h-9q-16 -162 -36 -266l-41 -211h-451l-252 946h414l70 -315q12 -53 20.5 -122.5t11.5 -112.5l2 -44h9q3 160 26 279z
M369 1208q0 93 59.5 145t144.5 52t145 -52t60 -145q0 -92 -60 -143t-145 -51t-144.5 51t-59.5 143zM819 1208q0 93 60 145t145 52t145 -52t60 -145q0 -92 -60 -143t-145 -51t-145 51t-60 143z" />
    <glyph glyph-name="Idotbelow" unicode="&#x1eca;" horiz-adv-x="624" 
d="M102 1206h420v-1206h-420v1206zM92 -258q0 95 64 147t155 52q92 0 156.5 -52t64.5 -147t-64.5 -147t-156.5 -52q-91 0 -155 52t-64 147z" />
    <glyph glyph-name="idotbelow" unicode="&#x1ecb;" horiz-adv-x="589" 
d="M88 946h414v-946h-414v946zM61 1214q0 100 68.5 155.5t165.5 55.5t165 -55.5t68 -155.5t-68 -155t-165 -55q-98 0 -166 55t-68 155zM76 -258q0 95 64 147t155 52q92 0 156.5 -52t64.5 -147t-64.5 -147t-156.5 -52q-91 0 -155 52t-64 147z" />
    <glyph glyph-name="Odotbelow" unicode="&#x1ecc;" horiz-adv-x="1318" 
d="M1268 602q0 -304 -159 -465.5t-450 -161.5t-449.5 161.5t-158.5 465.5q0 305 158.5 467t449.5 162t450 -162t159 -467zM829 602q0 140 -39 209.5t-131 69.5t-131 -69.5t-39 -209.5q0 -138 39 -207t131 -69t131 69t39 207zM440 -258q0 95 64 147t155 52q93 0 157.5 -52
t64.5 -147t-64.5 -147t-157.5 -52q-91 0 -155 52t-64 147z" />
    <glyph glyph-name="odotbelow" unicode="&#x1ecd;" horiz-adv-x="1114" 
d="M37 473q0 238 141 368t379 130t379 -130t141 -368t-141 -368t-379 -130t-379 130t-141 368zM662 473q0 102 -24.5 149.5t-80.5 47.5t-80 -47.5t-24 -149.5t24 -149.5t80 -47.5t80.5 47.5t24.5 149.5zM338 -258q0 95 64 147t155 52q92 0 156.5 -52t64.5 -147t-64.5 -147
t-156.5 -52q-91 0 -155 52t-64 147z" />
    <glyph glyph-name="Udotbelow" unicode="&#x1ee4;" horiz-adv-x="1273" 
d="M637 -25q-555 0 -555 492v739h420v-696q0 -40 5 -71t19 -60.5t42 -45.5t69 -16t69 16t42 45.5t19 60.5t5 71v696h420v-739q0 -492 -555 -492zM418 -258q0 95 64 147t155 52q92 0 156.5 -52t64.5 -147t-64.5 -147t-156.5 -52q-91 0 -155 52t-64 147z" />
    <glyph glyph-name="udotbelow" unicode="&#x1ee5;" horiz-adv-x="1153" 
d="M707 0l-52 172q-15 -94 -84.5 -145.5t-191.5 -51.5q-141 0 -221 81t-80 241v649h414v-561q0 -53 15 -79.5t50 -26.5q52 0 73 40.5t21 135.5v491h414v-946h-358zM352 -258q0 95 64 147t155 52q93 0 157.5 -52t64.5 -147t-64.5 -147t-157.5 -52q-91 0 -155 52t-64 147z" />
    <glyph glyph-name="Ygrave" unicode="&#x1ef2;" horiz-adv-x="1314" 
d="M664 791h8q22 85 100 237l92 178h443l-441 -811v-395h-417v395l-441 811h457l92 -178q35 -68 61.5 -127t35.5 -85zM834 1284h-349l-282 320h497z" />
    <glyph glyph-name="ygrave" unicode="&#x1ef3;" horiz-adv-x="1140" 
d="M338 -39l-330 985h441l88 -358q12 -48 21.5 -114t13.5 -108l3 -42h9q16 149 47 260l98 362h404l-310 -893q-81 -250 -215.5 -364.5t-326.5 -114.5q-157 0 -254 55l82 299q49 -43 118 -43q80 0 111 76zM770 1055h-348l-283 319h498z" />
    <glyph glyph-name="Ytilde" unicode="&#x1ef8;" horiz-adv-x="1314" 
d="M664 791h8q22 85 100 237l92 178h443l-441 -811v-395h-417v395l-441 811h457l92 -178q35 -68 61.5 -127t35.5 -85zM268 1427q0 106 59 166t154 60q50 0 84.5 -12.5t83.5 -41.5q43 -25 63.5 -34t41.5 -9q67 0 67 91h205q21 -82 21 -144q0 -106 -59 -165.5t-154 -59.5
q-50 0 -85 12.5t-83 40.5q-43 25 -63.5 34t-41.5 9q-67 0 -67 -90h-205q-21 82 -21 143z" />
    <glyph glyph-name="ytilde" unicode="&#x1ef9;" horiz-adv-x="1140" 
d="M338 -39l-330 985h441l88 -358q12 -48 21.5 -114t13.5 -108l3 -42h9q16 149 47 260l98 362h404l-310 -893q-81 -250 -215.5 -364.5t-326.5 -114.5q-157 0 -254 55l82 299q49 -43 118 -43q80 0 111 76zM201 1188q0 106 59 165.5t154 59.5q50 0 85 -12.5t83 -40.5
q44 -26 64 -34.5t40 -8.5q68 0 68 90h204q21 -82 21 -143q0 -106 -59 -166t-154 -60q-50 0 -84.5 12.5t-83.5 41.5q-44 26 -64 34.5t-40 8.5q-68 0 -68 -91h-205q-20 78 -20 144z" />
    <glyph glyph-name="enspace" unicode="&#x2002;" horiz-adv-x="921" 
 />
    <glyph glyph-name="emspace" unicode="&#x2003;" horiz-adv-x="1843" 
 />
    <glyph glyph-name="threeperemspace" unicode="&#x2004;" horiz-adv-x="614" 
 />
    <glyph glyph-name="fourperemspace" unicode="&#x2005;" horiz-adv-x="460" 
 />
    <glyph glyph-name="sixperemspace" unicode="&#x2006;" horiz-adv-x="307" 
 />
    <glyph glyph-name="figurespace" unicode="&#x2007;" horiz-adv-x="1050" 
 />
    <glyph glyph-name="punctuationspace" unicode="&#x2008;" horiz-adv-x="350" 
 />
    <glyph glyph-name="thinspace" unicode="&#x2009;" horiz-adv-x="184" 
 />
    <glyph glyph-name="hairspace" unicode="&#x200a;" horiz-adv-x="92" 
 />
    <glyph glyph-name="zerowidthspace" unicode="&#x200b;" horiz-adv-x="0" 
 />
    <glyph glyph-name="figuredash" unicode="&#x2012;" horiz-adv-x="1144" 
d="M102 395v267h940v-267h-940z" />
    <glyph glyph-name="endash" unicode="&#x2013;" horiz-adv-x="1011" 
d="M102 395v267h807v-267h-807z" />
    <glyph glyph-name="emdash" unicode="&#x2014;" horiz-adv-x="2035" 
d="M102 395v267h1831v-267h-1831z" />
    <glyph glyph-name="uni2015" unicode="&#x2015;" horiz-adv-x="2547" 
d="M102 395v267h2343v-267h-2343z" />
    <glyph glyph-name="doublebar" unicode="&#x2016;" horiz-adv-x="1265" 
d="M520 -416h-315v1782h315v-1782zM1061 -416h-318v1782h318v-1782z" />
    <glyph glyph-name="quoteleft" unicode="&#x2018;" horiz-adv-x="606" 
d="M72 975q0 203 110.5 304t315.5 101v-163q-174 -17 -174 -109q88 5 149.5 -43t61.5 -154q0 -100 -65 -157.5t-157 -57.5q-114 0 -177.5 81t-63.5 198z" />
    <glyph glyph-name="quoteright" unicode="&#x2019;" horiz-adv-x="606" 
d="M535 1110q0 -203 -110.5 -304t-315.5 -101v163q174 17 174 109q-88 -5 -149.5 43t-61.5 154q0 100 65 157.5t156 57.5q114 0 178 -81t64 -198z" />
    <glyph glyph-name="quotesinglbase" unicode="&#x201a;" horiz-adv-x="606" 
d="M535 166q0 -203 -110.5 -304.5t-315.5 -101.5v164q174 17 174 109q-88 -5 -149.5 42.5t-61.5 153.5q0 100 65 157.5t156 57.5q115 0 178.5 -80.5t63.5 -197.5z" />
    <glyph glyph-name="reversequoteleft" unicode="&#x201b;" horiz-adv-x="606" 
d="M72 1110q0 117 63.5 198t177.5 81q92 0 157 -57.5t65 -157.5q0 -106 -61.5 -154t-149.5 -43q0 -92 174 -109v-163q-205 0 -315.5 101t-110.5 304z" />
    <glyph glyph-name="quotedblleft" unicode="&#x201c;" horiz-adv-x="1134" 
d="M72 975q0 203 110.5 304t315.5 101v-163q-174 -17 -174 -109q88 5 149.5 -43t61.5 -154q0 -100 -65 -157.5t-157 -57.5q-114 0 -177.5 81t-63.5 198zM600 975q0 203 110.5 304t315.5 101v-163q-174 -17 -174 -109q88 5 149.5 -43t61.5 -154q0 -100 -65 -157.5t-156 -57.5
q-114 0 -178 81t-64 198z" />
    <glyph glyph-name="quotedblright" unicode="&#x201d;" horiz-adv-x="1134" 
d="M535 1110q0 -203 -110.5 -304t-315.5 -101v163q174 17 174 109q-88 -5 -149.5 43t-61.5 154q0 100 65 157.5t156 57.5q114 0 178 -81t64 -198zM1063 1110q0 -203 -110.5 -304t-315.5 -101v163q174 17 174 109q-88 -5 -149.5 43t-61.5 154q0 100 65 157.5t156 57.5
q114 0 178 -81t64 -198z" />
    <glyph glyph-name="quotedblbase" unicode="&#x201e;" horiz-adv-x="1134" 
d="M535 164q0 -203 -110.5 -304.5t-315.5 -101.5v164q174 17 174 109q-88 -5 -149.5 42.5t-61.5 153.5q0 100 65 157.5t156 57.5q115 0 178.5 -80.5t63.5 -197.5zM1063 164q0 -203 -110.5 -304.5t-315.5 -101.5v164q174 17 174 109q-88 -5 -149.5 42.5t-61.5 153.5
q0 100 65 157.5t156 57.5q115 0 178.5 -80.5t63.5 -197.5z" />
    <glyph glyph-name="reversequotedblleft" unicode="&#x201f;" horiz-adv-x="1134" 
d="M600 1110q0 117 64 198t178 81q91 0 156 -57.5t65 -157.5q0 -106 -61.5 -154t-149.5 -43q0 -92 174 -109v-163q-205 0 -315.5 101t-110.5 304zM72 1110q0 117 63.5 198t177.5 81q92 0 157 -57.5t65 -157.5q0 -106 -61.5 -154t-149.5 -43q0 -92 174 -109v-163
q-205 0 -315.5 101t-110.5 304z" />
    <glyph glyph-name="dagger" unicode="&#x2020;" horiz-adv-x="1185" 
d="M418 412l-336 -23v356l334 -20l-21 481h396l-21 -481l334 20v-356l-334 23l21 -721h-394z" />
    <glyph glyph-name="daggerdbl" unicode="&#x2021;" horiz-adv-x="1191" 
d="M770 575l2 -184l338 19v-359l-340 23l21 -381h-390l25 381l-344 -23v359l336 -19v184l-336 -22v362l336 -22l-21 313h394l-19 -313l338 22v-362z" />
    <glyph glyph-name="bullet" unicode="&#x2022;" horiz-adv-x="831" 
d="M68 573q0 140 103 243.5t245 103.5q141 0 244.5 -103.5t103.5 -243.5q0 -144 -103.5 -248t-244.5 -104q-143 0 -245.5 103.5t-102.5 248.5z" />
    <glyph glyph-name="ellipsis" unicode="&#x2026;" horiz-adv-x="1851" 
d="M74 219q0 103 66 172.5t161 69.5q104 0 173 -69t69 -173q0 -96 -69 -161.5t-173 -65.5q-94 0 -160.5 66t-66.5 161zM692 219q0 103 66.5 172.5t161.5 69.5q104 0 172.5 -69t68.5 -173q0 -96 -68.5 -161.5t-172.5 -65.5q-94 0 -161 66t-67 161zM1309 219q0 103 66 172.5
t161 69.5q104 0 173 -69t69 -173q0 -96 -69 -161.5t-173 -65.5q-94 0 -160.5 66t-66.5 161z" />
    <glyph glyph-name="perthousand" unicode="&#x2030;" horiz-adv-x="2486" 
d="M424 0l663 1204h226l-676 -1204h-213zM383 676q72 0 72 170t-72 170t-72 -170t72 -170zM41 846q0 172 89.5 274.5t252.5 102.5t252.5 -102.5t89.5 -274.5t-89.5 -274.5t-252.5 -102.5t-252.5 102.5t-89.5 274.5zM1352 193q71 0 71 169q0 92 -18 131t-53 39
q-72 0 -72 -170q0 -169 72 -169zM1010 362q0 172 89.5 274.5t252.5 102.5t252.5 -102.5t89.5 -274.5t-89.5 -274t-252.5 -102t-252.5 102t-89.5 274zM2103 193q72 0 72 169q0 170 -72 170q-35 0 -53 -39t-18 -131q0 -169 71 -169zM1761 362q0 172 89.5 274.5t252.5 102.5
t252.5 -102.5t89.5 -274.5t-89.5 -274t-252.5 -102t-252.5 102t-89.5 274z" />
    <glyph glyph-name="tripleprime" unicode="&#x2034;" horiz-adv-x="1513" 
d="M162 844v524h375l-134 -524h-241zM610 844v524h375l-133 -524h-242zM1061 844v524h375l-133 -524h-242z" />
    <glyph glyph-name="guilsinglleft" unicode="&#x2039;" horiz-adv-x="763" 
d="M41 492l448 432l193 -195l-125 -129q-37 -38 -68 -64t-43 -33l-12 -7v-9q39 -18 123 -106l125 -127l-193 -195z" />
    <glyph glyph-name="guilsinglright" unicode="&#x203a;" horiz-adv-x="763" 
d="M274 924l449 -432l-449 -433l-192 195l125 127q37 39 68 65.5t43 33.5l12 7v9q-39 18 -123 104l-125 129z" />
    <glyph glyph-name="fraction" unicode="&#x2044;" horiz-adv-x="356" 
d="M-266 0l663 1204h226l-676 -1204h-213z" />
    <glyph glyph-name="uni2070" unicode="&#x2070;" horiz-adv-x="765" 
d="M383 676q72 0 72 170t-72 170t-72 -170t72 -170zM41 846q0 172 89.5 274.5t252.5 102.5t252.5 -102.5t89.5 -274.5t-89.5 -274.5t-252.5 -102.5t-252.5 102.5t-89.5 274.5z" />
    <glyph glyph-name="uni2074" unicode="&#x2074;" horiz-adv-x="800" 
d="M381 483v115h-350v190l334 418h301v-420h94v-188h-94v-115h-285zM309 782h76v111q0 24 2 50.5t4 40.5l2 15h-8q-18 -43 -59 -96l-47 -59q-12 -16 -26.5 -31t-22.5 -22l-9 -7v-8q33 6 88 6z" />
    <glyph glyph-name="uni2075" unicode="&#x2075;" horiz-adv-x="749" 
d="M88 780l21 426h534v-213h-321l-5 -100q48 57 140 57q117 0 179 -62.5t62 -160.5q0 -57 -19.5 -102t-51.5 -74t-77 -48.5t-94 -27.5t-104 -8q-126 0 -206.5 46t-104.5 136l238 96q4 -30 21 -52.5t52 -22.5q31 0 50.5 18t19.5 53q0 28 -13.5 46t-39.5 18q-29 0 -45 -25
h-236z" />
    <glyph glyph-name="uni2076" unicode="&#x2076;" horiz-adv-x="729" 
d="M666 1126l-152 -149q-20 22 -40.5 31.5t-55.5 9.5q-61 0 -94 -48.5t-33 -119.5h10q36 96 170 96q97 0 159 -63t62 -166q0 -124 -87.5 -186t-225.5 -62q-166 0 -252 94.5t-86 265.5q0 192 103 293t270 101q160 0 252 -97zM319 731q0 -30 19.5 -49.5t46.5 -19.5
q28 0 48 19.5t20 49.5q0 29 -20 48.5t-48 19.5q-27 0 -46.5 -19.5t-19.5 -48.5z" />
    <glyph glyph-name="uni2077" unicode="&#x2077;" horiz-adv-x="745" 
d="M422 1008h-148v-97h-233v295h664v-200l-246 -523h-291z" />
    <glyph glyph-name="uni2078" unicode="&#x2078;" horiz-adv-x="737" 
d="M369 1223q144 0 223.5 -57t79.5 -148q0 -61 -31 -104t-92 -56v-8q147 -23 147 -166q0 -107 -87.5 -161t-239.5 -54t-240 54t-88 161q0 143 147 166v8q-61 13 -91.5 56t-30.5 104q0 91 79.5 148t223.5 57zM369 641q24 0 39.5 16.5t15.5 44.5q0 29 -15.5 45.5t-39.5 16.5
t-40 -17t-16 -45t16 -44.5t40 -16.5zM369 938q22 0 36.5 16t14.5 43t-14.5 42.5t-36.5 15.5q-23 0 -37.5 -15.5t-14.5 -42.5t15 -43t37 -16z" />
    <glyph glyph-name="uni2079" unicode="&#x2079;" horiz-adv-x="729" 
d="M63 565l152 150q20 -22 40.5 -31.5t55.5 -9.5q61 0 94 48.5t33 119.5h-10q-37 -97 -170 -97q-96 0 -158.5 63.5t-62.5 166.5q0 124 87.5 186t225.5 62q166 0 252 -94.5t86 -266.5q0 -192 -103 -292.5t-270 -100.5q-161 0 -252 96zM410 961q0 30 -19.5 49.5t-46.5 19.5
q-28 0 -48 -19.5t-20 -49.5q0 -29 20 -48.5t48 -19.5q27 0 46.5 19.5t19.5 48.5z" />
    <glyph glyph-name="uni207A" unicode="&#x207a;" horiz-adv-x="905" 
d="M92 952h258v252h199v-252h264v-196h-264v-273h-199v273h-258v196z" />
    <glyph glyph-name="uni207B" unicode="&#x207b;" horiz-adv-x="903" 
d="M811 756h-719v196h719v-196z" />
    <glyph glyph-name="uni207C" unicode="&#x207c;" horiz-adv-x="903" 
d="M811 616h-719v193h719v-193zM811 926h-719v192h719v-192z" />
    <glyph glyph-name="uni207D" unicode="&#x207d;" horiz-adv-x="483" 
d="M305 834q0 -75 16 -147.5t32 -113t48.5 -109t42.5 -91.5h-219q-4 9 -34 69t-46 100t-32.5 121.5t-16.5 170.5q0 74 9 139t26.5 116.5t31.5 85.5t35 74t27 54h219q-10 -25 -42.5 -95t-48.5 -111.5t-32 -115t-16 -147.5z" />
    <glyph glyph-name="uni207E" unicode="&#x207e;" horiz-adv-x="483" 
d="M178 834q0 74 -16 147.5t-32 115t-48.5 111.5t-42.5 95h223q6 -14 32.5 -70.5t43.5 -100t33 -126t16 -172.5q0 -89 -16 -170t-33 -123.5t-43.5 -97.5t-32.5 -70h-223q10 23 42.5 91.5t48.5 109t32 113t16 147.5z" />
    <glyph glyph-name="n.superior" unicode="&#x207f;" horiz-adv-x="890" 
d="M356 1214l35 -120q38 139 203 139q94 0 153.5 -54t59.5 -165v-426h-297v338q0 42 -11.5 63t-43.5 21q-30 0 -49 -24.5t-19 -78.5v-319h-295v626h264z" />
    <glyph glyph-name="uni2080" unicode="&#x2080;" horiz-adv-x="765" 
d="M383 193q72 0 72 169q0 170 -72 170t-72 -170q0 -169 72 -169zM41 362q0 172 89.5 274.5t252.5 102.5t252.5 -102.5t89.5 -274.5t-89.5 -274t-252.5 -102t-252.5 102t-89.5 274z" />
    <glyph glyph-name="uni2081" unicode="&#x2081;" horiz-adv-x="661" 
d="M627 0h-566v205h156v274l-151 -10v215l423 45v-524h138v-205z" />
    <glyph glyph-name="uni2082" unicode="&#x2082;" horiz-adv-x="751" 
d="M690 223v-223h-627v188q167 62 255 128t88 130q0 30 -15.5 46t-42.5 16q-65 0 -65 -105l-242 68q34 268 334 268q142 0 228.5 -69t86.5 -187q0 -108 -76 -173.5t-188 -78.5v-8h264z" />
    <glyph glyph-name="uni2083" unicode="&#x2083;" horiz-adv-x="718" 
d="M279 463l-222 76q18 94 101 147t202 53q129 0 206 -57.5t77 -157.5q0 -69 -43 -108t-113 -49v-9q74 -6 119 -53t45 -123q0 -95 -85 -145.5t-214 -50.5q-125 0 -211.5 43.5t-113.5 124.5l231 104q12 -74 70 -74q21 0 34 11t13 32q0 30 -25.5 47t-97.5 17v133
q76 1 100.5 14.5t24.5 48.5q0 19 -12 31t-33 12q-53 0 -53 -67z" />
    <glyph glyph-name="uni2084" unicode="&#x2084;" horiz-adv-x="800" 
d="M381 0v115h-350v190l334 418h301v-420h94v-188h-94v-115h-285zM309 299h76v111q0 24 2 50.5t4 41.5l2 14h-8q-18 -43 -59 -96l-47 -60q-12 -16 -26.5 -30.5t-22.5 -21.5l-9 -7v-8q33 6 88 6z" />
    <glyph glyph-name="uni2085" unicode="&#x2085;" horiz-adv-x="749" 
d="M88 297l21 426h534v-213h-321l-5 -100q48 57 140 57q117 0 179 -62.5t62 -160.5q0 -57 -19.5 -102t-51.5 -74t-77 -48.5t-94 -27.5t-104 -8q-126 0 -206.5 46t-104.5 136l238 96q4 -31 21 -53.5t52 -22.5q31 0 50.5 18.5t19.5 53.5q0 28 -13.5 46t-39.5 18q-29 0 -45 -25
h-236z" />
    <glyph glyph-name="uni2086" unicode="&#x2086;" horiz-adv-x="729" 
d="M666 643l-152 -149q-20 22 -40.5 31.5t-55.5 9.5q-61 0 -94 -48.5t-33 -119.5h10q36 96 170 96q96 0 158.5 -63.5t62.5 -166.5q0 -124 -87.5 -185.5t-225.5 -61.5q-166 0 -252 94.5t-86 265.5q0 192 103 292.5t270 100.5q161 0 252 -96zM319 248q0 -30 19.5 -50t46.5 -20
q28 0 48 20t20 50q0 29 -20 48t-48 19q-27 0 -46.5 -19t-19.5 -48z" />
    <glyph glyph-name="uni2087" unicode="&#x2087;" horiz-adv-x="745" 
d="M422 524h-148v-96h-233v295h664v-201l-246 -522h-291z" />
    <glyph glyph-name="uni2088" unicode="&#x2088;" horiz-adv-x="737" 
d="M369 739q144 0 223.5 -56.5t79.5 -147.5q0 -61 -31 -104t-92 -56v-8q147 -23 147 -166q0 -107 -87.5 -161t-239.5 -54t-240 54t-88 161q0 143 147 166v8q-61 13 -91.5 56t-30.5 104q0 91 79.5 147.5t223.5 56.5zM369 158q24 0 39.5 16.5t15.5 44.5q0 29 -15.5 45.5
t-39.5 16.5t-40 -17t-16 -45t16 -44.5t40 -16.5zM369 455q22 0 36.5 16t14.5 43t-14 42t-37 15t-37.5 -15t-14.5 -42t15 -43t37 -16z" />
    <glyph glyph-name="uni2089" unicode="&#x2089;" horiz-adv-x="729" 
d="M63 82l152 149q20 -22 40.5 -31.5t55.5 -9.5q61 0 94 48.5t33 119.5h-10q-36 -96 -170 -96q-96 0 -158.5 63.5t-62.5 166.5q0 124 87.5 185.5t225.5 61.5q166 0 252 -94.5t86 -265.5q0 -192 -103 -292.5t-270 -100.5q-161 0 -252 96zM410 477q0 30 -19.5 50t-46.5 20
q-28 0 -48 -20t-20 -50q0 -29 20 -48t48 -19q27 0 46.5 19t19.5 48z" />
    <glyph glyph-name="uni208A" unicode="&#x208a;" horiz-adv-x="905" 
d="M92 469h258v252h199v-252h264v-195h-264v-274h-199v274h-258v195z" />
    <glyph glyph-name="uni208B" unicode="&#x208b;" horiz-adv-x="903" 
d="M811 276h-719v193h719v-193z" />
    <glyph glyph-name="uni208C" unicode="&#x208c;" horiz-adv-x="903" 
d="M811 137h-719v193h719v-193zM811 442h-719v195h719v-195z" />
    <glyph glyph-name="uni208D" unicode="&#x208d;" horiz-adv-x="483" 
d="M305 350q0 -75 16 -147.5t32 -113t48.5 -109t42.5 -91.5h-219q-5 12 -34 70t-45.5 99t-33 122t-16.5 170q0 74 9 139t26.5 116.5t31.5 85.5t35 74t27 54h219q-8 -20 -42 -92t-49.5 -112t-31.5 -115t-16 -150z" />
    <glyph glyph-name="uni208E" unicode="&#x208e;" horiz-adv-x="483" 
d="M178 350q0 75 -16 150t-31.5 115t-49.5 112t-42 92h223q6 -14 32.5 -70.5t43.5 -100t33 -126t16 -172.5q0 -89 -16 -169.5t-33.5 -123.5t-43 -97t-32.5 -71h-223q10 23 42.5 91.5t48.5 109t32 113t16 147.5z" />
    <glyph glyph-name="uni20A1" unicode="&#x20a1;" horiz-adv-x="1081" 
d="M229 -121l52 166q-113 62 -173.5 175t-60.5 269q0 247 140.5 383t381.5 138l54 182l135 -39l-47 -156q44 -8 65 -14l45 150l135 -39l-51 -172q121 -82 148 -240l-361 -119q0 129 -102 129q-66 0 -94.5 -50t-28.5 -153t31 -149.5t94 -46.5q41 0 73 31t35 92l361 -135
q-40 -144 -155 -220t-283 -84l-60 -196l-135 39l49 164q-35 3 -65 12l-47 -156z" />
    <glyph glyph-name="uni20A2" unicode="&#x20a2;" horiz-adv-x="1073" 
d="M782 358l250 -127q-31 -58 -68.5 -101t-93.5 -80t-136 -56t-183 -19q-233 0 -371.5 132t-138.5 382q0 245 142 383t376 138q174 0 293.5 -69t177.5 -204l-287 -139q-18 72 -54 111t-114 39q-77 0 -125.5 -62.5t-48.5 -189.5q0 -235 111 -260v327h145l17 -117
q15 64 54.5 96.5t129.5 32.5l-22 -178q-27 6 -52 6q-110 0 -110 -94v-73q68 27 108 122z" />
    <glyph glyph-name="franc" unicode="&#x20a3;" horiz-adv-x="1058" 
d="M848 219h-244v-219h-416v219h-127v125h127v80h-127v125h127v436h809v-330h-393v-106h244v-125h-244v-80h244v-125z" />
    <glyph glyph-name="lira" unicode="&#x20a4;" horiz-adv-x="1075" 
d="M102 492v96h88q-16 53 -16 114q0 140 106.5 224t294.5 84q151 0 250 -64t131 -182l-262 -139q-12 49 -33 72.5t-67 23.5q-34 0 -53 -20.5t-19 -51.5t10 -61h203v-96h-164q7 -28 7 -50h157v-96h-182q-27 -49 -76 -65h260q56 0 87 17.5t46 59.5l205 -163
q-33 -93 -108.5 -144t-188.5 -51h-676v281h62q72 0 86 65h-148v96h144q-4 14 -17 50h-127z" />
    <glyph glyph-name="uni20A6" unicode="&#x20a6;" horiz-adv-x="1478" 
d="M61 532v121h144v332h397l154 -213q30 -42 58.5 -87.5t41.5 -70.5l14 -24h9q-7 98 -7 221v174h402v-332h143v-121h-143v-106h143v-121h-143v-305h-350l-189 238q-43 54 -74.5 100.5t-42.5 65.5l-10 20h-8q6 -66 6 -209v-215h-401v305h-144v121h144v106h-144z" />
    <glyph glyph-name="peseta" unicode="&#x20a7;" horiz-adv-x="2725" 
d="M1579 0h-373v502h-159q-24 -153 -130 -234.5t-290 -81.5h-131v-186h-394v985h498q287 0 391 -158h776q53 94 164.5 138.5t259.5 44.5q188 0 304 -73t143 -214l-373 -37q0 72 -72 72q-63 0 -63 -45q0 -43 63 -49l107 -11q176 -13 260 -100t84 -229q0 -180 -127.5 -264.5
t-357.5 -84.5q-80 0 -148 11.5t-132 38t-108 77t-59 121.5l373 82q3 -74 74 -74q67 0 67 48q0 45 -67 53l-101 8q-222 18 -297 162h-182v-502zM496 672v-180h104q76 0 76 92q0 44 -21 66t-55 22h-104z" />
    <glyph glyph-name="uni20A8" unicode="&#x20a8;" horiz-adv-x="1949" 
d="M862 383l363 -131q189 -62 258 -62q51 0 51 33q0 20 -15 28.5t-59 16.5l-96 19q-124 24 -188 80t-64 168q0 149 105.5 226t277.5 77q161 0 258 -68.5t111 -181.5l-299 -21q0 30 -19.5 47t-48.5 17q-49 0 -49 -39q0 -22 13.5 -33.5t49.5 -15.5l74 -13q140 -22 211.5 -86
t71.5 -180q0 -150 -100 -219.5t-312 -69.5q-168 0 -336.5 31t-374.5 125l-229 105v-236h-414v985h555q209 0 313.5 -87t104.5 -243q0 -119 -61 -186.5t-152 -75.5v-10zM516 686v-188h72q86 0 86 94t-86 94h-72z" />
    <glyph glyph-name="uni20A9" unicode="&#x20a9;" horiz-adv-x="1814" 
d="M61 532v121h109l-78 332h422l68 -328q14 -64 23 -133.5t11 -107.5l2 -37h9q10 143 35 278l61 328h369l61 -328q11 -60 20 -129.5t12 -109.5l3 -39h8q6 133 37 278l67 328h422l-77 -332h108v-121h-137l-27 -106h164v-121h-192l-72 -305h-477l-60 250q-14 59 -25 118
t-15 88l-5 29h-8q-14 -102 -45 -235l-59 -250h-469l-72 305h-193v121h164l-26 106h-138z" />
    <glyph glyph-name="uni20AA" unicode="&#x20aa;" horiz-adv-x="1697" 
d="M1090 383h-195v231q0 46 -19.5 63t-70.5 17h-289v-694h-414v985h682q69 0 120 -9.5t84 -30.5t54 -45.5t31 -63.5t13.5 -74.5t3.5 -87.5v-291zM1182 985h413v-674q0 -153 -92 -232t-274 -79h-621v602h195v-311h301q41 0 59.5 15.5t18.5 51.5v627z" />
    <glyph glyph-name="Euro" unicode="&#x20ac;" horiz-adv-x="1198" 
d="M41 528v111h117q41 179 176 275t338 96q201 0 324.5 -83t152.5 -245l-320 -107q0 62 -38 105t-103 43q-105 0 -137 -84h184l-20 -111h-180v-75h172l-21 -111h-135q29 -82 137 -82q64 0 106.5 45.5t45.5 112.5l317 -137q-42 -152 -168 -229t-309 -77q-207 0 -344 95.5
t-178 271.5h-117v111h102v75h-102z" />
    <glyph glyph-name="uni20AE" unicode="&#x20ae;" horiz-adv-x="1052" 
d="M156 354v121l163 23v141h-247v346h909v-346h-248v-84l164 23v-121l-164 -23v-86l164 23v-121l-164 -23v-227h-414v170l-163 -23v121l163 23v86z" />
    <glyph glyph-name="uni20B1" unicode="&#x20b1;" horiz-adv-x="1339" 
d="M41 504v137h143v344h518q213 0 324.5 -85t126.5 -259h156v-137h-160q-22 -153 -129 -235.5t-291 -82.5h-131v-186h-414v504h-143zM598 672v-180h84q76 0 76 92q0 44 -21 66t-55 22h-84z" />
    <glyph glyph-name="afii61289" unicode="&#x2113;" horiz-adv-x="999" 
d="M82 227l-62 131l205 131v398q0 258 107 370.5t311 112.5q140 0 227.5 -75.5t87.5 -229.5q0 -103 -21 -183.5t-67 -148.5t-102.5 -122t-144.5 -119q0 -156 120 -156q22 0 39.5 2.5t32.5 8t22 8.5t20 11t15 9l-16 -338q-111 -62 -293 -62q-62 0 -120.5 18.5t-108 55
t-79.5 99.5t-30 143v22zM623 1032v-354q77 66 112 150.5t35 218.5q0 122 -76 122q-40 0 -55.5 -32t-15.5 -105z" />
    <glyph glyph-name="afii61352" unicode="&#x2116;" horiz-adv-x="2347" 
d="M1522 0v250h661v-250h-661zM1853 336q-161 0 -256.5 92.5t-95.5 259.5q0 164 95.5 255t256.5 91q160 0 255.5 -91t95.5 -255q0 -167 -95.5 -259.5t-255.5 -92.5zM1853 823q-36 0 -49.5 -31.5t-13.5 -103.5q0 -68 14 -99.5t49 -31.5q34 0 49 32t15 99q0 70 -14.5 102.5
t-49.5 32.5zM1362 766v-766h-348l-291 360q-35 43 -61 81.5t-35 55.5l-9 17h-8q8 -82 8 -145v-54q0 -78 -23.5 -137.5t-64 -97.5t-100.5 -62t-128 -33.5t-152 -9.5l-68 324q61 12 89 39.5t28 101.5v766h362l283 -383q32 -44 56 -81.5t32 -53.5l8 -16h8q-6 65 -6 182v37
q0 78 23.5 137.5t64 97.5t101 62t128.5 33.5t152 9.5l68 -324q-61 -12 -89 -39.5t-28 -101.5z" />
    <glyph glyph-name="published" unicode="&#x2117;" horiz-adv-x="1439" 
d="M92 602q0 179 84.5 323.5t227.5 225t315 80.5q128 0 244 -47.5t200.5 -129.5t134.5 -200t50 -252t-50 -251.5t-134.5 -199.5t-200.5 -129t-244 -47t-243.5 47t-200 129t-134 199.5t-49.5 251.5zM156 602q0 -164 77.5 -295t207 -201.5t284.5 -70.5q114 0 217 42t179 115
t120.5 180t44.5 230q0 122 -44.5 228.5t-120.5 181t-179 117t-217 42.5q-115 0 -219.5 -42.5t-181.5 -117t-122.5 -181t-45.5 -228.5zM713 741v-139h63q60 0 60 72q0 67 -60 67h-63zM713 221h-322v764h402q180 0 266 -76.5t86 -234.5q0 -148 -84.5 -227.5t-247.5 -79.5h-100
v-146z" />
    <glyph glyph-name="servicemark" unicode="&#x2120;" horiz-adv-x="1419" 
d="M1026 725h-74l-65 131h-10v-217h-236v565h240l104 -196h8l105 196h239v-565h-237v217h-8zM37 772l211 45q0 -41 41 -41q39 0 39 31q0 14 -8.5 22t-30.5 9l-56 4q-91 8 -139.5 52.5t-48.5 123.5q0 70 37 116t94.5 65.5t132.5 19.5q106 0 172.5 -42t81.5 -122l-211 -21
q0 41 -43 41q-35 0 -35 -26q0 -28 35 -31l64 -6q192 -23 192 -183q0 -198 -276 -198q-221 0 -252 141z" />
    <glyph glyph-name="trademark" unicode="&#x2122;" horiz-adv-x="1398" 
d="M408 639h-242v369h-141v198h524v-198h-141v-369zM1004 723h-74l-66 133h-10v-217h-238v567h242l105 -198h8l106 198h240v-567h-238v217h-10z" />
    <glyph glyph-name="ohm" unicode="&#x2126;" horiz-adv-x="1478" 
d="M739 879q-87 0 -125.5 -58t-38.5 -170q0 -224 105 -276v-375h-588v375h301q-100 28 -171.5 129.5t-71.5 238.5q0 231 153.5 359.5t435.5 128.5t436 -128.5t154 -359.5q0 -137 -72 -238.5t-172 -129.5h301v-375h-587v375q104 51 104 276q0 112 -38.5 170t-125.5 58z" />
    <glyph glyph-name="estimated" unicode="&#x212e;" horiz-adv-x="1325" 
d="M662 1231q145 0 257.5 -53t179.5 -143t100.5 -199.5t33.5 -233.5v-53h-883v-346q116 -119 312 -119q134 0 229 55.5t147 157.5h136q-62 -149 -190.5 -235.5t-321.5 -86.5q-116 0 -211.5 35t-161 94.5t-111 140t-66 170.5t-20.5 187q0 98 21 188t66 171t110.5 140.5
t161 94.5t211.5 35zM662 1122q-200 0 -312 -118v-349h627v349q-112 118 -315 118z" />
    <glyph glyph-name="uni2153" unicode="&#x2153;" horiz-adv-x="1685" 
d="M401 0l664 1204h225l-676 -1204h-213zM627 483h-566v205h156v275l-151 -11v215l423 45v-524h138v-205zM1245 463l-221 76q18 94 101 147t202 53q129 0 206 -57.5t77 -157.5q0 -69 -43 -108t-113 -49v-9q74 -6 119 -53t45 -123q0 -95 -85 -145.5t-214 -50.5
q-125 0 -212 43.5t-114 124.5l232 104q12 -74 69 -74q21 0 34 11t13 32q0 30 -25 47t-97 17v133q76 1 100 14.5t24 48.5q0 19 -12 31t-33 12q-53 0 -53 -67z" />
    <glyph glyph-name="uni2154" unicode="&#x2154;" horiz-adv-x="1763" 
d="M690 707v-224h-627v189q167 62 255 128t88 130q0 61 -58 61q-65 0 -65 -104l-242 67q34 269 334 269q142 0 228.5 -69t86.5 -187q0 -108 -76 -173.5t-188 -78.5v-8h264zM479 0l664 1204h225l-676 -1204h-213zM1323 463l-221 76q18 94 101 147t202 53q129 0 206 -57.5
t77 -157.5q0 -69 -43 -108t-113 -49v-9q74 -6 119 -53t45 -123q0 -95 -85 -145.5t-214 -50.5q-125 0 -212 43.5t-114 124.5l232 104q12 -74 69 -74q21 0 34 11t13 32q0 30 -25.5 47t-97.5 17v133q76 1 100.5 14.5t24.5 48.5q0 19 -12 31t-33 12q-53 0 -53 -67z" />
    <glyph glyph-name="uni215B" unicode="&#x215b;" horiz-adv-x="1703" 
d="M401 0l664 1204h225l-676 -1204h-213zM1335 739q144 0 223.5 -56.5t79.5 -147.5q0 -61 -30.5 -104t-91.5 -56v-8q147 -23 147 -166q0 -107 -88 -161t-240 -54t-239.5 54t-87.5 161q0 143 147 166v8q-61 13 -92 56t-31 104q0 91 79.5 147.5t223.5 56.5zM1335 158
q24 0 40 16.5t16 44.5t-16 45t-40 17t-39.5 -16.5t-15.5 -45.5q0 -28 15.5 -44.5t39.5 -16.5zM1335 455q22 0 36.5 16t14.5 43t-14 42t-37 15t-37 -15t-14 -42t14.5 -43t36.5 -16zM627 483h-566v205h156v275l-151 -11v215l423 45v-524h138v-205z" />
    <glyph glyph-name="uni215C" unicode="&#x215c;" horiz-adv-x="1720" 
d="M418 0l663 1204h226l-676 -1204h-213zM1352 739q144 0 223.5 -56.5t79.5 -147.5q0 -61 -31 -104t-92 -56v-8q147 -23 147 -166q0 -107 -87.5 -161t-239.5 -54t-240 54t-88 161q0 143 147 166v8q-61 13 -91.5 56t-30.5 104q0 91 79.5 147.5t223.5 56.5zM1352 158
q24 0 39.5 16.5t15.5 44.5q0 29 -15.5 45.5t-39.5 16.5t-40 -17t-16 -45t16 -44.5t40 -16.5zM1352 455q22 0 36.5 16t14.5 43t-14 42t-37 15t-37.5 -15t-14.5 -42t15 -43t37 -16zM279 946l-222 76q18 94 101 147.5t202 53.5q129 0 206 -57.5t77 -157.5q0 -69 -43 -108.5
t-113 -49.5v-8q74 -6 119 -53t45 -123q0 -95 -85 -146t-214 -51q-125 0 -211.5 43.5t-113.5 124.5l231 104q11 -73 70 -73q21 0 34 11t13 32q0 29 -25.5 46t-97.5 17v133q76 1 100.5 15t24.5 49q0 19 -12 31t-33 12q-53 0 -53 -68z" />
    <glyph glyph-name="uni215D" unicode="&#x215d;" horiz-adv-x="1738" 
d="M88 780l21 426h534v-213h-321l-5 -100q48 57 140 57q117 0 179 -62.5t62 -160.5q0 -57 -19.5 -102t-51.5 -74t-77 -48.5t-94 -27.5t-104 -8q-126 0 -206.5 46t-104.5 136l238 96q4 -30 21 -52.5t52 -22.5q31 0 50.5 18t19.5 53q0 28 -13.5 46t-39.5 18q-29 0 -45 -25
h-236zM436 0l664 1204h225l-676 -1204h-213zM1370 739q144 0 223.5 -56.5t79.5 -147.5q0 -61 -31 -104t-92 -56v-8q148 -24 148 -166q0 -107 -88 -161t-240 -54t-240 54t-88 161q0 142 148 166v8q-61 13 -92 56t-31 104q0 91 79.5 147.5t223.5 56.5zM1370 158
q24 0 39.5 16.5t15.5 44.5q0 29 -15.5 45.5t-39.5 16.5t-39.5 -16.5t-15.5 -45.5q0 -28 15.5 -44.5t39.5 -16.5zM1370 455q22 0 36.5 16t14.5 43t-14 42t-37 15t-37 -15t-14 -42t14.5 -43t36.5 -16z" />
    <glyph glyph-name="uni215E" unicode="&#x215e;" horiz-adv-x="1638" 
d="M336 0l663 1204h226l-676 -1204h-213zM1270 739q144 0 223.5 -56.5t79.5 -147.5q0 -61 -31 -104t-92 -56v-8q147 -23 147 -166q0 -107 -87.5 -161t-239.5 -54t-240 54t-88 161q0 142 148 166v8q-61 13 -92 56t-31 104q0 91 79.5 147.5t223.5 56.5zM1270 158
q24 0 39.5 16.5t15.5 44.5q0 29 -15.5 45.5t-39.5 16.5t-40 -17t-16 -45t16 -44.5t40 -16.5zM1270 455q22 0 36.5 16t14.5 43t-14 42t-37 15t-37 -15t-14 -42t14.5 -43t36.5 -16zM422 1008h-148v-97h-233v295h664v-200l-246 -523h-291z" />
    <glyph glyph-name="arrowleft" unicode="&#x2190;" horiz-adv-x="1554" 
d="M674 774h788v-340h-784l219 -215l-231 -244l-596 631l587 625l236 -248z" />
    <glyph glyph-name="arrowup" unicode="&#x2191;" horiz-adv-x="1402" 
d="M872 627v-627h-340v623l-215 -222l-243 236l631 594l624 -590l-248 -233z" />
    <glyph glyph-name="arrowright" unicode="&#x2192;" horiz-adv-x="1554" 
d="M70 774h788l-225 209l233 248l596 -625l-600 -631l-237 244l227 215h-782v340z" />
    <glyph glyph-name="arrowdown" unicode="&#x2193;" horiz-adv-x="1402" 
d="M530 580v626h340v-622l215 219l244 -232l-631 -596l-624 588l248 234z" />
    <glyph glyph-name="uni2196" unicode="&#x2196;" horiz-adv-x="1402" 
d="M1124 0l-655 649v-452h-336v1009h1000v-319h-420l653 -647z" />
    <glyph glyph-name="uni2197" unicode="&#x2197;" horiz-adv-x="1402" 
d="M932 649l-653 -649l-242 240l651 647h-418v319h998v-1009h-336v452z" />
    <glyph glyph-name="uni2198" unicode="&#x2198;" horiz-adv-x="1402" 
d="M279 1206l653 -647v451h336v-1010h-998v324h418l-651 643z" />
    <glyph glyph-name="uni2199" unicode="&#x2199;" horiz-adv-x="1402" 
d="M469 559l655 647l242 -239l-653 -643h420v-324h-1000v1010h336v-451z" />
    <glyph glyph-name="partialdiff" unicode="&#x2202;" horiz-adv-x="1130" 
d="M305 1190l350 237q212 -163 321 -365t109 -482q0 -605 -518 -605q-240 0 -381 129t-141 361q0 91 24 166.5t62.5 125t89.5 84t103.5 49.5t105.5 15q96 0 154 -30t102 -89q-68 144 -145 223.5t-236 180.5zM670 473q0 102 -24.5 149.5t-80.5 47.5t-80 -47.5t-24 -149.5
t24 -149.5t80 -47.5t80.5 47.5t24.5 149.5z" />
    <glyph glyph-name="increment" unicode="&#x2206;" horiz-adv-x="1404" 
d="M975 1206l399 -1206h-1343l399 1206h545zM707 909h-9q-16 -123 -45 -219l-106 -373h311l-106 373q-13 43 -24 97.5t-16 88.5z" />
    <glyph glyph-name="product" unicode="&#x220f;" horiz-adv-x="1411" 
d="M559 -418h-416v1624h1125v-1624h-416v1252h-293v-1252z" />
    <glyph glyph-name="summation" unicode="&#x2211;" horiz-adv-x="1083" 
d="M662 748l75 -142l-75 -147q-16 -32 -33.5 -59.5t-26.5 -39.5l-10 -12v-4q29 8 127 8h272v-352h-971l285 606l-285 600h971v-352h-272q-44 0 -75.5 2t-41.5 4l-10 2v-4q33 -38 70 -110z" />
    <glyph glyph-name="minus" unicode="&#x2212;" horiz-adv-x="1019" 
d="M928 397h-836v221h836v-221z" />
    <glyph glyph-name="radical" unicode="&#x221a;" horiz-adv-x="1476" 
d="M541 971l239 -465h11l280 856l373 -96l-469 -1266h-363l-284 553l-138 -59l-131 276z" />
    <glyph glyph-name="infinity" unicode="&#x221e;" horiz-adv-x="1765" 
d="M420 477q0 -115 88 -115q37 0 66 14.5t65 43.5l74 57l-74 58q-36 28 -65 42.5t-66 14.5q-88 0 -88 -115zM1346 477q0 58 -24 86.5t-65 28.5q-37 0 -66 -14.5t-65 -42.5l-73 -58l73 -57q36 -29 65 -43.5t66 -14.5q41 0 65 28.5t24 86.5zM883 270l-84 -63
q-112 -85 -184 -117.5t-177 -32.5q-50 0 -98.5 13.5t-96 45t-82.5 78.5t-57 120t-22 163t22 163t57 120t82.5 78.5t96 45t98.5 13.5q73 0 132.5 -17.5t106 -46t122.5 -85.5l84 -64l84 64q112 85 183.5 117t176.5 32q50 0 98.5 -13.5t96 -45t82.5 -78.5t57 -120t22 -163
t-22 -163t-57 -120t-82.5 -78.5t-96 -45t-98.5 -13.5q-105 0 -176 32.5t-184 117.5z" />
    <glyph glyph-name="integral" unicode="&#x222b;" horiz-adv-x="917" 
d="M231 55v906q0 204 113 317t295 115q83 0 147.5 -14t131.5 -50l-50 -364q-63 57 -141 57q-82 0 -82 -100v-906q0 -204 -112.5 -317t-294.5 -115q-83 0 -147.5 14t-131.5 50l49 364q63 -57 142 -57q81 0 81 100z" />
    <glyph glyph-name="approxequal" unicode="&#x2248;" horiz-adv-x="1019" 
d="M727 475q-45 0 -209 34t-190 34q-127 0 -236 -64v207q79 51 130.5 67.5t131.5 16.5q55 0 182.5 -27.5t163.5 -27.5h21q76 0 114 7t93 40v-207q-43 -47 -89 -63.5t-112 -16.5zM727 168q-45 0 -209 31.5t-190 31.5q-132 0 -236 -61v205q78 53 129.5 69.5t132.5 16.5
q55 0 182.5 -27.5t163.5 -27.5h21q76 0 114 7t93 40v-207q-43 -46 -88.5 -62t-112.5 -16z" />
    <glyph glyph-name="notequal" unicode="&#x2260;" horiz-adv-x="1019" 
d="M928 213h-441l-110 -211l-195 102l58 109h-148v223h264l70 135h-334v224h451l110 209l195 -103l-57 -106h137v-224h-254l-70 -135h324v-223z" />
    <glyph glyph-name="lessequal" unicode="&#x2264;" horiz-adv-x="974" 
d="M795 754l-271 -115l267 -129l-154 -205l-531 326l553 315zM883 37h-791v221h791v-221z" />
    <glyph glyph-name="greaterequal" unicode="&#x2265;" horiz-adv-x="974" 
d="M449 639l-269 115l135 192l555 -315l-536 -326l-148 205zM883 37h-791v221h791v-221z" />
    <glyph glyph-name="blacksquare" unicode="&#x25a0;" horiz-adv-x="1482" 
d="M139 0v1206h1207v-1206h-1207z" />
    <glyph glyph-name="whitesquare" unicode="&#x25a1;" horiz-adv-x="1482" 
d="M139 0v1206h1207v-1206h-1207zM227 1118v-1030h1033v1030h-1033z" />
    <glyph glyph-name="blacksmallsquare" unicode="&#x25aa;" horiz-adv-x="937" 
d="M139 285v665h660v-665h-660z" />
    <glyph glyph-name="whitesmallsquare" unicode="&#x25ab;" horiz-adv-x="944" 
d="M139 285v665h668v-665h-668zM227 862v-489h492v489h-492z" />
    <glyph glyph-name="triagup" unicode="&#x25b2;" horiz-adv-x="1165" 
d="M82 0l502 1231l499 -1231h-1001z" />
    <glyph glyph-name="triagrt" unicode="&#x25ba;" horiz-adv-x="1370" 
d="M139 1098l1231 -502l-1231 -500v1002z" />
    <glyph glyph-name="triagdn" unicode="&#x25bc;" horiz-adv-x="1165" 
d="M584 -25l-502 1231h1001z" />
    <glyph glyph-name="triaglf" unicode="&#x25c4;" horiz-adv-x="1370" 
d="M0 596l1231 502v-1002z" />
    <glyph glyph-name="lozenge" unicode="&#x25ca;" horiz-adv-x="1224" 
d="M1184 612l-410 -684h-305l-408 684l408 676h305zM872 610l-243 424l-240 -424l240 -428z" />
    <glyph glyph-name="circle" unicode="&#x25cb;" horiz-adv-x="1046" 
d="M74 604q0 185 131.5 317t318.5 132q119 0 222.5 -60.5t165 -164t61.5 -224.5t-61.5 -224.5t-165 -163.5t-222.5 -60q-187 0 -318.5 131.5t-131.5 316.5zM174 602q0 -149 100 -252.5t248 -103.5q142 0 245 104.5t103 251.5q0 148 -103 252t-245 104q-148 0 -248 -103
t-100 -253z" />
    <glyph glyph-name="blackcircle" unicode="&#x25cf;" horiz-adv-x="1404" 
d="M74 602q0 127 49.5 243.5t133.5 201t200 134.5t243 50q170 0 315 -84.5t229.5 -229.5t84.5 -315t-84.5 -314.5t-229.5 -228.5t-315 -84q-127 0 -243 49.5t-200 133.5t-133.5 200.5t-49.5 243.5z" />
    <glyph glyph-name="whitecircle" unicode="&#x25ef;" horiz-adv-x="1404" 
d="M74 602q0 127 49.5 243.5t133.5 201t200 134.5t243 50q170 0 315 -84.5t229.5 -229.5t84.5 -315t-84.5 -314.5t-229.5 -228.5t-315 -84q-127 0 -243 49.5t-200 133.5t-133.5 200.5t-49.5 243.5zM164 604q0 -149 71.5 -275t195 -199t269.5 -73q109 0 208 43t171.5 116.5
t115 174.5t42.5 213q0 146 -72 271t-196 198.5t-269 73.5q-146 0 -269.5 -73.5t-195 -198.5t-71.5 -271z" />
    <glyph glyph-name="anglebracketleft" unicode="&#x3008;" horiz-adv-x="792" 
d="M782 -416h-407l-314 897l314 887h407l-317 -895z" />
    <glyph glyph-name="anglebracketright" unicode="&#x3009;" horiz-adv-x="792" 
d="M418 -416h-408l318 889l-318 895h408l313 -887z" />
    <glyph glyph-name="lcedilla" unicode="&#xe100;" horiz-adv-x="632" 
d="M592 -238q0 -92 -68 -143t-184 -51q-161 0 -252 72l55 155q59 -49 123 -49q53 0 53 41q0 51 -81 51l22 160q-86 24 -139 93t-53 190v1087h413v-969q0 -77 56 -77q36 0 75 20l-14 -307q-65 -50 -211 -53l-4 -43q93 0 151 -45t58 -132z" />
    <glyph glyph-name="uni004500600323" unicode="&#xe101;" horiz-adv-x="1087" 
d="M1016 344v-344h-914v1206h906v-344h-502v-108h446v-301h-446v-109h510zM715 1284h-348l133 320h497zM340 -258q0 95 64 147t155 52q92 0 156.5 -52t64.5 -147t-64.5 -147t-156.5 -52q-91 0 -155 52t-64 147z" />
    <glyph glyph-name="uni006500600323" unicode="&#xe102;" horiz-adv-x="1019" 
d="M539 281q91 0 116 96l322 -127q-49 -135 -170.5 -205t-274.5 -70q-226 0 -360.5 129t-134.5 353q0 247 132.5 379.5t375.5 132.5q217 0 327.5 -121t110.5 -322q0 -55 -14 -116h-533q0 -64 27 -96.5t76 -32.5zM444 557h156q6 12 6 43q0 33 -17 56.5t-54 23.5
q-40 0 -64 -33.5t-27 -89.5zM690 1055h-348l133 319h498zM315 -258q0 95 64.5 147t155.5 52q92 0 156.5 -52t64.5 -147t-64.5 -147t-156.5 -52q-91 0 -155.5 52t-64.5 147z" />
    <glyph glyph-name="uni004500B40323" unicode="&#xe103;" horiz-adv-x="1087" 
d="M1016 344v-344h-914v1206h906v-344h-502v-108h446v-301h-446v-109h510zM735 1284h-348l-283 320h498zM340 -258q0 95 64 147t155 52q92 0 156.5 -52t64.5 -147t-64.5 -147t-156.5 -52q-91 0 -155 52t-64 147z" />
    <glyph glyph-name="uni006500B40323" unicode="&#xe104;" horiz-adv-x="1019" 
d="M539 281q91 0 116 96l322 -127q-49 -135 -170.5 -205t-274.5 -70q-226 0 -360.5 129t-134.5 353q0 247 132.5 379.5t375.5 132.5q217 0 327.5 -121t110.5 -322q0 -55 -14 -116h-533q0 -64 27 -96.5t76 -32.5zM444 557h156q6 12 6 43q0 33 -17 56.5t-54 23.5
q-40 0 -64 -33.5t-27 -89.5zM715 1055h-348l-283 319h498zM315 -258q0 95 64.5 147t155.5 52q92 0 156.5 -52t64.5 -147t-64.5 -147t-156.5 -52q-91 0 -155.5 52t-64.5 147z" />
    <glyph glyph-name="Gtilde" unicode="&#xe105;" horiz-adv-x="1333" 
d="M682 678h565v-678h-280l-43 133q-79 -158 -332 -158q-91 0 -170.5 22t-148 70.5t-117.5 120.5t-77 176.5t-28 233.5q0 305 159 469t464 164q205 0 350.5 -90t189.5 -244l-401 -166q-8 66 -44 107t-101 41q-181 0 -181 -283q0 -144 44 -214.5t147 -70.5q71 0 109 26.5
t38 68.5v10h-143v262zM272 1427q0 106 59 166t154 60q50 0 84.5 -12.5t83.5 -41.5q43 -25 63.5 -34t41.5 -9q67 0 67 91h205q21 -82 21 -144q0 -106 -59 -165.5t-154 -59.5q-50 0 -85 12.5t-83 40.5q-43 25 -63.5 34t-41.5 9q-67 0 -67 -90h-205q-21 82 -21 143z" />
    <glyph glyph-name="gtilde" unicode="&#xe106;" horiz-adv-x="1060" 
d="M512 971q148 0 268 -47q36 50 39 157l283 -98q-7 -77 -62 -121t-125 -51q62 -80 62 -174q0 -83 -36 -145t-101 -99.5t-147 -55.5t-181 -18q-82 0 -123 13q-35 -6 -35 -37t43 -31h289q184 0 282.5 -89.5t98.5 -246.5q0 -82 -32 -145t-84.5 -103t-128 -66t-156 -36
t-174.5 -10q-482 0 -482 213q0 77 48.5 117t144.5 51q-76 18 -121 73.5t-45 137.5q0 86 54.5 143.5t146.5 69.5q-84 30 -134.5 96t-50.5 168q0 163 123.5 248.5t335.5 85.5zM313 -150q0 -35 40.5 -50t138.5 -15q107 0 155.5 15.5t48.5 49.5q0 23 -21 31t-63 8h-237
q-62 0 -62 -39zM440 641q0 -46 18 -74t54 -28q35 0 53.5 27t18.5 75q0 102 -72 102t-72 -102zM166 1229q0 106 59 165.5t154 59.5q50 0 85 -12.5t83 -40.5q44 -26 64 -34.5t40 -8.5q68 0 68 90h205q20 -78 20 -143q0 -106 -59 -166t-154 -60q-50 0 -84.5 12.5t-83.5 41.5
q-44 26 -64 34.5t-40 8.5q-68 0 -68 -91h-205q-20 78 -20 144z" />
    <glyph glyph-name="Gcommaturnedabove" unicode="&#xe107;" horiz-adv-x="1333" 
d="M682 678h565v-678h-280l-43 133q-79 -158 -332 -158q-91 0 -170.5 22t-148 70.5t-117.5 120.5t-77 176.5t-28 233.5q0 305 159 469t464 164q205 0 350.5 -90t189.5 -244l-401 -166q-8 66 -44 107t-101 41q-181 0 -181 -283q0 -144 44 -214.5t147 -70.5q71 0 109 26.5
t38 68.5v10h-143v262zM467 1501q0 137 97 201.5t270 64.5v-118q-160 0 -160 -64q184 0 184 -147q0 -80 -53 -122t-129 -42q-98 0 -153.5 63t-55.5 164z" />
    <glyph glyph-name="gcommaturnedabove" unicode="&#xe108;" horiz-adv-x="1060" 
d="M512 971q148 0 268 -47q36 50 39 157l283 -98q-7 -77 -62 -121t-125 -51q62 -80 62 -174q0 -83 -36 -145t-101 -99.5t-147 -55.5t-181 -18q-82 0 -123 13q-35 -6 -35 -37t43 -31h289q184 0 282.5 -89.5t98.5 -246.5q0 -82 -32 -145t-84.5 -103t-128 -66t-156 -36
t-174.5 -10q-482 0 -482 213q0 77 48.5 117t144.5 51q-76 18 -121 73.5t-45 137.5q0 86 54.5 143.5t146.5 69.5q-84 30 -134.5 96t-50.5 168q0 163 123.5 248.5t335.5 85.5zM313 -150q0 -35 40.5 -50t138.5 -15q107 0 155.5 15.5t48.5 49.5q0 23 -21 31t-63 8h-237
q-62 0 -62 -39zM440 641q0 -46 18 -74t54 -28q35 0 53.5 27t18.5 75q0 102 -72 102t-72 -102zM319 1260q0 137 97 201.5t270 64.5v-119q-160 0 -160 -64q185 0 185 -147q0 -80 -53 -122t-130 -42q-97 0 -153 63.5t-56 164.5z" />
    <glyph glyph-name="Hmacronbelow" unicode="&#xe109;" horiz-adv-x="1335" 
d="M522 0h-420v1206h420v-413h291v413h420v-1206h-420v432h-291v-432zM1022 -393h-707v289h707v-289z" />
    <glyph glyph-name="hmacronbelow" unicode="&#xe10a;" horiz-adv-x="1165" 
d="M502 1368v-604q34 103 113 155t184 52q125 0 204.5 -77t79.5 -232v-662h-413v510q0 61 -16.5 90t-59.5 29q-41 0 -66.5 -35t-25.5 -111v-483h-414v1368h414zM940 -393h-707v289h707v-289z" />
    <glyph glyph-name="Jcaron" unicode="&#xe10b;" horiz-adv-x="1079" 
d="M580 1206h417v-800q0 -115 -36.5 -199.5t-104.5 -134.5t-157.5 -73.5t-202.5 -23.5q-197 0 -328 89t-168 280l397 148q3 -173 101 -173q82 0 82 99v788zM920 1284h-277l-324 334h367l51 -66q16 -20 25.5 -37.5t11.5 -25.5l2 -8h10q4 26 39 71l52 66h366z" />
    <glyph glyph-name="Kcedilla" unicode="&#xe10d;" horiz-adv-x="1298" 
d="M1298 0h-487l-229 438h-60v-438h-420v1206h420v-420h66l217 420h463l-322 -581zM903 -238q0 -92 -68 -143t-184 -51q-161 0 -252 72l56 155q59 -49 123 -49q53 0 53 41q0 51 -82 51l18 107q43 12 95 12q110 0 175.5 -49t65.5 -146z" />
    <glyph glyph-name="kcedilla" unicode="&#xe10e;" horiz-adv-x="1175" 
d="M913 508l263 -508h-463l-164 350h-47v-350h-414v1368h414v-715h47l125 293h463zM854 -238q0 -92 -68 -143t-184 -51q-161 0 -252 72l56 155q59 -49 122 -49q54 0 54 41q0 51 -82 51l18 107q44 12 94 12q110 0 176 -49t66 -146z" />
    <glyph glyph-name="Lcedilla" unicode="&#xe10f;" horiz-adv-x="993" 
d="M774 -238q0 -92 -68 -143t-184 -51q-161 0 -252 72l56 155q59 -49 123 -49q53 0 53 41q0 51 -82 51l24 162h-342v1206h420v-846h420v-360h-371l-6 -61q93 0 151 -45t58 -132z" />
    <glyph glyph-name="ocedilla" unicode="&#xe110;" horiz-adv-x="1114" 
d="M809 -238q0 -92 -68 -143t-184 -51q-161 0 -252 72l55 155q59 -49 123 -49q54 0 54 41q0 51 -82 51l20 142q-204 21 -321 148.5t-117 344.5q0 238 141 368t379 130t379 -130t141 -368q0 -226 -127.5 -355t-345.5 -141l-4 -38q93 0 151 -45t58 -132zM662 473
q0 102 -24.5 149.5t-80.5 47.5t-80 -47.5t-24 -149.5t24 -149.5t80 -47.5t80.5 47.5t24.5 149.5z" />
    <glyph glyph-name="Mmacron" unicode="&#xe111;" horiz-adv-x="1560" 
d="M893 219h-225l-70 148q-16 32 -34.5 77t-29.5 74l-10 29h-8q6 -102 6 -213v-334h-420v1206h457l125 -262q30 -63 53 -118.5t31 -79.5l8 -25h8q25 82 93 223l124 262h457v-1206h-420v334l6 213h-8q-38 -108 -73 -180zM1135 1284h-707v289h707v-289z" />
    <glyph glyph-name="mmacron" unicode="&#xe112;" horiz-adv-x="1677" 
d="M1032 754q24 100 104 158.5t183 58.5q127 0 201.5 -76t74.5 -233v-662h-413v516q0 60 -14 86.5t-50 26.5t-52.5 -34.5t-16.5 -111.5v-483h-414v516q0 60 -14 86.5t-50 26.5t-52.5 -34.5t-16.5 -111.5v-483h-414v946h365l51 -178q24 100 94.5 151.5t173.5 51.5
q219 0 260 -217zM1196 1055h-707v288h707v-288z" />
    <glyph glyph-name="Mcedilla" unicode="&#xe113;" horiz-adv-x="1560" 
d="M893 219h-225l-70 148q-16 32 -34.5 77t-29.5 74l-10 29h-8q6 -102 6 -213v-334h-420v1206h457l125 -262q30 -63 53 -118.5t31 -79.5l8 -25h8q25 82 93 223l124 262h457v-1206h-420v334l6 213h-8q-38 -108 -73 -180zM1032 -238q0 -92 -68 -143t-184 -51q-161 0 -252 72
l56 155q59 -49 123 -49q53 0 53 41q0 51 -82 51l18 107q44 12 95 12q110 0 175.5 -49t65.5 -146z" />
    <glyph glyph-name="mcedilla" unicode="&#xe114;" horiz-adv-x="1677" 
d="M1094 -238q0 -92 -68 -143t-184 -51q-161 0 -252 72l55 155q59 -49 123 -49q53 0 53 41q0 51 -82 51l25 162h-129v516q0 60 -14 86.5t-50 26.5t-52.5 -34.5t-16.5 -111.5v-483h-414v946h365l51 -178q24 100 94.5 151.5t173.5 51.5q219 0 260 -217q24 100 104 158.5
t183 58.5q127 0 201.5 -76t74.5 -233v-662h-413v516q0 60 -14 86.5t-50 26.5t-52.5 -34.5t-16.5 -111.5v-483h-158l-6 -61q93 0 151 -45t58 -132z" />
    <glyph glyph-name="Ndieresis" unicode="&#xe115;" horiz-adv-x="1366" 
d="M471 1206l242 -354q36 -51 67.5 -100.5t45.5 -73.5l14 -23h8q-4 98 -4 213v338h420v-1206h-349l-258 354q-35 48 -67.5 97t-47.5 73l-16 25h-8q4 -94 4 -248v-301h-420v1206h369zM252 1464q0 93 60 145t145 52t145 -52t60 -145q0 -92 -60 -143t-145 -51t-145 51t-60 143z
M702 1464q0 93 60 145t145 52t145 -52t60 -145q0 -92 -60 -143t-145 -51t-145 51t-60 143z" />
    <glyph glyph-name="ndieresis" unicode="&#xe116;" horiz-adv-x="1165" 
d="M453 946l51 -182q28 102 108.5 154.5t186.5 52.5q125 0 204.5 -77t79.5 -232v-662h-413v510q0 61 -16.5 90t-59.5 29q-41 0 -66.5 -35t-25.5 -111v-483h-414v946h365zM156 1208q0 93 59.5 145t144.5 52t145 -52t60 -145q0 -92 -60 -143t-145 -51t-144.5 51t-59.5 143z
M606 1208q0 93 60 145t145 52t145 -52t60 -145q0 -92 -60 -143t-145 -51t-145 51t-60 143z" />
    <glyph glyph-name="Nmacron" unicode="&#xe117;" horiz-adv-x="1366" 
d="M471 1206l242 -354q36 -51 67.5 -100.5t45.5 -73.5l14 -23h8q-4 98 -4 213v338h420v-1206h-349l-258 354q-35 48 -67.5 97t-47.5 73l-16 25h-8q4 -94 4 -248v-301h-420v1206h369zM1036 1284h-706v289h706v-289z" />
    <glyph glyph-name="nmacron" unicode="&#xe118;" horiz-adv-x="1165" 
d="M453 946l51 -182q28 102 108.5 154.5t186.5 52.5q125 0 204.5 -77t79.5 -232v-662h-413v510q0 61 -16.5 90t-59.5 29q-41 0 -66.5 -35t-25.5 -111v-483h-414v946h365zM940 1055h-707v288h707v-288z" />
    <glyph glyph-name="Ncedilla" unicode="&#xe119;" horiz-adv-x="1366" 
d="M471 1206l242 -354q36 -51 67.5 -100.5t45.5 -73.5l14 -23h8q-4 98 -4 213v338h420v-1206h-349l-258 354q-35 48 -67.5 97t-47.5 73l-16 25h-8q4 -94 4 -248v-301h-420v1206h369zM932 -238q0 -92 -68 -143t-184 -51q-161 0 -252 72l55 155q59 -49 123 -49q53 0 53 41
q0 51 -81 51l18 107q44 12 94 12q110 0 176 -49t66 -146z" />
    <glyph glyph-name="ncedilla" unicode="&#xe11a;" horiz-adv-x="1165" 
d="M453 946l51 -182q28 102 108.5 154.5t186.5 52.5q125 0 204.5 -77t79.5 -232v-662h-413v510q0 61 -16.5 90t-59.5 29q-41 0 -66.5 -35t-25.5 -111v-483h-414v946h365zM846 -238q0 -92 -68 -143t-184 -51q-161 0 -252 72l55 155q59 -49 123 -49q53 0 53 41q0 51 -81 51
l18 107q44 12 94 12q110 0 176 -49t66 -146z" />
    <glyph glyph-name="Ocommaturnedabove" unicode="&#xe11b;" horiz-adv-x="1318" 
d="M1268 602q0 -304 -159 -465.5t-450 -161.5t-449.5 161.5t-158.5 465.5q0 305 158.5 467t449.5 162t450 -162t159 -467zM829 602q0 140 -39 209.5t-131 69.5t-131 -69.5t-39 -209.5q0 -138 39 -207t131 -69t131 69t39 207zM465 1501q0 137 96.5 201.5t269.5 64.5v-118
q-159 0 -159 -64q184 0 184 -147q0 -80 -53 -122t-129 -42q-98 0 -153.5 63t-55.5 164z" />
    <glyph glyph-name="ocommaturnedabove" unicode="&#xe11c;" horiz-adv-x="1114" 
d="M37 473q0 238 141 368t379 130t379 -130t141 -368t-141 -368t-379 -130t-379 130t-141 368zM662 473q0 102 -24.5 149.5t-80.5 47.5t-80 -47.5t-24 -149.5t24 -149.5t80 -47.5t80.5 47.5t24.5 149.5zM362 1255q0 137 97.5 202t269.5 65v-119q-160 0 -160 -64
q185 0 185 -147q0 -80 -53 -122t-130 -42q-98 0 -153.5 63t-55.5 164z" />
    <glyph glyph-name="uni004F02D900AF" unicode="&#xe11d;" horiz-adv-x="1318" 
d="M1268 602q0 -304 -159 -465.5t-450 -161.5t-449.5 161.5t-158.5 465.5q0 305 158.5 467t449.5 162t450 -162t159 -467zM829 602q0 140 -39 209.5t-131 69.5t-131 -69.5t-39 -209.5q0 -138 39 -207t131 -69t131 69t39 207zM426 1458q0 100 68 155.5t165 55.5t165.5 -55.5
t68.5 -155.5t-68.5 -155.5t-165.5 -55.5t-165 55.5t-68 155.5zM1014 1688h-707v288h707v-288z" />
    <glyph glyph-name="Ocedilla" unicode="&#xe11f;" horiz-adv-x="1318" 
d="M911 -238q0 -92 -68 -143t-184 -51q-160 0 -251 72l55 155q59 -49 123 -49q53 0 53 41q0 51 -82 51l21 142q-253 22 -390 181t-137 441q0 305 158.5 467t449.5 162t450 -162t159 -467q0 -291 -146 -452t-415 -173l-5 -38q93 0 151 -45t58 -132zM829 602q0 140 -39 209.5
t-131 69.5t-131 -69.5t-39 -209.5q0 -138 39 -207t131 -69t131 69t39 207z" />
    <glyph glyph-name="Ounderlineaccent" unicode="&#xe121;" horiz-adv-x="1318" 
d="M1268 602q0 -304 -159 -465.5t-450 -161.5t-449.5 161.5t-158.5 465.5q0 305 158.5 467t449.5 162t450 -162t159 -467zM829 602q0 140 -39 209.5t-131 69.5t-131 -69.5t-39 -209.5q0 -138 39 -207t131 -69t131 69t39 207zM1014 -393h-707v289h707v-289z" />
    <glyph glyph-name="ounderlineaccent" unicode="&#xe122;" horiz-adv-x="1114" 
d="M37 473q0 238 141 368t379 130t379 -130t141 -368t-141 -368t-379 -130t-379 130t-141 368zM662 473q0 102 -24.5 149.5t-80.5 47.5t-80 -47.5t-24 -149.5t24 -149.5t80 -47.5t80.5 47.5t24.5 149.5zM911 -393h-706v289h706v-289z" />
    <glyph glyph-name="Pmacron" unicode="&#xe123;" horiz-adv-x="1181" 
d="M522 854v-221h101q49 0 74.5 25t25.5 85q0 111 -100 111h-101zM522 0h-420v1206h572q477 0 477 -458q0 -219 -128.5 -335t-348.5 -116h-152v-297zM899 1284h-706v289h706v-289z" />
    <glyph glyph-name="pmacron" unicode="&#xe124;" horiz-adv-x="1200" 
d="M502 485v-61q0 -73 29.5 -114.5t80.5 -41.5q69 0 97 50t28 153q0 91 -28.5 132.5t-87.5 41.5q-55 0 -87 -42t-32 -118zM502 111v-527h-414v1362h367l47 -174q28 93 103 146t179 53q181 0 280 -126.5t99 -348.5q0 -255 -107 -388t-302 -133q-90 0 -159.5 37.5t-92.5 98.5z
M979 1055h-707v288h707v-288z" />
    <glyph glyph-name="Rdoublegrave" unicode="&#xe125;" horiz-adv-x="1243" 
d="M1243 0h-461q-28 29 -41 60t-26 90l-21 94q-10 53 -34 73.5t-70 20.5h-76v-338h-412v1206h584q107 0 192.5 -20.5t152 -65t102.5 -121.5t36 -182q0 -271 -243 -313v-8q79 -12 122.5 -54t67.5 -125l45 -159q16 -58 33 -92t49 -66zM514 852v-197h123q102 0 102 101
q0 46 -26 71t-72 25h-127zM950 1284h-284l-187 340h395zM549 1284h-322l-241 340h430z" />
    <glyph glyph-name="rdoublegrave" unicode="&#xe126;" horiz-adv-x="884" 
d="M885 958l-56 -471q-33 23 -81.5 38.5t-92.5 15.5q-66 0 -109.5 -39t-43.5 -125v-377h-414v946h365l41 -268q13 123 93 205t214 82q37 0 84 -7zM870 1055h-284l-187 340h396zM469 1055h-322l-241 340h430z" />
    <glyph glyph-name="Rcedilla" unicode="&#xe127;" horiz-adv-x="1243" 
d="M1243 0h-461q-28 29 -41 60t-26 90l-21 94q-10 53 -34 73.5t-70 20.5h-76v-338h-412v1206h584q107 0 192.5 -20.5t152 -65t102.5 -121.5t36 -182q0 -271 -243 -313v-8q79 -12 122.5 -54t67.5 -125l45 -159q16 -58 33 -92t49 -66zM514 852v-197h123q102 0 102 101
q0 46 -26 71t-72 25h-127zM895 -238q0 -92 -68 -143t-184 -51q-161 0 -252 72l55 155q59 -49 123 -49q54 0 54 41q0 51 -82 51l18 107q43 12 94 12q110 0 176 -49t66 -146z" />
    <glyph glyph-name="rcedilla" unicode="&#xe128;" horiz-adv-x="884" 
d="M553 -238q0 -92 -68 -143t-184 -51q-161 0 -252 72l55 155q59 -49 123 -49q54 0 54 41q0 51 -82 51l24 162h-135v946h365l41 -268q13 123 93 205t214 82q37 0 84 -7l-56 -471q-33 23 -81.5 38.5t-92.5 15.5q-66 0 -109.5 -39t-43.5 -125v-377h-152l-6 -61q93 0 151 -45
t58 -132z" />
    <glyph glyph-name="Tcedilla" unicode="&#xe129;" horiz-adv-x="1099" 
d="M801 -238q0 -92 -68 -143t-184 -51q-161 0 -252 72l55 155q59 -49 123 -49q53 0 53 41q0 51 -82 51l25 162h-135v846h-295v360h1018v-360h-303v-846h-158l-6 -61q93 0 151 -45t58 -132z" />
    </font>
</defs>
</svg>
